<?xml version="1.0" standalone="no"?>
<!DOCTYPE svg PUBLIC "-//W3C//DTD SVG 1.1//EN" "http://www.w3.org/Graphics/SVG/1.1/DTD/svg11.dtd" >
<svg xmlns="http://www.w3.org/2000/svg" xmlns:xlink="http://www.w3.org/1999/xlink" version="1.1">
<metadata>
Created by FontForge 20170731 at Sat Dec 14 20:12:05 2013
 By Aleksey,,,
Copyright (c) 2011 by Matthieu Cortat. All rights reserved.
</metadata>
<defs>
<font id="Louize-Bold" horiz-adv-x="250" >
  <font-face 
    font-family="Louize"
    font-weight="700"
    font-stretch="normal"
    units-per-em="1000"
    panose-1="2 10 8 2 5 0 0 2 0 3"
    ascent="732"
    descent="-268"
    x-height="433"
    cap-height="703"
    bbox="-156 -276 1514 1104"
    underline-thickness="50"
    underline-position="-200"
    unicode-range="U+0020-FB06"
  />
<missing-glyph horiz-adv-x="300" 
 />
    <glyph glyph-name="ff" unicode="ff" horiz-adv-x="582" 
d="M472 514v-80q20 0 40.5 1t40.5 2t29 1l8 -20l-8 -46h-110v-190q0 -40 4 -93q2 -30 12.5 -43.5t37.5 -23.5l-3 -23q-41 3 -111 3q-62 0 -102 -3l-3 23q27 11 36 24.5t10 42.5q2 80 2 93v115q0 44 -12.5 59.5t-49.5 15.5h-99v-190q0 -40 4 -93q2 -30 12.5 -43.5t37.5 -23.5
l-3 -23q-41 3 -111 3q-62 0 -102 -3l-3 23q27 11 36 24.5t10 42.5q2 80 2 93v147q0 31 -7 41.5t-37 16.5l-4 32q30 11 40 34q7 17 8 24q2 6 7 33l6 34q37 199 161 199q50 0 82 -26.5t32 -65.5q0 -25 -15.5 -42.5t-39.5 -17.5q-23 0 -36.5 12t-25.5 42q-11 29 -31 29
q-29 0 -29 -52q0 -18 3 -65q3 -46 3 -88v-35h161q6 96 10 110q49 199 198 199q61 0 99.5 -29t38.5 -73q0 -25 -15.5 -42.5t-39.5 -17.5q-48 0 -67 54q-6 17 -8.5 22.5t-7 13t-9.5 9.5t-14 4q-68 0 -68 -170z" />
    <glyph glyph-name="fi" unicode="fi" horiz-adv-x="546" 
d="M306 743q77 0 122 -29.5t45 -78.5q0 -27 -17.5 -44.5t-46.5 -17.5q-56 0 -75 61q-9 28 -19.5 39t-31.5 11q-89 0 -89 -170v-80h155q64 0 107 25l21 -8q-5 -117 -5 -181v-88q0 -13 2 -93q1 -30 8 -43.5t29 -23.5l-3 -23q-40 3 -96 3q-62 0 -102 -3l-3 23q27 11 36 24.5
t10 42.5q2 80 2 93v37q0 51 -3 94q-2 32 -17.5 45.5t-52.5 13.5h-88v-190q0 -40 4 -93q2 -30 12.5 -43.5t37.5 -23.5l-3 -23q-41 3 -111 3q-62 0 -102 -3l-3 23q27 11 36 24.5t10 42.5q2 80 2 93v147q0 31 -7 41.5t-37 16.5l-4 32q29 10 39 34q7 15 8 25q2 8 6 33t6 33
q21 94 79 146.5t139 52.5z" />
    <glyph glyph-name="fl" unicode="fl" horiz-adv-x="541" 
d="M472 563v-381q0 -13 2 -93q1 -30 8 -43.5t29 -23.5l-3 -23q-40 3 -96 3q-62 0 -102 -3l-3 23q27 11 36 24.5t10 42.5q2 80 2 93v337q0 51 -4 80q-9 85 -68 85q-89 0 -89 -170v-80q20 0 40.5 1t40.5 2t29 1l8 -20l-8 -46h-110v-190q0 -40 4 -93q2 -30 12.5 -43.5
t37.5 -23.5l-3 -23q-41 3 -111 3q-62 0 -102 -3l-3 23q27 11 36 24.5t10 42.5q2 80 2 93v147q0 31 -7 41.5t-37 16.5l-4 32q29 10 39 34q7 15 8 25q2 8 6 33t6 33q21 94 79 146.5t139 52.5q60 0 98 -23l52 32l21 -8q-5 -93 -5 -181z" />
    <glyph glyph-name="ffi" unicode="ffi" horiz-adv-x="824" 
d="M33 387l-4 32q30 11 40 34q7 17 8 24q2 6 7 33l6 34q37 199 161 199q50 0 82 -26.5t32 -65.5q0 -25 -15.5 -42.5t-39.5 -17.5q-23 0 -36.5 12t-25.5 42q-11 29 -31 29q-29 0 -29 -52q0 -18 3 -65q3 -46 3 -88v-35h161q0 60 12 110q24 95 79.5 147t137.5 52
q77 0 122 -29.5t45 -78.5q0 -27 -17.5 -44.5t-46.5 -17.5q-56 0 -75 61q-9 28 -19.5 39t-31.5 11q-89 0 -89 -170v-80h155q64 0 107 25l21 -8q-5 -117 -5 -181v-88q0 -13 2 -93q1 -30 8 -43.5t29 -23.5l-3 -23q-40 3 -96 3q-62 0 -102 -3l-3 23q27 11 36 24.5t10 42.5
q2 80 2 93v37q0 51 -3 94q-2 32 -17.5 45.5t-52.5 13.5h-88v-190q0 -40 4 -93q2 -30 12.5 -43.5t37.5 -23.5l-3 -23q-41 3 -111 3q-62 0 -102 -3l-3 23q27 11 36 24.5t10 42.5q2 80 2 93v115q0 44 -12.5 59.5t-49.5 15.5h-99v-190q0 -40 4 -93q2 -30 12.5 -43.5t37.5 -23.5
l-3 -23q-41 3 -111 3q-62 0 -102 -3l-3 23q27 11 36 24.5t10 42.5q2 80 2 93v147q0 31 -7 41.5t-37 16.5z" />
    <glyph glyph-name="ffl" unicode="ffl" horiz-adv-x="819" 
d="M33 387l-4 32q30 11 40 34q7 17 8 24q2 6 7 33l6 34q37 199 161 199q50 0 82 -26.5t32 -65.5q0 -25 -15.5 -42.5t-39.5 -17.5q-23 0 -36.5 12t-25.5 42q-11 29 -31 29q-29 0 -29 -52q0 -18 3 -65q3 -46 3 -88v-35h161q2 67 12 110q49 199 211 199q66 0 104 -23l52 32
l21 -8q-5 -93 -5 -181v-381q0 -13 2 -93q1 -30 8 -43.5t29 -23.5l-3 -23q-40 3 -96 3q-62 0 -102 -3l-3 23q27 11 36 24.5t10 42.5q2 80 2 93v337q0 51 -4 80q-9 85 -68 85q-89 0 -89 -170v-80q20 0 40.5 1t40.5 2t29 1l8 -20l-8 -46h-110v-190q0 -40 4 -93
q2 -30 12.5 -43.5t37.5 -23.5l-3 -23q-41 3 -111 3q-62 0 -102 -3l-3 23q27 11 36 24.5t10 42.5q2 80 2 93v115q0 44 -12.5 59.5t-49.5 15.5h-99v-190q0 -40 4 -93q2 -30 12.5 -43.5t37.5 -23.5l-3 -23q-41 3 -111 3q-62 0 -102 -3l-3 23q27 11 36 24.5t10 42.5q2 80 2 93
v147q0 31 -7 41.5t-37 16.5z" />
    <glyph glyph-name="longsl" unicode="&#x17f;i" horiz-adv-x="541" 
d="M194 514v-332q0 -40 4 -93q2 -30 12.5 -43.5t37.5 -23.5l-3 -23q-41 3 -111 3q-62 0 -102 -3l-3 23q27 11 36 24.5t10 42.5q2 80 2 93v147q0 31 -7 41.5t-37 16.5l-4 32q34 11 43 44q2 5 7 40q4 24 8 41q21 93 79.5 146t139.5 53q60 0 98 -23l52 32l21 -8q-5 -93 -5 -181
v-381q0 -13 2 -93q1 -30 8 -43.5t29 -23.5l-3 -23q-40 3 -96 3q-62 0 -102 -3l-3 23q27 11 36 24.5t10 42.5q2 80 2 93v337q0 51 -4 80q-9 85 -68 85q-89 0 -89 -170z" />
    <glyph glyph-name="flslash" unicode="f&#x142;" horiz-adv-x="581" 
d="M299 207l-30 54l96 58v200q0 51 -4 80q-9 85 -73 85q-94 0 -94 -170v-80q20 0 40.5 1t40.5 2t29 1l8 -20l-8 -46h-110v-190q0 -40 4 -93q2 -30 12.5 -43.5t37.5 -23.5l-3 -23q-41 3 -111 3q-62 0 -102 -3l-3 23q27 11 36 24.5t10 42.5q2 80 2 93v147q0 31 -7 41.5
t-37 16.5l-4 32q29 10 39 34q7 15 8 25q2 8 6 33t6 33q21 94 80 146.5t143 52.5q65 0 103 -23l52 32l21 -8q-5 -93 -5 -181v-180l78 48l31 -54l-109 -66v-129q0 -13 2 -93q1 -30 8 -43.5t29 -23.5l-3 -23q-40 3 -96 3q-62 0 -102 -3l-3 23q27 11 36 24.5t10 42.5q2 80 2 93
v65z" />
    <glyph glyph-name="fthorn" unicode="f&#xfe;" horiz-adv-x="813" 
d="M574 38q42 0 68.5 41t26.5 115q0 82 -30.5 128.5t-79.5 46.5q-40 0 -63.5 -30.5t-23.5 -84.5v-91q0 -62 27.5 -93.5t74.5 -31.5zM355 -81v600q0 51 -4 80q-9 85 -68 85q-89 0 -89 -170v-80q20 0 40.5 1t40.5 2t29 1l8 -20l-8 -46h-110v-190q0 -40 4 -93q2 -30 12.5 -43.5
t37.5 -23.5l-3 -23q-41 3 -111 3q-62 0 -102 -3l-3 23q27 11 36 24.5t10 42.5q2 80 2 93v147q0 31 -7 41.5t-37 16.5l-4 32q29 10 39 34q7 15 8 25q2 8 6 33t6 33q21 94 79 146.5t139 52.5q60 0 98 -23l52 32l21 -8q-5 -93 -5 -181v-195h2q41 83 130 83q78 0 131 -62
q54 -61 54 -165q0 -108 -61 -175q-62 -66 -149 -66q-63 0 -107 32v-96q0 -40 4 -93q2 -30 12.5 -43.5t37.5 -23.5l-3 -23q-41 3 -111 3q-62 0 -102 -3l-3 23q27 11 36 24.5t10 42.5q2 80 2 93z" />
    <glyph glyph-name="fb" unicode="fb" horiz-adv-x="802" 
d="M547 39q50 0 77.5 46t27.5 127q0 69 -26 110t-71 41q-83 0 -83 -129v-97q0 -98 75 -98zM472 563v-208l1 -1q48 97 139 97q72 0 119 -62t47 -154q0 -113 -64 -183q-63 -70 -171 -70q-97 0 -188 42v495q0 51 -4 80q-9 85 -68 85q-89 0 -89 -170v-80q20 0 40.5 1t40.5 2
t29 1l8 -20l-8 -46h-110v-190q0 -40 4 -93q2 -30 12.5 -43.5t37.5 -23.5l-3 -23q-41 3 -111 3q-62 0 -102 -3l-3 23q27 11 36 24.5t10 42.5q2 80 2 93v147q0 31 -7 41.5t-37 16.5l-4 32q29 10 39 34q7 15 8 25q2 8 6 33t6 33q21 94 79 146.5t139 52.5q60 0 98 -23l52 32
l21 -8q-5 -93 -5 -181z" />
    <glyph glyph-name="fh" unicode="fh" horiz-adv-x="810" 
d="M472 563v-201q41 89 130 89q74 0 112 -60q23 -38 23 -97v-112q0 -13 2 -93q1 -29 10.5 -42.5t36.5 -24.5l-3 -23q-41 3 -102 3q-55 0 -96 -3l-3 23q21 10 28 23.5t8 43.5q2 80 2 93v109q0 34 -17 53t-48 19q-38 0 -60.5 -24t-22.5 -63v-94q0 -13 2 -93q1 -30 8 -43.5
t29 -23.5l-3 -23q-40 3 -96 3q-62 0 -102 -3l-3 23q27 11 36 24.5t10 42.5q2 80 2 93v337q0 51 -4 80q-9 85 -68 85q-89 0 -89 -170v-80q20 0 40.5 1t40.5 2t29 1l8 -20l-8 -46h-110v-190q0 -40 4 -93q2 -30 12.5 -43.5t37.5 -23.5l-3 -23q-41 3 -111 3q-62 0 -102 -3l-3 23
q27 11 36 24.5t10 42.5q2 80 2 93v147q0 31 -7 41.5t-37 16.5l-4 32q29 10 39 34q7 15 8 25q2 8 6 33t6 33q21 94 79 146.5t139 52.5q60 0 98 -23l52 32l21 -8q-5 -93 -5 -181z" />
    <glyph glyph-name="fj" unicode="fj" horiz-adv-x="530" 
d="M355 -31v250q0 51 -3 94q-2 32 -17.5 45.5t-52.5 13.5h-88v-190q0 -40 4 -93q2 -30 12.5 -43.5t37.5 -23.5l-3 -23q-41 3 -111 3q-62 0 -102 -3l-3 23q27 11 36 24.5t10 42.5q2 80 2 93v147q0 31 -7 41.5t-37 16.5l-4 32q29 10 39 34q7 15 8 25q2 8 6 33t6 33
q21 94 79 146.5t139 52.5q77 0 122 -29.5t45 -78.5q0 -27 -17.5 -44.5t-46.5 -17.5q-56 0 -75 61q-9 28 -19.5 39t-31.5 11q-89 0 -89 -170v-80h155q64 0 107 25l21 -8q-5 -117 -5 -181v-137q0 -76 3 -142q-11 -178 -161 -255l-23 26q36 46 50 91q14 44 14 116z" />
    <glyph glyph-name="fk" unicode="fk" horiz-adv-x="768" 
d="M579 76l-94 166l45 44q53 53 53 83q0 23 -33 39l4 25q43 -3 94 -3q44 0 87 3l3 -23q-25 -18 -83 -71l-63 -60l120 -197q21 -33 30.5 -44t25.5 -19v-21q-20 -7 -37 -7q-104 0 -152 85zM472 563v-381q0 -13 2 -93q1 -30 8 -43.5t29 -23.5l-3 -23q-40 3 -96 3q-62 0 -102 -3
l-3 23q27 11 36 24.5t10 42.5q2 80 2 93v337q0 51 -4 80q-9 85 -68 85q-89 0 -89 -170v-80q20 0 40.5 1t40.5 2t29 1l8 -20l-8 -46h-110v-190q0 -40 4 -93q2 -30 12.5 -43.5t37.5 -23.5l-3 -23q-41 3 -111 3q-62 0 -102 -3l-3 23q27 11 36 24.5t10 42.5q2 80 2 93v147
q0 31 -7 41.5t-37 16.5l-4 32q29 10 39 34q7 15 8 25q2 8 6 33t6 33q21 94 79 146.5t139 52.5q60 0 98 -23l52 32l21 -8q-5 -93 -5 -181z" />
    <glyph glyph-name="fagrave" unicode="f&#xe0;" horiz-adv-x="730" 
d="M311 591q-23 0 -36.5 12t-25.5 42q-11 29 -31 29q-29 0 -29 -52q0 -18 3 -65q3 -46 3 -88v-35q20 0 40 1l40 2t29 1l8 -20l-8 -46h-110v-190q0 -40 4 -93q2 -30 12.5 -43.5t37.5 -23.5l-3 -23q-41 3 -111 3q-62 0 -102 -3l-3 23q27 11 36 24.5t10 42.5q2 80 2 93v147
q0 31 -7 41.5t-37 16.5l-4 32q30 11 40 34q7 17 8 24q3 11 6 33l6 34q37 199 163 199q50 0 82 -26.5t32 -65.5q0 -25 -15.5 -42.5t-39.5 -17.5zM550 170v29q-28 -11 -46 -20q-66 -35 -66 -79q0 -17 10.5 -27.5t28.5 -10.5q30 0 51.5 29.5t21.5 78.5zM550 253v25q0 40 -21 61
q-21 22 -57 22q-46 0 -96 -35l-31 43q21 34 65 57t93 23q85 0 128 -54q35 -44 35 -118v-79q0 -47 1 -68q1 -58 48 -86l-13 -49q-18 -3 -34 -3q-96 0 -111 78h-2q-38 -86 -124 -86q-47 0 -76 28t-29 71q0 67 68 108q48 30 156 62zM538 672l35 -183l-35 -13l-106 149
q-22 31 -22 62q0 26 17 44.5t42 18.5q54 0 69 -78z" />
    <glyph glyph-name="facircumflex" unicode="f&#xe2;" horiz-adv-x="730" 
d="M550 170v29q-28 -11 -46 -20q-66 -35 -66 -79q0 -17 10.5 -27.5t28.5 -10.5q30 0 51.5 29.5t21.5 78.5zM550 253v25q0 40 -21 61q-21 22 -57 22q-46 0 -96 -35l-31 43q21 34 65 57t93 23q85 0 128 -54q35 -44 35 -118v-79q0 -47 1 -68q1 -58 48 -86l-13 -49
q-18 -3 -34 -3q-96 0 -111 78h-2q-38 -86 -124 -86q-47 0 -76 28t-29 71q0 67 68 108q48 30 156 62zM407 495l-31 25l101 200q13 27 35 27t35 -27l101 -200l-31 -25l-105 110zM311 591q-23 0 -36.5 12t-25.5 42q-11 29 -31 29q-29 0 -29 -52q0 -18 3 -65q3 -46 3 -88v-35
q20 0 40 1l40 2t29 1l8 -20l-8 -46h-110v-190q0 -40 4 -93q2 -30 12.5 -43.5t37.5 -23.5l-3 -23q-41 3 -111 3q-62 0 -102 -3l-3 23q27 11 36 24.5t10 42.5q2 80 2 93v147q0 31 -7 41.5t-37 16.5l-4 32q30 11 40 34q7 17 8 24q3 11 6 33l6 34q37 199 163 199q50 0 82 -26.5
t32 -65.5q0 -25 -15.5 -42.5t-39.5 -17.5z" />
    <glyph glyph-name="fatilde" unicode="f&#xe3;" horiz-adv-x="750" 
d="M311 591q-23 0 -36.5 12t-25.5 42q-11 29 -31 29q-29 0 -29 -52q0 -18 3 -65q3 -46 3 -88v-35q20 0 40 1l40 2t29 1l8 -20l-8 -46h-110v-190q0 -40 4 -93q2 -30 12.5 -43.5t37.5 -23.5l-3 -23q-41 3 -111 3q-62 0 -102 -3l-3 23q27 11 36 24.5t10 42.5q2 80 2 93v147
q0 31 -7 41.5t-37 16.5l-4 32q30 11 40 34q7 17 8 24q3 11 6 33l6 34q37 199 163 199q50 0 82 -26.5t32 -65.5q0 -25 -15.5 -42.5t-39.5 -17.5zM570 170v29q-28 -11 -46 -20q-66 -35 -66 -79q0 -17 10.5 -27.5t28.5 -10.5q30 0 51.5 29.5t21.5 78.5zM570 253v25q0 40 -21 61
q-21 22 -57 22q-46 0 -96 -35l-31 43q21 34 65 57t93 23q85 0 128 -54q35 -44 35 -118v-79q0 -47 1 -68q1 -58 48 -86l-13 -49q-18 -3 -34 -3q-96 0 -111 78h-2q-38 -86 -124 -86q-47 0 -76 28t-29 71q0 67 68 108q48 30 156 62zM473 622q-32 0 -67 -26l-22 14
q14 46 45.5 73.5t67.5 27.5q27 0 62 -19q17 -8 33 -17q13 -6 35 -6q33 0 70 27l22 -16q-36 -99 -117 -99q-27 0 -63 18q-44 23 -66 23z" />
    <glyph glyph-name="faring" unicode="f&#xe5;" horiz-adv-x="730" 
d="M311 591q-23 0 -36.5 12t-25.5 42q-11 29 -31 29q-29 0 -29 -52q0 -18 3 -65q3 -46 3 -88v-35q20 0 40 1l40 2t29 1l8 -20l-8 -46h-110v-190q0 -40 4 -93q2 -30 12.5 -43.5t37.5 -23.5l-3 -23q-41 3 -111 3q-62 0 -102 -3l-3 23q27 11 36 24.5t10 42.5q2 80 2 93v147
q0 31 -7 41.5t-37 16.5l-4 32q30 11 40 34q7 17 8 24q3 11 6 33l6 34q37 199 163 199q50 0 82 -26.5t32 -65.5q0 -25 -15.5 -42.5t-39.5 -17.5zM550 170v29q-28 -11 -46 -20q-66 -35 -66 -79q0 -17 10.5 -27.5t28.5 -10.5q30 0 51.5 29.5t21.5 78.5zM550 253v25q0 40 -21 61
q-21 22 -57 22q-46 0 -96 -35l-31 43q21 34 65 57t93 23q85 0 128 -54q35 -44 35 -118v-79q0 -47 1 -68q1 -58 48 -86l-13 -49q-18 -3 -34 -3q-96 0 -111 78h-2q-38 -86 -124 -86q-47 0 -76 28t-29 71q0 67 68 108q48 30 156 62zM398 643q0 51 36 88q37 37 88 37t88 -37
t37 -88t-37 -88q-38 -36 -88 -36q-52 0 -88 36t-36 88zM521 588q23 0 38.5 15.5t15.5 38.5t-15.5 39.5t-38.5 16.5q-22 0 -37 -16.5t-15 -39.5t15 -38.5t37 -15.5z" />
    <glyph glyph-name="fedieresis" unicode="f&#xeb;" horiz-adv-x="774" 
d="M311 591q-23 0 -36.5 12t-25.5 42q-11 29 -31 29q-29 0 -29 -52q0 -18 3 -65q3 -46 3 -88v-35q20 0 40 1l40 2t29 1l8 -20l-8 -46h-110v-190q0 -40 4 -93q2 -30 12.5 -43.5t37.5 -23.5l-3 -23q-41 3 -111 3q-62 0 -102 -3l-3 23q27 11 36 24.5t10 42.5q2 80 2 93v147
q0 31 -7 41.5t-37 16.5l-4 32q30 11 40 34q7 17 8 24q3 11 6 33l6 34q37 199 163 199q50 0 82 -26.5t32 -65.5q0 -25 -15.5 -42.5t-39.5 -17.5zM328 208q0 105 65 175q66 69 161 69q85 0 137 -49t52 -126q0 -13 -2 -29h-297q-1 -4 -1 -14q0 -65 34.5 -105.5t91.5 -40.5
q46 0 76.5 17t64.5 61l32 -20q-62 -162 -192 -162q-96 0 -159 66t-63 158zM450 300h171q-3 94 -75 94q-34 0 -60.5 -26t-35.5 -68zM407 651q0 29 20 49t50 20q29 0 49.5 -20t20.5 -49q0 -30 -20.5 -50.5t-49.5 -20.5q-30 0 -50 20.5t-20 50.5zM589 651q0 29 19.5 49t49.5 20
t50.5 -20t20.5 -49q0 -30 -20.5 -50.5t-50.5 -20.5t-49.5 20.5t-19.5 50.5z" />
    <glyph glyph-name="fiacute" unicode="f&#xed;" horiz-adv-x="546" 
d="M33 387l-4 32q33 11 43 43q2 6 7 41l7 41q37 199 166 199q50 0 83 -26.5t33 -65.5q0 -25 -16.5 -42.5t-40.5 -17.5q-43 0 -65 54q-12 29 -30 29q-27 0 -27 -52q0 -18 3 -65q3 -46 3 -88v-35h154q64 0 107 25l21 -8q-5 -117 -5 -181v-88q0 -13 2 -93q1 -30 8 -43.5
t29 -23.5l-3 -23q-40 3 -96 3q-62 0 -102 -3l-3 23q27 11 36 24.5t10 42.5q2 80 2 93v37q0 51 -3 94q-2 32 -17.5 45.5t-52.5 13.5h-88v-190q0 -40 4 -93q2 -30 12.5 -43.5t37.5 -23.5l-3 -23q-41 3 -111 3q-62 0 -102 -3l-3 23q27 11 36 24.5t10 42.5q2 80 2 93v147
q0 31 -7 41.5t-37 16.5zM410 476l-35 13l35 183q15 78 69 78q25 0 42 -18.5t17 -44.5q0 -31 -22 -62z" />
    <glyph glyph-name="figrave" unicode="f&#xec;" horiz-adv-x="546" 
d="M33 387l-4 32q29 10 39 34q7 15 8 25q2 8 6 33t6 33q21 96 72 147.5t126 51.5q63 0 96.5 -26t45.5 -85l30 -143l-35 -13l-94 147q-21 35 -36.5 48t-32.5 13q-65 0 -65 -170v-80h154q64 0 107 25l21 -8q-5 -117 -5 -181v-88q0 -13 2 -93q1 -30 8 -43.5t29 -23.5l-3 -23
q-40 3 -96 3q-62 0 -102 -3l-3 23q27 11 36 24.5t10 42.5q2 80 2 93v37q0 51 -3 94q-2 32 -17.5 45.5t-52.5 13.5h-88v-190q0 -40 4 -93q2 -30 12.5 -43.5t37.5 -23.5l-3 -23q-41 3 -111 3q-62 0 -102 -3l-3 23q27 11 36 24.5t10 42.5q2 80 2 93v147q0 31 -7 41.5t-37 16.5z
" />
    <glyph glyph-name="ficircumflex" unicode="f&#xee;" horiz-adv-x="606" 
d="M311 591q-23 0 -36.5 12t-25.5 42q-11 29 -31 29q-29 0 -29 -52q0 -18 3 -65q3 -46 3 -88v-35q20 0 40 1l40 2t29 1l8 -20l-8 -46h-110v-190q0 -40 4 -93q2 -30 12.5 -43.5t37.5 -23.5l-3 -23q-41 3 -111 3q-62 0 -102 -3l-3 23q27 11 36 24.5t10 42.5q2 80 2 93v147
q0 31 -7 41.5t-37 16.5l-4 32q30 11 40 34q7 17 8 24q3 11 6 33l6 34q37 199 163 199q50 0 82 -26.5t32 -65.5q0 -25 -15.5 -42.5t-39.5 -17.5zM532 263v-81q0 -13 2 -93q1 -30 8 -43.5t29 -23.5l-3 -23q-40 3 -96 3q-62 0 -102 -3l-3 23q27 11 36 24.5t10 42.5q2 80 2 93
v37q-2 94 -8 113t-44 27v21q73 24 153 72l21 -8q-5 -93 -5 -181zM372 495l-31 25l101 200q14 27 35 27t35 -27l101 -200l-31 -25l-105 110z" />
    <glyph glyph-name="fidieresis" unicode="f&#xef;" horiz-adv-x="576" 
d="M502 263v-81q0 -53 2 -93q2 -31 9 -44t28 -23l-3 -23q-40 3 -96 3q-62 0 -102 -3l-3 23q8 4 13.5 7l11 6t8.5 8t5.5 8t4 11.5t2.5 14t1.5 19t0.5 22.5t0.5 29t0.5 35v37q-2 94 -8 113t-44 27v21q73 24 153 72l21 -8q-5 -93 -5 -181zM458 651q0 29 19.5 49t49.5 20
t50.5 -20t20.5 -49q0 -30 -20.5 -50.5t-50.5 -20.5t-49.5 20.5t-19.5 50.5zM355 581q-51 0 -70 54q-3 7 -6 16.5t-4.5 13.5t-4.5 8.5t-6.5 6t-9.5 1.5q-59 0 -59 -167v-80q20 0 40 1l40 2t29 1l8 -20l-8 -46h-110v-190q0 -40 4 -93q2 -30 12.5 -43.5t37.5 -23.5l-3 -23
q-41 3 -111 3q-62 0 -102 -3l-3 23q27 11 36 24.5t10 42.5q2 80 2 93v147q0 31 -7 41.5t-37 16.5l-4 32q29 10 39 34q7 15 8 25q2 8 6 33t6 33q21 96 72 147.5t126 51.5q60 0 95.5 -27.5t35.5 -72.5q0 -27 -17.5 -44.5t-44.5 -17.5z" />
    <glyph glyph-name="fodieresis" unicode="f&#xf6;" horiz-adv-x="829" 
d="M311 591q-23 0 -36.5 12t-25.5 42q-11 29 -31 29q-29 0 -29 -52q0 -18 3 -65q3 -46 3 -88v-35q20 0 40 1l40 2t29 1l8 -20l-8 -46h-110v-190q0 -40 4 -93q2 -30 12.5 -43.5t37.5 -23.5l-3 -23q-41 3 -111 3q-62 0 -102 -3l-3 23q27 11 36 24.5t10 42.5q2 80 2 93v147
q0 31 -7 41.5t-37 16.5l-4 32q30 11 40 34q7 17 8 24q3 11 6 33l6 34q37 199 163 199q50 0 82 -26.5t32 -65.5q0 -25 -15.5 -42.5t-39.5 -17.5zM563 393q-50 0 -79.5 -44t-29.5 -124q0 -87 31.5 -135.5t86.5 -48.5q49 0 77.5 44.5t28.5 124.5q0 83 -34 132q-33 51 -81 51z
M326 217q0 97 69 165q69 69 171 69q106 0 173 -67q68 -68 68 -167q0 -98 -68 -166t-168 -68q-109 0 -177 67q-68 68 -68 167zM415 651q0 29 20 49t50 20q29 0 49.5 -20t20.5 -49q0 -30 -20.5 -50.5t-49.5 -20.5q-30 0 -50 20.5t-20 50.5zM597 651q0 29 19.5 49t49.5 20
t50.5 -20t20.5 -49q0 -30 -20.5 -50.5t-50.5 -20.5t-49.5 20.5t-19.5 50.5z" />
    <glyph glyph-name="fotilde" unicode="f&#xf5;" horiz-adv-x="829" 
d="M311 591q-23 0 -36.5 12t-25.5 42q-11 29 -31 29q-29 0 -29 -52q0 -18 3 -65q3 -46 3 -88v-35q20 0 40 1l40 2t29 1l8 -20l-8 -46h-110v-190q0 -40 4 -93q2 -30 12.5 -43.5t37.5 -23.5l-3 -23q-41 3 -111 3q-62 0 -102 -3l-3 23q27 11 36 24.5t10 42.5q2 80 2 93v147
q0 31 -7 41.5t-37 16.5l-4 32q30 11 40 34q7 17 8 24q3 11 6 33l6 34q37 199 163 199q50 0 82 -26.5t32 -65.5q0 -25 -15.5 -42.5t-39.5 -17.5zM563 393q-50 0 -79.5 -44t-29.5 -124q0 -87 31.5 -135.5t86.5 -48.5q49 0 77.5 44.5t28.5 124.5q0 83 -34 132q-33 51 -81 51z
M326 217q0 97 69 165q69 69 171 69q106 0 173 -67q68 -68 68 -167q0 -98 -68 -166t-168 -68q-109 0 -177 67q-68 68 -68 167zM497 622q-32 0 -67 -26l-22 14q14 46 45.5 73.5t67.5 27.5q27 0 62 -19q17 -8 33 -17q13 -6 35 -6q33 0 70 27l22 -16q-36 -99 -117 -99
q-27 0 -63 18q-44 23 -66 23z" />
    <glyph glyph-name="futilde" unicode="f&#x169;" horiz-adv-x="830" 
d="M311 591q-23 0 -36.5 12t-25.5 42q-11 29 -31 29q-29 0 -29 -52q0 -18 3 -65q3 -46 3 -88v-35q20 0 40 1l40 2t29 1l8 -20l-8 -46h-110v-190q0 -40 4 -93q2 -30 12.5 -43.5t37.5 -23.5l-3 -23q-41 3 -111 3q-62 0 -102 -3l-3 23q27 11 36 24.5t10 42.5q2 80 2 93v147
q0 31 -7 41.5t-37 16.5l-4 32q30 11 40 34q7 17 8 24q3 11 6 33l6 34q37 199 163 199q50 0 82 -26.5t32 -65.5q0 -25 -15.5 -42.5t-39.5 -17.5zM754 257v-50q2 -94 8 -113t44 -27v-21q-68 -26 -141 -62l-22 5l-3 81l-3 1q-48 -89 -128 -89q-72 0 -110 60q-23 38 -23 97v100
q0 63 -3 95q-2 30 -12.5 45t-35.5 27l3 26q88 1 172 5q-7 -111 -7 -180v-115q0 -72 63 -72q38 0 59.5 23.5t21.5 63.5v82q0 63 -3 95q-2 30 -12.5 45t-35.5 27l3 26q88 1 172 5q-7 -111 -7 -180zM492 622q-32 0 -67 -26l-22 14q14 46 45.5 73.5t67.5 27.5q27 0 62 -19
q17 -8 33 -17q13 -6 35 -6q32 0 70 27l22 -16q-36 -99 -117 -99q-27 0 -63 18q-44 23 -66 23z" />
    <glyph glyph-name="fscaron" unicode="f&#x161;" horiz-adv-x="671" 
d="M493 36q24 0 37.5 13.5t13.5 34.5q0 24 -17.5 43t-62.5 44q-63 35 -90.5 68.5t-27.5 75.5q0 57 44 96q45 39 107 39q69 0 111 -33q33 -25 33 -60q0 -24 -13.5 -37.5t-35.5 -13.5q-36 0 -57 47q-12 25 -21.5 35t-26.5 10q-19 0 -30.5 -13.5t-11.5 -36.5q0 -21 20 -41
t74 -50q60 -35 84.5 -67t24.5 -72q0 -62 -46 -99q-45 -36 -112 -36q-86 0 -126 36q-34 30 -34 67q0 26 14.5 41t36.5 15q44 0 59 -56q6 -26 15.5 -36.5t37.5 -13.5zM311 591q-23 0 -36.5 12t-25.5 42q-11 29 -31 29q-29 0 -29 -52q0 -18 3 -65q3 -46 3 -88v-35q20 0 40 1
l40 2t29 1l8 -20l-8 -46h-110v-190q0 -40 4 -93q2 -30 12.5 -43.5t37.5 -23.5l-3 -23q-41 3 -111 3q-62 0 -102 -3l-3 23q27 11 36 24.5t10 42.5q2 80 2 93v147q0 31 -7 41.5t-37 16.5l-4 32q30 11 40 34q7 17 8 24q3 11 6 33l6 34q37 199 163 199q50 0 82 -26.5t32 -65.5
q0 -25 -15.5 -42.5t-39.5 -17.5zM476 522l-101 200l31 25l105 -110l105 110l31 -25l-101 -200q-14 -27 -35 -27t-35 27z" />
    <glyph glyph-name="fydieresis" unicode="f&#xff;" horiz-adv-x="788" 
d="M487 -111l36 86l-116 276q-2 5 -18.5 45t-24.5 56q-19 39 -43 58l4 23q29 -3 102 -3q66 0 99 3l3 -24q-18 -10 -24.5 -19t-6.5 -24q0 -35 31 -113l53 -135l53 139q21 55 21 95q0 21 -6.5 32.5t-27.5 25.5l4 23q33 -3 81 -3q46 0 80 3l3 -23q-38 -29 -58 -70
q-21 -44 -39 -89l-153 -384q-30 -76 -64.5 -109.5t-80.5 -33.5q-34 0 -56.5 18t-22.5 48q0 28 18.5 45t45.5 17q10 0 30 -6t25 -6q18 0 29 10.5t23 38.5zM415 651q0 29 20 49t50 20q29 0 49.5 -20t20.5 -49q0 -30 -20.5 -50.5t-49.5 -20.5q-30 0 -50 20.5t-20 50.5zM597 651
q0 29 19.5 49t49.5 20t50.5 -20t20.5 -49q0 -30 -20.5 -50.5t-50.5 -20.5t-49.5 20.5t-19.5 50.5zM311 591q-23 0 -36.5 12t-25.5 42q-11 29 -31 29q-29 0 -29 -52q0 -18 3 -65q3 -46 3 -88v-35q20 0 40 1l40 2t29 1l8 -20l-8 -46h-110v-190q0 -40 4 -93q2 -30 12.5 -43.5
t37.5 -23.5l-3 -23q-41 3 -111 3q-62 0 -102 -3l-3 23q27 11 36 24.5t10 42.5q2 80 2 93v147q0 31 -7 41.5t-37 16.5l-4 32q30 11 40 34q7 17 8 24q3 11 6 33l6 34q37 199 163 199q50 0 82 -26.5t32 -65.5q0 -25 -15.5 -42.5t-39.5 -17.5z" />
    <glyph glyph-name="flcaron" unicode="f&#x13e;" horiz-adv-x="587" 
d="M472 563v-381q0 -13 2 -93q1 -30 8 -43.5t29 -23.5l-3 -23q-40 3 -96 3q-62 0 -102 -3l-3 23q27 11 36 24.5t10 42.5q2 80 2 93v337q0 51 -4 80q-9 85 -68 85q-89 0 -89 -170v-80q20 0 40.5 1t40.5 2t29 1l8 -20l-8 -46h-110v-190q0 -40 4 -93q2 -30 12.5 -43.5
t37.5 -23.5l-3 -23q-41 3 -111 3q-62 0 -102 -3l-3 23q27 11 36 24.5t10 42.5q2 80 2 93v147q0 31 -7 41.5t-37 16.5l-4 32q29 10 39 34q7 15 8 25q2 8 6 33t6 33q21 94 79 146.5t139 52.5q60 0 98 -23l52 32l21 -8q-5 -93 -5 -181zM667 655q0 -51 -35 -89t-94 -50l-10 31
q67 24 67 64q0 17 -27 31q-38 18 -38 58q0 22 17 38t41 16q33 0 56 -29t23 -70z" />
    <glyph glyph-name="fzdotaccent" unicode="f&#x17c;" horiz-adv-x="744" 
d="M469 431h86q53 0 149 3l10 -34q-9 -14 -61 -90l-178 -254l1 -4q79 0 104 4q36 6 61 34q19 21 42 78l32 -5l-15 -168q-31 1 -65.5 2.5t-49 2t-18.5 0.5h-110q-17 0 -123 -2l-12 40l70 95l174 245h-21q-74 0 -105 -10q-23 -7 -39.5 -27.5t-31.5 -61.5l-32 7q6 78 19 150
q55 -5 113 -5zM470 603q-21 22 -21 55t21 54q22 22 55 22t54 -22q22 -21 22 -54t-22 -55q-21 -21 -54 -21t-55 21zM311 591q-23 0 -36.5 12t-25.5 42q-11 29 -31 29q-29 0 -29 -52q0 -18 3 -65q3 -46 3 -88v-35q20 0 40 1l40 2t29 1l8 -20l-8 -46h-110v-190q0 -40 4 -93
q2 -30 12.5 -43.5t37.5 -23.5l-3 -23q-41 3 -111 3q-62 0 -102 -3l-3 23q27 11 36 24.5t10 42.5q2 80 2 93v147q0 31 -7 41.5t-37 16.5l-4 32q30 11 40 34q7 17 8 24q3 11 6 33l6 34q37 199 163 199q50 0 82 -26.5t32 -65.5q0 -25 -15.5 -42.5t-39.5 -17.5z" />
    <glyph glyph-name="fabreve" unicode="f&#x103;" horiz-adv-x="750" 
d="M570 170v29q-28 -11 -46 -20q-66 -35 -66 -79q0 -17 10.5 -27.5t28.5 -10.5q30 0 51.5 29.5t21.5 78.5zM570 253v25q0 40 -21 61q-21 22 -57 22q-46 0 -96 -35l-31 43q21 34 65 57t93 23q85 0 128 -54q35 -44 35 -118v-79q0 -47 1 -68q1 -58 48 -86l-13 -49
q-18 -3 -34 -3q-96 0 -111 78h-2q-38 -86 -124 -86q-47 0 -76 28t-29 71q0 67 68 108q48 30 156 62zM391 738l43 4q15 -67 38.5 -97t59.5 -30t59.5 30t38.5 97l43 -4q-4 -108 -41.5 -165.5t-99.5 -57.5t-99.5 57.5t-41.5 165.5zM311 591q-23 0 -36.5 12t-25.5 42
q-11 29 -31 29q-29 0 -29 -52q0 -18 3 -65q3 -46 3 -88v-35q20 0 40 1l40 2t29 1l8 -20l-8 -46h-110v-190q0 -40 4 -93q2 -30 12.5 -43.5t37.5 -23.5l-3 -23q-41 3 -111 3q-62 0 -102 -3l-3 23q27 11 36 24.5t10 42.5q2 80 2 93v147q0 31 -7 41.5t-37 16.5l-4 32
q30 11 40 34q7 17 8 24q3 11 6 33l6 34q37 199 163 199q50 0 82 -26.5t32 -65.5q0 -25 -15.5 -42.5t-39.5 -17.5z" />
    <glyph glyph-name="flacute" unicode="f&#x13a;" horiz-adv-x="541" 
d="M472 563v-381q0 -13 2 -93q1 -30 8 -43.5t29 -23.5l-3 -23q-40 3 -96 3q-62 0 -102 -3l-3 23q27 11 36 24.5t10 42.5q2 80 2 93v337q0 51 -4 80q-9 85 -68 85q-89 0 -89 -170v-80q20 0 40.5 1t40.5 2t29 1l8 -20l-8 -46h-110v-190q0 -40 4 -93q2 -30 12.5 -43.5
t37.5 -23.5l-3 -23q-41 3 -111 3q-62 0 -102 -3l-3 23q27 11 36 24.5t10 42.5q2 80 2 93v147q0 31 -7 41.5t-37 16.5l-4 32q29 10 39 34q7 15 8 25q2 8 6 33t6 33q21 94 79 146.5t139 52.5q60 0 98 -23l52 32l21 -8q-5 -93 -5 -181zM496 793l-183 -38l-12 34l148 102
q35 23 62 23t43.5 -14t16.5 -39q0 -53 -75 -68z" />
    <glyph glyph-name="fccaron" unicode="f&#x10d;" horiz-adv-x="758" 
d="M311 591q-23 0 -36.5 12t-25.5 42q-11 29 -31 29q-29 0 -29 -52q0 -18 3 -65q3 -46 3 -88v-35q20 0 40 1l40 2t29 1l8 -20l-8 -46h-110v-190q0 -40 4 -93q2 -30 12.5 -43.5t37.5 -23.5l-3 -23q-41 3 -111 3q-62 0 -102 -3l-3 23q27 11 36 24.5t10 42.5q2 80 2 93v147
q0 31 -7 41.5t-37 16.5l-4 32q30 11 40 34q7 17 8 24q3 11 6 33l6 34q37 199 163 199q50 0 82 -26.5t32 -65.5q0 -25 -15.5 -42.5t-39.5 -17.5zM553 395q-46 0 -77 -42t-31 -112t34 -112t92 -42q41 0 71 16.5t60 54.5l29 -19q-53 -156 -186 -156q-93 0 -157 66
q-63 68 -63 158q0 106 69 175q70 69 168 69q83 0 133 -44q40 -36 40 -82q0 -30 -17 -49.5t-45 -19.5q-56 0 -65 68q-9 71 -55 71zM519 522l-101 200l31 25l105 -110l105 110l31 -25l-101 -200q-13 -27 -35 -27t-35 27z" />
    <glyph glyph-name="fecaron" unicode="f&#x11b;" horiz-adv-x="774" 
d="M311 591q-23 0 -36.5 12t-25.5 42q-11 29 -31 29q-29 0 -29 -52q0 -18 3 -65q3 -46 3 -88v-35q20 0 40 1l40 2t29 1l8 -20l-8 -46h-110v-190q0 -40 4 -93q2 -30 12.5 -43.5t37.5 -23.5l-3 -23q-41 3 -111 3q-62 0 -102 -3l-3 23q27 11 36 24.5t10 42.5q2 80 2 93v147
q0 31 -7 41.5t-37 16.5l-4 32q30 11 40 34q7 17 8 24q3 11 6 33l6 34q37 199 163 199q50 0 82 -26.5t32 -65.5q0 -25 -15.5 -42.5t-39.5 -17.5zM328 208q0 105 65 175q66 69 161 69q85 0 137 -49t52 -126q0 -13 -2 -29h-297q-1 -4 -1 -14q0 -65 34.5 -105.5t91.5 -40.5
q46 0 76.5 17t64.5 61l32 -20q-62 -162 -192 -162q-96 0 -159 66t-63 158zM450 300h171q-3 94 -75 94q-34 0 -60.5 -26t-35.5 -68zM513 522l-101 200l31 25l105 -110l105 110l31 -25l-101 -200q-13 -27 -35 -27t-35 27z" />
    <glyph glyph-name="frcaron" unicode="f&#x159;" horiz-adv-x="682" 
d="M500 342h2q40 109 112 109q33 0 55 -21.5t22 -52.5q0 -29 -16.5 -46.5t-41.5 -17.5q-21 0 -42 15q-20 16 -35 16q-13 2 -24.5 -9t-20.5 -41t-9 -76v-36q0 -53 2 -93q2 -31 9 -44t28 -23l-3 -23q-40 3 -96 3q-62 0 -102 -3l-3 23q27 11 36 24.5t10 42.5q2 80 2 93v37
q-2 94 -8 113t-44 27v21q73 24 153 72l21 -8q-7 -45 -7 -102zM498 522l-101 200l31 25l105 -110l105 110l31 -25l-101 -200q-14 -27 -35 -27t-35 27zM311 591q-23 0 -36.5 12t-25.5 42q-11 29 -31 29q-29 0 -29 -52q0 -18 3 -65q3 -46 3 -88v-35q20 0 40 1l40 2t29 1l8 -20
l-8 -46h-110v-190q0 -40 4 -93q2 -30 12.5 -43.5t37.5 -23.5l-3 -23q-41 3 -111 3q-62 0 -102 -3l-3 23q27 11 36 24.5t10 42.5q2 80 2 93v147q0 31 -7 41.5t-37 16.5l-4 32q30 11 40 34q7 17 8 24q3 11 6 33l6 34q37 199 163 199q50 0 82 -26.5t32 -65.5q0 -25 -15.5 -42.5
t-39.5 -17.5z" />
    <glyph glyph-name="famacron" unicode="f&#x101;" horiz-adv-x="750" 
d="M311 591q-23 0 -36.5 12t-25.5 42q-11 29 -31 29q-29 0 -29 -52q0 -18 3 -65q3 -46 3 -88v-35q20 0 40 1l40 2t29 1l8 -20l-8 -46h-110v-190q0 -40 4 -93q2 -30 12.5 -43.5t37.5 -23.5l-3 -23q-41 3 -111 3q-62 0 -102 -3l-3 23q27 11 36 24.5t10 42.5q2 80 2 93v147
q0 31 -7 41.5t-37 16.5l-4 32q30 11 40 34q7 17 8 24q3 11 6 33l6 34q37 199 163 199q50 0 82 -26.5t32 -65.5q0 -25 -15.5 -42.5t-39.5 -17.5zM570 170v29q-28 -11 -46 -20q-66 -35 -66 -79q0 -17 10.5 -27.5t28.5 -10.5q30 0 51.5 29.5t21.5 78.5zM570 253v25q0 40 -21 61
q-21 22 -57 22q-46 0 -96 -35l-31 43q21 34 65 57t93 23q85 0 128 -54q35 -44 35 -118v-79q0 -47 1 -68q1 -58 48 -86l-13 -49q-18 -3 -34 -3q-96 0 -111 78h-2q-38 -86 -124 -86q-47 0 -76 28t-29 71q0 67 68 108q48 30 156 62zM683 606h-283v76h283v-76z" />
    <glyph glyph-name="femacron" unicode="f&#x113;" horiz-adv-x="781" 
d="M311 591q-23 0 -36.5 12t-25.5 42q-11 29 -31 29q-29 0 -29 -52q0 -18 3 -65q3 -46 3 -88v-35q20 0 40 1l40 2t29 1l8 -20l-8 -46h-110v-190q0 -40 4 -93q2 -30 12.5 -43.5t37.5 -23.5l-3 -23q-41 3 -111 3q-62 0 -102 -3l-3 23q27 11 36 24.5t10 42.5q2 80 2 93v147
q0 31 -7 41.5t-37 16.5l-4 32q30 11 40 34q7 17 8 24q3 11 6 33l6 34q37 199 163 199q50 0 82 -26.5t32 -65.5q0 -25 -15.5 -42.5t-39.5 -17.5zM335 208q0 105 65 175q66 69 161 69q85 0 137 -49t52 -126q0 -13 -2 -29h-297q-1 -4 -1 -14q0 -65 34.5 -105.5t91.5 -40.5
q46 0 76.5 17t64.5 61l32 -20q-61 -162 -192 -162q-96 0 -159 66t-63 158zM457 300h171q-3 94 -75 94q-34 0 -60.5 -26t-35.5 -68zM704 606h-283v76h283v-76z" />
    <glyph glyph-name="fiogonek" unicode="f&#x12f;" horiz-adv-x="546" 
d="M480 -92l25 -9q-12 -48 -39 -74t-63 -26q-40 0 -64 22t-24 58q0 66 90 123q-57 0 -95 -3l-3 23q27 11 36 24.5t10 42.5q2 80 2 93v37q0 51 -3 94q-2 32 -17.5 45.5t-52.5 13.5h-88v-190q0 -40 4 -93q2 -30 12.5 -43.5t37.5 -23.5l-3 -23q-41 3 -111 3q-62 0 -102 -3
l-3 23q27 11 36 24.5t10 42.5q2 80 2 93v147q0 31 -7 41.5t-37 16.5l-4 32q29 10 39 34q7 15 8 25q2 8 6 33t6 33q21 94 79 146.5t139 52.5q77 0 122 -29.5t45 -78.5q0 -27 -17.5 -44.5t-46.5 -17.5q-56 0 -75 61q-9 28 -19.5 39t-31.5 11q-89 0 -89 -170v-80h155
q64 0 107 25l21 -8q-5 -117 -5 -181v-88q0 -13 2 -93q1 -30 8 -43.5t29 -23.5l-3 -23q-40 3 -67 3q-49 -45 -49 -101q0 -37 36 -37q28 0 52 44z" />
    <glyph glyph-name="fimacron" unicode="f&#x12b;" horiz-adv-x="546" 
d="M551 591h-240q-23 0 -36.5 12t-25.5 42q-11 29 -31 29q-29 0 -29 -52q0 -18 3 -65q3 -46 3 -88v-35h154q64 0 107 25l21 -8q-5 -117 -5 -181v-88q0 -13 2 -93q1 -30 8 -43.5t29 -23.5l-3 -23q-40 3 -96 3q-62 0 -102 -3l-3 23q27 11 36 24.5t10 42.5q2 80 2 93v37
q0 51 -3 94q-2 32 -17.5 45.5t-52.5 13.5h-88v-190q0 -40 4 -93q2 -30 12.5 -43.5t37.5 -23.5l-3 -23q-41 3 -111 3q-62 0 -102 -3l-3 23q27 11 36 24.5t10 42.5q2 80 2 93v147q0 31 -7 41.5t-37 16.5l-4 32q30 11 40 34q7 17 8 24q3 11 6 33l6 34q37 199 163 199
q44 0 75 -21.5t37 -54.5h187v-76z" />
    <glyph glyph-name="fomacron" unicode="f&#x14d;" horiz-adv-x="829" 
d="M563 393q-50 0 -79.5 -44t-29.5 -124q0 -87 31.5 -135.5t86.5 -48.5q49 0 77.5 44.5t28.5 124.5q0 83 -34 132q-33 51 -81 51zM326 217q0 97 69 165q69 69 171 69q106 0 173 -67q68 -68 68 -167q0 -98 -68 -166t-168 -68q-109 0 -177 67q-68 68 -68 167zM707 606h-283v76
h283v-76zM311 591q-23 0 -36.5 12t-25.5 42q-11 29 -31 29q-29 0 -29 -52q0 -18 3 -65q3 -46 3 -88v-35q20 0 40 1l40 2t29 1l8 -20l-8 -46h-110v-190q0 -40 4 -93q2 -30 12.5 -43.5t37.5 -23.5l-3 -23q-41 3 -111 3q-62 0 -102 -3l-3 23q27 11 36 24.5t10 42.5q2 80 2 93
v147q0 31 -7 41.5t-37 16.5l-4 32q30 11 40 34q7 17 8 24q3 11 6 33l6 34q37 199 163 199q50 0 82 -26.5t32 -65.5q0 -25 -15.5 -42.5t-39.5 -17.5z" />
    <glyph glyph-name="flcommaaccent" unicode="f&#x13c;" horiz-adv-x="541" 
d="M472 563v-381q0 -13 2 -93q1 -30 8 -43.5t29 -23.5l-3 -23q-40 3 -96 3q-62 0 -102 -3l-3 23q27 11 36 24.5t10 42.5q2 80 2 93v337q0 51 -4 80q-9 85 -68 85q-89 0 -89 -170v-80q20 0 40.5 1t40.5 2t29 1l8 -20l-8 -46h-110v-190q0 -40 4 -93q2 -30 12.5 -43.5
t37.5 -23.5l-3 -23q-41 3 -111 3q-62 0 -102 -3l-3 23q27 11 36 24.5t10 42.5q2 80 2 93v147q0 31 -7 41.5t-37 16.5l-4 32q29 10 39 34q7 15 8 25q2 8 6 33t6 33q21 94 79 146.5t139 52.5q60 0 98 -23l52 32l21 -8q-5 -93 -5 -181zM482 -135q0 -51 -35 -89t-94 -50l-10 31
q67 24 67 64q0 17 -27 31q-38 18 -38 58q0 22 17 38t41 16q33 0 56 -29t23 -70z" />
    <glyph glyph-name="fumacron" unicode="f&#x16b;" horiz-adv-x="830" 
d="M754 257v-50q2 -94 8 -113t44 -27v-21q-68 -26 -141 -62l-22 5l-3 81l-3 1q-48 -89 -128 -89q-72 0 -110 60q-23 38 -23 97v100q0 63 -3 95q-2 30 -12.5 45t-35.5 27l3 26q88 1 172 5q-7 -111 -7 -180v-115q0 -72 63 -72q38 0 59.5 23.5t21.5 63.5v82q0 63 -3 95
q-2 30 -12.5 45t-35.5 27l3 26q88 1 172 5q-7 -111 -7 -180zM702 606h-283v76h283v-76zM311 591q-23 0 -36.5 12t-25.5 42q-11 29 -31 29q-29 0 -29 -52q0 -18 3 -65q3 -46 3 -88v-35q20 0 40 1l40 2t29 1l8 -20l-8 -46h-110v-190q0 -40 4 -93q2 -30 12.5 -43.5t37.5 -23.5
l-3 -23q-41 3 -111 3q-62 0 -102 -3l-3 23q27 11 36 24.5t10 42.5q2 80 2 93v147q0 31 -7 41.5t-37 16.5l-4 32q30 11 40 34q7 17 8 24q3 11 6 33l6 34q37 199 163 199q50 0 82 -26.5t32 -65.5q0 -25 -15.5 -42.5t-39.5 -17.5z" />
    <glyph glyph-name="fgbreve" unicode="f&#x11f;" horiz-adv-x="782" 
d="M788 420l-8 -50l-77 8q30 -42 30 -90q0 -74 -53 -124q-52 -48 -128 -48q-72 0 -119 39q-23 -21 -23 -49q0 -42 67 -45l109 -5q80 -4 122 -42.5t42 -100.5q0 -76 -67 -131q-66 -57 -168 -57q-94 0 -144.5 35t-50.5 93q0 63 74 116q-65 33 -65 103q0 64 69 113
q-31 46 -31 93q0 70 53 120t126 50q20 0 66 -7.5t64 -7.5q63 0 104 4zM675 -118q0 54 -95 57q-115 5 -151 11q-14 -26 -14 -51q0 -40 39.5 -65t109.5 -25q53 0 82 21t29 52zM547 398q-28 0 -44 -28.5t-16 -82.5q0 -121 61 -121q60 0 60 110q0 57 -16.5 89.5t-44.5 32.5z
M411 738l43 4q15 -67 38.5 -97t59.5 -30t59.5 30t38.5 97l43 -4q-4 -108 -41.5 -165.5t-99.5 -57.5t-99.5 57.5t-41.5 165.5zM311 591q-23 0 -36.5 12t-25.5 42q-11 29 -31 29q-29 0 -29 -52q0 -18 3 -65q3 -46 3 -88v-35q20 0 40 1l40 2t29 1l8 -20l-8 -46h-110v-190
q0 -40 4 -93q2 -30 12.5 -43.5t37.5 -23.5l-3 -23q-41 3 -111 3q-62 0 -102 -3l-3 23q27 11 36 24.5t10 42.5q2 80 2 93v147q0 31 -7 41.5t-37 16.5l-4 32q30 11 40 34q7 17 8 24q3 11 6 33l6 34q37 199 163 199q50 0 82 -26.5t32 -65.5q0 -25 -15.5 -42.5t-39.5 -17.5z" />
    <glyph glyph-name="febreve" unicode="f&#x115;" horiz-adv-x="774" 
d="M328 208q0 105 65 175q66 69 161 69q85 0 137 -49t52 -126q0 -13 -2 -29h-297q-1 -4 -1 -14q0 -65 34.5 -105.5t91.5 -40.5q46 0 76.5 17t64.5 61l32 -20q-62 -162 -192 -162q-96 0 -159 66t-63 158zM450 300h171q-3 94 -75 94q-34 0 -60.5 -26t-35.5 -68zM411 738l43 4
q15 -67 38.5 -97t59.5 -30t59.5 30t38.5 97l43 -4q-4 -108 -41.5 -165.5t-99.5 -57.5t-99.5 57.5t-41.5 165.5zM311 591q-23 0 -36.5 12t-25.5 42q-11 29 -31 29q-29 0 -29 -52q0 -18 3 -65q3 -46 3 -88v-35q20 0 40 1l40 2t29 1l8 -20l-8 -46h-110v-190q0 -40 4 -93
q2 -30 12.5 -43.5t37.5 -23.5l-3 -23q-41 3 -111 3q-62 0 -102 -3l-3 23q27 11 36 24.5t10 42.5q2 80 2 93v147q0 31 -7 41.5t-37 16.5l-4 32q30 11 40 34q7 17 8 24q3 11 6 33l6 34q37 199 163 199q50 0 82 -26.5t32 -65.5q0 -25 -15.5 -42.5t-39.5 -17.5z" />
    <glyph glyph-name="fhcircumflex" unicode="f&#x125;" horiz-adv-x="810" 
d="M472 563v-201q41 89 130 89q74 0 112 -60q23 -38 23 -97v-112q0 -13 2 -93q1 -29 10.5 -42.5t36.5 -24.5l-3 -23q-41 3 -102 3q-55 0 -96 -3l-3 23q21 10 28 23.5t8 43.5q2 80 2 93v109q0 34 -17 53t-48 19q-38 0 -60.5 -24t-22.5 -63v-94q0 -13 2 -93q1 -30 8 -43.5
t29 -23.5l-3 -23q-40 3 -96 3q-62 0 -102 -3l-3 23q27 11 36 24.5t10 42.5q2 80 2 93v337q0 51 -4 80q-9 85 -68 85q-89 0 -89 -170v-80q20 0 40.5 1t40.5 2t29 1l8 -20l-8 -46h-110v-190q0 -40 4 -93q2 -30 12.5 -43.5t37.5 -23.5l-3 -23q-41 3 -111 3q-62 0 -102 -3l-3 23
q27 11 36 24.5t10 42.5q2 80 2 93v147q0 31 -7 41.5t-37 16.5l-4 32q29 10 39 34q7 15 8 25q2 8 6 33t6 33q21 94 79 146.5t139 52.5q60 0 98 -23l52 32l21 -8q-5 -93 -5 -181zM450 896l125 -95l-17 -35l-153 51l-153 -51l-17 35l125 95q28 22 45 22t45 -22z" />
    <glyph glyph-name="fhbar" unicode="f&#x127;" horiz-adv-x="810" 
d="M303 520v68h49q-6 96 -69 96q-89 0 -89 -170v-80q20 0 40.5 1t40.5 2t29 1l8 -20l-8 -46h-110v-190q0 -40 4 -93q2 -30 12.5 -43.5t37.5 -23.5l-3 -23q-41 3 -111 3q-62 0 -102 -3l-3 23q27 11 36 24.5t10 42.5q2 80 2 93v147q0 31 -7 41.5t-37 16.5l-4 32q29 10 39 34
q7 15 8 25q2 8 6 33t6 33q21 94 79 146.5t139 52.5q60 0 98 -23l52 32l21 -8q-5 -98 -5 -156h169v-68h-169v-158q41 89 130 89q74 0 112 -60q23 -38 23 -97v-112q0 -13 2 -93q1 -29 10.5 -42.5t36.5 -24.5l-3 -23q-41 3 -102 3q-55 0 -96 -3l-3 23q21 10 28 23.5t8 43.5
q2 80 2 93v109q0 34 -17 53t-48 19q-38 0 -60.5 -24t-22.5 -63v-94q0 -13 2 -93q1 -30 8 -43.5t29 -23.5l-3 -23q-40 3 -96 3q-62 0 -102 -3l-3 23q27 11 36 24.5t10 42.5q2 80 2 93v338h-52z" />
    <glyph glyph-name="fitilde" unicode="f&#x129;" horiz-adv-x="586" 
d="M371 572q-32 0 -67 -26l-22 14q4 15 13 32q-27 7 -46 53q-11 29 -31 29q-29 0 -29 -52q0 -18 3 -65q3 -46 3 -88v-35q20 0 40 1l40 2t29 1l8 -20l-8 -46h-110v-190q0 -40 4 -93q2 -30 12.5 -43.5t37.5 -23.5l-3 -23q-41 3 -111 3q-62 0 -102 -3l-3 23q27 11 36 24.5
t10 42.5q2 80 2 93v147q0 31 -7 41.5t-37 16.5l-4 32q30 11 40 34q7 17 8 24q3 11 6 33l6 34q37 199 163 199q48 0 80 -25t34 -62q17 5 29 5q27 0 62 -19q17 -8 33 -17q13 -6 35 -6q33 0 70 27l22 -16q-36 -99 -117 -99q-27 0 -63 18q-44 23 -66 23zM512 263v-81
q0 -13 2 -93q1 -30 8 -43.5t29 -23.5l-3 -23q-40 3 -96 3q-62 0 -102 -3l-3 23q27 11 36 24.5t10 42.5q2 80 2 93v37q-2 94 -8 113t-44 27v21q73 24 153 72l21 -8q-5 -93 -5 -181z" />
    <glyph glyph-name="fibreve" unicode="f&#x12d;" horiz-adv-x="546" 
d="M410 515q-42 0 -72 26t-58 84q-15 31 -23.5 40t-22.5 9q-28 0 -34 -52q-5 -47 -5 -153v-35h154q64 0 107 25l21 -8q-5 -117 -5 -181v-88q0 -13 2 -93q1 -30 8 -43.5t29 -23.5l-3 -23q-40 3 -96 3q-62 0 -102 -3l-3 23q27 11 36 24.5t10 42.5q2 80 2 93v37q0 51 -3 94
q-2 32 -17.5 45.5t-52.5 13.5h-88v-190q0 -40 4 -93q2 -30 12.5 -43.5t37.5 -23.5l-3 -23q-41 3 -111 3q-62 0 -102 -3l-3 23q27 11 36 24.5t10 42.5q2 80 2 93v147q0 31 -7 41.5t-37 16.5l-4 32q30 11 39 34q7 15 8 24q3 11 6 33l6 34q18 95 66.5 147t115.5 52
q49 0 77.5 -25.5t28.5 -62.5q0 -17 -6 -31q18 -9 40 -9q36 0 59.5 30t38.5 97l43 -4q-4 -108 -41.5 -165.5t-99.5 -57.5z" />
    <glyph glyph-name="fij" unicode="f&#x133;" horiz-adv-x="795" 
d="M306 743q77 0 122 -29.5t45 -78.5q0 -27 -17.5 -44.5t-46.5 -17.5q-56 0 -75 61q-9 28 -19.5 39t-31.5 11q-89 0 -89 -170v-80h155q64 0 107 25l21 -8q-5 -117 -5 -181v-88q0 -13 2 -93q1 -30 8 -43.5t29 -23.5l-3 -23q-40 3 -96 3q-62 0 -102 -3l-3 23q27 11 36 24.5
t10 42.5q2 80 2 93v37q0 51 -3 94q-2 32 -17.5 45.5t-52.5 13.5h-88v-190q0 -40 4 -93q2 -30 12.5 -43.5t37.5 -23.5l-3 -23q-41 3 -111 3q-62 0 -102 -3l-3 23q27 11 36 24.5t10 42.5q2 80 2 93v147q0 31 -7 41.5t-37 16.5l-4 32q29 10 39 34q7 15 8 25q2 8 6 33t6 33
q21 94 79 146.5t139 52.5zM737 263v-130q0 -76 3 -142q-11 -178 -161 -255l-23 26q36 46 50 91q14 44 14 116v250q-2 94 -8 113t-44 27v21q74 24 153 72l21 -8q-5 -93 -5 -181zM623 603q-21 22 -21 55t21 54q22 22 55 22t54 -22q22 -21 22 -54t-22 -55q-21 -21 -54 -21
t-55 21z" />
    <glyph glyph-name="fjcircumflex" unicode="f&#x135;" horiz-adv-x="603" 
d="M311 591q-23 0 -36.5 12t-25.5 42q-11 29 -31 29q-29 0 -29 -52q0 -18 3 -65q3 -46 3 -88v-35q20 0 40 1l40 2t29 1l8 -20l-8 -46h-110v-190q0 -40 4 -93q2 -30 12.5 -43.5t37.5 -23.5l-3 -23q-41 3 -111 3q-62 0 -102 -3l-3 23q27 11 36 24.5t10 42.5q2 80 2 93v147
q0 31 -7 41.5t-37 16.5l-4 32q30 11 40 34q7 17 8 24q3 11 6 33l6 34q37 199 163 199q50 0 82 -26.5t32 -65.5q0 -25 -15.5 -42.5t-39.5 -17.5zM545 263v-130q0 -76 3 -142q-11 -178 -161 -255l-23 26q36 46 50 91q14 44 14 116v250q-2 94 -8 113t-44 27v21q74 24 153 72
l21 -8q-5 -93 -5 -181zM382 495l-31 25l101 200q14 27 35 27t35 -27l101 -200l-31 -25l-105 110z" />
    <glyph glyph-name="fldot" unicode="f&#x140;" horiz-adv-x="704" 
d="M472 563v-381q0 -13 2 -93q1 -30 8 -43.5t29 -23.5l-3 -23q-40 3 -96 3q-62 0 -102 -3l-3 23q27 11 36 24.5t10 42.5q2 80 2 93v337q0 51 -4 80q-9 85 -68 85q-89 0 -89 -170v-80q20 0 40.5 1t40.5 2t29 1l8 -20l-8 -46h-110v-190q0 -40 4 -93q2 -30 12.5 -43.5
t37.5 -23.5l-3 -23q-41 3 -111 3q-62 0 -102 -3l-3 23q27 11 36 24.5t10 42.5q2 80 2 93v147q0 31 -7 41.5t-37 16.5l-4 32q29 10 39 34q7 15 8 25q2 8 6 33t6 33q21 94 79 146.5t139 52.5q60 0 98 -23l52 32l21 -8q-5 -93 -5 -181zM571 159q-21 22 -21 55t21 54
q22 22 55 22t54 -22q22 -21 22 -54t-22 -55q-21 -21 -54 -21t-55 21z" />
    <glyph glyph-name="fnapostrophe" unicode="f&#x149;" horiz-adv-x="870" 
d="M541 276v-94q0 -13 2 -93q1 -30 8 -43.5t29 -23.5l-3 -23q-41 3 -96 3q-61 0 -102 -3l-3 23q27 11 36 24.5t10 42.5q2 80 2 93v37q-2 94 -8 113t-44 27v21q74 24 153 72l21 -8q-7 -45 -7 -82h2q27 46 57 67.5t73 21.5q75 0 112 -60q23 -38 23 -97v-112q0 -13 2 -93
q1 -29 10.5 -42.5t36.5 -24.5l-3 -23q-40 3 -102 3q-56 0 -96 -3l-3 23q21 10 28 23.5t8 43.5q2 80 2 93v109q0 34 -17 53t-48 19q-38 0 -60.5 -24t-22.5 -63zM538 637q0 -51 -35 -89t-94 -50l-10 31q67 24 67 64q0 17 -27 31q-38 18 -38 58q0 22 17 38t41 16q33 0 56 -29
t23 -70zM311 591q-23 0 -36.5 12t-25.5 42q-11 29 -31 29q-29 0 -29 -52q0 -18 3 -65q3 -46 3 -88v-35q20 0 40 1l40 2t29 1l8 -20l-8 -46h-110v-190q0 -40 4 -93q2 -30 12.5 -43.5t37.5 -23.5l-3 -23q-41 3 -111 3q-62 0 -102 -3l-3 23q27 11 36 24.5t10 42.5q2 80 2 93
v147q0 31 -7 41.5t-37 16.5l-4 32q30 11 40 34q7 17 8 24q3 11 6 33l6 34q37 199 163 199q50 0 82 -26.5t32 -65.5q0 -25 -15.5 -42.5t-39.5 -17.5z" />
    <glyph glyph-name="fobreve" unicode="f&#x14f;" horiz-adv-x="829" 
d="M563 393q-50 0 -79.5 -44t-29.5 -124q0 -87 31.5 -135.5t86.5 -48.5q49 0 77.5 44.5t28.5 124.5q0 83 -34 132q-33 51 -81 51zM326 217q0 97 69 165q69 69 171 69q106 0 173 -67q68 -68 68 -167q0 -98 -68 -166t-168 -68q-109 0 -177 67q-68 68 -68 167zM425 738l43 4
q15 -67 38.5 -97t59.5 -30t59.5 30t38.5 97l43 -4q-4 -108 -41.5 -165.5t-99.5 -57.5t-99.5 57.5t-41.5 165.5zM311 591q-23 0 -36.5 12t-25.5 42q-11 29 -31 29q-29 0 -29 -52q0 -18 3 -65q3 -46 3 -88v-35q20 0 40 1l40 2t29 1l8 -20l-8 -46h-110v-190q0 -40 4 -93
q2 -30 12.5 -43.5t37.5 -23.5l-3 -23q-41 3 -111 3q-62 0 -102 -3l-3 23q27 11 36 24.5t10 42.5q2 80 2 93v147q0 31 -7 41.5t-37 16.5l-4 32q30 11 40 34q7 17 8 24q3 11 6 33l6 34q37 199 163 199q50 0 82 -26.5t32 -65.5q0 -25 -15.5 -42.5t-39.5 -17.5z" />
    <glyph glyph-name="fscircumflex" unicode="f&#x15d;" horiz-adv-x="661" 
d="M483 36q24 0 37.5 13.5t13.5 34.5q0 24 -17.5 43t-62.5 44q-63 35 -90.5 68.5t-27.5 75.5q0 57 44 96q45 39 107 39q69 0 111 -33q33 -25 33 -60q0 -24 -13.5 -37.5t-35.5 -13.5q-36 0 -57 47q-12 25 -21.5 35t-26.5 10q-19 0 -30.5 -13.5t-11.5 -36.5q0 -21 20 -41
t74 -50q60 -35 84.5 -67t24.5 -72q0 -62 -46 -99q-45 -36 -112 -36q-86 0 -126 36q-34 30 -34 67q0 26 14.5 41t36.5 15q44 0 59 -56q6 -26 15.5 -36.5t37.5 -13.5zM311 591q-23 0 -36.5 12t-25.5 42q-11 29 -31 29q-29 0 -29 -52q0 -18 3 -65q3 -46 3 -88v-35q20 0 40 1
l40 2t29 1l8 -20l-8 -46h-110v-190q0 -40 4 -93q2 -30 12.5 -43.5t37.5 -23.5l-3 -23q-41 3 -111 3q-62 0 -102 -3l-3 23q27 11 36 24.5t10 42.5q2 80 2 93v147q0 31 -7 41.5t-37 16.5l-4 32q30 11 40 34q7 17 8 24q3 11 6 33l6 34q37 199 163 199q50 0 82 -26.5t32 -65.5
q0 -25 -15.5 -42.5t-39.5 -17.5zM392 495l-31 25l101 200q14 27 35 27t35 -27l101 -200l-31 -25l-105 110z" />
    <glyph glyph-name="fubreve" unicode="f&#x16d;" horiz-adv-x="830" 
d="M754 257v-50q2 -94 8 -113t44 -27v-21q-68 -26 -141 -62l-22 5l-3 81l-3 1q-48 -89 -128 -89q-72 0 -110 60q-23 38 -23 97v100q0 63 -3 95q-2 30 -12.5 45t-35.5 27l3 26q88 1 172 5q-7 -111 -7 -180v-115q0 -72 63 -72q38 0 59.5 23.5t21.5 63.5v82q0 63 -3 95
q-2 30 -12.5 45t-35.5 27l3 26q88 1 172 5q-7 -111 -7 -180zM420 738l43 4q15 -67 38.5 -97t59.5 -30t59.5 30t38.5 97l43 -4q-4 -108 -41.5 -165.5t-99.5 -57.5t-99.5 57.5t-41.5 165.5zM311 591q-23 0 -36.5 12t-25.5 42q-11 29 -31 29q-29 0 -29 -52q0 -18 3 -65
q3 -46 3 -88v-35q20 0 40 1l40 2t29 1l8 -20l-8 -46h-110v-190q0 -40 4 -93q2 -30 12.5 -43.5t37.5 -23.5l-3 -23q-41 3 -111 3q-62 0 -102 -3l-3 23q27 11 36 24.5t10 42.5q2 80 2 93v147q0 31 -7 41.5t-37 16.5l-4 32q30 11 40 34q7 17 8 24q3 11 6 33l6 34
q37 199 163 199q50 0 82 -26.5t32 -65.5q0 -25 -15.5 -42.5t-39.5 -17.5z" />
    <glyph glyph-name="fflslash" unicode="ff&#x142;" horiz-adv-x="859" 
d="M33 387l-4 32q30 11 40 34q7 17 8 24q2 6 7 33l6 34q37 199 161 199q50 0 82 -26.5t32 -65.5q0 -25 -15.5 -42.5t-39.5 -17.5q-23 0 -36.5 12t-25.5 42q-11 29 -31 29q-29 0 -29 -52q0 -18 3 -65q3 -46 3 -88v-35h161q2 67 12 110q49 199 211 199q76 0 114 -23l52 32
l21 -8q-5 -93 -5 -181v-180l78 48l31 -54l-109 -66v-129q0 -13 2 -93q1 -30 8 -43.5t29 -23.5l-3 -23q-40 3 -96 3q-62 0 -102 -3l-3 23q27 11 36 24.5t10 42.5q2 80 2 93v65l-66 -40l-30 54l96 58v200q0 51 -4 80q-9 85 -73 85q-94 0 -94 -170v-80q20 0 40.5 1t40.5 2t29 1
l8 -20l-8 -46h-110v-190q0 -40 4 -93q2 -30 12.5 -43.5t37.5 -23.5l-3 -23q-41 3 -111 3q-62 0 -102 -3l-3 23q27 11 36 24.5t10 42.5q2 80 2 93v115q0 44 -12.5 59.5t-49.5 15.5h-99v-190q0 -40 4 -93q2 -30 12.5 -43.5t37.5 -23.5l-3 -23q-41 3 -111 3q-62 0 -102 -3
l-3 23q27 11 36 24.5t10 42.5q2 80 2 93v147q0 31 -7 41.5t-37 16.5z" />
    <glyph glyph-name="ffthorn" unicode="ff&#xfe;" horiz-adv-x="1091" 
d="M852 38q42 0 68.5 41t26.5 115q0 82 -30.5 128.5t-79.5 46.5q-40 0 -63.5 -30.5t-23.5 -84.5v-91q0 -62 27.5 -93.5t74.5 -31.5zM33 387l-4 32q30 11 40 34q7 17 8 24q2 6 7 33l6 34q37 199 161 199q50 0 82 -26.5t32 -65.5q0 -25 -15.5 -42.5t-39.5 -17.5
q-23 0 -36.5 12t-25.5 42q-11 29 -31 29q-29 0 -29 -52q0 -18 3 -65q3 -46 3 -88v-35h161q2 67 12 110q49 199 211 199q66 0 104 -23l52 32l21 -8q-5 -93 -5 -181v-195h2q41 83 130 83q78 0 131 -62q54 -61 54 -165q0 -108 -61 -175q-61 -66 -149 -66q-63 0 -107 32v-96
q0 -40 4 -93q2 -30 12.5 -43.5t37.5 -23.5l-3 -23q-41 3 -111 3q-62 0 -102 -3l-3 23q27 11 36 24.5t10 42.5q2 80 2 93v600q0 51 -4 80q-9 85 -68 85q-89 0 -89 -170v-80q20 0 40.5 1t40.5 2t29 1l8 -20l-8 -46h-110v-190q0 -40 4 -93q2 -30 12.5 -43.5t37.5 -23.5l-3 -23
q-41 3 -111 3q-62 0 -102 -3l-3 23q27 11 36 24.5t10 42.5q2 80 2 93v115q0 44 -12.5 59.5t-49.5 15.5h-99v-190q0 -40 4 -93q2 -30 12.5 -43.5t37.5 -23.5l-3 -23q-41 3 -111 3q-62 0 -102 -3l-3 23q27 11 36 24.5t10 42.5q2 80 2 93v147q0 31 -7 41.5t-37 16.5z" />
    <glyph glyph-name="ffb" unicode="ffb" horiz-adv-x="1080" 
d="M825 39q50 0 77.5 46t27.5 127q0 69 -26 110t-71 41q-83 0 -83 -129v-97q0 -98 75 -98zM33 387l-4 32q30 11 40 34q7 17 8 24q2 6 7 33l6 34q37 199 161 199q50 0 82 -26.5t32 -65.5q0 -25 -15.5 -42.5t-39.5 -17.5q-23 0 -36.5 12t-25.5 42q-11 29 -31 29q-29 0 -29 -52
q0 -18 3 -65q3 -46 3 -88v-35h161q2 67 12 110q49 199 211 199q66 0 104 -23l52 32l21 -8q-5 -93 -5 -181v-208l1 -1q48 97 139 97q72 0 119 -62t47 -154q0 -113 -64 -183q-63 -70 -171 -70q-97 0 -188 42v495q0 51 -4 80q-9 85 -68 85q-89 0 -89 -170v-80q20 0 40.5 1
t40.5 2t29 1l8 -20l-8 -46h-110v-190q0 -40 4 -93q2 -30 12.5 -43.5t37.5 -23.5l-3 -23q-41 3 -111 3q-62 0 -102 -3l-3 23q27 11 36 24.5t10 42.5q2 80 2 93v115q0 44 -12.5 59.5t-49.5 15.5h-99v-190q0 -40 4 -93q2 -30 12.5 -43.5t37.5 -23.5l-3 -23q-41 3 -111 3
q-62 0 -102 -3l-3 23q27 11 36 24.5t10 42.5q2 80 2 93v147q0 31 -7 41.5t-37 16.5z" />
    <glyph glyph-name="ffh" unicode="ffh" horiz-adv-x="1088" 
d="M682 720l52 32l21 -8q-5 -93 -5 -181v-201q41 89 130 89q74 0 112 -60q23 -38 23 -97v-112q0 -13 2 -93q1 -29 10.5 -42.5t36.5 -24.5l-3 -23q-41 3 -102 3q-55 0 -96 -3l-3 23q21 10 28 23.5t8 43.5q2 80 2 93v109q0 34 -17 53t-48 19q-38 0 -60.5 -24t-22.5 -63v-94
q0 -13 2 -93q1 -30 8 -43.5t29 -23.5l-3 -23q-40 3 -96 3q-62 0 -102 -3l-3 23q27 11 36 24.5t10 42.5q2 80 2 93v337q0 51 -4 80q-9 85 -68 85q-89 0 -89 -170v-80q20 0 40.5 1t40.5 2t29 1l8 -20l-8 -46h-110v-190q0 -40 4 -93q2 -30 12.5 -43.5t37.5 -23.5l-3 -23
q-41 3 -111 3q-62 0 -102 -3l-3 23q27 11 36 24.5t10 42.5q2 80 2 93v115q0 44 -12.5 59.5t-49.5 15.5h-99v-190q0 -40 4 -93q2 -30 12.5 -43.5t37.5 -23.5l-3 -23q-41 3 -111 3q-62 0 -102 -3l-3 23q27 11 36 24.5t10 42.5q2 80 2 93v147q0 31 -7 41.5t-37 16.5l-4 32
q30 11 40 34q7 17 8 24q2 6 7 33l6 34q37 199 161 199q50 0 82 -26.5t32 -65.5q0 -25 -15.5 -42.5t-39.5 -17.5q-23 0 -36.5 12t-25.5 42q-11 29 -31 29q-29 0 -29 -52q0 -18 3 -65q3 -46 3 -88v-35h161q2 67 12 110q49 199 211 199q66 0 104 -23z" />
    <glyph glyph-name="ffj" unicode="ffj" horiz-adv-x="808" 
d="M584 743q77 0 122 -29.5t45 -78.5q0 -27 -17.5 -44.5t-46.5 -17.5q-56 0 -75 61q-9 28 -19.5 39t-31.5 11q-89 0 -89 -170v-80h155q64 0 107 25l21 -8q-5 -117 -5 -181v-137q0 -76 3 -142q-11 -178 -161 -255l-23 26q36 46 50 91q14 44 14 116v250q0 51 -3 94
q-2 32 -17.5 45.5t-52.5 13.5h-88v-190q0 -40 4 -93q2 -30 12.5 -43.5t37.5 -23.5l-3 -23q-41 3 -111 3q-62 0 -102 -3l-3 23q27 11 36 24.5t10 42.5q2 80 2 93v115q0 44 -12.5 59.5t-49.5 15.5h-99v-190q0 -40 4 -93q2 -30 12.5 -43.5t37.5 -23.5l-3 -23q-41 3 -111 3
q-62 0 -102 -3l-3 23q27 11 36 24.5t10 42.5q2 80 2 93v147q0 31 -7 41.5t-37 16.5l-4 32q30 11 40 34q7 17 8 24q2 6 7 33l6 34q37 199 161 199q50 0 82 -26.5t32 -65.5q0 -25 -15.5 -42.5t-39.5 -17.5q-23 0 -36.5 12t-25.5 42q-11 29 -31 29q-29 0 -29 -52q0 -18 3 -65
q3 -46 3 -88v-35h161q0 60 12 110q24 95 79.5 147t137.5 52z" />
    <glyph glyph-name="ffk" unicode="ffk" horiz-adv-x="1046" 
d="M857 76l-94 166l45 44q53 53 53 83q0 23 -33 39l4 25q43 -3 94 -3q44 0 87 3l3 -23q-25 -18 -83 -71l-63 -60l120 -197q21 -33 30.5 -44t25.5 -19v-21q-20 -7 -37 -7q-104 0 -152 85zM682 720l52 32l21 -8q-5 -93 -5 -181v-381q0 -13 2 -93q1 -30 8 -43.5t29 -23.5
l-3 -23q-40 3 -96 3q-62 0 -102 -3l-3 23q27 11 36 24.5t10 42.5q2 80 2 93v337q0 51 -4 80q-9 85 -68 85q-89 0 -89 -170v-80q20 0 40.5 1t40.5 2t29 1l8 -20l-8 -46h-110v-190q0 -40 4 -93q2 -30 12.5 -43.5t37.5 -23.5l-3 -23q-41 3 -111 3q-62 0 -102 -3l-3 23
q27 11 36 24.5t10 42.5q2 80 2 93v115q0 44 -12.5 59.5t-49.5 15.5h-99v-190q0 -40 4 -93q2 -30 12.5 -43.5t37.5 -23.5l-3 -23q-41 3 -111 3q-62 0 -102 -3l-3 23q27 11 36 24.5t10 42.5q2 80 2 93v147q0 31 -7 41.5t-37 16.5l-4 32q30 11 40 34q7 17 8 24q2 6 7 33l6 34
q37 199 161 199q50 0 82 -26.5t32 -65.5q0 -25 -15.5 -42.5t-39.5 -17.5q-23 0 -36.5 12t-25.5 42q-11 29 -31 29q-29 0 -29 -52q0 -18 3 -65q3 -46 3 -88v-35h161q2 67 12 110q49 199 211 199q66 0 104 -23z" />
    <glyph glyph-name="ffagrave" unicode="ff&#xe0;" horiz-adv-x="1008" 
d="M529 743q50 0 82 -26.5t32 -65.5q0 -25 -15.5 -42.5t-39.5 -17.5q-23 0 -36.5 12t-25.5 42q-11 29 -31 29q-29 0 -29 -52q0 -18 3 -65q3 -46 3 -88v-35q20 0 40.5 1t40.5 2t29 1l8 -20l-8 -46h-110v-190q0 -40 4 -93q2 -30 12.5 -43.5t37.5 -23.5l-3 -23q-41 3 -111 3
q-62 0 -102 -3l-3 23q27 11 36 24.5t10 42.5q2 80 2 93v115q0 44 -12.5 59.5t-49.5 15.5h-99v-190q0 -40 4 -93q2 -30 12.5 -43.5t37.5 -23.5l-3 -23q-41 3 -111 3q-62 0 -102 -3l-3 23q27 11 36 24.5t10 42.5q2 80 2 93v147q0 31 -7 41.5t-37 16.5l-4 32q30 11 40 34
q7 17 8 24q2 6 7 33l6 34q37 199 161 199q50 0 82 -26.5t32 -65.5q0 -25 -15.5 -42.5t-39.5 -17.5q-23 0 -36.5 12t-25.5 42q-11 29 -31 29q-29 0 -29 -52q0 -18 3 -65q3 -46 3 -88v-35h161q3 40 14 110q36 199 160 199zM828 170v29q-28 -11 -46 -20q-66 -35 -66 -79
q0 -17 10.5 -27.5t28.5 -10.5q30 0 51.5 29.5t21.5 78.5zM828 253v25q0 40 -21 61q-21 22 -57 22q-46 0 -96 -35l-31 43q21 34 65 57t93 23q85 0 128 -54q35 -44 35 -118v-79q0 -47 1 -68q1 -58 48 -86l-13 -49q-18 -3 -34 -3q-96 0 -111 78h-2q-38 -86 -124 -86
q-47 0 -76 28t-29 71q0 67 68 108q48 30 156 62zM816 672l35 -183l-35 -13l-106 149q-22 31 -22 62q0 26 17 44.5t42 18.5q54 0 69 -78z" />
    <glyph glyph-name="ffacircumflex" unicode="ff&#xe2;" horiz-adv-x="1008" 
d="M529 743q50 0 82 -26.5t32 -65.5q0 -25 -15.5 -42.5t-39.5 -17.5q-23 0 -36.5 12t-25.5 42q-11 29 -31 29q-29 0 -29 -52q0 -18 3 -65q3 -46 3 -88v-35q20 0 40.5 1t40.5 2t29 1l8 -20l-8 -46h-110v-190q0 -40 4 -93q2 -30 12.5 -43.5t37.5 -23.5l-3 -23q-41 3 -111 3
q-62 0 -102 -3l-3 23q27 11 36 24.5t10 42.5q2 80 2 93v115q0 44 -12.5 59.5t-49.5 15.5h-99v-190q0 -40 4 -93q2 -30 12.5 -43.5t37.5 -23.5l-3 -23q-41 3 -111 3q-62 0 -102 -3l-3 23q27 11 36 24.5t10 42.5q2 80 2 93v147q0 31 -7 41.5t-37 16.5l-4 32q30 11 40 34
q7 17 8 24q2 6 7 33l6 34q37 199 161 199q50 0 82 -26.5t32 -65.5q0 -25 -15.5 -42.5t-39.5 -17.5q-23 0 -36.5 12t-25.5 42q-11 29 -31 29q-29 0 -29 -52q0 -18 3 -65q3 -46 3 -88v-35h161q3 40 14 110q36 199 160 199zM828 170v29q-28 -11 -46 -20q-66 -35 -66 -79
q0 -17 10.5 -27.5t28.5 -10.5q30 0 51.5 29.5t21.5 78.5zM828 253v25q0 40 -21 61q-21 22 -57 22q-46 0 -96 -35l-31 43q21 34 65 57t93 23q85 0 128 -54q35 -44 35 -118v-79q0 -47 1 -68q1 -58 48 -86l-13 -49q-18 -3 -34 -3q-96 0 -111 78h-2q-38 -86 -124 -86
q-47 0 -76 28t-29 71q0 67 68 108q48 30 156 62zM685 495l-31 25l101 200q13 27 35 27t35 -27l101 -200l-31 -25l-105 110z" />
    <glyph glyph-name="ffatilde" unicode="ff&#xe3;" horiz-adv-x="1008" 
d="M529 743q50 0 82 -26.5t32 -65.5q0 -25 -15.5 -42.5t-39.5 -17.5q-23 0 -36.5 12t-25.5 42q-11 29 -31 29q-29 0 -29 -52q0 -18 3 -65q3 -46 3 -88v-35q20 0 40.5 1t40.5 2t29 1l8 -20l-8 -46h-110v-190q0 -40 4 -93q2 -30 12.5 -43.5t37.5 -23.5l-3 -23q-41 3 -111 3
q-62 0 -102 -3l-3 23q27 11 36 24.5t10 42.5q2 80 2 93v115q0 44 -12.5 59.5t-49.5 15.5h-99v-190q0 -40 4 -93q2 -30 12.5 -43.5t37.5 -23.5l-3 -23q-41 3 -111 3q-62 0 -102 -3l-3 23q27 11 36 24.5t10 42.5q2 80 2 93v147q0 31 -7 41.5t-37 16.5l-4 32q30 11 40 34
q7 17 8 24q2 6 7 33l6 34q37 199 161 199q50 0 82 -26.5t32 -65.5q0 -25 -15.5 -42.5t-39.5 -17.5q-23 0 -36.5 12t-25.5 42q-11 29 -31 29q-29 0 -29 -52q0 -18 3 -65q3 -46 3 -88v-35h161q3 40 14 110q36 199 160 199zM848 170v29q-28 -11 -46 -20q-66 -35 -66 -79
q0 -17 10.5 -27.5t28.5 -10.5q30 0 51.5 29.5t21.5 78.5zM848 253v25q0 40 -21 61q-21 22 -57 22q-46 0 -96 -35l-31 43q21 34 65 57t93 23q85 0 128 -54q35 -44 35 -118v-79q0 -47 1 -68q1 -58 48 -86l-13 -49q-18 -3 -34 -3q-96 0 -111 78h-2q-38 -86 -124 -86
q-47 0 -76 28t-29 71q0 67 68 108q48 30 156 62zM751 622q-32 0 -67 -26l-22 14q14 46 45.5 73.5t67.5 27.5q27 0 62 -19q17 -8 33 -17q13 -6 35 -6q33 0 70 27l22 -16q-36 -99 -117 -99q-27 0 -63 18q-44 23 -66 23z" />
    <glyph glyph-name="ffaring" unicode="ff&#xe5;" horiz-adv-x="1008" 
d="M529 743q50 0 82 -26.5t32 -65.5q0 -25 -15.5 -42.5t-39.5 -17.5q-23 0 -36.5 12t-25.5 42q-11 29 -31 29q-29 0 -29 -52q0 -18 3 -65q3 -46 3 -88v-35q20 0 40.5 1t40.5 2t29 1l8 -20l-8 -46h-110v-190q0 -40 4 -93q2 -30 12.5 -43.5t37.5 -23.5l-3 -23q-41 3 -111 3
q-62 0 -102 -3l-3 23q27 11 36 24.5t10 42.5q2 80 2 93v115q0 44 -12.5 59.5t-49.5 15.5h-99v-190q0 -40 4 -93q2 -30 12.5 -43.5t37.5 -23.5l-3 -23q-41 3 -111 3q-62 0 -102 -3l-3 23q27 11 36 24.5t10 42.5q2 80 2 93v147q0 31 -7 41.5t-37 16.5l-4 32q30 11 40 34
q7 17 8 24q2 6 7 33l6 34q37 199 161 199q50 0 82 -26.5t32 -65.5q0 -25 -15.5 -42.5t-39.5 -17.5q-23 0 -36.5 12t-25.5 42q-11 29 -31 29q-29 0 -29 -52q0 -18 3 -65q3 -46 3 -88v-35h161q3 40 14 110q36 199 160 199zM828 170v29q-28 -11 -46 -20q-66 -35 -66 -79
q0 -17 10.5 -27.5t28.5 -10.5q30 0 51.5 29.5t21.5 78.5zM828 253v25q0 40 -21 61q-21 22 -57 22q-46 0 -96 -35l-31 43q21 34 65 57t93 23q85 0 128 -54q35 -44 35 -118v-79q0 -47 1 -68q1 -58 48 -86l-13 -49q-18 -3 -34 -3q-96 0 -111 78h-2q-38 -86 -124 -86
q-47 0 -76 28t-29 71q0 67 68 108q48 30 156 62zM676 643q0 51 36 88q37 37 88 37t88 -37t37 -88t-37 -88q-38 -36 -88 -36q-52 0 -88 36t-36 88zM799 588q23 0 38.5 15.5t15.5 38.5t-15.5 39.5t-38.5 16.5q-22 0 -37 -16.5t-15 -39.5t15 -38.5t37 -15.5z" />
    <glyph glyph-name="ffedieresis" unicode="ff&#xeb;" horiz-adv-x="1052" 
d="M529 743q50 0 82 -26.5t32 -65.5q0 -25 -15.5 -42.5t-39.5 -17.5q-23 0 -36.5 12t-25.5 42q-11 29 -31 29q-29 0 -29 -52q0 -18 3 -65q3 -46 3 -88v-35q20 0 40.5 1t40.5 2t29 1l8 -20l-8 -46h-110v-190q0 -40 4 -93q2 -30 12.5 -43.5t37.5 -23.5l-3 -23q-41 3 -111 3
q-62 0 -102 -3l-3 23q27 11 36 24.5t10 42.5q2 80 2 93v115q0 44 -12.5 59.5t-49.5 15.5h-99v-190q0 -40 4 -93q2 -30 12.5 -43.5t37.5 -23.5l-3 -23q-41 3 -111 3q-62 0 -102 -3l-3 23q27 11 36 24.5t10 42.5q2 80 2 93v147q0 31 -7 41.5t-37 16.5l-4 32q30 11 40 34
q7 17 8 24q2 6 7 33l6 34q37 199 161 199q50 0 82 -26.5t32 -65.5q0 -25 -15.5 -42.5t-39.5 -17.5q-23 0 -36.5 12t-25.5 42q-11 29 -31 29q-29 0 -29 -52q0 -18 3 -65q3 -46 3 -88v-35h161q3 40 14 110q36 199 160 199zM606 208q0 105 65 175q66 69 161 69q85 0 137 -49
t52 -126q0 -13 -2 -29h-297q-1 -4 -1 -14q0 -65 34.5 -105.5t91.5 -40.5q46 0 76.5 17t64.5 61l32 -20q-62 -162 -192 -162q-96 0 -159 66t-63 158zM728 300h171q-3 94 -75 94q-34 0 -60.5 -26t-35.5 -68zM685 651q0 29 20 49t50 20q29 0 49.5 -20t20.5 -49
q0 -30 -20.5 -50.5t-49.5 -20.5q-30 0 -50 20.5t-20 50.5zM867 651q0 29 19.5 49t49.5 20t50.5 -20t20.5 -49q0 -30 -20.5 -50.5t-50.5 -20.5t-49.5 20.5t-19.5 50.5z" />
    <glyph glyph-name="ffiacute" unicode="ff&#xed;" horiz-adv-x="824" 
d="M560 372h-88v-190q0 -40 4 -93q2 -30 12.5 -43.5t37.5 -23.5l-3 -23q-41 3 -111 3q-62 0 -102 -3l-3 23q27 11 36 24.5t10 42.5q2 80 2 93v115q0 44 -12.5 59.5t-49.5 15.5h-99v-190q0 -40 4 -93q2 -30 12.5 -43.5t37.5 -23.5l-3 -23q-41 3 -111 3q-62 0 -102 -3l-3 23
q27 11 36 24.5t10 42.5q2 80 2 93v147q0 31 -7 41.5t-37 16.5l-4 32q30 11 40 34q7 17 8 24q2 6 7 33l6 34q37 199 161 199q50 0 82 -26.5t32 -65.5q0 -25 -15.5 -42.5t-39.5 -17.5q-23 0 -36.5 12t-25.5 42q-11 29 -31 29q-29 0 -29 -52q0 -18 3 -65q3 -46 3 -88v-35h161
q0 55 11 110q40 199 164 199q50 0 83 -26.5t33 -65.5q0 -25 -16.5 -42.5t-40.5 -17.5q-43 0 -65 54q-12 29 -30 29q-27 0 -27 -52q0 -3 2 -65q3 -46 3 -88v-35h155q64 0 107 25l21 -8q-5 -117 -5 -181v-88q0 -13 2 -93q1 -30 8 -43.5t29 -23.5l-3 -23q-40 3 -96 3
q-62 0 -102 -3l-3 23q27 11 36 24.5t10 42.5q2 80 2 93v37q0 51 -3 94q-2 32 -17.5 45.5t-52.5 13.5zM688 476l-35 13l35 183q15 78 69 78q25 0 42 -18.5t17 -44.5q0 -31 -22 -62z" />
    <glyph glyph-name="ffigrave" unicode="ff&#xec;" horiz-adv-x="824" 
d="M734 459l21 -8q-5 -117 -5 -181v-88q0 -13 2 -93q1 -30 8 -43.5t29 -23.5l-3 -23q-40 3 -96 3q-62 0 -102 -3l-3 23q27 11 36 24.5t10 42.5q2 80 2 93v37q0 51 -3 94q-2 32 -17.5 45.5t-52.5 13.5h-88v-190q0 -40 4 -93q2 -30 12.5 -43.5t37.5 -23.5l-3 -23q-41 3 -111 3
q-62 0 -102 -3l-3 23q27 11 36 24.5t10 42.5q2 80 2 93v115q0 44 -12.5 59.5t-49.5 15.5h-99v-190q0 -40 4 -93q2 -30 12.5 -43.5t37.5 -23.5l-3 -23q-41 3 -111 3q-62 0 -102 -3l-3 23q27 11 36 24.5t10 42.5q2 80 2 93v147q0 31 -7 41.5t-37 16.5l-4 32q30 11 40 34
q7 17 8 24q2 6 7 33l6 34q37 199 161 199q50 0 82 -26.5t32 -65.5q0 -25 -15.5 -42.5t-39.5 -17.5q-23 0 -36.5 12t-25.5 42q-11 29 -31 29q-29 0 -29 -52q0 -18 3 -65q3 -46 3 -88v-35h161q0 61 11 110q22 96 72.5 147.5t125.5 51.5q63 0 96.5 -26t45.5 -85l30 -143
l-35 -13l-94 147q-21 35 -36.5 48t-32.5 13q-66 0 -66 -170v-80h155q64 0 107 25z" />
    <glyph glyph-name="fficircumflex" unicode="ff&#xee;" horiz-adv-x="884" 
d="M529 743q50 0 82 -26.5t32 -65.5q0 -25 -15.5 -42.5t-39.5 -17.5q-23 0 -36.5 12t-25.5 42q-11 29 -31 29q-29 0 -29 -52q0 -18 3 -65q3 -46 3 -88v-35q20 0 40.5 1t40.5 2t29 1l8 -20l-8 -46h-110v-190q0 -40 4 -93q2 -30 12.5 -43.5t37.5 -23.5l-3 -23q-41 3 -111 3
q-62 0 -102 -3l-3 23q27 11 36 24.5t10 42.5q2 80 2 93v115q0 44 -12.5 59.5t-49.5 15.5h-99v-190q0 -40 4 -93q2 -30 12.5 -43.5t37.5 -23.5l-3 -23q-41 3 -111 3q-62 0 -102 -3l-3 23q27 11 36 24.5t10 42.5q2 80 2 93v147q0 31 -7 41.5t-37 16.5l-4 32q30 11 40 34
q7 17 8 24q2 6 7 33l6 34q37 199 161 199q50 0 82 -26.5t32 -65.5q0 -25 -15.5 -42.5t-39.5 -17.5q-23 0 -36.5 12t-25.5 42q-11 29 -31 29q-29 0 -29 -52q0 -18 3 -65q3 -46 3 -88v-35h161q3 40 14 110q36 199 160 199zM810 263v-81q0 -13 2 -93q1 -30 8 -43.5t29 -23.5
l-3 -23q-40 3 -96 3q-62 0 -102 -3l-3 23q27 11 36 24.5t10 42.5q2 80 2 93v37q-2 94 -8 113t-44 27v21q73 24 153 72l21 -8q-5 -93 -5 -181zM650 495l-31 25l101 200q14 27 35 27t35 -27l101 -200l-31 -25l-105 110z" />
    <glyph glyph-name="ffidieresis" unicode="ff&#xef;" horiz-adv-x="854" 
d="M735 651q0 29 19.5 49t49.5 20t50.5 -20t20.5 -49q0 -30 -20.5 -50.5t-50.5 -20.5t-49.5 20.5t-19.5 50.5zM366 544q21 96 71.5 147.5t125.5 51.5q60 0 95.5 -27.5t35.5 -72.5q0 -27 -17.5 -44.5t-44.5 -17.5q-50 0 -70 54q-3 7 -6 16.5t-4.5 13.5t-4.5 8.5t-6.5 6
t-9.5 1.5q-59 0 -59 -167v-80h185q64 0 107 25l21 -8q-5 -117 -5 -181v-88q0 -13 2 -93q1 -30 8 -43.5t29 -23.5l-3 -23q-40 3 -96 3q-62 0 -102 -3l-3 23q27 11 36 24.5t10 42.5q2 80 2 93v37q0 51 -3 94q-2 29 -29 44t-71 15h-88v-190q0 -40 4 -93q2 -30 12.5 -43.5
t37.5 -23.5l-3 -23q-41 3 -111 3q-62 0 -102 -3l-3 23q27 11 36 24.5t10 42.5q2 80 2 93v115q0 44 -12.5 59.5t-49.5 15.5h-99v-190q0 -40 4 -93q2 -30 12.5 -43.5t37.5 -23.5l-3 -23q-41 3 -111 3q-62 0 -102 -3l-3 23q27 11 36 24.5t10 42.5q2 80 2 93v147q0 31 -7 41.5
t-37 16.5l-4 32q30 11 40 34q7 17 8 24q2 6 7 33l6 34q37 199 161 199q50 0 82 -26.5t32 -65.5q0 -25 -15.5 -42.5t-39.5 -17.5q-23 0 -36.5 12t-25.5 42q-11 29 -31 29q-29 0 -29 -52q0 -18 3 -65q3 -46 3 -88v-35h161q0 55 11 110z" />
    <glyph glyph-name="ffodieresis" unicode="ff&#xf6;" horiz-adv-x="1107" 
d="M529 743q50 0 82 -26.5t32 -65.5q0 -25 -15.5 -42.5t-39.5 -17.5q-23 0 -36.5 12t-25.5 42q-11 29 -31 29q-29 0 -29 -52q0 -18 3 -65q3 -46 3 -88v-35q20 0 40.5 1t40.5 2t29 1l8 -20l-8 -46h-110v-190q0 -40 4 -93q2 -30 12.5 -43.5t37.5 -23.5l-3 -23q-41 3 -111 3
q-62 0 -102 -3l-3 23q27 11 36 24.5t10 42.5q2 80 2 93v115q0 44 -12.5 59.5t-49.5 15.5h-99v-190q0 -40 4 -93q2 -30 12.5 -43.5t37.5 -23.5l-3 -23q-41 3 -111 3q-62 0 -102 -3l-3 23q27 11 36 24.5t10 42.5q2 80 2 93v147q0 31 -7 41.5t-37 16.5l-4 32q30 11 40 34
q7 17 8 24q2 6 7 33l6 34q37 199 161 199q50 0 82 -26.5t32 -65.5q0 -25 -15.5 -42.5t-39.5 -17.5q-23 0 -36.5 12t-25.5 42q-11 29 -31 29q-29 0 -29 -52q0 -18 3 -65q3 -46 3 -88v-35h161q3 40 14 110q36 199 160 199zM841 393q-50 0 -79.5 -44t-29.5 -124
q0 -87 31.5 -135.5t86.5 -48.5q49 0 77.5 44.5t28.5 124.5q0 83 -34 132q-33 51 -81 51zM604 217q0 97 69 165q69 69 171 69q106 0 173 -67q68 -68 68 -167q0 -98 -68 -166t-168 -68q-109 0 -177 67q-68 68 -68 167zM693 651q0 29 20 49t50 20q29 0 49.5 -20t20.5 -49
q0 -30 -20.5 -50.5t-49.5 -20.5q-30 0 -50 20.5t-20 50.5zM875 651q0 29 19.5 49t49.5 20t50.5 -20t20.5 -49q0 -30 -20.5 -50.5t-50.5 -20.5t-49.5 20.5t-19.5 50.5z" />
    <glyph glyph-name="ffotilde" unicode="ff&#xf5;" horiz-adv-x="1107" 
d="M529 743q50 0 82 -26.5t32 -65.5q0 -25 -15.5 -42.5t-39.5 -17.5q-23 0 -36.5 12t-25.5 42q-11 29 -31 29q-29 0 -29 -52q0 -18 3 -65q3 -46 3 -88v-35q20 0 40.5 1t40.5 2t29 1l8 -20l-8 -46h-110v-190q0 -40 4 -93q2 -30 12.5 -43.5t37.5 -23.5l-3 -23q-41 3 -111 3
q-62 0 -102 -3l-3 23q27 11 36 24.5t10 42.5q2 80 2 93v115q0 44 -12.5 59.5t-49.5 15.5h-99v-190q0 -40 4 -93q2 -30 12.5 -43.5t37.5 -23.5l-3 -23q-41 3 -111 3q-62 0 -102 -3l-3 23q27 11 36 24.5t10 42.5q2 80 2 93v147q0 31 -7 41.5t-37 16.5l-4 32q30 11 40 34
q7 17 8 24q2 6 7 33l6 34q37 199 161 199q50 0 82 -26.5t32 -65.5q0 -25 -15.5 -42.5t-39.5 -17.5q-23 0 -36.5 12t-25.5 42q-11 29 -31 29q-29 0 -29 -52q0 -18 3 -65q3 -46 3 -88v-35h161q3 40 14 110q36 199 160 199zM841 393q-50 0 -79.5 -44t-29.5 -124
q0 -87 31.5 -135.5t86.5 -48.5q49 0 77.5 44.5t28.5 124.5q0 83 -34 132q-33 51 -81 51zM604 217q0 97 69 165q69 69 171 69q106 0 173 -67q68 -68 68 -167q0 -98 -68 -166t-168 -68q-109 0 -177 67q-68 68 -68 167zM775 622q-32 0 -67 -26l-22 14q14 46 45.5 73.5
t67.5 27.5q27 0 62 -19q17 -8 33 -17q13 -6 35 -6q33 0 70 27l22 -16q-36 -99 -117 -99q-27 0 -63 18q-44 23 -66 23z" />
    <glyph glyph-name="ffutilde" unicode="ff&#x169;" horiz-adv-x="1108" 
d="M529 743q50 0 82 -26.5t32 -65.5q0 -25 -15.5 -42.5t-39.5 -17.5q-23 0 -36.5 12t-25.5 42q-11 29 -31 29q-29 0 -29 -52q0 -18 3 -65q3 -46 3 -88v-35q20 0 40.5 1t40.5 2t29 1l8 -20l-8 -46h-110v-190q0 -40 4 -93q2 -30 12.5 -43.5t37.5 -23.5l-3 -23q-41 3 -111 3
q-62 0 -102 -3l-3 23q27 11 36 24.5t10 42.5q2 80 2 93v115q0 44 -12.5 59.5t-49.5 15.5h-99v-190q0 -40 4 -93q2 -30 12.5 -43.5t37.5 -23.5l-3 -23q-41 3 -111 3q-62 0 -102 -3l-3 23q27 11 36 24.5t10 42.5q2 80 2 93v147q0 31 -7 41.5t-37 16.5l-4 32q30 11 40 34
q7 17 8 24q2 6 7 33l6 34q37 199 161 199q50 0 82 -26.5t32 -65.5q0 -25 -15.5 -42.5t-39.5 -17.5q-23 0 -36.5 12t-25.5 42q-11 29 -31 29q-29 0 -29 -52q0 -18 3 -65q3 -46 3 -88v-35h161q3 40 14 110q36 199 160 199zM1032 257v-50q2 -94 8 -113t44 -27v-21
q-68 -26 -141 -62l-22 5l-3 81l-3 1q-48 -89 -128 -89q-73 0 -110 60q-23 38 -23 97v100q0 63 -3 95q-2 30 -12.5 45t-35.5 27l3 26q88 1 172 5q-7 -111 -7 -180v-115q0 -72 63 -72q38 0 59.5 23.5t21.5 63.5v82q0 63 -3 95q-2 30 -12.5 45t-35.5 27l3 26q88 1 172 5
q-7 -111 -7 -180zM770 622q-32 0 -67 -26l-22 14q14 46 45.5 73.5t67.5 27.5q27 0 62 -19q17 -8 33 -17q13 -6 35 -6q32 0 70 27l22 -16q-36 -99 -117 -99q-27 0 -63 18q-44 23 -66 23z" />
    <glyph glyph-name="ffscaron" unicode="ff&#x161;" horiz-adv-x="949" 
d="M529 743q50 0 82 -26.5t32 -65.5q0 -25 -15.5 -42.5t-39.5 -17.5q-23 0 -36.5 12t-25.5 42q-11 29 -31 29q-29 0 -29 -52q0 -18 3 -65q3 -46 3 -88v-35q20 0 40.5 1t40.5 2t29 1l8 -20l-8 -46h-110v-190q0 -40 4 -93q2 -30 12.5 -43.5t37.5 -23.5l-3 -23q-41 3 -111 3
q-62 0 -102 -3l-3 23q27 11 36 24.5t10 42.5q2 80 2 93v115q0 44 -12.5 59.5t-49.5 15.5h-99v-190q0 -40 4 -93q2 -30 12.5 -43.5t37.5 -23.5l-3 -23q-41 3 -111 3q-62 0 -102 -3l-3 23q27 11 36 24.5t10 42.5q2 80 2 93v147q0 31 -7 41.5t-37 16.5l-4 32q30 11 40 34
q7 17 8 24q2 6 7 33l6 34q37 199 161 199q50 0 82 -26.5t32 -65.5q0 -25 -15.5 -42.5t-39.5 -17.5q-23 0 -36.5 12t-25.5 42q-11 29 -31 29q-29 0 -29 -52q0 -18 3 -65q3 -46 3 -88v-35h161q3 40 14 110q36 199 160 199zM771 36q24 0 37.5 13.5t13.5 34.5q0 24 -17.5 43
t-62.5 44q-63 35 -90.5 68.5t-27.5 75.5q0 57 44 96q45 39 107 39q69 0 111 -33q33 -25 33 -60q0 -24 -13.5 -37.5t-35.5 -13.5q-36 0 -57 47q-12 25 -21.5 35t-26.5 10q-19 0 -30.5 -13.5t-11.5 -36.5q0 -21 20 -41t74 -50q60 -35 84.5 -67t24.5 -72q0 -62 -46 -99
q-45 -36 -112 -36q-86 0 -126 36q-34 30 -34 67q0 26 14.5 41t36.5 15q44 0 59 -56q6 -26 15.5 -36.5t37.5 -13.5zM754 522l-101 200l31 25l105 -110l105 110l31 -25l-101 -200q-14 -27 -35 -27t-35 27z" />
    <glyph glyph-name="ffydieresis" unicode="ff&#xff;" horiz-adv-x="1066" 
d="M529 743q50 0 82 -26.5t32 -65.5q0 -25 -15.5 -42.5t-39.5 -17.5q-23 0 -36.5 12t-25.5 42q-11 29 -31 29q-29 0 -29 -52q0 -18 3 -65q3 -46 3 -88v-35q20 0 40.5 1t40.5 2t29 1l8 -20l-8 -46h-110v-190q0 -40 4 -93q2 -30 12.5 -43.5t37.5 -23.5l-3 -23q-41 3 -111 3
q-62 0 -102 -3l-3 23q27 11 36 24.5t10 42.5q2 80 2 93v115q0 44 -12.5 59.5t-49.5 15.5h-99v-190q0 -40 4 -93q2 -30 12.5 -43.5t37.5 -23.5l-3 -23q-41 3 -111 3q-62 0 -102 -3l-3 23q27 11 36 24.5t10 42.5q2 80 2 93v147q0 31 -7 41.5t-37 16.5l-4 32q30 11 40 34
q7 17 8 24q2 6 7 33l6 34q37 199 161 199q50 0 82 -26.5t32 -65.5q0 -25 -15.5 -42.5t-39.5 -17.5q-23 0 -36.5 12t-25.5 42q-11 29 -31 29q-29 0 -29 -52q0 -18 3 -65q3 -46 3 -88v-35h161q3 40 14 110q36 199 160 199zM765 -111l36 86l-116 276q-2 5 -18.5 45t-24.5 56
q-19 39 -43 58l4 23q29 -3 102 -3q66 0 99 3l3 -24q-18 -10 -24.5 -19t-6.5 -24q0 -35 31 -113l53 -135l53 139q21 55 21 95q0 21 -6.5 32.5t-27.5 25.5l4 23q33 -3 81 -3q45 0 80 3l3 -23q-38 -29 -58 -70q-21 -44 -39 -89l-153 -384q-30 -76 -64.5 -109.5t-80.5 -33.5
q-34 0 -56.5 18t-22.5 48q0 28 18.5 45t45.5 17q10 0 30 -6t25 -6q18 0 29 10.5t23 38.5zM693 651q0 29 20 49t50 20q29 0 49.5 -20t20.5 -49q0 -30 -20.5 -50.5t-49.5 -20.5q-30 0 -50 20.5t-20 50.5zM875 651q0 29 19.5 49t49.5 20t50.5 -20t20.5 -49q0 -30 -20.5 -50.5
t-50.5 -20.5t-49.5 20.5t-19.5 50.5z" />
    <glyph glyph-name="fflcaron" unicode="ff&#x13e;" horiz-adv-x="865" 
d="M33 387l-4 32q30 11 40 34q7 17 8 24q2 6 7 33l6 34q37 199 161 199q50 0 82 -26.5t32 -65.5q0 -25 -15.5 -42.5t-39.5 -17.5q-23 0 -36.5 12t-25.5 42q-11 29 -31 29q-29 0 -29 -52q0 -18 3 -65q3 -46 3 -88v-35h161q2 67 12 110q49 199 211 199q66 0 104 -23l52 32
l21 -8q-5 -93 -5 -181v-381q0 -13 2 -93q1 -30 8 -43.5t29 -23.5l-3 -23q-40 3 -96 3q-62 0 -102 -3l-3 23q27 11 36 24.5t10 42.5q2 80 2 93v337q0 51 -4 80q-9 85 -68 85q-89 0 -89 -170v-80q20 0 40.5 1t40.5 2t29 1l8 -20l-8 -46h-110v-190q0 -40 4 -93
q2 -30 12.5 -43.5t37.5 -23.5l-3 -23q-41 3 -111 3q-62 0 -102 -3l-3 23q27 11 36 24.5t10 42.5q2 80 2 93v115q0 44 -12.5 59.5t-49.5 15.5h-99v-190q0 -40 4 -93q2 -30 12.5 -43.5t37.5 -23.5l-3 -23q-41 3 -111 3q-62 0 -102 -3l-3 23q27 11 36 24.5t10 42.5q2 80 2 93
v147q0 31 -7 41.5t-37 16.5zM945 655q0 -51 -35 -89t-94 -50l-10 31q67 24 67 64q0 17 -27 31q-38 18 -38 58q0 22 17 38t41 16q33 0 56 -29t23 -70z" />
    <glyph glyph-name="ffzdotaccent" unicode="ff&#x17c;" horiz-adv-x="1022" 
d="M529 743q50 0 82 -26.5t32 -65.5q0 -25 -15.5 -42.5t-39.5 -17.5q-23 0 -36.5 12t-25.5 42q-11 29 -31 29q-29 0 -29 -52q0 -18 3 -65q3 -46 3 -88v-35q20 0 40.5 1t40.5 2t29 1l8 -20l-8 -46h-110v-190q0 -40 4 -93q2 -30 12.5 -43.5t37.5 -23.5l-3 -23q-41 3 -111 3
q-62 0 -102 -3l-3 23q27 11 36 24.5t10 42.5q2 80 2 93v115q0 44 -12.5 59.5t-49.5 15.5h-99v-190q0 -40 4 -93q2 -30 12.5 -43.5t37.5 -23.5l-3 -23q-41 3 -111 3q-62 0 -102 -3l-3 23q27 11 36 24.5t10 42.5q2 80 2 93v147q0 31 -7 41.5t-37 16.5l-4 32q30 11 40 34
q7 17 8 24q2 6 7 33l6 34q37 199 161 199q50 0 82 -26.5t32 -65.5q0 -25 -15.5 -42.5t-39.5 -17.5q-23 0 -36.5 12t-25.5 42q-11 29 -31 29q-29 0 -29 -52q0 -18 3 -65q3 -46 3 -88v-35h161q3 40 14 110q36 199 160 199zM747 431h86q53 0 149 3l10 -34q-9 -14 -61 -90
l-178 -254l1 -4q79 0 104 4q36 6 61 34q19 21 42 78l32 -5l-15 -168q-31 1 -65.5 2.5t-49 2t-18.5 0.5h-110q-17 0 -123 -2l-12 40l70 95l174 245h-21q-74 0 -105 -10q-23 -7 -39.5 -27.5t-31.5 -61.5l-32 7q6 78 19 150q55 -5 113 -5zM748 603q-21 22 -21 55t21 54
q22 22 55 22t54 -22q22 -21 22 -54t-22 -55q-21 -21 -54 -21t-55 21z" />
    <glyph glyph-name="ffabreve" unicode="ff&#x103;" horiz-adv-x="1028" 
d="M529 743q50 0 82 -26.5t32 -65.5q0 -25 -15.5 -42.5t-39.5 -17.5q-23 0 -36.5 12t-25.5 42q-11 29 -31 29q-29 0 -29 -52q0 -18 3 -65q3 -46 3 -88v-35q20 0 40.5 1t40.5 2t29 1l8 -20l-8 -46h-110v-190q0 -40 4 -93q2 -30 12.5 -43.5t37.5 -23.5l-3 -23q-41 3 -111 3
q-62 0 -102 -3l-3 23q27 11 36 24.5t10 42.5q2 80 2 93v115q0 44 -12.5 59.5t-49.5 15.5h-99v-190q0 -40 4 -93q2 -30 12.5 -43.5t37.5 -23.5l-3 -23q-41 3 -111 3q-62 0 -102 -3l-3 23q27 11 36 24.5t10 42.5q2 80 2 93v147q0 31 -7 41.5t-37 16.5l-4 32q30 11 40 34
q7 17 8 24q2 6 7 33l6 34q37 199 161 199q50 0 82 -26.5t32 -65.5q0 -25 -15.5 -42.5t-39.5 -17.5q-23 0 -36.5 12t-25.5 42q-11 29 -31 29q-29 0 -29 -52q0 -18 3 -65q3 -46 3 -88v-35h161q3 40 14 110q36 199 160 199zM848 170v29q-28 -11 -46 -20q-66 -35 -66 -79
q0 -17 10.5 -27.5t28.5 -10.5q30 0 51.5 29.5t21.5 78.5zM848 253v25q0 40 -21 61q-21 22 -57 22q-46 0 -96 -35l-31 43q21 34 65 57t93 23q85 0 128 -54q35 -44 35 -118v-79q0 -47 1 -68q1 -58 48 -86l-13 -49q-18 -3 -34 -3q-96 0 -111 78h-2q-38 -86 -124 -86
q-47 0 -76 28t-29 71q0 67 68 108q48 30 156 62zM669 738l43 4q15 -67 38.5 -97t59.5 -30t59.5 30t38.5 97l43 -4q-4 -108 -41.5 -165.5t-99.5 -57.5t-99.5 57.5t-41.5 165.5z" />
    <glyph glyph-name="fflacute" unicode="ff&#x13a;" horiz-adv-x="819" 
d="M33 387l-4 32q30 11 40 34q7 17 8 24q2 6 7 33l6 34q37 199 161 199q50 0 82 -26.5t32 -65.5q0 -25 -15.5 -42.5t-39.5 -17.5q-23 0 -36.5 12t-25.5 42q-11 29 -31 29q-29 0 -29 -52q0 -18 3 -65q3 -46 3 -88v-35h161q2 67 12 110q49 199 211 199q66 0 104 -23l52 32
l21 -8q-5 -93 -5 -181v-381q0 -13 2 -93q1 -30 8 -43.5t29 -23.5l-3 -23q-40 3 -96 3q-62 0 -102 -3l-3 23q27 11 36 24.5t10 42.5q2 80 2 93v337q0 51 -4 80q-9 85 -68 85q-89 0 -89 -170v-80q20 0 40.5 1t40.5 2t29 1l8 -20l-8 -46h-110v-190q0 -40 4 -93
q2 -30 12.5 -43.5t37.5 -23.5l-3 -23q-41 3 -111 3q-62 0 -102 -3l-3 23q27 11 36 24.5t10 42.5q2 80 2 93v115q0 44 -12.5 59.5t-49.5 15.5h-99v-190q0 -40 4 -93q2 -30 12.5 -43.5t37.5 -23.5l-3 -23q-41 3 -111 3q-62 0 -102 -3l-3 23q27 11 36 24.5t10 42.5q2 80 2 93
v147q0 31 -7 41.5t-37 16.5zM749 803l-183 -38l-12 34l148 102q35 23 62 23t43.5 -14t16.5 -39q0 -53 -75 -68z" />
    <glyph glyph-name="ffccaron" unicode="ff&#x10d;" horiz-adv-x="1036" 
d="M529 743q50 0 82 -26.5t32 -65.5q0 -25 -15.5 -42.5t-39.5 -17.5q-23 0 -36.5 12t-25.5 42q-11 29 -31 29q-29 0 -29 -52q0 -18 3 -65q3 -46 3 -88v-35q20 0 40.5 1t40.5 2t29 1l8 -20l-8 -46h-110v-190q0 -40 4 -93q2 -30 12.5 -43.5t37.5 -23.5l-3 -23q-41 3 -111 3
q-62 0 -102 -3l-3 23q27 11 36 24.5t10 42.5q2 80 2 93v115q0 44 -12.5 59.5t-49.5 15.5h-99v-190q0 -40 4 -93q2 -30 12.5 -43.5t37.5 -23.5l-3 -23q-41 3 -111 3q-62 0 -102 -3l-3 23q27 11 36 24.5t10 42.5q2 80 2 93v147q0 31 -7 41.5t-37 16.5l-4 32q30 11 40 34
q7 17 8 24q2 6 7 33l6 34q37 199 161 199q50 0 82 -26.5t32 -65.5q0 -25 -15.5 -42.5t-39.5 -17.5q-23 0 -36.5 12t-25.5 42q-11 29 -31 29q-29 0 -29 -52q0 -18 3 -65q3 -46 3 -88v-35h161q3 40 14 110q36 199 160 199zM831 395q-46 0 -77 -42t-31 -112t34 -112t92 -42
q41 0 71 16.5t60 54.5l29 -19q-53 -156 -186 -156q-93 0 -157 66q-63 68 -63 158q0 106 69 175q70 69 168 69q83 0 133 -44q40 -36 40 -82q0 -30 -17 -49.5t-45 -19.5q-56 0 -65 68q-9 71 -55 71zM797 522l-101 200l31 25l105 -110l105 110l31 -25l-101 -200
q-13 -27 -35 -27t-35 27z" />
    <glyph glyph-name="ffecaron" unicode="ff&#x11b;" horiz-adv-x="1052" 
d="M529 743q50 0 82 -26.5t32 -65.5q0 -25 -15.5 -42.5t-39.5 -17.5q-23 0 -36.5 12t-25.5 42q-11 29 -31 29q-29 0 -29 -52q0 -18 3 -65q3 -46 3 -88v-35q20 0 40.5 1t40.5 2t29 1l8 -20l-8 -46h-110v-190q0 -40 4 -93q2 -30 12.5 -43.5t37.5 -23.5l-3 -23q-41 3 -111 3
q-62 0 -102 -3l-3 23q27 11 36 24.5t10 42.5q2 80 2 93v115q0 44 -12.5 59.5t-49.5 15.5h-99v-190q0 -40 4 -93q2 -30 12.5 -43.5t37.5 -23.5l-3 -23q-41 3 -111 3q-62 0 -102 -3l-3 23q27 11 36 24.5t10 42.5q2 80 2 93v147q0 31 -7 41.5t-37 16.5l-4 32q30 11 40 34
q7 17 8 24q2 6 7 33l6 34q37 199 161 199q50 0 82 -26.5t32 -65.5q0 -25 -15.5 -42.5t-39.5 -17.5q-23 0 -36.5 12t-25.5 42q-11 29 -31 29q-29 0 -29 -52q0 -18 3 -65q3 -46 3 -88v-35h161q3 40 14 110q36 199 160 199zM606 208q0 105 65 175q66 69 161 69q85 0 137 -49
t52 -126q0 -13 -2 -29h-297q-1 -4 -1 -14q0 -65 34.5 -105.5t91.5 -40.5q46 0 76.5 17t64.5 61l32 -20q-62 -162 -192 -162q-96 0 -159 66t-63 158zM728 300h171q-3 94 -75 94q-34 0 -60.5 -26t-35.5 -68zM791 522l-101 200l31 25l105 -110l105 110l31 -25l-101 -200
q-13 -27 -35 -27t-35 27z" />
    <glyph glyph-name="ffrcaron" unicode="ff&#x159;" horiz-adv-x="960" 
d="M529 743q50 0 82 -26.5t32 -65.5q0 -25 -15.5 -42.5t-39.5 -17.5q-23 0 -36.5 12t-25.5 42q-11 29 -31 29q-29 0 -29 -52q0 -18 3 -65q3 -46 3 -88v-35q20 0 40.5 1t40.5 2t29 1l8 -20l-8 -46h-110v-190q0 -40 4 -93q2 -30 12.5 -43.5t37.5 -23.5l-3 -23q-41 3 -111 3
q-62 0 -102 -3l-3 23q27 11 36 24.5t10 42.5q2 80 2 93v115q0 44 -12.5 59.5t-49.5 15.5h-99v-190q0 -40 4 -93q2 -30 12.5 -43.5t37.5 -23.5l-3 -23q-41 3 -111 3q-62 0 -102 -3l-3 23q27 11 36 24.5t10 42.5q2 80 2 93v147q0 31 -7 41.5t-37 16.5l-4 32q30 11 40 34
q7 17 8 24q2 6 7 33l6 34q37 199 161 199q50 0 82 -26.5t32 -65.5q0 -25 -15.5 -42.5t-39.5 -17.5q-23 0 -36.5 12t-25.5 42q-11 29 -31 29q-29 0 -29 -52q0 -18 3 -65q3 -46 3 -88v-35h161q3 40 14 110q36 199 160 199zM778 342h2q40 109 112 109q33 0 55 -21.5t22 -52.5
q0 -29 -16.5 -46.5t-41.5 -17.5q-21 0 -42 15q-20 16 -35 16q-13 2 -24.5 -9t-20.5 -41t-9 -76v-36q0 -53 2 -93q2 -31 9 -44t28 -23l-3 -23q-40 3 -96 3q-62 0 -102 -3l-3 23q27 11 36 24.5t10 42.5q2 80 2 93v37q-2 94 -8 113t-44 27v21q73 24 153 72l21 -8
q-7 -45 -7 -102zM776 522l-101 200l31 25l105 -110l105 110l31 -25l-101 -200q-14 -27 -35 -27t-35 27z" />
    <glyph glyph-name="ffamacron" unicode="ff&#x101;" horiz-adv-x="1028" 
d="M529 743q50 0 82 -26.5t32 -65.5q0 -25 -15.5 -42.5t-39.5 -17.5q-23 0 -36.5 12t-25.5 42q-11 29 -31 29q-29 0 -29 -52q0 -18 3 -65q3 -46 3 -88v-35q20 0 40.5 1t40.5 2t29 1l8 -20l-8 -46h-110v-190q0 -40 4 -93q2 -30 12.5 -43.5t37.5 -23.5l-3 -23q-41 3 -111 3
q-62 0 -102 -3l-3 23q27 11 36 24.5t10 42.5q2 80 2 93v115q0 44 -12.5 59.5t-49.5 15.5h-99v-190q0 -40 4 -93q2 -30 12.5 -43.5t37.5 -23.5l-3 -23q-41 3 -111 3q-62 0 -102 -3l-3 23q27 11 36 24.5t10 42.5q2 80 2 93v147q0 31 -7 41.5t-37 16.5l-4 32q30 11 40 34
q7 17 8 24q2 6 7 33l6 34q37 199 161 199q50 0 82 -26.5t32 -65.5q0 -25 -15.5 -42.5t-39.5 -17.5q-23 0 -36.5 12t-25.5 42q-11 29 -31 29q-29 0 -29 -52q0 -18 3 -65q3 -46 3 -88v-35h161q3 40 14 110q36 199 160 199zM848 170v29q-28 -11 -46 -20q-66 -35 -66 -79
q0 -17 10.5 -27.5t28.5 -10.5q30 0 51.5 29.5t21.5 78.5zM848 253v25q0 40 -21 61q-21 22 -57 22q-46 0 -96 -35l-31 43q21 34 65 57t93 23q85 0 128 -54q35 -44 35 -118v-79q0 -47 1 -68q1 -58 48 -86l-13 -49q-18 -3 -34 -3q-96 0 -111 78h-2q-38 -86 -124 -86
q-47 0 -76 28t-29 71q0 67 68 108q48 30 156 62zM961 606h-283v76h283v-76z" />
    <glyph glyph-name="ffemacron" unicode="ff&#x113;" horiz-adv-x="1059" 
d="M529 743q50 0 82 -26.5t32 -65.5q0 -25 -15.5 -42.5t-39.5 -17.5q-23 0 -36.5 12t-25.5 42q-11 29 -31 29q-29 0 -29 -52q0 -18 3 -65q3 -46 3 -88v-35q20 0 40.5 1t40.5 2t29 1l8 -20l-8 -46h-110v-190q0 -40 4 -93q2 -30 12.5 -43.5t37.5 -23.5l-3 -23q-41 3 -111 3
q-62 0 -102 -3l-3 23q27 11 36 24.5t10 42.5q2 80 2 93v115q0 44 -12.5 59.5t-49.5 15.5h-99v-190q0 -40 4 -93q2 -30 12.5 -43.5t37.5 -23.5l-3 -23q-41 3 -111 3q-62 0 -102 -3l-3 23q27 11 36 24.5t10 42.5q2 80 2 93v147q0 31 -7 41.5t-37 16.5l-4 32q30 11 40 34
q7 17 8 24q2 6 7 33l6 34q37 199 161 199q50 0 82 -26.5t32 -65.5q0 -25 -15.5 -42.5t-39.5 -17.5q-23 0 -36.5 12t-25.5 42q-11 29 -31 29q-29 0 -29 -52q0 -18 3 -65q3 -46 3 -88v-35h161q3 40 14 110q36 199 160 199zM613 208q0 105 65 175q66 69 161 69q85 0 137 -49
t52 -126q0 -13 -2 -29h-297q-1 -4 -1 -14q0 -65 34.5 -105.5t91.5 -40.5q46 0 76.5 17t64.5 61l32 -20q-61 -162 -192 -162q-96 0 -159 66t-63 158zM735 300h171q-3 94 -75 94q-34 0 -60.5 -26t-35.5 -68zM982 606h-283v76h283v-76z" />
    <glyph glyph-name="ffiogonek" unicode="ff&#x12f;" horiz-adv-x="824" 
d="M758 -92l25 -9q-12 -48 -39 -74t-63 -26q-40 0 -64 22t-24 58q0 66 90 123q-57 0 -95 -3l-3 23q27 11 36 24.5t10 42.5q2 80 2 93v37q0 51 -3 94q-2 32 -17.5 45.5t-52.5 13.5h-88v-190q0 -40 4 -93q2 -30 12.5 -43.5t37.5 -23.5l-3 -23q-41 3 -111 3q-62 0 -102 -3
l-3 23q27 11 36 24.5t10 42.5q2 80 2 93v115q0 44 -12.5 59.5t-49.5 15.5h-99v-190q0 -40 4 -93q2 -30 12.5 -43.5t37.5 -23.5l-3 -23q-41 3 -111 3q-62 0 -102 -3l-3 23q27 11 36 24.5t10 42.5q2 80 2 93v147q0 31 -7 41.5t-37 16.5l-4 32q30 11 40 34q7 17 8 24q2 6 7 33
l6 34q37 199 161 199q50 0 82 -26.5t32 -65.5q0 -25 -15.5 -42.5t-39.5 -17.5q-23 0 -36.5 12t-25.5 42q-11 29 -31 29q-29 0 -29 -52q0 -18 3 -65q3 -46 3 -88v-35h161q0 60 12 110q24 95 79.5 147t137.5 52q77 0 122 -29.5t45 -78.5q0 -27 -17.5 -44.5t-46.5 -17.5
q-56 0 -75 61q-9 28 -19.5 39t-31.5 11q-89 0 -89 -170v-80h155q64 0 107 25l21 -8q-5 -117 -5 -181v-88q0 -13 2 -93q1 -30 8 -43.5t29 -23.5l-3 -23q-40 3 -67 3q-49 -45 -49 -101q0 -37 36 -37q28 0 52 44z" />
    <glyph glyph-name="ffimacron" unicode="ff&#x12b;" horiz-adv-x="824" 
d="M530 743q44 0 75 -21.5t37 -54.5h187v-76h-240q-23 0 -36.5 12t-25.5 42q-11 29 -31 29q-29 0 -29 -52q0 -3 2 -65q3 -46 3 -88v-35h155q64 0 107 25l21 -8q-5 -117 -5 -181v-88q0 -13 2 -93q1 -30 8 -43.5t29 -23.5l-3 -23q-40 3 -96 3q-62 0 -102 -3l-3 23
q27 11 36 24.5t10 42.5q2 80 2 93v37q0 51 -3 94q-2 32 -17.5 45.5t-52.5 13.5h-88v-190q0 -40 4 -93q2 -30 12.5 -43.5t37.5 -23.5l-3 -23q-41 3 -111 3q-62 0 -102 -3l-3 23q27 11 36 24.5t10 42.5q2 80 2 93v115q0 44 -12.5 59.5t-49.5 15.5h-99v-190q0 -40 4 -93
q2 -30 12.5 -43.5t37.5 -23.5l-3 -23q-41 3 -111 3q-62 0 -102 -3l-3 23q27 11 36 24.5t10 42.5q2 80 2 93v147q0 31 -7 41.5t-37 16.5l-4 32q30 11 40 34q7 17 8 24q2 6 7 33l6 34q37 199 161 199q50 0 82 -26.5t32 -65.5q0 -25 -15.5 -42.5t-39.5 -17.5q-23 0 -36.5 12
t-25.5 42q-11 29 -31 29q-29 0 -29 -52q0 -18 3 -65q3 -46 3 -88v-35h161q0 55 11 110q40 199 164 199z" />
    <glyph glyph-name="ffomacron" unicode="ff&#x14d;" horiz-adv-x="1107" 
d="M529 743q50 0 82 -26.5t32 -65.5q0 -25 -15.5 -42.5t-39.5 -17.5q-23 0 -36.5 12t-25.5 42q-11 29 -31 29q-29 0 -29 -52q0 -18 3 -65q3 -46 3 -88v-35q20 0 40.5 1t40.5 2t29 1l8 -20l-8 -46h-110v-190q0 -40 4 -93q2 -30 12.5 -43.5t37.5 -23.5l-3 -23q-41 3 -111 3
q-62 0 -102 -3l-3 23q27 11 36 24.5t10 42.5q2 80 2 93v115q0 44 -12.5 59.5t-49.5 15.5h-99v-190q0 -40 4 -93q2 -30 12.5 -43.5t37.5 -23.5l-3 -23q-41 3 -111 3q-62 0 -102 -3l-3 23q27 11 36 24.5t10 42.5q2 80 2 93v147q0 31 -7 41.5t-37 16.5l-4 32q30 11 40 34
q7 17 8 24q2 6 7 33l6 34q37 199 161 199q50 0 82 -26.5t32 -65.5q0 -25 -15.5 -42.5t-39.5 -17.5q-23 0 -36.5 12t-25.5 42q-11 29 -31 29q-29 0 -29 -52q0 -18 3 -65q3 -46 3 -88v-35h161q3 40 14 110q36 199 160 199zM841 393q-50 0 -79.5 -44t-29.5 -124
q0 -87 31.5 -135.5t86.5 -48.5q49 0 77.5 44.5t28.5 124.5q0 83 -34 132q-33 51 -81 51zM604 217q0 97 69 165q69 69 171 69q106 0 173 -67q68 -68 68 -167q0 -98 -68 -166t-168 -68q-109 0 -177 67q-68 68 -68 167zM985 606h-283v76h283v-76z" />
    <glyph glyph-name="fflcommaaccent" unicode="ff&#x13c;" horiz-adv-x="819" 
d="M33 387l-4 32q30 11 40 34q7 17 8 24q2 6 7 33l6 34q37 199 161 199q50 0 82 -26.5t32 -65.5q0 -25 -15.5 -42.5t-39.5 -17.5q-23 0 -36.5 12t-25.5 42q-11 29 -31 29q-29 0 -29 -52q0 -18 3 -65q3 -46 3 -88v-35h161q2 67 12 110q49 199 211 199q66 0 104 -23l52 32
l21 -8q-5 -93 -5 -181v-381q0 -13 2 -93q1 -30 8 -43.5t29 -23.5l-3 -23q-40 3 -96 3q-62 0 -102 -3l-3 23q27 11 36 24.5t10 42.5q2 80 2 93v337q0 51 -4 80q-9 85 -68 85q-89 0 -89 -170v-80q20 0 40.5 1t40.5 2t29 1l8 -20l-8 -46h-110v-190q0 -40 4 -93
q2 -30 12.5 -43.5t37.5 -23.5l-3 -23q-41 3 -111 3q-62 0 -102 -3l-3 23q27 11 36 24.5t10 42.5q2 80 2 93v115q0 44 -12.5 59.5t-49.5 15.5h-99v-190q0 -40 4 -93q2 -30 12.5 -43.5t37.5 -23.5l-3 -23q-41 3 -111 3q-62 0 -102 -3l-3 23q27 11 36 24.5t10 42.5q2 80 2 93
v147q0 31 -7 41.5t-37 16.5zM762 -135q0 -51 -35 -89t-94 -50l-10 31q67 24 67 64q0 17 -27 31q-38 18 -38 58q0 22 17 38t41 16q33 0 56 -29t23 -70z" />
    <glyph glyph-name="ffumacron" unicode="ff&#x16b;" horiz-adv-x="1108" 
d="M529 743q50 0 82 -26.5t32 -65.5q0 -25 -15.5 -42.5t-39.5 -17.5q-23 0 -36.5 12t-25.5 42q-11 29 -31 29q-29 0 -29 -52q0 -18 3 -65q3 -46 3 -88v-35q20 0 40.5 1t40.5 2t29 1l8 -20l-8 -46h-110v-190q0 -40 4 -93q2 -30 12.5 -43.5t37.5 -23.5l-3 -23q-41 3 -111 3
q-62 0 -102 -3l-3 23q27 11 36 24.5t10 42.5q2 80 2 93v115q0 44 -12.5 59.5t-49.5 15.5h-99v-190q0 -40 4 -93q2 -30 12.5 -43.5t37.5 -23.5l-3 -23q-41 3 -111 3q-62 0 -102 -3l-3 23q27 11 36 24.5t10 42.5q2 80 2 93v147q0 31 -7 41.5t-37 16.5l-4 32q30 11 40 34
q7 17 8 24q2 6 7 33l6 34q37 199 161 199q50 0 82 -26.5t32 -65.5q0 -25 -15.5 -42.5t-39.5 -17.5q-23 0 -36.5 12t-25.5 42q-11 29 -31 29q-29 0 -29 -52q0 -18 3 -65q3 -46 3 -88v-35h161q3 40 14 110q36 199 160 199zM1032 257v-50q2 -94 8 -113t44 -27v-21
q-68 -26 -141 -62l-22 5l-3 81l-3 1q-48 -89 -128 -89q-73 0 -110 60q-23 38 -23 97v100q0 63 -3 95q-2 30 -12.5 45t-35.5 27l3 26q88 1 172 5q-7 -111 -7 -180v-115q0 -72 63 -72q38 0 59.5 23.5t21.5 63.5v82q0 63 -3 95q-2 30 -12.5 45t-35.5 27l3 26q88 1 172 5
q-7 -111 -7 -180zM980 606h-283v76h283v-76z" />
    <glyph glyph-name="ffgbreve" unicode="ff&#x11f;" horiz-adv-x="1060" 
d="M529 743q50 0 82 -26.5t32 -65.5q0 -25 -15.5 -42.5t-39.5 -17.5q-23 0 -36.5 12t-25.5 42q-11 29 -31 29q-29 0 -29 -52q0 -18 3 -65q3 -46 3 -88v-35q20 0 40.5 1t40.5 2t29 1l8 -20l-8 -46h-110v-190q0 -40 4 -93q2 -30 12.5 -43.5t37.5 -23.5l-3 -23q-41 3 -111 3
q-62 0 -102 -3l-3 23q27 11 36 24.5t10 42.5q2 80 2 93v115q0 44 -12.5 59.5t-49.5 15.5h-99v-190q0 -40 4 -93q2 -30 12.5 -43.5t37.5 -23.5l-3 -23q-41 3 -111 3q-62 0 -102 -3l-3 23q27 11 36 24.5t10 42.5q2 80 2 93v147q0 31 -7 41.5t-37 16.5l-4 32q30 11 40 34
q7 17 8 24q2 6 7 33l6 34q37 199 161 199q50 0 82 -26.5t32 -65.5q0 -25 -15.5 -42.5t-39.5 -17.5q-23 0 -36.5 12t-25.5 42q-11 29 -31 29q-29 0 -29 -52q0 -18 3 -65q3 -46 3 -88v-35h161q3 40 14 110q36 199 160 199zM1066 420l-8 -50l-77 8q30 -42 30 -90
q0 -74 -53 -124q-52 -48 -128 -48q-72 0 -119 39q-23 -21 -23 -49q0 -42 67 -45l109 -5q80 -4 122 -42.5t42 -100.5q0 -76 -67 -131q-66 -57 -168 -57q-94 0 -144.5 35t-50.5 93q0 63 74 116q-65 33 -65 103q0 64 69 113q-31 46 -31 93q0 70 53 120t126 50q20 0 66 -7.5
t64 -7.5q63 0 104 4zM953 -118q0 54 -95 57q-115 5 -151 11q-14 -26 -14 -51q0 -40 39.5 -65t109.5 -25q53 0 82 21t29 52zM825 398q-28 0 -44 -28.5t-16 -82.5q0 -121 61 -121q60 0 60 110q0 57 -16.5 89.5t-44.5 32.5zM689 738l43 4q15 -67 38.5 -97t59.5 -30t59.5 30
t38.5 97l43 -4q-4 -108 -41.5 -165.5t-99.5 -57.5t-99.5 57.5t-41.5 165.5z" />
    <glyph glyph-name="ffebreve" unicode="ff&#x115;" horiz-adv-x="1052" 
d="M529 743q50 0 82 -26.5t32 -65.5q0 -25 -15.5 -42.5t-39.5 -17.5q-23 0 -36.5 12t-25.5 42q-11 29 -31 29q-29 0 -29 -52q0 -18 3 -65q3 -46 3 -88v-35q20 0 40.5 1t40.5 2t29 1l8 -20l-8 -46h-110v-190q0 -40 4 -93q2 -30 12.5 -43.5t37.5 -23.5l-3 -23q-41 3 -111 3
q-62 0 -102 -3l-3 23q27 11 36 24.5t10 42.5q2 80 2 93v115q0 44 -12.5 59.5t-49.5 15.5h-99v-190q0 -40 4 -93q2 -30 12.5 -43.5t37.5 -23.5l-3 -23q-41 3 -111 3q-62 0 -102 -3l-3 23q27 11 36 24.5t10 42.5q2 80 2 93v147q0 31 -7 41.5t-37 16.5l-4 32q30 11 40 34
q7 17 8 24q2 6 7 33l6 34q37 199 161 199q50 0 82 -26.5t32 -65.5q0 -25 -15.5 -42.5t-39.5 -17.5q-23 0 -36.5 12t-25.5 42q-11 29 -31 29q-29 0 -29 -52q0 -18 3 -65q3 -46 3 -88v-35h161q3 40 14 110q36 199 160 199zM606 208q0 105 65 175q66 69 161 69q85 0 137 -49
t52 -126q0 -13 -2 -29h-297q-1 -4 -1 -14q0 -65 34.5 -105.5t91.5 -40.5q46 0 76.5 17t64.5 61l32 -20q-62 -162 -192 -162q-96 0 -159 66t-63 158zM728 300h171q-3 94 -75 94q-34 0 -60.5 -26t-35.5 -68zM689 738l43 4q15 -67 38.5 -97t59.5 -30t59.5 30t38.5 97l43 -4
q-4 -108 -41.5 -165.5t-99.5 -57.5t-99.5 57.5t-41.5 165.5z" />
    <glyph glyph-name="ffhcircumflex" unicode="ff&#x125;" horiz-adv-x="1088" 
d="M682 720l52 32l21 -8q-5 -93 -5 -181v-201q41 89 130 89q74 0 112 -60q23 -38 23 -97v-112q0 -13 2 -93q1 -29 10.5 -42.5t36.5 -24.5l-3 -23q-41 3 -102 3q-55 0 -96 -3l-3 23q21 10 28 23.5t8 43.5q2 80 2 93v109q0 34 -17 53t-48 19q-38 0 -60.5 -24t-22.5 -63v-94
q0 -13 2 -93q1 -30 8 -43.5t29 -23.5l-3 -23q-40 3 -96 3q-62 0 -102 -3l-3 23q27 11 36 24.5t10 42.5q2 80 2 93v337q0 51 -4 80q-9 85 -68 85q-89 0 -89 -170v-80q20 0 40.5 1t40.5 2t29 1l8 -20l-8 -46h-110v-190q0 -40 4 -93q2 -30 12.5 -43.5t37.5 -23.5l-3 -23
q-41 3 -111 3q-62 0 -102 -3l-3 23q27 11 36 24.5t10 42.5q2 80 2 93v115q0 44 -12.5 59.5t-49.5 15.5h-99v-190q0 -40 4 -93q2 -30 12.5 -43.5t37.5 -23.5l-3 -23q-41 3 -111 3q-62 0 -102 -3l-3 23q27 11 36 24.5t10 42.5q2 80 2 93v147q0 31 -7 41.5t-37 16.5l-4 32
q30 11 40 34q7 17 8 24q2 6 7 33l6 34q37 199 161 199q50 0 82 -26.5t32 -65.5q0 -25 -15.5 -42.5t-39.5 -17.5q-23 0 -36.5 12t-25.5 42q-11 29 -31 29q-29 0 -29 -52q0 -18 3 -65q3 -46 3 -88v-35h161q2 67 12 110q49 199 211 199q66 0 104 -23zM734 896l125 -95l-17 -35
l-153 51l-153 -51l-17 35l125 95q28 22 45 22t45 -22z" />
    <glyph glyph-name="ffhbar" unicode="ff&#x127;" horiz-adv-x="1088" 
d="M633 520h-52v68h49q-6 96 -69 96q-89 0 -89 -170v-80q20 0 40.5 1t40.5 2t29 1l8 -20l-8 -46h-110v-190q0 -40 4 -93q2 -30 12.5 -43.5t37.5 -23.5l-3 -23q-41 3 -111 3q-62 0 -102 -3l-3 23q27 11 36 24.5t10 42.5q2 80 2 93v115q0 44 -12.5 59.5t-49.5 15.5h-99v-190
q0 -40 4 -93q2 -30 12.5 -43.5t37.5 -23.5l-3 -23q-41 3 -111 3q-62 0 -102 -3l-3 23q27 11 36 24.5t10 42.5q2 80 2 93v147q0 31 -7 41.5t-37 16.5l-4 32q27 12 36 30q10 17 22 82q18 102 75 157t132 55q91 0 146 -55q58 55 144 55q60 0 98 -23l52 32l21 -8q-5 -98 -5 -156
h169v-68h-169v-158q41 89 130 89q74 0 112 -60q23 -38 23 -97v-112q0 -13 2 -93q1 -29 10.5 -42.5t36.5 -24.5l-3 -23q-41 3 -102 3q-55 0 -96 -3l-3 23q21 10 28 23.5t8 43.5q2 80 2 93v109q0 34 -17 53t-48 19q-38 0 -60.5 -24t-22.5 -63v-94q0 -13 2 -93q1 -30 8 -43.5
t29 -23.5l-3 -23q-40 3 -96 3q-62 0 -102 -3l-3 23q27 11 36 24.5t10 42.5q2 80 2 93v338zM194 514v-80h161l6 63q5 47 5 57q0 57 -23 92t-59 35q-90 0 -90 -167z" />
    <glyph glyph-name="ffitilde" unicode="ff&#x129;" horiz-adv-x="863" 
d="M789 263v-81q0 -13 2 -93q1 -30 8 -43.5t29 -23.5l-3 -23q-41 3 -96 3q-61 0 -102 -3l-3 23q27 11 36 24.5t10 42.5q2 80 2 93v37q-2 94 -8 113t-44 27v21q74 24 153 72l21 -8q-5 -93 -5 -181zM529 743q48 0 80 -25t34 -62q17 5 29 5q27 0 62 -19q17 -8 33 -17
q13 -6 35 -6q33 0 70 27l22 -16q-36 -99 -117 -99q-27 0 -63 18q-44 23 -66 23q-32 0 -67 -26l-22 14q4 15 13 32q-27 7 -46 53q-11 29 -31 29q-29 0 -29 -52q0 -18 3 -65q3 -46 3 -88v-35q20 0 40.5 1t40.5 2t29 1l8 -20l-8 -46h-110v-190q0 -40 4 -93q2 -30 12.5 -43.5
t37.5 -23.5l-3 -23q-41 3 -111 3q-62 0 -102 -3l-3 23q27 11 36 24.5t10 42.5q2 80 2 93v115q0 44 -12.5 59.5t-49.5 15.5h-99v-190q0 -40 4 -93q2 -30 12.5 -43.5t37.5 -23.5l-3 -23q-41 3 -111 3q-62 0 -102 -3l-3 23q27 11 36 24.5t10 42.5q2 80 2 93v147q0 31 -7 41.5
t-37 16.5l-4 32q30 11 40 34q7 17 8 24q3 11 6 33l6 34q37 199 162 199q50 0 82 -26.5t32 -65.5q0 -25 -15.5 -42.5t-39.5 -17.5q-23 0 -36.5 12t-25.5 42q-11 29 -31 29q-29 0 -29 -52q0 -18 3 -65q3 -46 3 -88v-35h161q5 60 13 110q36 199 161 199z" />
    <glyph glyph-name="ffibreve" unicode="ff&#x12d;" horiz-adv-x="824" 
d="M560 372h-88v-190q0 -40 4 -93q2 -30 12.5 -43.5t37.5 -23.5l-3 -23q-41 3 -111 3q-62 0 -102 -3l-3 23q27 11 36 24.5t10 42.5q2 80 2 93v115q0 44 -12.5 59.5t-49.5 15.5h-99v-190q0 -40 4 -93q2 -30 12.5 -43.5t37.5 -23.5l-3 -23q-41 3 -111 3q-62 0 -102 -3l-3 23
q27 11 36 24.5t10 42.5q2 80 2 93v147q0 31 -7 41.5t-37 16.5l-4 32q30 11 40 34q7 17 8 24q2 6 7 33l6 34q37 199 161 199q50 0 82 -26.5t32 -65.5q0 -25 -15.5 -42.5t-39.5 -17.5q-23 0 -36.5 12t-25.5 42q-11 29 -31 29q-29 0 -29 -52q0 -18 3 -65q3 -46 3 -88v-35h161
q2 69 11 110q21 95 68.5 147t113.5 52q49 0 77.5 -25.5t28.5 -62.5q0 -17 -6 -31q18 -9 40 -9q36 0 59.5 30t38.5 97l43 -4q-4 -108 -41.5 -165.5t-99.5 -57.5q-42 0 -72 26t-58 84q-15 31 -23.5 40t-22.5 9q-28 0 -34 -52q-6 -50 -6 -153v-35h155q64 0 107 25l21 -8
q-5 -117 -5 -181v-88q0 -13 2 -93q1 -30 8 -43.5t29 -23.5l-3 -23q-40 3 -96 3q-62 0 -102 -3l-3 23q27 11 36 24.5t10 42.5q2 80 2 93v37q0 51 -3 94q-2 32 -17.5 45.5t-52.5 13.5z" />
    <glyph glyph-name="ffij" unicode="ff&#x133;" horiz-adv-x="1073" 
d="M33 387l-4 32q30 11 40 34q7 17 8 24q2 6 7 33l6 34q37 199 161 199q50 0 82 -26.5t32 -65.5q0 -25 -15.5 -42.5t-39.5 -17.5q-23 0 -36.5 12t-25.5 42q-11 29 -31 29q-29 0 -29 -52q0 -18 3 -65q3 -46 3 -88v-35h161q0 60 12 110q24 95 79.5 147t137.5 52
q77 0 122 -29.5t45 -78.5q0 -27 -17.5 -44.5t-46.5 -17.5q-56 0 -75 61q-9 28 -19.5 39t-31.5 11q-89 0 -89 -170v-80h155q64 0 107 25l21 -8q-5 -117 -5 -181v-88q0 -13 2 -93q1 -30 8 -43.5t29 -23.5l-3 -23q-40 3 -96 3q-62 0 -102 -3l-3 23q27 11 36 24.5t10 42.5
q2 80 2 93v37q0 51 -3 94q-2 32 -17.5 45.5t-52.5 13.5h-88v-190q0 -40 4 -93q2 -30 12.5 -43.5t37.5 -23.5l-3 -23q-41 3 -111 3q-62 0 -102 -3l-3 23q27 11 36 24.5t10 42.5q2 80 2 93v115q0 44 -12.5 59.5t-49.5 15.5h-99v-190q0 -40 4 -93q2 -30 12.5 -43.5t37.5 -23.5
l-3 -23q-41 3 -111 3q-62 0 -102 -3l-3 23q27 11 36 24.5t10 42.5q2 80 2 93v147q0 31 -7 41.5t-37 16.5zM1015 263v-130q0 -76 3 -142q-11 -178 -161 -255l-23 26q36 46 50 91q14 44 14 116v250q-2 94 -8 113t-44 27v21q74 24 153 72l21 -8q-5 -93 -5 -181zM901 603
q-21 22 -21 55t21 54q22 22 55 22t54 -22q22 -21 22 -54t-22 -55q-21 -21 -54 -21t-55 21z" />
    <glyph glyph-name="ffjcircumflex" unicode="ff&#x135;" horiz-adv-x="881" 
d="M529 743q50 0 82 -26.5t32 -65.5q0 -25 -15.5 -42.5t-39.5 -17.5q-23 0 -36.5 12t-25.5 42q-11 29 -31 29q-29 0 -29 -52q0 -18 3 -65q3 -46 3 -88v-35q20 0 40.5 1t40.5 2t29 1l8 -20l-8 -46h-110v-190q0 -40 4 -93q2 -30 12.5 -43.5t37.5 -23.5l-3 -23q-41 3 -111 3
q-62 0 -102 -3l-3 23q27 11 36 24.5t10 42.5q2 80 2 93v115q0 44 -12.5 59.5t-49.5 15.5h-99v-190q0 -40 4 -93q2 -30 12.5 -43.5t37.5 -23.5l-3 -23q-41 3 -111 3q-62 0 -102 -3l-3 23q27 11 36 24.5t10 42.5q2 80 2 93v147q0 31 -7 41.5t-37 16.5l-4 32q30 11 40 34
q7 17 8 24q2 6 7 33l6 34q37 199 161 199q50 0 82 -26.5t32 -65.5q0 -25 -15.5 -42.5t-39.5 -17.5q-23 0 -36.5 12t-25.5 42q-11 29 -31 29q-29 0 -29 -52q0 -18 3 -65q3 -46 3 -88v-35h161q3 40 14 110q36 199 160 199zM823 263v-130q0 -76 3 -142q-11 -178 -161 -255
l-23 26q36 46 50 91q14 44 14 116v250q-2 94 -8 113t-44 27v21q74 24 153 72l21 -8q-5 -93 -5 -181zM660 495l-31 25l101 200q14 27 35 27t35 -27l101 -200l-31 -25l-105 110z" />
    <glyph glyph-name="ffldot" unicode="ff&#x140;" horiz-adv-x="982" 
d="M33 387l-4 32q30 11 40 34q7 17 8 24q2 6 7 33l6 34q37 199 161 199q50 0 82 -26.5t32 -65.5q0 -25 -15.5 -42.5t-39.5 -17.5q-23 0 -36.5 12t-25.5 42q-11 29 -31 29q-29 0 -29 -52q0 -18 3 -65q3 -46 3 -88v-35h161q2 67 12 110q49 199 211 199q66 0 104 -23l52 32
l21 -8q-5 -93 -5 -181v-381q0 -13 2 -93q1 -30 8 -43.5t29 -23.5l-3 -23q-40 3 -96 3q-62 0 -102 -3l-3 23q27 11 36 24.5t10 42.5q2 80 2 93v337q0 51 -4 80q-9 85 -68 85q-89 0 -89 -170v-80q20 0 40.5 1t40.5 2t29 1l8 -20l-8 -46h-110v-190q0 -40 4 -93
q2 -30 12.5 -43.5t37.5 -23.5l-3 -23q-41 3 -111 3q-62 0 -102 -3l-3 23q27 11 36 24.5t10 42.5q2 80 2 93v115q0 44 -12.5 59.5t-49.5 15.5h-99v-190q0 -40 4 -93q2 -30 12.5 -43.5t37.5 -23.5l-3 -23q-41 3 -111 3q-62 0 -102 -3l-3 23q27 11 36 24.5t10 42.5q2 80 2 93
v147q0 31 -7 41.5t-37 16.5zM849 159q-21 22 -21 55t21 54q22 22 55 22t54 -22q22 -21 22 -54t-22 -55q-21 -21 -54 -21t-55 21z" />
    <glyph glyph-name="ffnapostrophe" unicode="ff&#x149;" horiz-adv-x="1148" 
d="M529 743q50 0 82 -26.5t32 -65.5q0 -25 -15.5 -42.5t-39.5 -17.5q-23 0 -36.5 12t-25.5 42q-11 29 -31 29q-29 0 -29 -52q0 -18 3 -65q3 -46 3 -88v-35q20 0 40.5 1t40.5 2t29 1l8 -20l-8 -46h-110v-190q0 -40 4 -93q2 -30 12.5 -43.5t37.5 -23.5l-3 -23q-41 3 -111 3
q-62 0 -102 -3l-3 23q27 11 36 24.5t10 42.5q2 80 2 93v115q0 44 -12.5 59.5t-49.5 15.5h-99v-190q0 -40 4 -93q2 -30 12.5 -43.5t37.5 -23.5l-3 -23q-41 3 -111 3q-62 0 -102 -3l-3 23q27 11 36 24.5t10 42.5q2 80 2 93v147q0 31 -7 41.5t-37 16.5l-4 32q30 11 40 34
q7 17 8 24q2 6 7 33l6 34q37 199 161 199q50 0 82 -26.5t32 -65.5q0 -25 -15.5 -42.5t-39.5 -17.5q-23 0 -36.5 12t-25.5 42q-11 29 -31 29q-29 0 -29 -52q0 -18 3 -65q3 -46 3 -88v-35h161q3 40 14 110q36 199 160 199zM819 276v-94q0 -13 2 -93q1 -30 8 -43.5t29 -23.5
l-3 -23q-41 3 -96 3q-61 0 -102 -3l-3 23q27 11 36 24.5t10 42.5q2 80 2 93v37q-2 94 -8 113t-44 27v21q74 24 153 72l21 -8q-7 -45 -7 -82h2q27 46 57 67.5t73 21.5q75 0 112 -60q23 -38 23 -97v-112q0 -13 2 -93q1 -29 10.5 -42.5t36.5 -24.5l-3 -23q-40 3 -102 3
q-56 0 -96 -3l-3 23q21 10 28 23.5t8 43.5q2 80 2 93v109q0 34 -17 53t-48 19q-38 0 -60.5 -24t-22.5 -63zM816 637q0 -51 -35 -89t-94 -50l-10 31q67 24 67 64q0 17 -27 31q-38 18 -38 58q0 22 17 38t41 16q33 0 56 -29t23 -70z" />
    <glyph glyph-name="ffobreve" unicode="ff&#x14f;" horiz-adv-x="1107" 
d="M529 743q50 0 82 -26.5t32 -65.5q0 -25 -15.5 -42.5t-39.5 -17.5q-23 0 -36.5 12t-25.5 42q-11 29 -31 29q-29 0 -29 -52q0 -18 3 -65q3 -46 3 -88v-35q20 0 40.5 1t40.5 2t29 1l8 -20l-8 -46h-110v-190q0 -40 4 -93q2 -30 12.5 -43.5t37.5 -23.5l-3 -23q-41 3 -111 3
q-62 0 -102 -3l-3 23q27 11 36 24.5t10 42.5q2 80 2 93v115q0 44 -12.5 59.5t-49.5 15.5h-99v-190q0 -40 4 -93q2 -30 12.5 -43.5t37.5 -23.5l-3 -23q-41 3 -111 3q-62 0 -102 -3l-3 23q27 11 36 24.5t10 42.5q2 80 2 93v147q0 31 -7 41.5t-37 16.5l-4 32q30 11 40 34
q7 17 8 24q2 6 7 33l6 34q37 199 161 199q50 0 82 -26.5t32 -65.5q0 -25 -15.5 -42.5t-39.5 -17.5q-23 0 -36.5 12t-25.5 42q-11 29 -31 29q-29 0 -29 -52q0 -18 3 -65q3 -46 3 -88v-35h161q3 40 14 110q36 199 160 199zM841 393q-50 0 -79.5 -44t-29.5 -124
q0 -87 31.5 -135.5t86.5 -48.5q49 0 77.5 44.5t28.5 124.5q0 83 -34 132q-33 51 -81 51zM604 217q0 97 69 165q69 69 171 69q106 0 173 -67q68 -68 68 -167q0 -98 -68 -166t-168 -68q-109 0 -177 67q-68 68 -68 167zM703 738l43 4q15 -67 38.5 -97t59.5 -30t59.5 30t38.5 97
l43 -4q-4 -108 -41.5 -165.5t-99.5 -57.5t-99.5 57.5t-41.5 165.5z" />
    <glyph glyph-name="ffscircumflex" unicode="ff&#x15d;" horiz-adv-x="939" 
d="M529 743q50 0 82 -26.5t32 -65.5q0 -25 -15.5 -42.5t-39.5 -17.5q-23 0 -36.5 12t-25.5 42q-11 29 -31 29q-29 0 -29 -52q0 -18 3 -65q3 -46 3 -88v-35q20 0 40.5 1t40.5 2t29 1l8 -20l-8 -46h-110v-190q0 -40 4 -93q2 -30 12.5 -43.5t37.5 -23.5l-3 -23q-41 3 -111 3
q-62 0 -102 -3l-3 23q27 11 36 24.5t10 42.5q2 80 2 93v115q0 44 -12.5 59.5t-49.5 15.5h-99v-190q0 -40 4 -93q2 -30 12.5 -43.5t37.5 -23.5l-3 -23q-41 3 -111 3q-62 0 -102 -3l-3 23q27 11 36 24.5t10 42.5q2 80 2 93v147q0 31 -7 41.5t-37 16.5l-4 32q30 11 40 34
q7 17 8 24q2 6 7 33l6 34q37 199 161 199q50 0 82 -26.5t32 -65.5q0 -25 -15.5 -42.5t-39.5 -17.5q-23 0 -36.5 12t-25.5 42q-11 29 -31 29q-29 0 -29 -52q0 -18 3 -65q3 -46 3 -88v-35h161q3 40 14 110q36 199 160 199zM761 36q24 0 37.5 13.5t13.5 34.5q0 24 -17.5 43
t-62.5 44q-63 35 -90.5 68.5t-27.5 75.5q0 57 44 96q45 39 107 39q69 0 111 -33q33 -25 33 -60q0 -24 -13.5 -37.5t-35.5 -13.5q-36 0 -57 47q-12 25 -21.5 35t-26.5 10q-19 0 -30.5 -13.5t-11.5 -36.5q0 -21 20 -41t74 -50q60 -35 84.5 -67t24.5 -72q0 -62 -46 -99
q-45 -36 -112 -36q-86 0 -126 36q-34 30 -34 67q0 26 14.5 41t36.5 15q44 0 59 -56q6 -26 15.5 -36.5t37.5 -13.5zM670 495l-31 25l101 200q14 27 35 27t35 -27l101 -200l-31 -25l-105 110z" />
    <glyph glyph-name="ffubreve" unicode="ff&#x16d;" horiz-adv-x="1108" 
d="M529 743q50 0 82 -26.5t32 -65.5q0 -25 -15.5 -42.5t-39.5 -17.5q-23 0 -36.5 12t-25.5 42q-11 29 -31 29q-29 0 -29 -52q0 -18 3 -65q3 -46 3 -88v-35q20 0 40.5 1t40.5 2t29 1l8 -20l-8 -46h-110v-190q0 -40 4 -93q2 -30 12.5 -43.5t37.5 -23.5l-3 -23q-41 3 -111 3
q-62 0 -102 -3l-3 23q27 11 36 24.5t10 42.5q2 80 2 93v115q0 44 -12.5 59.5t-49.5 15.5h-99v-190q0 -40 4 -93q2 -30 12.5 -43.5t37.5 -23.5l-3 -23q-41 3 -111 3q-62 0 -102 -3l-3 23q27 11 36 24.5t10 42.5q2 80 2 93v147q0 31 -7 41.5t-37 16.5l-4 32q30 11 40 34
q7 17 8 24q2 6 7 33l6 34q37 199 161 199q50 0 82 -26.5t32 -65.5q0 -25 -15.5 -42.5t-39.5 -17.5q-23 0 -36.5 12t-25.5 42q-11 29 -31 29q-29 0 -29 -52q0 -18 3 -65q3 -46 3 -88v-35h161q3 40 14 110q36 199 160 199zM1032 257v-50q2 -94 8 -113t44 -27v-21
q-68 -26 -141 -62l-22 5l-3 81l-3 1q-48 -89 -128 -89q-73 0 -110 60q-23 38 -23 97v100q0 63 -3 95q-2 30 -12.5 45t-35.5 27l3 26q88 1 172 5q-7 -111 -7 -180v-115q0 -72 63 -72q38 0 59.5 23.5t21.5 63.5v82q0 63 -3 95q-2 30 -12.5 45t-35.5 27l3 26q88 1 172 5
q-7 -111 -7 -180zM698 738l43 4q15 -67 38.5 -97t59.5 -30t59.5 30t38.5 97l43 -4q-4 -108 -41.5 -165.5t-99.5 -57.5t-99.5 57.5t-41.5 165.5z" />
    <glyph glyph-name="longslslash" unicode="&#x17f;&#x142;" horiz-adv-x="581" 
d="M194 514v-332q0 -40 4 -93q2 -30 12.5 -43.5t37.5 -23.5l-3 -23q-41 3 -111 3q-62 0 -102 -3l-3 23q27 11 36 24.5t10 42.5q2 80 2 93v147q0 31 -7 41.5t-37 16.5l-4 32q29 10 39 34q7 15 8 25q2 8 6 33t6 33q21 94 80 146.5t143 52.5q65 0 103 -23l52 32l21 -8
q-5 -93 -5 -181v-180l78 48l31 -54l-109 -66v-129q0 -13 2 -93q1 -30 8 -43.5t29 -23.5l-3 -23q-40 3 -96 3q-62 0 -102 -3l-3 23q27 11 36 24.5t10 42.5q2 80 2 93v65l-66 -40l-30 54l96 58v200q0 51 -4 80q-9 85 -73 85q-94 0 -94 -170z" />
    <glyph glyph-name="longsthorn" unicode="&#x17f;&#xfe;" horiz-adv-x="813" 
d="M574 38q42 0 68.5 41t26.5 115q0 82 -30.5 128.5t-79.5 46.5q-40 0 -63.5 -30.5t-23.5 -84.5v-91q0 -62 27.5 -93.5t74.5 -31.5zM194 514v-332q0 -40 4 -93q2 -30 12.5 -43.5t37.5 -23.5l-3 -23q-41 3 -111 3q-62 0 -102 -3l-3 23q27 11 36 24.5t10 42.5q2 80 2 93v147
q0 31 -7 41.5t-37 16.5l-4 32q29 10 39 34q7 15 8 25q2 8 6 33t6 33q21 94 79 146.5t139 52.5q60 0 98 -23l52 32l21 -8q-5 -93 -5 -181v-195h2q41 83 130 83q78 0 131 -62q54 -61 54 -165q0 -108 -61 -175q-62 -66 -149 -66q-63 0 -107 32v-96q0 -40 4 -93
q2 -30 12.5 -43.5t37.5 -23.5l-3 -23q-41 3 -111 3q-62 0 -102 -3l-3 23q26 10 35 23.5t10 43.5q3 90 3 93v600q0 51 -4 80q-9 85 -68 85q-89 0 -89 -170z" />
    <glyph glyph-name="longsb" unicode="&#x17f;b" horiz-adv-x="802" 
d="M547 39q50 0 77.5 46t27.5 127q0 69 -26 110t-71 41q-83 0 -83 -129v-97q0 -98 75 -98zM194 514v-332q0 -40 4 -93q2 -30 12.5 -43.5t37.5 -23.5l-3 -23q-41 3 -111 3q-62 0 -102 -3l-3 23q27 11 36 24.5t10 42.5q2 80 2 93v147q0 31 -7 41.5t-37 16.5l-4 32q29 10 39 34
q7 15 8 25q2 8 6 33t6 33q21 94 79 146.5t139 52.5q60 0 98 -23l52 32l21 -8q-5 -93 -5 -181v-208l1 -1q48 97 139 97q72 0 119 -62t47 -154q0 -113 -64 -183q-63 -70 -171 -70q-97 0 -188 42v495q0 51 -4 80q-9 85 -68 85q-89 0 -89 -170z" />
    <glyph glyph-name="longsh" unicode="&#x17f;h" horiz-adv-x="810" 
d="M194 514v-332q0 -40 4 -93q2 -30 12.5 -43.5t37.5 -23.5l-3 -23q-41 3 -111 3q-62 0 -102 -3l-3 23q27 11 36 24.5t10 42.5q2 80 2 93v147q0 31 -7 41.5t-37 16.5l-4 32q29 10 39 34q7 15 8 25q2 8 6 33t6 33q21 94 79 146.5t139 52.5q60 0 98 -23l52 32l21 -8
q-5 -93 -5 -181v-201q41 89 130 89q74 0 112 -60q23 -38 23 -97v-112q0 -13 2 -93q1 -29 10.5 -42.5t36.5 -24.5l-3 -23q-41 3 -102 3q-55 0 -96 -3l-3 23q21 10 28 23.5t8 43.5q2 80 2 93v109q0 34 -17 53t-48 19q-38 0 -60.5 -24t-22.5 -63v-94q0 -13 2 -93q1 -30 8 -43.5
t29 -23.5l-3 -23q-40 3 -96 3q-62 0 -102 -3l-3 23q27 11 36 24.5t10 42.5q2 80 2 93v337q0 51 -4 80q-9 85 -68 85q-89 0 -89 -170z" />
    <glyph glyph-name="longsj" unicode="&#x17f;j" horiz-adv-x="530" 
d="M194 514v-332q0 -40 4 -93q2 -30 12.5 -43.5t37.5 -23.5l-3 -23q-41 3 -111 3q-62 0 -102 -3l-3 23q27 11 36 24.5t10 42.5q2 80 2 93v147q0 31 -7 41.5t-37 16.5l-4 32q29 10 39 34q7 15 8 25q2 8 6 33t6 33q21 94 79 146.5t139 52.5q77 0 122 -29.5t45 -78.5
q0 -27 -17.5 -44.5t-46.5 -17.5q-56 0 -75 61q-9 28 -19.5 39t-31.5 11q-89 0 -89 -170zM472 263v-130q0 -76 3 -142q-11 -178 -161 -255l-23 26q36 46 50 91q14 44 14 116v250q-2 94 -8 113t-44 27v21q73 24 153 72l21 -8q-5 -93 -5 -181z" />
    <glyph glyph-name="longsk" unicode="&#x17f;k" horiz-adv-x="768" 
d="M579 76l-94 166l45 44q53 53 53 83q0 23 -33 39l4 25q43 -3 94 -3q44 0 87 3l3 -23q-25 -18 -83 -71l-63 -60l120 -197q21 -33 30.5 -44t25.5 -19v-21q-20 -7 -37 -7q-104 0 -152 85zM194 514v-332q0 -40 4 -93q2 -30 12.5 -43.5t37.5 -23.5l-3 -23q-41 3 -111 3
q-62 0 -102 -3l-3 23q27 11 36 24.5t10 42.5q2 80 2 93v147q0 31 -7 41.5t-37 16.5l-4 32q29 10 39 34q7 15 8 25q2 8 6 33t6 33q21 94 79 146.5t139 52.5q60 0 98 -23l52 32l21 -8q-5 -93 -5 -181v-381q0 -13 2 -93q1 -30 8 -43.5t29 -23.5l-3 -23q-40 3 -96 3
q-62 0 -102 -3l-3 23q27 11 36 24.5t10 42.5q2 80 2 93v337q0 51 -4 80q-9 85 -68 85q-89 0 -89 -170z" />
    <glyph glyph-name="longsagrave" unicode="&#x17f;&#xe0;" horiz-adv-x="730" 
d="M550 170v29q-28 -11 -46 -20q-66 -35 -66 -79q0 -17 10.5 -27.5t28.5 -10.5q30 0 51.5 29.5t21.5 78.5zM550 253v25q0 40 -21 61q-21 22 -57 22q-46 0 -96 -35l-31 43q21 34 65 57t93 23q85 0 128 -54q35 -44 35 -118v-79q0 -47 1 -68q1 -58 48 -86l-13 -49
q-18 -3 -34 -3q-96 0 -111 78h-2q-38 -86 -124 -86q-47 0 -76 28t-29 71q0 67 68 108q48 30 156 62zM195 469l-1 -287q0 -40 4 -93q2 -30 12.5 -43.5t37.5 -23.5l-3 -23q-41 3 -111 3q-62 0 -102 -3l-3 23q27 11 36 24.5t10 42.5q2 80 2 93v147q0 31 -7 41.5t-37 16.5l-4 32
q30 11 40 34q7 17 8 24q3 11 6 33l6 34q37 199 163 199q50 0 82 -26.5t32 -65.5q0 -25 -15.5 -42.5t-39.5 -17.5q-23 0 -36.5 12t-25.5 42q-11 29 -31 29q-29 0 -29 -52q0 -18 3 -65q3 -46 3 -88zM538 672l35 -183l-35 -13l-106 149q-22 31 -22 62q0 26 17 44.5t42 18.5
q54 0 69 -78z" />
    <glyph glyph-name="longsacircumflex" unicode="&#x17f;&#xe2;" horiz-adv-x="730" 
d="M550 170v29q-28 -11 -46 -20q-66 -35 -66 -79q0 -17 10.5 -27.5t28.5 -10.5q30 0 51.5 29.5t21.5 78.5zM550 253v25q0 40 -21 61q-21 22 -57 22q-46 0 -96 -35l-31 43q21 34 65 57t93 23q85 0 128 -54q35 -44 35 -118v-79q0 -47 1 -68q1 -58 48 -86l-13 -49
q-18 -3 -34 -3q-96 0 -111 78h-2q-38 -86 -124 -86q-47 0 -76 28t-29 71q0 67 68 108q48 30 156 62zM407 495l-31 25l101 200q13 27 35 27t35 -27l101 -200l-31 -25l-105 110zM195 469l-1 -287q0 -40 4 -93q2 -30 12.5 -43.5t37.5 -23.5l-3 -23q-41 3 -111 3q-62 0 -102 -3
l-3 23q27 11 36 24.5t10 42.5q2 80 2 93v147q0 31 -7 41.5t-37 16.5l-4 32q30 11 40 34q7 17 8 24q3 11 6 33l6 34q37 199 163 199q50 0 82 -26.5t32 -65.5q0 -25 -15.5 -42.5t-39.5 -17.5q-23 0 -36.5 12t-25.5 42q-11 29 -31 29q-29 0 -29 -52q0 -18 3 -65q3 -46 3 -88z
" />
    <glyph glyph-name="longsatilde" unicode="&#x17f;&#xe3;" horiz-adv-x="750" 
d="M570 170v29q-28 -11 -46 -20q-66 -35 -66 -79q0 -17 10.5 -27.5t28.5 -10.5q30 0 51.5 29.5t21.5 78.5zM570 253v25q0 40 -21 61q-21 22 -57 22q-46 0 -96 -35l-31 43q21 34 65 57t93 23q85 0 128 -54q35 -44 35 -118v-79q0 -47 1 -68q1 -58 48 -86l-13 -49
q-18 -3 -34 -3q-96 0 -111 78h-2q-38 -86 -124 -86q-47 0 -76 28t-29 71q0 67 68 108q48 30 156 62zM195 469l-1 -287q0 -40 4 -93q2 -30 12.5 -43.5t37.5 -23.5l-3 -23q-41 3 -111 3q-62 0 -102 -3l-3 23q27 11 36 24.5t10 42.5q2 80 2 93v147q0 31 -7 41.5t-37 16.5l-4 32
q30 11 40 34q7 17 8 24q3 11 6 33l6 34q37 199 163 199q50 0 82 -26.5t32 -65.5q0 -25 -15.5 -42.5t-39.5 -17.5q-23 0 -36.5 12t-25.5 42q-11 29 -31 29q-29 0 -29 -52q0 -18 3 -65q3 -46 3 -88zM473 622q-32 0 -67 -26l-22 14q14 46 45.5 73.5t67.5 27.5q27 0 62 -19
q17 -8 33 -17q13 -6 35 -6q33 0 70 27l22 -16q-36 -99 -117 -99q-27 0 -63 18q-44 23 -66 23z" />
    <glyph glyph-name="longsaring" unicode="&#x17f;&#xe5;" horiz-adv-x="730" 
d="M550 170v29q-28 -11 -46 -20q-66 -35 -66 -79q0 -17 10.5 -27.5t28.5 -10.5q30 0 51.5 29.5t21.5 78.5zM550 253v25q0 40 -21 61q-21 22 -57 22q-46 0 -96 -35l-31 43q21 34 65 57t93 23q85 0 128 -54q35 -44 35 -118v-79q0 -47 1 -68q1 -58 48 -86l-13 -49
q-18 -3 -34 -3q-96 0 -111 78h-2q-38 -86 -124 -86q-47 0 -76 28t-29 71q0 67 68 108q48 30 156 62zM195 469l-1 -287q0 -40 4 -93q2 -30 12.5 -43.5t37.5 -23.5l-3 -23q-41 3 -111 3q-62 0 -102 -3l-3 23q27 11 36 24.5t10 42.5q2 80 2 93v147q0 31 -7 41.5t-37 16.5l-4 32
q30 11 40 34q7 17 8 24q3 11 6 33l6 34q37 199 163 199q50 0 82 -26.5t32 -65.5q0 -25 -15.5 -42.5t-39.5 -17.5q-23 0 -36.5 12t-25.5 42q-11 29 -31 29q-29 0 -29 -52q0 -18 3 -65q3 -46 3 -88zM398 643q0 51 36 88q37 37 88 37t88 -37t37 -88t-37 -88q-38 -36 -88 -36
q-52 0 -88 36t-36 88zM521 588q23 0 38.5 15.5t15.5 38.5t-15.5 39.5t-38.5 16.5q-22 0 -37 -16.5t-15 -39.5t15 -38.5t37 -15.5z" />
    <glyph glyph-name="longsedieresis" unicode="&#x17f;&#xeb;" horiz-adv-x="774" 
d="M195 469l-1 -287q0 -40 4 -93q2 -30 12.5 -43.5t37.5 -23.5l-3 -23q-41 3 -111 3q-62 0 -102 -3l-3 23q27 11 36 24.5t10 42.5q2 80 2 93v147q0 31 -7 41.5t-37 16.5l-4 32q30 11 40 34q7 17 8 24q3 11 6 33l6 34q37 199 163 199q50 0 82 -26.5t32 -65.5
q0 -25 -15.5 -42.5t-39.5 -17.5q-23 0 -36.5 12t-25.5 42q-11 29 -31 29q-29 0 -29 -52q0 -18 3 -65q3 -46 3 -88zM328 208q0 105 65 175q66 69 161 69q85 0 137 -49t52 -126q0 -13 -2 -29h-297q-1 -4 -1 -14q0 -65 34.5 -105.5t91.5 -40.5q46 0 76.5 17t64.5 61l32 -20
q-62 -162 -192 -162q-96 0 -159 66t-63 158zM450 300h171q-3 94 -75 94q-34 0 -60.5 -26t-35.5 -68zM407 651q0 29 20 49t50 20q29 0 49.5 -20t20.5 -49q0 -30 -20.5 -50.5t-49.5 -20.5q-30 0 -50 20.5t-20 50.5zM589 651q0 29 19.5 49t49.5 20t50.5 -20t20.5 -49
q0 -30 -20.5 -50.5t-50.5 -20.5t-49.5 20.5t-19.5 50.5z" />
    <glyph glyph-name="longsiacute" unicode="&#x17f;&#xed;" horiz-adv-x="546" 
d="M195 469l-1 -287q0 -40 4 -93q2 -30 12.5 -43.5t37.5 -23.5l-3 -23q-41 3 -111 3q-62 0 -102 -3l-3 23q27 11 36 24.5t10 42.5q2 80 2 93v147q0 31 -7 41.5t-37 16.5l-4 32q30 11 40 34q7 17 8 24q3 11 6 33l6 34q37 199 163 199q50 0 82 -26.5t32 -65.5
q0 -25 -15.5 -42.5t-39.5 -17.5q-23 0 -36.5 12t-25.5 42q-11 29 -31 29q-29 0 -29 -52q0 -18 3 -65q3 -46 3 -88zM472 263v-81q0 -13 2 -93q1 -30 8 -43.5t29 -23.5l-3 -23q-40 3 -96 3q-62 0 -102 -3l-3 23q27 11 36 24.5t10 42.5q2 80 2 93v37q-2 94 -8 113t-44 27v21
q73 24 153 72l21 -8q-5 -93 -5 -181zM410 476l-35 13l35 183q15 78 69 78q25 0 42 -18.5t17 -44.5q0 -31 -22 -62z" />
    <glyph glyph-name="longsigrave" unicode="&#x17f;&#xec;" horiz-adv-x="546" 
d="M195 514l-1 -332q0 -40 4 -93q2 -30 12.5 -43.5t37.5 -23.5l-3 -23q-41 3 -111 3q-62 0 -102 -3l-3 23q27 11 36 24.5t10 42.5q2 80 2 93v147q0 31 -7 41.5t-37 16.5l-4 32q29 10 39 34q7 15 8 25q2 8 6 33t6 33q21 96 72 147.5t126 51.5q63 0 96.5 -26t45.5 -85l30 -143
l-35 -13l-94 147q-21 35 -36.5 48t-32.5 13q-65 0 -65 -170zM472 263v-81q0 -13 2 -93q1 -30 8 -43.5t29 -23.5l-3 -23q-40 3 -96 3q-62 0 -102 -3l-3 23q27 11 36 24.5t10 42.5q2 80 2 93v37q-2 94 -8 113t-44 27v21q73 24 153 72l21 -8q-5 -93 -5 -181z" />
    <glyph glyph-name="longsicircumflex" unicode="&#x17f;&#xee;" horiz-adv-x="606" 
d="M195 469l-1 -287q0 -40 4 -93q2 -30 12.5 -43.5t37.5 -23.5l-3 -23q-41 3 -111 3q-62 0 -102 -3l-3 23q27 11 36 24.5t10 42.5q2 80 2 93v147q0 31 -7 41.5t-37 16.5l-4 32q30 11 40 34q7 17 8 24q3 11 6 33l6 34q37 199 163 199q50 0 82 -26.5t32 -65.5
q0 -25 -15.5 -42.5t-39.5 -17.5q-23 0 -36.5 12t-25.5 42q-11 29 -31 29q-29 0 -29 -52q0 -18 3 -65q3 -46 3 -88zM532 263v-81q0 -13 2 -93q1 -30 8 -43.5t29 -23.5l-3 -23q-40 3 -96 3q-62 0 -102 -3l-3 23q27 11 36 24.5t10 42.5q2 80 2 93v37q-2 94 -8 113t-44 27v21
q73 24 153 72l21 -8q-5 -93 -5 -181zM372 495l-31 25l101 200q14 27 35 27t35 -27l101 -200l-31 -25l-105 110z" />
    <glyph glyph-name="longsidieresis" unicode="&#x17f;&#xef;" horiz-adv-x="576" 
d="M502 263v-81q0 -53 2 -93q2 -31 9 -44t28 -23l-3 -23q-40 3 -96 3q-62 0 -102 -3l-3 23q27 11 36 24.5t10 42.5q2 80 2 93v37q-2 94 -8 113t-44 27v21q73 24 153 72l21 -8q-5 -93 -5 -181zM458 651q0 29 19.5 49t49.5 20t50.5 -20t20.5 -49q0 -30 -20.5 -50.5
t-50.5 -20.5t-49.5 20.5t-19.5 50.5zM195 514l-1 -332q0 -40 4 -93q2 -30 12.5 -43.5t37.5 -23.5l-3 -23q-41 3 -111 3q-62 0 -102 -3l-3 23q27 11 36 24.5t10 42.5q2 80 2 93v147q0 31 -7 41.5t-37 16.5l-4 32q29 10 39 34q7 15 8 25q2 8 6 33t6 33q21 96 72 147.5
t126 51.5q60 0 95.5 -27.5t35.5 -72.5q0 -27 -17.5 -44.5t-44.5 -17.5q-51 0 -70 54q-3 7 -6 16.5t-4.5 13.5t-4.5 8.5t-6.5 6t-9.5 1.5q-59 0 -59 -167z" />
    <glyph glyph-name="longsodieresis" unicode="&#x17f;&#xf6;" horiz-adv-x="829" 
d="M195 469l-1 -287q0 -40 4 -93q2 -30 12.5 -43.5t37.5 -23.5l-3 -23q-41 3 -111 3q-62 0 -102 -3l-3 23q27 11 36 24.5t10 42.5q2 80 2 93v147q0 31 -7 41.5t-37 16.5l-4 32q30 11 40 34q7 17 8 24q3 11 6 33l6 34q37 199 163 199q50 0 82 -26.5t32 -65.5
q0 -25 -15.5 -42.5t-39.5 -17.5q-23 0 -36.5 12t-25.5 42q-11 29 -31 29q-29 0 -29 -52q0 -18 3 -65q3 -46 3 -88zM563 393q-50 0 -79.5 -44t-29.5 -124q0 -87 31.5 -135.5t86.5 -48.5q49 0 77.5 44.5t28.5 124.5q0 83 -34 132q-33 51 -81 51zM326 217q0 97 69 165
q69 69 171 69q106 0 173 -67q68 -68 68 -167q0 -98 -68 -166t-168 -68q-109 0 -177 67q-68 68 -68 167zM415 651q0 29 20 49t50 20q29 0 49.5 -20t20.5 -49q0 -30 -20.5 -50.5t-49.5 -20.5q-30 0 -50 20.5t-20 50.5zM597 651q0 29 19.5 49t49.5 20t50.5 -20t20.5 -49
q0 -30 -20.5 -50.5t-50.5 -20.5t-49.5 20.5t-19.5 50.5z" />
    <glyph glyph-name="longsotilde" unicode="&#x17f;&#xf5;" horiz-adv-x="829" 
d="M195 469l-1 -287q0 -40 4 -93q2 -30 12.5 -43.5t37.5 -23.5l-3 -23q-41 3 -111 3q-62 0 -102 -3l-3 23q27 11 36 24.5t10 42.5q2 80 2 93v147q0 31 -7 41.5t-37 16.5l-4 32q30 11 40 34q7 17 8 24q3 11 6 33l6 34q37 199 163 199q50 0 82 -26.5t32 -65.5
q0 -25 -15.5 -42.5t-39.5 -17.5q-23 0 -36.5 12t-25.5 42q-11 29 -31 29q-29 0 -29 -52q0 -18 3 -65q3 -46 3 -88zM563 393q-50 0 -79.5 -44t-29.5 -124q0 -87 31.5 -135.5t86.5 -48.5q49 0 77.5 44.5t28.5 124.5q0 83 -34 132q-33 51 -81 51zM326 217q0 97 69 165
q69 69 171 69q106 0 173 -67q68 -68 68 -167q0 -98 -68 -166t-168 -68q-109 0 -177 67q-68 68 -68 167zM497 622q-32 0 -67 -26l-22 14q14 46 45.5 73.5t67.5 27.5q27 0 62 -19q17 -8 33 -17q13 -6 35 -6q33 0 70 27l22 -16q-36 -99 -117 -99q-27 0 -63 18q-44 23 -66 23z
" />
    <glyph glyph-name="longsutilde" unicode="&#x17f;&#x169;" horiz-adv-x="830" 
d="M754 257v-50q2 -94 8 -113t44 -27v-21q-68 -26 -141 -62l-22 5l-3 81l-3 1q-48 -89 -128 -89q-72 0 -110 60q-23 38 -23 97v100q0 63 -3 95q-2 30 -12.5 45t-35.5 27l3 26q88 1 172 5q-7 -111 -7 -180v-115q0 -72 63 -72q38 0 59.5 23.5t21.5 63.5v82q0 63 -3 95
q-2 30 -12.5 45t-35.5 27l3 26q88 1 172 5q-7 -111 -7 -180zM195 469l-1 -287q0 -40 4 -93q2 -30 12.5 -43.5t37.5 -23.5l-3 -23q-41 3 -111 3q-62 0 -102 -3l-3 23q27 11 36 24.5t10 42.5q2 80 2 93v147q0 31 -7 41.5t-37 16.5l-4 32q30 11 40 34q7 17 8 24q3 11 6 33l6 34
q37 199 163 199q50 0 82 -26.5t32 -65.5q0 -25 -15.5 -42.5t-39.5 -17.5q-23 0 -36.5 12t-25.5 42q-11 29 -31 29q-29 0 -29 -52q0 -18 3 -65q3 -46 3 -88zM492 622q-32 0 -67 -26l-22 14q14 46 45.5 73.5t67.5 27.5q27 0 62 -19q17 -8 33 -17q13 -6 35 -6q32 0 70 27
l22 -16q-36 -99 -117 -99q-27 0 -63 18q-44 23 -66 23z" />
    <glyph glyph-name="longsydieresis" unicode="&#x17f;&#xff;" horiz-adv-x="788" 
d="M487 -111l36 86l-116 276q-2 5 -18.5 45t-24.5 56q-19 39 -43 58l4 23q29 -3 102 -3q66 0 99 3l3 -24q-18 -10 -24.5 -19t-6.5 -24q0 -35 31 -113l53 -135l53 139q21 55 21 95q0 21 -6.5 32.5t-27.5 25.5l4 23q33 -3 81 -3q46 0 80 3l3 -23q-38 -29 -58 -70
q-21 -44 -39 -89l-153 -384q-30 -76 -64.5 -109.5t-80.5 -33.5q-34 0 -56.5 18t-22.5 48q0 28 18.5 45t45.5 17q10 0 30 -6t25 -6q18 0 29 10.5t23 38.5zM415 651q0 29 20 49t50 20q29 0 49.5 -20t20.5 -49q0 -30 -20.5 -50.5t-49.5 -20.5q-30 0 -50 20.5t-20 50.5zM597 651
q0 29 19.5 49t49.5 20t50.5 -20t20.5 -49q0 -30 -20.5 -50.5t-50.5 -20.5t-49.5 20.5t-19.5 50.5zM195 469l-1 -287q0 -40 4 -93q2 -30 12.5 -43.5t37.5 -23.5l-3 -23q-41 3 -111 3q-62 0 -102 -3l-3 23q27 11 36 24.5t10 42.5q2 80 2 93v147q0 31 -7 41.5t-37 16.5l-4 32
q30 11 40 34q7 17 8 24q3 11 6 33l6 34q37 199 163 199q50 0 82 -26.5t32 -65.5q0 -25 -15.5 -42.5t-39.5 -17.5q-23 0 -36.5 12t-25.5 42q-11 29 -31 29q-29 0 -29 -52q0 -18 3 -65q3 -46 3 -88z" />
    <glyph glyph-name="longslcaron" unicode="&#x17f;&#x13e;" horiz-adv-x="587" 
d="M194 514v-332q0 -40 4 -93q2 -30 12.5 -43.5t37.5 -23.5l-3 -23q-41 3 -111 3q-62 0 -102 -3l-3 23q27 11 36 24.5t10 42.5q2 80 2 93v147q0 31 -7 41.5t-37 16.5l-4 32q34 11 43 44q2 5 7 40q4 24 8 41q21 93 79.5 146t139.5 53q60 0 98 -23l52 32l21 -8q-5 -93 -5 -181
v-381q0 -13 2 -93q1 -30 8 -43.5t29 -23.5l-3 -23q-40 3 -96 3q-62 0 -102 -3l-3 23q27 11 36 24.5t10 42.5q2 80 2 93v337q0 51 -4 80q-9 85 -68 85q-89 0 -89 -170zM667 655q0 -51 -35 -89t-94 -50l-10 31q67 24 67 64q0 17 -27 31q-38 18 -38 58q0 22 17 38t41 16
q33 0 56 -29t23 -70z" />
    <glyph glyph-name="longszdotaccent" unicode="&#x17f;&#x17c;" horiz-adv-x="744" 
d="M469 431h86q53 0 149 3l10 -34q-9 -14 -61 -90l-178 -254l1 -4q79 0 104 4q36 6 61 34q19 21 42 78l32 -5l-15 -168q-31 1 -65.5 2.5t-49 2t-18.5 0.5h-110q-17 0 -123 -2l-12 40l70 95l174 245h-21q-74 0 -105 -10q-23 -7 -39.5 -27.5t-31.5 -61.5l-32 7q6 78 19 150
q55 -5 113 -5zM470 603q-21 22 -21 55t21 54q22 22 55 22t54 -22q22 -21 22 -54t-22 -55q-21 -21 -54 -21t-55 21zM195 469l-1 -287q0 -40 4 -93q2 -30 12.5 -43.5t37.5 -23.5l-3 -23q-41 3 -111 3q-62 0 -102 -3l-3 23q27 11 36 24.5t10 42.5q2 80 2 93v147q0 31 -7 41.5
t-37 16.5l-4 32q30 11 40 34q7 17 8 24q3 11 6 33l6 34q37 199 163 199q50 0 82 -26.5t32 -65.5q0 -25 -15.5 -42.5t-39.5 -17.5q-23 0 -36.5 12t-25.5 42q-11 29 -31 29q-29 0 -29 -52q0 -18 3 -65q3 -46 3 -88z" />
    <glyph glyph-name="longsabreve" unicode="&#x17f;&#x103;" horiz-adv-x="750" 
d="M570 170v29q-28 -11 -46 -20q-66 -35 -66 -79q0 -17 10.5 -27.5t28.5 -10.5q30 0 51.5 29.5t21.5 78.5zM570 253v25q0 40 -21 61q-21 22 -57 22q-46 0 -96 -35l-31 43q21 34 65 57t93 23q85 0 128 -54q35 -44 35 -118v-79q0 -47 1 -68q1 -58 48 -86l-13 -49
q-18 -3 -34 -3q-96 0 -111 78h-2q-38 -86 -124 -86q-47 0 -76 28t-29 71q0 67 68 108q48 30 156 62zM391 738l43 4q15 -67 38.5 -97t59.5 -30t59.5 30t38.5 97l43 -4q-4 -108 -41.5 -165.5t-99.5 -57.5t-99.5 57.5t-41.5 165.5zM195 469l-1 -287q0 -40 4 -93
q2 -30 12.5 -43.5t37.5 -23.5l-3 -23q-41 3 -111 3q-62 0 -102 -3l-3 23q27 11 36 24.5t10 42.5q2 80 2 93v147q0 31 -7 41.5t-37 16.5l-4 32q30 11 40 34q7 17 8 24q3 11 6 33l6 34q37 199 163 199q50 0 82 -26.5t32 -65.5q0 -25 -15.5 -42.5t-39.5 -17.5q-23 0 -36.5 12
t-25.5 42q-11 29 -31 29q-29 0 -29 -52q0 -18 3 -65q3 -46 3 -88z" />
    <glyph glyph-name="longslacute" unicode="&#x17f;&#x13a;" horiz-adv-x="541" 
d="M194 514v-332q0 -40 4 -93q2 -30 12.5 -43.5t37.5 -23.5l-3 -23q-41 3 -111 3q-62 0 -102 -3l-3 23q27 11 36 24.5t10 42.5q2 80 2 93v147q0 31 -7 41.5t-37 16.5l-4 32q34 11 43 44q2 5 7 40q4 24 8 41q21 93 79.5 146t139.5 53q60 0 98 -23l52 32l21 -8q-5 -93 -5 -181
v-381q0 -13 2 -93q1 -30 8 -43.5t29 -23.5l-3 -23q-40 3 -96 3q-62 0 -102 -3l-3 23q27 11 36 24.5t10 42.5q2 80 2 93v337q0 51 -4 80q-9 85 -68 85q-89 0 -89 -170zM472 803l-183 -38l-12 34l148 102q35 23 62 23t43.5 -14t16.5 -39q0 -53 -75 -68z" />
    <glyph glyph-name="longsecaron" unicode="&#x17f;&#x11b;" horiz-adv-x="774" 
d="M328 208q0 105 65 175q66 69 161 69q85 0 137 -49t52 -126q0 -13 -2 -29h-297q-1 -4 -1 -14q0 -65 34.5 -105.5t91.5 -40.5q46 0 76.5 17t64.5 61l32 -20q-62 -162 -192 -162q-96 0 -159 66t-63 158zM450 300h171q-3 94 -75 94q-34 0 -60.5 -26t-35.5 -68zM513 522
l-101 200l31 25l105 -110l105 110l31 -25l-101 -200q-13 -27 -35 -27t-35 27zM195 469l-1 -287q0 -40 4 -93q2 -30 12.5 -43.5t37.5 -23.5l-3 -23q-41 3 -111 3q-62 0 -102 -3l-3 23q27 11 36 24.5t10 42.5q2 80 2 93v147q0 31 -7 41.5t-37 16.5l-4 32q30 11 40 34
q7 17 8 24q3 11 6 33l6 34q37 199 163 199q50 0 82 -26.5t32 -65.5q0 -25 -15.5 -42.5t-39.5 -17.5q-23 0 -36.5 12t-25.5 42q-11 29 -31 29q-29 0 -29 -52q0 -18 3 -65q3 -46 3 -88z" />
    <glyph glyph-name="longsrcaron" unicode="&#x17f;&#x159;" horiz-adv-x="682" 
d="M500 342h2q40 109 112 109q33 0 55 -21.5t22 -52.5q0 -29 -16.5 -46.5t-41.5 -17.5q-21 0 -42 15q-20 16 -35 16q-13 2 -24.5 -9t-20.5 -41t-9 -76v-36q0 -53 2 -93q2 -31 9 -44t28 -23l-3 -23q-40 3 -96 3q-62 0 -102 -3l-3 23q27 11 36 24.5t10 42.5q2 80 2 93v37
q-2 94 -8 113t-44 27v21q73 24 153 72l21 -8q-7 -45 -7 -102zM498 522l-101 200l31 25l105 -110l105 110l31 -25l-101 -200q-14 -27 -35 -27t-35 27zM195 469l-1 -287q0 -40 4 -93q2 -30 12.5 -43.5t37.5 -23.5l-3 -23q-41 3 -111 3q-62 0 -102 -3l-3 23q27 11 36 24.5
t10 42.5q2 80 2 93v147q0 31 -7 41.5t-37 16.5l-4 32q30 11 40 34q7 17 8 24q3 11 6 33l6 34q37 199 163 199q50 0 82 -26.5t32 -65.5q0 -25 -15.5 -42.5t-39.5 -17.5q-23 0 -36.5 12t-25.5 42q-11 29 -31 29q-29 0 -29 -52q0 -18 3 -65q3 -46 3 -88z" />
    <glyph glyph-name="longsamacron" unicode="&#x17f;&#x101;" horiz-adv-x="750" 
d="M570 170v29q-28 -11 -46 -20q-66 -35 -66 -79q0 -17 10.5 -27.5t28.5 -10.5q30 0 51.5 29.5t21.5 78.5zM570 253v25q0 40 -21 61q-21 22 -57 22q-46 0 -96 -35l-31 43q21 34 65 57t93 23q85 0 128 -54q35 -44 35 -118v-79q0 -47 1 -68q1 -58 48 -86l-13 -49
q-18 -3 -34 -3q-96 0 -111 78h-2q-38 -86 -124 -86q-47 0 -76 28t-29 71q0 67 68 108q48 30 156 62zM195 469l-1 -287q0 -40 4 -93q2 -30 12.5 -43.5t37.5 -23.5l-3 -23q-41 3 -111 3q-62 0 -102 -3l-3 23q27 11 36 24.5t10 42.5q2 80 2 93v147q0 31 -7 41.5t-37 16.5l-4 32
q30 11 40 34q7 17 8 24q3 11 6 33l6 34q37 199 163 199q50 0 82 -26.5t32 -65.5q0 -25 -15.5 -42.5t-39.5 -17.5q-23 0 -36.5 12t-25.5 42q-11 29 -31 29q-29 0 -29 -52q0 -18 3 -65q3 -46 3 -88zM683 606h-283v76h283v-76z" />
    <glyph glyph-name="longsemacron" unicode="&#x17f;&#x113;" horiz-adv-x="781" 
d="M195 469l-1 -287q0 -40 4 -93q2 -30 12.5 -43.5t37.5 -23.5l-3 -23q-41 3 -111 3q-62 0 -102 -3l-3 23q27 11 36 24.5t10 42.5q2 80 2 93v147q0 31 -7 41.5t-37 16.5l-4 32q30 11 40 34q7 17 8 24q3 11 6 33l6 34q37 199 163 199q50 0 82 -26.5t32 -65.5
q0 -25 -15.5 -42.5t-39.5 -17.5q-23 0 -36.5 12t-25.5 42q-11 29 -31 29q-29 0 -29 -52q0 -18 3 -65q3 -46 3 -88zM335 208q0 105 65 175q66 69 161 69q85 0 137 -49t52 -126q0 -13 -2 -29h-297q-1 -4 -1 -14q0 -65 34.5 -105.5t91.5 -40.5q46 0 76.5 17t64.5 61l32 -20
q-61 -162 -192 -162q-96 0 -159 66t-63 158zM457 300h171q-3 94 -75 94q-34 0 -60.5 -26t-35.5 -68zM704 606h-283v76h283v-76z" />
    <glyph glyph-name="longsiogonek" unicode="&#x17f;&#x12f;" horiz-adv-x="546" 
d="M194 514v-332q0 -40 4 -93q2 -30 12.5 -43.5t37.5 -23.5l-3 -23q-41 3 -111 3q-62 0 -102 -3l-3 23q27 11 36 24.5t10 42.5q2 80 2 93v147q0 31 -7 41.5t-37 16.5l-4 32q29 10 39 34q7 15 8 25q2 8 6 33t6 33q21 94 79 146.5t139 52.5q77 0 122 -29.5t45 -78.5
q0 -27 -17.5 -44.5t-46.5 -17.5q-56 0 -75 61q-9 28 -19.5 39t-31.5 11q-89 0 -89 -170zM472 263v-81q0 -13 2 -93q1 -30 8 -43.5t29 -23.5l-3 -23q-40 3 -67 3q-49 -45 -49 -101q0 -37 36 -37q28 0 52 44l25 -9q-12 -48 -39 -74t-63 -26q-40 0 -64 22t-24 58q0 66 90 123
q-57 0 -95 -3l-3 23q27 11 36 24.5t10 42.5q2 80 2 93v37q-2 94 -8 113t-44 27v21q73 24 153 72l21 -8q-5 -93 -5 -181z" />
    <glyph glyph-name="longsimacron" unicode="&#x17f;&#x12b;" horiz-adv-x="546" 
d="M195 469l-1 -287q0 -40 4 -93q2 -30 12.5 -43.5t37.5 -23.5l-3 -23q-41 3 -111 3q-62 0 -102 -3l-3 23q27 11 36 24.5t10 42.5q2 80 2 93v147q0 31 -7 41.5t-37 16.5l-4 32q30 11 40 34q7 17 8 24q2 6 7 33l6 34q37 199 162 199q44 0 75 -21.5t37 -54.5h187v-76h-240
q-23 0 -36.5 12t-25.5 42q-11 29 -31 29q-29 0 -29 -52q0 -18 3 -65q3 -46 3 -88zM472 263v-81q0 -13 2 -93q1 -30 8 -43.5t29 -23.5l-3 -23q-40 3 -96 3q-62 0 -102 -3l-3 23q27 11 36 24.5t10 42.5q2 80 2 93v37q-2 94 -8 113t-44 27v21q73 24 153 72l21 -8
q-5 -93 -5 -181z" />
    <glyph glyph-name="longsomacron" unicode="&#x17f;&#x14d;" horiz-adv-x="829" 
d="M563 393q-50 0 -79.5 -44t-29.5 -124q0 -87 31.5 -135.5t86.5 -48.5q49 0 77.5 44.5t28.5 124.5q0 83 -34 132q-33 51 -81 51zM326 217q0 97 69 165q69 69 171 69q106 0 173 -67q68 -68 68 -167q0 -98 -68 -166t-168 -68q-109 0 -177 67q-68 68 -68 167zM707 606h-283v76
h283v-76zM195 469l-1 -287q0 -40 4 -93q2 -30 12.5 -43.5t37.5 -23.5l-3 -23q-41 3 -111 3q-62 0 -102 -3l-3 23q27 11 36 24.5t10 42.5q2 80 2 93v147q0 31 -7 41.5t-37 16.5l-4 32q30 11 40 34q7 17 8 24q3 11 6 33l6 34q37 199 163 199q50 0 82 -26.5t32 -65.5
q0 -25 -15.5 -42.5t-39.5 -17.5q-23 0 -36.5 12t-25.5 42q-11 29 -31 29q-29 0 -29 -52q0 -18 3 -65q3 -46 3 -88z" />
    <glyph glyph-name="longslcommaaccent" unicode="&#x17f;&#x13c;" horiz-adv-x="533" 
d="M194 514v-332q0 -40 4 -93q2 -30 12.5 -43.5t37.5 -23.5l-3 -23q-41 3 -111 3q-62 0 -102 -3l-3 23q27 11 36 24.5t10 42.5q2 80 2 93v147q0 31 -7 41.5t-37 16.5l-4 32q34 11 43 44q2 5 7 40q4 24 8 41q21 93 79.5 146t139.5 53q60 0 98 -23l52 32l21 -8q-5 -93 -5 -181
v-381q0 -13 2 -93q1 -30 8 -43.5t29 -23.5l-3 -23q-40 3 -96 3q-62 0 -102 -3l-3 23q27 11 36 24.5t10 42.5q2 80 2 93v337q0 51 -4 80q-9 85 -68 85q-89 0 -89 -170zM481 -135q0 -51 -35 -89t-94 -50l-10 31q67 24 67 64q0 17 -27 31q-38 18 -38 58q0 22 17 38t41 16
q33 0 56 -29t23 -70z" />
    <glyph glyph-name="longsumacron" unicode="&#x17f;&#x16b;" horiz-adv-x="830" 
d="M754 257v-50q2 -94 8 -113t44 -27v-21q-68 -26 -141 -62l-22 5l-3 81l-3 1q-48 -89 -128 -89q-72 0 -110 60q-23 38 -23 97v100q0 63 -3 95q-2 30 -12.5 45t-35.5 27l3 26q88 1 172 5q-7 -111 -7 -180v-115q0 -72 63 -72q38 0 59.5 23.5t21.5 63.5v82q0 63 -3 95
q-2 30 -12.5 45t-35.5 27l3 26q88 1 172 5q-7 -111 -7 -180zM702 606h-283v76h283v-76zM195 469l-1 -287q0 -40 4 -93q2 -30 12.5 -43.5t37.5 -23.5l-3 -23q-41 3 -111 3q-62 0 -102 -3l-3 23q27 11 36 24.5t10 42.5q2 80 2 93v147q0 31 -7 41.5t-37 16.5l-4 32q30 11 40 34
q7 17 8 24q3 11 6 33l6 34q37 199 163 199q50 0 82 -26.5t32 -65.5q0 -25 -15.5 -42.5t-39.5 -17.5q-23 0 -36.5 12t-25.5 42q-11 29 -31 29q-29 0 -29 -52q0 -18 3 -65q3 -46 3 -88z" />
    <glyph glyph-name="longsgbreve" unicode="&#x17f;&#x11f;" horiz-adv-x="782" 
d="M788 420l-8 -50l-77 8q30 -42 30 -90q0 -74 -53 -124q-52 -48 -128 -48q-72 0 -119 39q-23 -21 -23 -49q0 -42 67 -45l109 -5q80 -4 122 -42.5t42 -100.5q0 -76 -67 -131q-66 -57 -168 -57q-94 0 -144.5 35t-50.5 93q0 63 74 116q-65 33 -65 103q0 64 69 113
q-31 46 -31 93q0 70 53 120t126 50q20 0 66 -7.5t64 -7.5q63 0 104 4zM675 -118q0 54 -95 57q-115 5 -151 11q-14 -26 -14 -51q0 -40 39.5 -65t109.5 -25q53 0 82 21t29 52zM547 398q-28 0 -44 -28.5t-16 -82.5q0 -121 61 -121q60 0 60 110q0 57 -16.5 89.5t-44.5 32.5z
M411 738l43 4q15 -67 38.5 -97t59.5 -30t59.5 30t38.5 97l43 -4q-4 -108 -41.5 -165.5t-99.5 -57.5t-99.5 57.5t-41.5 165.5zM195 469l-1 -287q0 -40 4 -93q2 -30 12.5 -43.5t37.5 -23.5l-3 -23q-41 3 -111 3q-62 0 -102 -3l-3 23q27 11 36 24.5t10 42.5q2 80 2 93v147
q0 31 -7 41.5t-37 16.5l-4 32q30 11 40 34q7 17 8 24q3 11 6 33l6 34q37 199 163 199q50 0 82 -26.5t32 -65.5q0 -25 -15.5 -42.5t-39.5 -17.5q-23 0 -36.5 12t-25.5 42q-11 29 -31 29q-29 0 -29 -52q0 -18 3 -65q3 -46 3 -88z" />
    <glyph glyph-name="longsebreve" unicode="&#x17f;&#x115;" horiz-adv-x="774" 
d="M328 208q0 105 65 175q66 69 161 69q85 0 137 -49t52 -126q0 -13 -2 -29h-297q-1 -4 -1 -14q0 -65 34.5 -105.5t91.5 -40.5q46 0 76.5 17t64.5 61l32 -20q-62 -162 -192 -162q-96 0 -159 66t-63 158zM450 300h171q-3 94 -75 94q-34 0 -60.5 -26t-35.5 -68zM411 738l43 4
q15 -67 38.5 -97t59.5 -30t59.5 30t38.5 97l43 -4q-4 -108 -41.5 -165.5t-99.5 -57.5t-99.5 57.5t-41.5 165.5zM195 469l-1 -287q0 -40 4 -93q2 -30 12.5 -43.5t37.5 -23.5l-3 -23q-41 3 -111 3q-62 0 -102 -3l-3 23q27 11 36 24.5t10 42.5q2 80 2 93v147q0 31 -7 41.5
t-37 16.5l-4 32q30 11 40 34q7 17 8 24q3 11 6 33l6 34q37 199 163 199q50 0 82 -26.5t32 -65.5q0 -25 -15.5 -42.5t-39.5 -17.5q-23 0 -36.5 12t-25.5 42q-11 29 -31 29q-29 0 -29 -52q0 -18 3 -65q3 -46 3 -88z" />
    <glyph glyph-name="longshcircumflex" unicode="&#x17f;&#x125;" horiz-adv-x="810" 
d="M194 514v-332q0 -40 4 -93q2 -30 12.5 -43.5t37.5 -23.5l-3 -23q-41 3 -111 3q-62 0 -102 -3l-3 23q27 11 36 24.5t10 42.5q2 80 2 93v147q0 31 -7 41.5t-37 16.5l-4 32q29 10 39 34q7 15 8 25q2 8 6 33t6 33q21 94 79 146.5t139 52.5q60 0 98 -23l52 32l21 -8
q-5 -93 -5 -181v-201q41 89 130 89q74 0 112 -60q23 -38 23 -97v-112q0 -13 2 -93q1 -29 10.5 -42.5t36.5 -24.5l-3 -23q-41 3 -102 3q-55 0 -96 -3l-3 23q21 10 28 23.5t8 43.5q2 80 2 93v109q0 34 -17 53t-48 19q-38 0 -60.5 -24t-22.5 -63v-94q0 -13 2 -93q1 -30 8 -43.5
t29 -23.5l-3 -23q-40 3 -96 3q-62 0 -102 -3l-3 23q27 11 36 24.5t10 42.5q2 80 2 93v337q0 51 -4 80q-9 85 -68 85q-89 0 -89 -170zM453 896l125 -95l-17 -35l-153 51l-153 -51l-17 35l125 95q28 22 45 22t45 -22z" />
    <glyph glyph-name="longshbar" unicode="&#x17f;&#x127;" horiz-adv-x="810" 
d="M194 514v-332q0 -40 4 -93q2 -30 12.5 -43.5t37.5 -23.5l-3 -23q-41 3 -111 3q-62 0 -102 -3l-3 23q27 11 36 24.5t10 42.5q2 80 2 93v147q0 31 -7 41.5t-37 16.5l-4 32q29 10 39 34q7 15 8 25q2 8 6 33t6 33q21 94 79 146.5t139 52.5q60 0 98 -23l52 32l21 -8
q-5 -98 -5 -156h169v-68h-169v-158q41 89 130 89q74 0 112 -60q23 -38 23 -97v-112q0 -13 2 -93q1 -29 10.5 -42.5t36.5 -24.5l-3 -23q-41 3 -102 3q-55 0 -96 -3l-3 23q21 10 28 23.5t8 43.5q2 80 2 93v109q0 34 -17 53t-48 19q-38 0 -60.5 -24t-22.5 -63v-94q0 -13 2 -93
q1 -30 8 -43.5t29 -23.5l-3 -23q-40 3 -96 3q-62 0 -102 -3l-3 23q27 11 36 24.5t10 42.5q2 80 2 93v338h-52v68h49q-6 96 -69 96q-89 0 -89 -170z" />
    <glyph glyph-name="longsitilde" unicode="&#x17f;&#x129;" horiz-adv-x="586" 
d="M195 469l-1 -287q0 -40 4 -93q2 -30 12.5 -43.5t37.5 -23.5l-3 -23q-41 3 -111 3q-62 0 -102 -3l-3 23q27 11 36 24.5t10 42.5q2 80 2 93v147q0 31 -7 41.5t-37 16.5l-4 32q30 11 40 34q7 17 8 24q2 6 7 33l6 34q37 199 162 199q48 0 80 -25t34 -62q17 5 29 5
q27 0 62 -19q17 -8 33 -17q13 -6 35 -6q33 0 70 27l22 -16q-36 -99 -117 -99q-27 0 -63 18q-44 23 -66 23q-32 0 -67 -26l-22 14q4 15 13 32q-27 7 -46 53q-11 29 -31 29q-29 0 -29 -52q0 -18 3 -65q3 -46 3 -88zM512 263v-81q0 -13 2 -93q1 -30 8 -43.5t29 -23.5l-3 -23
q-40 3 -96 3q-62 0 -102 -3l-3 23q27 11 36 24.5t10 42.5q2 80 2 93v37q-2 94 -8 113t-44 27v21q73 24 153 72l21 -8q-5 -93 -5 -181z" />
    <glyph glyph-name="longsibreve" unicode="&#x17f;&#x12d;" horiz-adv-x="546" 
d="M195 469l-1 -287q0 -40 4 -93q2 -30 12.5 -43.5t37.5 -23.5l-3 -23q-41 3 -111 3q-62 0 -102 -3l-3 23q27 11 36 24.5t10 42.5q2 80 2 93v147q0 31 -7 41.5t-37 16.5l-4 32q30 11 39 34q7 15 8 24q3 11 6 33l6 34q18 95 66.5 147t115.5 52q49 0 77.5 -25.5t28.5 -62.5
q0 -17 -6 -31q18 -9 40 -9q36 0 59.5 30t38.5 97l43 -4q-4 -108 -41.5 -165.5t-99.5 -57.5q-42 0 -72 26t-58 84q-15 31 -23.5 40t-22.5 9q-28 0 -34 -52q-4 -34 -5 -153zM472 263v-81q0 -13 2 -93q1 -30 8 -43.5t29 -23.5l-3 -23q-40 3 -96 3q-62 0 -102 -3l-3 23
q27 11 36 24.5t10 42.5q2 80 2 93v37q-2 94 -8 113t-44 27v21q73 24 153 72l21 -8q-5 -93 -5 -181z" />
    <glyph glyph-name="longsij" unicode="&#x17f;&#x133;" horiz-adv-x="781" 
d="M194 514v-332q0 -40 4 -93q2 -30 12.5 -43.5t37.5 -23.5l-3 -23q-41 3 -111 3q-62 0 -102 -3l-3 23q27 11 36 24.5t10 42.5q2 80 2 93v147q0 31 -7 41.5t-37 16.5l-4 32q29 10 39 34q7 15 8 25q2 8 6 33t6 33q21 94 79 146.5t139 52.5q77 0 122 -29.5t45 -78.5
q0 -27 -17.5 -44.5t-46.5 -17.5q-56 0 -75 61q-9 28 -19.5 39t-31.5 11q-89 0 -89 -170zM472 263v-81q0 -13 2 -93q1 -30 8 -43.5t29 -23.5l-3 -23q-40 3 -96 3q-62 0 -102 -3l-3 23q27 11 36 24.5t10 42.5q2 80 2 93v37q-2 94 -8 113t-44 27v21q73 24 153 72l21 -8
q-5 -93 -5 -181zM737 263v-130q0 -76 3 -142q-11 -178 -161 -255l-23 26q36 46 50 91q14 44 14 116v250q-2 94 -8 113t-44 27v21q74 24 153 72l21 -8q-5 -93 -5 -181zM623 603q-21 22 -21 55t21 54q22 22 55 22t54 -22q22 -21 22 -54t-22 -55q-21 -21 -54 -21t-55 21z" />
    <glyph glyph-name="longsjcircumflex" unicode="&#x17f;&#x135;" horiz-adv-x="603" 
d="M195 469l-1 -287q0 -40 4 -93q2 -30 12.5 -43.5t37.5 -23.5l-3 -23q-41 3 -111 3q-62 0 -102 -3l-3 23q27 11 36 24.5t10 42.5q2 80 2 93v147q0 31 -7 41.5t-37 16.5l-4 32q30 11 40 34q7 17 8 24q3 11 6 33l6 34q37 199 163 199q50 0 82 -26.5t32 -65.5
q0 -25 -15.5 -42.5t-39.5 -17.5q-23 0 -36.5 12t-25.5 42q-11 29 -31 29q-29 0 -29 -52q0 -18 3 -65q3 -46 3 -88zM545 263v-130q0 -76 3 -142q-11 -178 -161 -255l-23 26q36 46 50 91q14 44 14 116v250q-2 94 -8 113t-44 27v21q74 24 153 72l21 -8q-5 -93 -5 -181zM382 495
l-31 25l101 200q14 27 35 27t35 -27l101 -200l-31 -25l-105 110z" />
    <glyph glyph-name="longsldot" unicode="&#x17f;&#x140;" horiz-adv-x="704" 
d="M194 514v-332q0 -40 4 -93q2 -30 12.5 -43.5t37.5 -23.5l-3 -23q-41 3 -111 3q-62 0 -102 -3l-3 23q27 11 36 24.5t10 42.5q2 80 2 93v147q0 31 -7 41.5t-37 16.5l-4 32q34 11 43 44q2 5 7 40q4 24 8 41q21 93 79.5 146t139.5 53q60 0 98 -23l52 32l21 -8q-5 -93 -5 -181
v-381q0 -13 2 -93q1 -30 8 -43.5t29 -23.5l-3 -23q-40 3 -96 3q-62 0 -102 -3l-3 23q27 11 36 24.5t10 42.5q2 80 2 93v337q0 51 -4 80q-9 85 -68 85q-89 0 -89 -170zM571 159q-21 22 -21 55t21 54q22 22 55 22t54 -22q22 -21 22 -54t-22 -55q-21 -21 -54 -21t-55 21z" />
    <glyph glyph-name="longsnapostrophe" unicode="&#x17f;&#x149;" horiz-adv-x="870" 
d="M541 276v-94q0 -13 2 -93q1 -30 8 -43.5t29 -23.5l-3 -23q-41 3 -96 3q-61 0 -102 -3l-3 23q27 11 36 24.5t10 42.5q2 80 2 93v37q-2 94 -8 113t-44 27v21q74 24 153 72l21 -8q-7 -45 -7 -82h2q27 46 57 67.5t73 21.5q75 0 112 -60q23 -38 23 -97v-112q0 -13 2 -93
q1 -29 10.5 -42.5t36.5 -24.5l-3 -23q-40 3 -102 3q-56 0 -96 -3l-3 23q21 10 28 23.5t8 43.5q2 80 2 93v109q0 34 -17 53t-48 19q-38 0 -60.5 -24t-22.5 -63zM538 637q0 -51 -35 -89t-94 -50l-10 31q67 24 67 64q0 17 -27 31q-38 18 -38 58q0 22 17 38t41 16q33 0 56 -29
t23 -70zM195 469l-1 -287q0 -40 4 -93q2 -30 12.5 -43.5t37.5 -23.5l-3 -23q-41 3 -111 3q-62 0 -102 -3l-3 23q27 11 36 24.5t10 42.5q2 80 2 93v147q0 31 -7 41.5t-37 16.5l-4 32q30 11 40 34q7 17 8 24q3 11 6 33l6 34q37 199 163 199q50 0 82 -26.5t32 -65.5
q0 -25 -15.5 -42.5t-39.5 -17.5q-23 0 -36.5 12t-25.5 42q-11 29 -31 29q-29 0 -29 -52q0 -18 3 -65q3 -46 3 -88z" />
    <glyph glyph-name="longsobreve" unicode="&#x17f;&#x14f;" horiz-adv-x="829" 
d="M563 393q-50 0 -79.5 -44t-29.5 -124q0 -87 31.5 -135.5t86.5 -48.5q49 0 77.5 44.5t28.5 124.5q0 83 -34 132q-33 51 -81 51zM326 217q0 97 69 165q69 69 171 69q106 0 173 -67q68 -68 68 -167q0 -98 -68 -166t-168 -68q-109 0 -177 67q-68 68 -68 167zM425 738l43 4
q15 -67 38.5 -97t59.5 -30t59.5 30t38.5 97l43 -4q-4 -108 -41.5 -165.5t-99.5 -57.5t-99.5 57.5t-41.5 165.5zM195 469l-1 -287q0 -40 4 -93q2 -30 12.5 -43.5t37.5 -23.5l-3 -23q-41 3 -111 3q-62 0 -102 -3l-3 23q27 11 36 24.5t10 42.5q2 80 2 93v147q0 31 -7 41.5
t-37 16.5l-4 32q30 11 40 34q7 17 8 24q3 11 6 33l6 34q37 199 163 199q50 0 82 -26.5t32 -65.5q0 -25 -15.5 -42.5t-39.5 -17.5q-23 0 -36.5 12t-25.5 42q-11 29 -31 29q-29 0 -29 -52q0 -18 3 -65q3 -46 3 -88z" />
    <glyph glyph-name="longsubreve" unicode="&#x17f;&#x16d;" horiz-adv-x="830" 
d="M754 257v-50q2 -94 8 -113t44 -27v-21q-68 -26 -141 -62l-22 5l-3 81l-3 1q-48 -89 -128 -89q-72 0 -110 60q-23 38 -23 97v100q0 63 -3 95q-2 30 -12.5 45t-35.5 27l3 26q88 1 172 5q-7 -111 -7 -180v-115q0 -72 63 -72q38 0 59.5 23.5t21.5 63.5v82q0 63 -3 95
q-2 30 -12.5 45t-35.5 27l3 26q88 1 172 5q-7 -111 -7 -180zM420 738l43 4q15 -67 38.5 -97t59.5 -30t59.5 30t38.5 97l43 -4q-4 -108 -41.5 -165.5t-99.5 -57.5t-99.5 57.5t-41.5 165.5zM195 469l-1 -287q0 -40 4 -93q2 -30 12.5 -43.5t37.5 -23.5l-3 -23q-41 3 -111 3
q-62 0 -102 -3l-3 23q27 11 36 24.5t10 42.5q2 80 2 93v147q0 31 -7 41.5t-37 16.5l-4 32q30 11 40 34q7 17 8 24q3 11 6 33l6 34q37 199 163 199q50 0 82 -26.5t32 -65.5q0 -25 -15.5 -42.5t-39.5 -17.5q-23 0 -36.5 12t-25.5 42q-11 29 -31 29q-29 0 -29 -52q0 -18 3 -65
q3 -46 3 -88z" />
    <glyph glyph-name="longsccaron" unicode="&#x17f;&#x10d;" horiz-adv-x="758" 
d="M553 395q-46 0 -77 -42t-31 -112t34 -112t92 -42q41 0 71 16.5t60 54.5l29 -19q-53 -156 -186 -156q-93 0 -157 66q-63 68 -63 158q0 106 69 175q70 69 168 69q83 0 133 -44q40 -36 40 -82q0 -30 -17 -49.5t-45 -19.5q-56 0 -65 68q-9 71 -55 71zM519 522l-101 200l31 25
l105 -110l105 110l31 -25l-101 -200q-13 -27 -35 -27t-35 27zM195 469l-1 -287q0 -40 4 -93q2 -30 12.5 -43.5t37.5 -23.5l-3 -23q-41 3 -111 3q-62 0 -102 -3l-3 23q27 11 36 24.5t10 42.5q2 80 2 93v147q0 31 -7 41.5t-37 16.5l-4 32q30 11 40 34q7 17 8 24q3 11 6 33
l6 34q37 199 163 199q50 0 82 -26.5t32 -65.5q0 -25 -15.5 -42.5t-39.5 -17.5q-23 0 -36.5 12t-25.5 42q-11 29 -31 29q-29 0 -29 -52q0 -18 3 -65q3 -46 3 -88z" />
    <glyph glyph-name="fi.trk" unicode="fi" horiz-adv-x="596" 
d="M311 591q-23 0 -36.5 12t-25.5 42q-11 29 -31 29q-29 0 -29 -52q0 -18 3 -65q3 -46 3 -88v-35q20 0 40 1l40 2t29 1l8 -20l-8 -46h-110v-190q0 -40 4 -93q2 -30 12.5 -43.5t37.5 -23.5l-3 -23q-41 3 -111 3q-62 0 -102 -3l-3 23q27 11 36 24.5t10 42.5q2 80 2 93v147
q0 31 -7 41.5t-37 16.5l-4 32q30 11 40 34q7 17 8 24q3 11 6 33l6 34q37 199 163 199q50 0 82 -26.5t32 -65.5q0 -25 -15.5 -42.5t-39.5 -17.5zM522 263v-81q0 -13 2 -93q1 -30 8 -43.5t29 -23.5l-3 -23q-40 3 -96 3q-62 0 -102 -3l-3 23q27 11 36 24.5t10 42.5q2 80 2 93
v37q-2 94 -8 113t-44 27v21q73 24 153 72l21 -8q-5 -93 -5 -181zM408 603q-21 22 -21 55t21 54q22 22 55 22t54 -22q22 -21 22 -54t-22 -55q-21 -21 -54 -21t-55 21z" />
    <glyph glyph-name="ffi.trk" unicode="ffi" horiz-adv-x="874" 
d="M529 743q50 0 82 -26.5t32 -65.5q0 -25 -15.5 -42.5t-39.5 -17.5q-23 0 -36.5 12t-25.5 42q-11 29 -31 29q-29 0 -29 -52q0 -18 3 -65q3 -46 3 -88v-35q20 0 40.5 1t40.5 2t29 1l8 -20l-8 -46h-110v-190q0 -40 4 -93q2 -30 12.5 -43.5t37.5 -23.5l-3 -23q-41 3 -111 3
q-62 0 -102 -3l-3 23q27 11 36 24.5t10 42.5q2 80 2 93v115q0 44 -12.5 59.5t-49.5 15.5h-99v-190q0 -40 4 -93q2 -30 12.5 -43.5t37.5 -23.5l-3 -23q-41 3 -111 3q-62 0 -102 -3l-3 23q27 11 36 24.5t10 42.5q2 80 2 93v147q0 31 -7 41.5t-37 16.5l-4 32q30 11 40 34
q7 17 8 24q2 6 7 33l6 34q37 199 161 199q50 0 82 -26.5t32 -65.5q0 -25 -15.5 -42.5t-39.5 -17.5q-23 0 -36.5 12t-25.5 42q-11 29 -31 29q-29 0 -29 -52q0 -18 3 -65q3 -46 3 -88v-35h161q3 40 14 110q36 199 160 199zM800 263v-81q0 -13 2 -93q1 -30 8 -43.5t29 -23.5
l-3 -23q-40 3 -96 3q-62 0 -102 -3l-3 23q27 11 36 24.5t10 42.5q2 80 2 93v37q-2 94 -8 113t-44 27v21q73 24 153 72l21 -8q-5 -93 -5 -181zM686 603q-21 22 -21 55t21 54q22 22 55 22t54 -22q22 -21 22 -54t-22 -55q-21 -21 -54 -21t-55 21z" />
    <glyph glyph-name="faringacute" unicode="f&#x1fb;" horiz-adv-x="730" 
d="M311 591q-23 0 -36.5 12t-25.5 42q-11 29 -31 29q-29 0 -29 -52q0 -18 3 -65q3 -46 3 -88v-35q20 0 40 1l40 2t29 1l8 -20l-8 -46h-110v-190q0 -40 4 -93q2 -30 12.5 -43.5t37.5 -23.5l-3 -23q-41 3 -111 3q-62 0 -102 -3l-3 23q27 11 36 24.5t10 42.5q2 80 2 93v147
q0 31 -7 41.5t-37 16.5l-4 32q30 11 40 34q7 17 8 24q3 11 6 33l6 34q37 199 163 199q50 0 82 -26.5t32 -65.5q0 -25 -15.5 -42.5t-39.5 -17.5zM550 170v29q-28 -11 -46 -20q-66 -35 -66 -79q0 -17 10.5 -27.5t28.5 -10.5q30 0 51.5 29.5t21.5 78.5zM550 253v25q0 40 -21 61
q-21 22 -57 22q-46 0 -96 -35l-31 43q21 34 65 57t93 23q85 0 128 -54q35 -44 35 -118v-79q0 -47 1 -68q1 -58 48 -86l-13 -49q-18 -3 -34 -3q-96 0 -111 78h-2q-38 -86 -124 -86q-47 0 -76 28t-29 71q0 67 68 108q48 30 156 62zM388 603q0 51 36 88q37 37 88 37t88 -37
t37 -88t-37 -88q-38 -36 -88 -36q-52 0 -88 36t-36 88zM511 548q23 0 38.5 15.5t15.5 38.5t-15.5 39.5t-38.5 16.5q-22 0 -37 -16.5t-15 -39.5t15 -38.5t37 -15.5zM549 773l-183 -38l-12 34l148 102q35 23 62 23t43.5 -14t16.5 -39q0 -53 -75 -68z" />
    <glyph glyph-name="ffaringacute" unicode="ff&#x1fb;" horiz-adv-x="1008" 
d="M529 743q50 0 82 -26.5t32 -65.5q0 -25 -15.5 -42.5t-39.5 -17.5q-23 0 -36.5 12t-25.5 42q-11 29 -31 29q-29 0 -29 -52q0 -18 3 -65q3 -46 3 -88v-35q20 0 40.5 1t40.5 2t29 1l8 -20l-8 -46h-110v-190q0 -40 4 -93q2 -30 12.5 -43.5t37.5 -23.5l-3 -23q-41 3 -111 3
q-62 0 -102 -3l-3 23q27 11 36 24.5t10 42.5q2 80 2 93v115q0 44 -12.5 59.5t-49.5 15.5h-99v-190q0 -40 4 -93q2 -30 12.5 -43.5t37.5 -23.5l-3 -23q-41 3 -111 3q-62 0 -102 -3l-3 23q27 11 36 24.5t10 42.5q2 80 2 93v147q0 31 -7 41.5t-37 16.5l-4 32q30 11 40 34
q7 17 8 24q2 6 7 33l6 34q37 199 161 199q50 0 82 -26.5t32 -65.5q0 -25 -15.5 -42.5t-39.5 -17.5q-23 0 -36.5 12t-25.5 42q-11 29 -31 29q-29 0 -29 -52q0 -18 3 -65q3 -46 3 -88v-35h161q3 40 14 110q36 199 160 199zM828 170v29q-28 -11 -46 -20q-66 -35 -66 -79
q0 -17 10.5 -27.5t28.5 -10.5q30 0 51.5 29.5t21.5 78.5zM828 253v25q0 40 -21 61q-21 22 -57 22q-46 0 -96 -35l-31 43q21 34 65 57t93 23q85 0 128 -54q35 -44 35 -118v-79q0 -47 1 -68q1 -58 48 -86l-13 -49q-18 -3 -34 -3q-96 0 -111 78h-2q-38 -86 -124 -86
q-47 0 -76 28t-29 71q0 67 68 108q48 30 156 62zM666 603q0 51 36 88q37 37 88 37t88 -37t37 -88t-37 -88q-38 -36 -88 -36q-52 0 -88 36t-36 88zM789 548q23 0 38.5 15.5t15.5 38.5t-15.5 39.5t-38.5 16.5q-22 0 -37 -16.5t-15 -39.5t15 -38.5t37 -15.5zM827 773l-183 -38
l-12 34l148 102q35 23 62 23t43.5 -14t16.5 -39q0 -53 -75 -68z" />
    <glyph glyph-name="longsaringacute" unicode="&#x17f;&#x1fb;" horiz-adv-x="730" 
d="M195 469l-1 -287q0 -40 4 -93q2 -30 12.5 -43.5t37.5 -23.5l-3 -23q-41 3 -111 3q-62 0 -102 -3l-3 23q27 11 36 24.5t10 42.5q2 80 2 93v147q0 31 -7 41.5t-37 16.5l-4 32q30 11 40 34q7 17 8 24q3 11 6 33l6 34q37 199 163 199q50 0 82 -26.5t32 -65.5
q0 -25 -15.5 -42.5t-39.5 -17.5q-23 0 -36.5 12t-25.5 42q-11 29 -31 29q-29 0 -29 -52q0 -18 3 -65q3 -46 3 -88zM550 170v29q-28 -11 -46 -20q-66 -35 -66 -79q0 -17 10.5 -27.5t28.5 -10.5q30 0 51.5 29.5t21.5 78.5zM550 253v25q0 40 -21 61q-21 22 -57 22
q-46 0 -96 -35l-31 43q21 34 65 57t93 23q85 0 128 -54q35 -44 35 -118v-79q0 -47 1 -68q1 -58 48 -86l-13 -49q-18 -3 -34 -3q-96 0 -111 78h-2q-38 -86 -124 -86q-47 0 -76 28t-29 71q0 67 68 108q48 30 156 62zM388 603q0 51 36 88q37 37 88 37t88 -37t37 -88t-37 -88
q-38 -36 -88 -36q-52 0 -88 36t-36 88zM511 548q23 0 38.5 15.5t15.5 38.5t-15.5 39.5t-38.5 16.5q-22 0 -37 -16.5t-15 -39.5t15 -38.5t37 -15.5zM549 773l-183 -38l-12 34l148 102q35 23 62 23t43.5 -14t16.5 -39q0 -53 -75 -68z" />
    <glyph glyph-name="fadblgrave" unicode="f&#x201;" horiz-adv-x="770" 
d="M311 591q-23 0 -36.5 12t-25.5 42q-11 29 -31 29q-29 0 -29 -52q0 -18 3 -65q3 -46 3 -88v-35q20 0 40 1l40 2t29 1l8 -20l-8 -46h-110v-190q0 -40 4 -93q2 -30 12.5 -43.5t37.5 -23.5l-3 -23q-41 3 -111 3q-62 0 -102 -3l-3 23q27 11 36 24.5t10 42.5q2 80 2 93v147
q0 31 -7 41.5t-37 16.5l-4 32q30 11 40 34q7 17 8 24q3 11 6 33l6 34q37 199 163 199q50 0 82 -26.5t32 -65.5q0 -25 -15.5 -42.5t-39.5 -17.5zM590 170v29q-28 -11 -46 -20q-66 -35 -66 -79q0 -17 10.5 -27.5t28.5 -10.5q30 0 51.5 29.5t21.5 78.5zM590 253v25q0 40 -21 61
q-21 22 -57 22q-46 0 -96 -35l-31 43q21 34 65 57t93 23q85 0 128 -54q35 -44 35 -118v-79q0 -47 1 -68q1 -58 48 -86l-13 -49q-18 -3 -34 -3q-96 0 -111 78h-2q-38 -86 -124 -86q-47 0 -76 28t-29 71q0 67 68 108q48 30 156 62zM654 676l37 -176l-33 -13l-99 146
q-21 31 -21 59q0 25 14.5 41.5t37.5 16.5q49 0 64 -74zM507 676l37 -176l-33 -13l-99 146q-21 31 -21 59q0 25 14.5 41.5t37.5 16.5q49 0 64 -74z" />
    <glyph glyph-name="ffadblgrave" unicode="ff&#x201;" horiz-adv-x="1038" 
d="M529 743q50 0 82 -26.5t32 -65.5q0 -25 -15.5 -42.5t-39.5 -17.5q-23 0 -36.5 12t-25.5 42q-11 29 -31 29q-29 0 -29 -52q0 -18 3 -65q3 -46 3 -88v-35q20 0 40.5 1t40.5 2t29 1l8 -20l-8 -46h-110v-190q0 -40 4 -93q2 -30 12.5 -43.5t37.5 -23.5l-3 -23q-41 3 -111 3
q-62 0 -102 -3l-3 23q27 11 36 24.5t10 42.5q2 80 2 93v115q0 44 -12.5 59.5t-49.5 15.5h-99v-190q0 -40 4 -93q2 -30 12.5 -43.5t37.5 -23.5l-3 -23q-41 3 -111 3q-62 0 -102 -3l-3 23q27 11 36 24.5t10 42.5q2 80 2 93v147q0 31 -7 41.5t-37 16.5l-4 32q30 11 40 34
q7 17 8 24q2 6 7 33l6 34q37 199 161 199q50 0 82 -26.5t32 -65.5q0 -25 -15.5 -42.5t-39.5 -17.5q-23 0 -36.5 12t-25.5 42q-11 29 -31 29q-29 0 -29 -52q0 -18 3 -65q3 -46 3 -88v-35h161q3 40 14 110q36 199 160 199zM858 170v29q-28 -11 -46 -20q-66 -35 -66 -79
q0 -17 10.5 -27.5t28.5 -10.5q30 0 51.5 29.5t21.5 78.5zM858 253v25q0 40 -21 61q-21 22 -57 22q-46 0 -96 -35l-31 43q21 34 65 57t93 23q85 0 128 -54q35 -44 35 -118v-79q0 -47 1 -68q1 -58 48 -86l-13 -49q-18 -3 -34 -3q-96 0 -111 78h-2q-38 -86 -124 -86
q-47 0 -76 28t-29 71q0 67 68 108q48 30 156 62zM922 676l37 -176l-33 -13l-99 146q-21 31 -21 59q0 25 14.5 41.5t37.5 16.5q49 0 64 -74zM775 676l37 -176l-33 -13l-99 146q-21 31 -21 59q0 25 14.5 41.5t37.5 16.5q49 0 64 -74z" />
    <glyph glyph-name="longsadblgrave" unicode="&#x17f;&#x201;" horiz-adv-x="770" 
d="M590 170v29q-28 -11 -46 -20q-66 -35 -66 -79q0 -17 10.5 -27.5t28.5 -10.5q30 0 51.5 29.5t21.5 78.5zM590 253v25q0 40 -21 61q-21 22 -57 22q-46 0 -96 -35l-31 43q21 34 65 57t93 23q85 0 128 -54q35 -44 35 -118v-79q0 -47 1 -68q1 -58 48 -86l-13 -49
q-18 -3 -34 -3q-96 0 -111 78h-2q-38 -86 -124 -86q-47 0 -76 28t-29 71q0 67 68 108q48 30 156 62zM195 469l-1 -287q0 -40 4 -93q2 -30 12.5 -43.5t37.5 -23.5l-3 -23q-41 3 -111 3q-62 0 -102 -3l-3 23q27 11 36 24.5t10 42.5q2 80 2 93v147q0 31 -7 41.5t-37 16.5l-4 32
q30 11 40 34q7 17 8 24q3 11 6 33l6 34q37 199 163 199q50 0 82 -26.5t32 -65.5q0 -25 -15.5 -42.5t-39.5 -17.5q-23 0 -36.5 12t-25.5 42q-11 29 -31 29q-29 0 -29 -52q0 -18 3 -65q3 -46 3 -88zM654 676l37 -176l-33 -13l-99 146q-21 31 -21 59q0 25 14.5 41.5t37.5 16.5
q49 0 64 -74zM507 676l37 -176l-33 -13l-99 146q-21 31 -21 59q0 25 14.5 41.5t37.5 16.5q49 0 64 -74z" />
    <glyph glyph-name="fainvbreve" unicode="f&#x203;" horiz-adv-x="734" 
d="M311 591q-23 0 -36.5 12t-25.5 42q-11 29 -31 29q-29 0 -29 -52q0 -18 3 -65q3 -46 3 -88v-35q20 0 40 1l40 2t29 1l8 -20l-8 -46h-110v-190q0 -40 4 -93q2 -30 12.5 -43.5t37.5 -23.5l-3 -23q-41 3 -111 3q-62 0 -102 -3l-3 23q27 11 36 24.5t10 42.5q2 80 2 93v147
q0 31 -7 41.5t-37 16.5l-4 32q30 11 40 34q7 17 8 24q3 11 6 33l6 34q37 199 163 199q50 0 82 -26.5t32 -65.5q0 -25 -15.5 -42.5t-39.5 -17.5zM554 170v29q-28 -11 -46 -20q-66 -35 -66 -79q0 -17 10.5 -27.5t28.5 -10.5q30 0 51.5 29.5t21.5 78.5zM554 253v25q0 40 -21 61
q-21 22 -57 22q-46 0 -96 -35l-31 43q21 34 65 57t93 23q85 0 128 -54q35 -44 35 -118v-79q0 -47 1 -68q1 -58 48 -86l-13 -49q-18 -3 -34 -3q-96 0 -111 78h-2q-38 -86 -124 -86q-47 0 -76 28t-29 71q0 67 68 108q48 30 156 62zM375 519q4 108 41.5 165.5t99.5 57.5
t99.5 -57.5t41.5 -165.5l-43 -4q-15 67 -38.5 97t-59.5 30t-59.5 -30t-38.5 -97z" />
    <glyph glyph-name="ffainvbreve" unicode="ff&#x203;" horiz-adv-x="1008" 
d="M529 743q50 0 82 -26.5t32 -65.5q0 -25 -15.5 -42.5t-39.5 -17.5q-23 0 -36.5 12t-25.5 42q-11 29 -31 29q-29 0 -29 -52q0 -18 3 -65q3 -46 3 -88v-35q20 0 40.5 1t40.5 2t29 1l8 -20l-8 -46h-110v-190q0 -40 4 -93q2 -30 12.5 -43.5t37.5 -23.5l-3 -23q-41 3 -111 3
q-62 0 -102 -3l-3 23q27 11 36 24.5t10 42.5q2 80 2 93v115q0 44 -12.5 59.5t-49.5 15.5h-99v-190q0 -40 4 -93q2 -30 12.5 -43.5t37.5 -23.5l-3 -23q-41 3 -111 3q-62 0 -102 -3l-3 23q27 11 36 24.5t10 42.5q2 80 2 93v147q0 31 -7 41.5t-37 16.5l-4 32q30 11 40 34
q7 17 8 24q2 6 7 33l6 34q37 199 161 199q50 0 82 -26.5t32 -65.5q0 -25 -15.5 -42.5t-39.5 -17.5q-23 0 -36.5 12t-25.5 42q-11 29 -31 29q-29 0 -29 -52q0 -18 3 -65q3 -46 3 -88v-35h161q3 40 14 110q36 199 160 199zM828 170v29q-28 -11 -46 -20q-66 -35 -66 -79
q0 -17 10.5 -27.5t28.5 -10.5q30 0 51.5 29.5t21.5 78.5zM828 253v25q0 40 -21 61q-21 22 -57 22q-46 0 -96 -35l-31 43q21 34 65 57t93 23q85 0 128 -54q35 -44 35 -118v-79q0 -47 1 -68q1 -58 48 -86l-13 -49q-18 -3 -34 -3q-96 0 -111 78h-2q-38 -86 -124 -86
q-47 0 -76 28t-29 71q0 67 68 108q48 30 156 62zM649 519q4 108 41.5 165.5t99.5 57.5t99.5 -57.5t41.5 -165.5l-43 -4q-15 67 -38.5 97t-59.5 30t-59.5 -30t-38.5 -97z" />
    <glyph glyph-name="longsainvbreve" unicode="&#x17f;&#x203;" horiz-adv-x="734" 
d="M195 469l-1 -287q0 -40 4 -93q2 -30 12.5 -43.5t37.5 -23.5l-3 -23q-41 3 -111 3q-62 0 -102 -3l-3 23q27 11 36 24.5t10 42.5q2 80 2 93v147q0 31 -7 41.5t-37 16.5l-4 32q30 11 40 34q7 17 8 24q3 11 6 33l6 34q37 199 163 199q50 0 82 -26.5t32 -65.5
q0 -25 -15.5 -42.5t-39.5 -17.5q-23 0 -36.5 12t-25.5 42q-11 29 -31 29q-29 0 -29 -52q0 -18 3 -65q3 -46 3 -88zM554 170v29q-28 -11 -46 -20q-66 -35 -66 -79q0 -17 10.5 -27.5t28.5 -10.5q30 0 51.5 29.5t21.5 78.5zM554 253v25q0 40 -21 61q-21 22 -57 22
q-46 0 -96 -35l-31 43q21 34 65 57t93 23q85 0 128 -54q35 -44 35 -118v-79q0 -47 1 -68q1 -58 48 -86l-13 -49q-18 -3 -34 -3q-96 0 -111 78h-2q-38 -86 -124 -86q-47 0 -76 28t-29 71q0 67 68 108q48 30 156 62zM375 519q4 108 41.5 165.5t99.5 57.5t99.5 -57.5
t41.5 -165.5l-43 -4q-15 67 -38.5 97t-59.5 30t-59.5 -30t-38.5 -97z" />
    <glyph glyph-name="fetilde" unicode="f&#x1ebd;" horiz-adv-x="774" 
d="M311 591q-23 0 -36.5 12t-25.5 42q-11 29 -31 29q-29 0 -29 -52q0 -18 3 -65q3 -46 3 -88v-35q20 0 40 1l40 2t29 1l8 -20l-8 -46h-110v-190q0 -40 4 -93q2 -30 12.5 -43.5t37.5 -23.5l-3 -23q-41 3 -111 3q-62 0 -102 -3l-3 23q27 11 36 24.5t10 42.5q2 80 2 93v147
q0 31 -7 41.5t-37 16.5l-4 32q30 11 40 34q7 17 8 24q3 11 6 33l6 34q37 199 163 199q50 0 82 -26.5t32 -65.5q0 -25 -15.5 -42.5t-39.5 -17.5zM328 208q0 105 65 175q66 69 161 69q85 0 137 -49t52 -126q0 -13 -2 -29h-297q-1 -4 -1 -14q0 -65 34.5 -105.5t91.5 -40.5
q46 0 76.5 17t64.5 61l32 -20q-62 -162 -192 -162q-96 0 -159 66t-63 158zM450 300h171q-3 94 -75 94q-34 0 -60.5 -26t-35.5 -68zM473 622q-32 0 -67 -26l-22 14q14 46 45.5 73.5t67.5 27.5q27 0 62 -19q17 -8 33 -17q13 -6 35 -6q33 0 70 27l22 -16q-36 -99 -117 -99
q-27 0 -63 18q-44 23 -66 23z" />
    <glyph glyph-name="ffetilde" unicode="ff&#x1ebd;" horiz-adv-x="1052" 
d="M529 743q50 0 82 -26.5t32 -65.5q0 -25 -15.5 -42.5t-39.5 -17.5q-23 0 -36.5 12t-25.5 42q-11 29 -31 29q-29 0 -29 -52q0 -18 3 -65q3 -46 3 -88v-35q20 0 40.5 1t40.5 2t29 1l8 -20l-8 -46h-110v-190q0 -40 4 -93q2 -30 12.5 -43.5t37.5 -23.5l-3 -23q-41 3 -111 3
q-62 0 -102 -3l-3 23q27 11 36 24.5t10 42.5q2 80 2 93v115q0 44 -12.5 59.5t-49.5 15.5h-99v-190q0 -40 4 -93q2 -30 12.5 -43.5t37.5 -23.5l-3 -23q-41 3 -111 3q-62 0 -102 -3l-3 23q27 11 36 24.5t10 42.5q2 80 2 93v147q0 31 -7 41.5t-37 16.5l-4 32q30 11 40 34
q7 17 8 24q2 6 7 33l6 34q37 199 161 199q50 0 82 -26.5t32 -65.5q0 -25 -15.5 -42.5t-39.5 -17.5q-23 0 -36.5 12t-25.5 42q-11 29 -31 29q-29 0 -29 -52q0 -18 3 -65q3 -46 3 -88v-35h161q3 40 14 110q36 199 160 199zM606 208q0 105 65 175q66 69 161 69q85 0 137 -49
t52 -126q0 -13 -2 -29h-297q-1 -4 -1 -14q0 -65 34.5 -105.5t91.5 -40.5q46 0 76.5 17t64.5 61l32 -20q-62 -162 -192 -162q-96 0 -159 66t-63 158zM728 300h171q-3 94 -75 94q-34 0 -60.5 -26t-35.5 -68zM751 622q-32 0 -67 -26l-22 14q14 46 45.5 73.5t67.5 27.5
q27 0 62 -19q17 -8 33 -17q13 -6 35 -6q33 0 70 27l22 -16q-36 -99 -117 -99q-27 0 -63 18q-44 23 -66 23z" />
    <glyph glyph-name="longsetilde" unicode="&#x17f;&#x1ebd;" horiz-adv-x="774" 
d="M195 469l-1 -287q0 -40 4 -93q2 -30 12.5 -43.5t37.5 -23.5l-3 -23q-41 3 -111 3q-62 0 -102 -3l-3 23q27 11 36 24.5t10 42.5q2 80 2 93v147q0 31 -7 41.5t-37 16.5l-4 32q30 11 40 34q7 17 8 24q3 11 6 33l6 34q37 199 163 199q50 0 82 -26.5t32 -65.5
q0 -25 -15.5 -42.5t-39.5 -17.5q-23 0 -36.5 12t-25.5 42q-11 29 -31 29q-29 0 -29 -52q0 -18 3 -65q3 -46 3 -88zM328 208q0 105 65 175q66 69 161 69q85 0 137 -49t52 -126q0 -13 -2 -29h-297q-1 -4 -1 -14q0 -65 34.5 -105.5t91.5 -40.5q46 0 76.5 17t64.5 61l32 -20
q-62 -162 -192 -162q-96 0 -159 66t-63 158zM450 300h171q-3 94 -75 94q-34 0 -60.5 -26t-35.5 -68zM473 622q-32 0 -67 -26l-22 14q14 46 45.5 73.5t67.5 27.5q27 0 62 -19q17 -8 33 -17q13 -6 35 -6q33 0 70 27l22 -16q-36 -99 -117 -99q-27 0 -63 18q-44 23 -66 23z" />
    <glyph glyph-name="fedblgrave" unicode="f&#x205;" horiz-adv-x="780" 
d="M311 591q-23 0 -36.5 12t-25.5 42q-11 29 -31 29q-29 0 -29 -52q0 -18 3 -65q3 -46 3 -88v-35q20 0 40 1l40 2t29 1l8 -20l-8 -46h-110v-190q0 -40 4 -93q2 -30 12.5 -43.5t37.5 -23.5l-3 -23q-41 3 -111 3q-62 0 -102 -3l-3 23q27 11 36 24.5t10 42.5q2 80 2 93v147
q0 31 -7 41.5t-37 16.5l-4 32q30 11 40 34q7 17 8 24q3 11 6 33l6 34q37 199 163 199q50 0 82 -26.5t32 -65.5q0 -25 -15.5 -42.5t-39.5 -17.5zM334 208q0 105 65 175q66 69 161 69q85 0 137 -49t52 -126q0 -13 -2 -29h-297q-1 -4 -1 -14q0 -65 34.5 -105.5t91.5 -40.5
q46 0 76.5 17t64.5 61l32 -20q-62 -162 -192 -162q-96 0 -159 66t-63 158zM456 300h171q-3 94 -75 94q-34 0 -60.5 -26t-35.5 -68zM651 676l37 -176l-33 -13l-99 146q-21 31 -21 59q0 25 14.5 41.5t37.5 16.5q49 0 64 -74zM504 676l37 -176l-33 -13l-99 146q-21 31 -21 59
q0 25 14.5 41.5t37.5 16.5q49 0 64 -74z" />
    <glyph glyph-name="ffedblgrave" unicode="ff&#x205;" horiz-adv-x="1052" 
d="M529 743q50 0 82 -26.5t32 -65.5q0 -25 -15.5 -42.5t-39.5 -17.5q-23 0 -36.5 12t-25.5 42q-11 29 -31 29q-29 0 -29 -52q0 -18 3 -65q3 -46 3 -88v-35q20 0 40.5 1t40.5 2t29 1l8 -20l-8 -46h-110v-190q0 -40 4 -93q2 -30 12.5 -43.5t37.5 -23.5l-3 -23q-41 3 -111 3
q-62 0 -102 -3l-3 23q27 11 36 24.5t10 42.5q2 80 2 93v115q0 44 -12.5 59.5t-49.5 15.5h-99v-190q0 -40 4 -93q2 -30 12.5 -43.5t37.5 -23.5l-3 -23q-41 3 -111 3q-62 0 -102 -3l-3 23q27 11 36 24.5t10 42.5q2 80 2 93v147q0 31 -7 41.5t-37 16.5l-4 32q30 11 40 34
q7 17 8 24q2 6 7 33l6 34q37 199 161 199q50 0 82 -26.5t32 -65.5q0 -25 -15.5 -42.5t-39.5 -17.5q-23 0 -36.5 12t-25.5 42q-11 29 -31 29q-29 0 -29 -52q0 -18 3 -65q3 -46 3 -88v-35h161q3 40 14 110q36 199 160 199zM606 208q0 105 65 175q66 69 161 69q85 0 137 -49
t52 -126q0 -13 -2 -29h-297q-1 -4 -1 -14q0 -65 34.5 -105.5t91.5 -40.5q46 0 76.5 17t64.5 61l32 -20q-62 -162 -192 -162q-96 0 -159 66t-63 158zM728 300h171q-3 94 -75 94q-34 0 -60.5 -26t-35.5 -68zM923 676l37 -176l-33 -13l-99 146q-21 31 -21 59q0 25 14.5 41.5
t37.5 16.5q49 0 64 -74zM776 676l37 -176l-33 -13l-99 146q-21 31 -21 59q0 25 14.5 41.5t37.5 16.5q49 0 64 -74z" />
    <glyph glyph-name="longsedblgrave" unicode="&#x17f;&#x205;" horiz-adv-x="780" 
d="M195 469l-1 -287q0 -40 4 -93q2 -30 12.5 -43.5t37.5 -23.5l-3 -23q-41 3 -111 3q-62 0 -102 -3l-3 23q27 11 36 24.5t10 42.5q2 80 2 93v147q0 31 -7 41.5t-37 16.5l-4 32q30 11 40 34q7 17 8 24q3 11 6 33l6 34q37 199 163 199q50 0 82 -26.5t32 -65.5
q0 -25 -15.5 -42.5t-39.5 -17.5q-23 0 -36.5 12t-25.5 42q-11 29 -31 29q-29 0 -29 -52q0 -18 3 -65q3 -46 3 -88zM334 208q0 105 65 175q66 69 161 69q85 0 137 -49t52 -126q0 -13 -2 -29h-297q-1 -4 -1 -14q0 -65 34.5 -105.5t91.5 -40.5q46 0 76.5 17t64.5 61l32 -20
q-62 -162 -192 -162q-96 0 -159 66t-63 158zM456 300h171q-3 94 -75 94q-34 0 -60.5 -26t-35.5 -68zM651 676l37 -176l-33 -13l-99 146q-21 31 -21 59q0 25 14.5 41.5t37.5 16.5q49 0 64 -74zM504 676l37 -176l-33 -13l-99 146q-21 31 -21 59q0 25 14.5 41.5t37.5 16.5
q49 0 64 -74z" />
    <glyph glyph-name="feinvbreve" unicode="f&#x207;" horiz-adv-x="774" 
d="M311 591q-23 0 -36.5 12t-25.5 42q-11 29 -31 29q-29 0 -29 -52q0 -18 3 -65q3 -46 3 -88v-35q20 0 40 1l40 2t29 1l8 -20l-8 -46h-110v-190q0 -40 4 -93q2 -30 12.5 -43.5t37.5 -23.5l-3 -23q-41 3 -111 3q-62 0 -102 -3l-3 23q27 11 36 24.5t10 42.5q2 80 2 93v147
q0 31 -7 41.5t-37 16.5l-4 32q30 11 40 34q7 17 8 24q3 11 6 33l6 34q37 199 163 199q50 0 82 -26.5t32 -65.5q0 -25 -15.5 -42.5t-39.5 -17.5zM328 208q0 105 65 175q66 69 161 69q85 0 137 -49t52 -126q0 -13 -2 -29h-297q-1 -4 -1 -14q0 -65 34.5 -105.5t91.5 -40.5
q46 0 76.5 17t64.5 61l32 -20q-62 -162 -192 -162q-96 0 -159 66t-63 158zM450 300h171q-3 94 -75 94q-34 0 -60.5 -26t-35.5 -68zM411 519q4 108 41.5 165.5t99.5 57.5t99.5 -57.5t41.5 -165.5l-43 -4q-15 67 -38.5 97t-59.5 30t-59.5 -30t-38.5 -97z" />
    <glyph glyph-name="ffeinvbreve" unicode="ff&#x207;" horiz-adv-x="1052" 
d="M529 743q50 0 82 -26.5t32 -65.5q0 -25 -15.5 -42.5t-39.5 -17.5q-23 0 -36.5 12t-25.5 42q-11 29 -31 29q-29 0 -29 -52q0 -18 3 -65q3 -46 3 -88v-35q20 0 40.5 1t40.5 2t29 1l8 -20l-8 -46h-110v-190q0 -40 4 -93q2 -30 12.5 -43.5t37.5 -23.5l-3 -23q-41 3 -111 3
q-62 0 -102 -3l-3 23q27 11 36 24.5t10 42.5q2 80 2 93v115q0 44 -12.5 59.5t-49.5 15.5h-99v-190q0 -40 4 -93q2 -30 12.5 -43.5t37.5 -23.5l-3 -23q-41 3 -111 3q-62 0 -102 -3l-3 23q27 11 36 24.5t10 42.5q2 80 2 93v147q0 31 -7 41.5t-37 16.5l-4 32q30 11 40 34
q7 17 8 24q2 6 7 33l6 34q37 199 161 199q50 0 82 -26.5t32 -65.5q0 -25 -15.5 -42.5t-39.5 -17.5q-23 0 -36.5 12t-25.5 42q-11 29 -31 29q-29 0 -29 -52q0 -18 3 -65q3 -46 3 -88v-35h161q3 40 14 110q36 199 160 199zM606 208q0 105 65 175q66 69 161 69q85 0 137 -49
t52 -126q0 -13 -2 -29h-297q-1 -4 -1 -14q0 -65 34.5 -105.5t91.5 -40.5q46 0 76.5 17t64.5 61l32 -20q-62 -162 -192 -162q-96 0 -159 66t-63 158zM728 300h171q-3 94 -75 94q-34 0 -60.5 -26t-35.5 -68zM689 519q4 108 41.5 165.5t99.5 57.5t99.5 -57.5t41.5 -165.5
l-43 -4q-15 67 -38.5 97t-59.5 30t-59.5 -30t-38.5 -97z" />
    <glyph glyph-name="longseinvbreve" unicode="&#x17f;&#x207;" horiz-adv-x="774" 
d="M195 469l-1 -287q0 -40 4 -93q2 -30 12.5 -43.5t37.5 -23.5l-3 -23q-41 3 -111 3q-62 0 -102 -3l-3 23q27 11 36 24.5t10 42.5q2 80 2 93v147q0 31 -7 41.5t-37 16.5l-4 32q30 11 40 34q7 17 8 24q3 11 6 33l6 34q37 199 163 199q50 0 82 -26.5t32 -65.5
q0 -25 -15.5 -42.5t-39.5 -17.5q-23 0 -36.5 12t-25.5 42q-11 29 -31 29q-29 0 -29 -52q0 -18 3 -65q3 -46 3 -88zM411 519q4 108 41.5 165.5t99.5 57.5t99.5 -57.5t41.5 -165.5l-43 -4q-15 67 -38.5 97t-59.5 30t-59.5 -30t-38.5 -97zM328 208q0 105 65 175q66 69 161 69
q85 0 137 -49t52 -126q0 -13 -2 -29h-297q-1 -4 -1 -14q0 -65 34.5 -105.5t91.5 -40.5q46 0 76.5 17t64.5 61l32 -20q-62 -162 -192 -162q-96 0 -159 66t-63 158zM450 300h171q-3 94 -75 94q-34 0 -60.5 -26t-35.5 -68z" />
    <glyph glyph-name="fhdotbelow" unicode="f&#x1e25;" horiz-adv-x="810" 
d="M472 563v-201q41 89 130 89q74 0 112 -60q23 -38 23 -97v-112q0 -13 2 -93q1 -29 10.5 -42.5t36.5 -24.5l-3 -23q-41 3 -102 3q-55 0 -96 -3l-3 23q21 10 28 23.5t8 43.5q2 80 2 93v109q0 34 -17 53t-48 19q-38 0 -60.5 -24t-22.5 -63v-94q0 -13 2 -93q1 -30 8 -43.5
t29 -23.5l-3 -23q-40 3 -96 3q-62 0 -102 -3l-3 23q27 11 36 24.5t10 42.5q2 80 2 93v337q0 51 -4 80q-9 85 -68 85q-89 0 -89 -170v-80q20 0 40.5 1t40.5 2t29 1l8 -20l-8 -46h-110v-190q0 -40 4 -93q2 -30 12.5 -43.5t37.5 -23.5l-3 -23q-41 3 -111 3q-62 0 -102 -3l-3 23
q27 11 36 24.5t10 42.5q2 80 2 93v147q0 31 -7 41.5t-37 16.5l-4 32q29 10 39 34q7 15 8 25q2 8 6 33t6 33q21 94 79 146.5t139 52.5q60 0 98 -23l52 32l21 -8q-5 -93 -5 -181zM489 -184q-21 22 -21 55t21 55q22 21 55 21t54 -21q22 -22 22 -55t-22 -54q-21 -22 -54 -22
t-55 21z" />
    <glyph glyph-name="ffhdotbelow" unicode="ff&#x1e25;" horiz-adv-x="1088" 
d="M682 720l52 32l21 -8q-5 -93 -5 -181v-201q41 89 130 89q74 0 112 -60q23 -38 23 -97v-112q0 -13 2 -93q1 -29 10.5 -42.5t36.5 -24.5l-3 -23q-41 3 -102 3q-55 0 -96 -3l-3 23q21 10 28 23.5t8 43.5q2 80 2 93v109q0 34 -17 53t-48 19q-38 0 -60.5 -24t-22.5 -63v-94
q0 -13 2 -93q1 -30 8 -43.5t29 -23.5l-3 -23q-40 3 -96 3q-62 0 -102 -3l-3 23q27 11 36 24.5t10 42.5q2 80 2 93v337q0 51 -4 80q-9 85 -68 85q-89 0 -89 -170v-80q20 0 40.5 1t40.5 2t29 1l8 -20l-8 -46h-110v-190q0 -40 4 -93q2 -30 12.5 -43.5t37.5 -23.5l-3 -23
q-41 3 -111 3q-62 0 -102 -3l-3 23q27 11 36 24.5t10 42.5q2 80 2 93v115q0 44 -12.5 59.5t-49.5 15.5h-99v-190q0 -40 4 -93q2 -30 12.5 -43.5t37.5 -23.5l-3 -23q-41 3 -111 3q-62 0 -102 -3l-3 23q27 11 36 24.5t10 42.5q2 80 2 93v147q0 31 -7 41.5t-37 16.5l-4 32
q30 11 40 34q7 17 8 24q2 6 7 33l6 34q37 199 161 199q50 0 82 -26.5t32 -65.5q0 -25 -15.5 -42.5t-39.5 -17.5q-23 0 -36.5 12t-25.5 42q-11 29 -31 29q-29 0 -29 -52q0 -18 3 -65q3 -46 3 -88v-35h161q2 67 12 110q49 199 211 199q66 0 104 -23zM770 -184q-21 22 -21 55
t21 55q22 21 55 21t54 -21q22 -22 22 -55t-22 -54q-21 -22 -54 -22t-55 21z" />
    <glyph glyph-name="longshdotbelow" unicode="&#x17f;&#x1e25;" horiz-adv-x="810" 
d="M194 514v-332q0 -40 4 -93q2 -30 12.5 -43.5t37.5 -23.5l-3 -23q-41 3 -111 3q-62 0 -102 -3l-3 23q27 11 36 24.5t10 42.5q2 80 2 93v147q0 31 -7 41.5t-37 16.5l-4 32q29 10 39 34q7 15 8 25q2 8 6 33t6 33q21 94 79 146.5t139 52.5q60 0 98 -23l52 32l21 -8
q-5 -93 -5 -181v-201q41 89 130 89q74 0 112 -60q23 -38 23 -97v-112q0 -13 2 -93q1 -29 10.5 -42.5t36.5 -24.5l-3 -23q-41 3 -102 3q-55 0 -96 -3l-3 23q21 10 28 23.5t8 43.5q2 80 2 93v109q0 34 -17 53t-48 19q-38 0 -60.5 -24t-22.5 -63v-94q0 -13 2 -93q1 -30 8 -43.5
t29 -23.5l-3 -23q-40 3 -96 3q-62 0 -102 -3l-3 23q27 11 36 24.5t10 42.5q2 80 2 93v337q0 51 -4 80q-9 85 -68 85q-89 0 -89 -170zM489 -184q-21 22 -21 55t21 55q22 21 55 21t54 -21q22 -22 22 -55t-22 -54q-21 -22 -54 -22t-55 21z" />
    <glyph glyph-name="fidotbelow" unicode="f&#x1ecb;" horiz-adv-x="546" 
d="M306 743q77 0 122 -29.5t45 -78.5q0 -27 -17.5 -44.5t-46.5 -17.5q-56 0 -75 61q-9 28 -19.5 39t-31.5 11q-89 0 -89 -170v-80h155q64 0 107 25l21 -8q-5 -117 -5 -181v-88q0 -13 2 -93q1 -30 8 -43.5t29 -23.5l-3 -23q-40 3 -96 3q-62 0 -102 -3l-3 23q27 11 36 24.5
t10 42.5q2 80 2 93v37q0 51 -3 94q-2 32 -17.5 45.5t-52.5 13.5h-88v-190q0 -40 4 -93q2 -30 12.5 -43.5t37.5 -23.5l-3 -23q-41 3 -111 3q-62 0 -102 -3l-3 23q27 11 36 24.5t10 42.5q2 80 2 93v147q0 31 -7 41.5t-37 16.5l-4 32q29 10 39 34q7 15 8 25q2 8 6 33t6 33
q21 94 79 146.5t139 52.5zM356 -184q-21 22 -21 55t21 55q22 21 55 21t54 -21q22 -22 22 -55t-22 -54q-21 -22 -54 -22t-55 21z" />
    <glyph glyph-name="ffidotbelow" unicode="ff&#x1ecb;" horiz-adv-x="824" 
d="M33 387l-4 32q30 11 40 34q7 17 8 24q2 6 7 33l6 34q37 199 161 199q50 0 82 -26.5t32 -65.5q0 -25 -15.5 -42.5t-39.5 -17.5q-23 0 -36.5 12t-25.5 42q-11 29 -31 29q-29 0 -29 -52q0 -18 3 -65q3 -46 3 -88v-35h161q0 60 12 110q24 95 79.5 147t137.5 52
q77 0 122 -29.5t45 -78.5q0 -27 -17.5 -44.5t-46.5 -17.5q-56 0 -75 61q-9 28 -19.5 39t-31.5 11q-89 0 -89 -170v-80h155q64 0 107 25l21 -8q-5 -117 -5 -181v-88q0 -13 2 -93q1 -30 8 -43.5t29 -23.5l-3 -23q-40 3 -96 3q-62 0 -102 -3l-3 23q27 11 36 24.5t10 42.5
q2 80 2 93v37q0 51 -3 94q-2 32 -17.5 45.5t-52.5 13.5h-88v-190q0 -40 4 -93q2 -30 12.5 -43.5t37.5 -23.5l-3 -23q-41 3 -111 3q-62 0 -102 -3l-3 23q27 11 36 24.5t10 42.5q2 80 2 93v115q0 44 -12.5 59.5t-49.5 15.5h-99v-190q0 -40 4 -93q2 -30 12.5 -43.5t37.5 -23.5
l-3 -23q-41 3 -111 3q-62 0 -102 -3l-3 23q27 11 36 24.5t10 42.5q2 80 2 93v147q0 31 -7 41.5t-37 16.5zM636 -184q-21 22 -21 55t21 55q22 21 55 21t54 -21q22 -22 22 -55t-22 -54q-21 -22 -54 -22t-55 21z" />
    <glyph glyph-name="longsidotbelow" unicode="&#x17f;&#x1ecb;" horiz-adv-x="546" 
d="M194 514v-332q0 -40 4 -93q2 -30 12.5 -43.5t37.5 -23.5l-3 -23q-41 3 -111 3q-62 0 -102 -3l-3 23q27 11 36 24.5t10 42.5q2 80 2 93v147q0 31 -7 41.5t-37 16.5l-4 32q29 10 39 34q7 15 8 25q2 8 6 33t6 33q21 94 79 146.5t139 52.5q77 0 122 -29.5t45 -78.5
q0 -27 -17.5 -44.5t-46.5 -17.5q-56 0 -75 61q-9 28 -19.5 39t-31.5 11q-89 0 -89 -170zM472 263v-81q0 -13 2 -93q1 -30 8 -43.5t29 -23.5l-3 -23q-40 3 -96 3q-62 0 -102 -3l-3 23q27 11 36 24.5t10 42.5q2 80 2 93v37q-2 94 -8 113t-44 27v21q73 24 153 72l21 -8
q-5 -93 -5 -181zM356 -184q-21 22 -21 55t21 55q22 21 55 21t54 -21q22 -22 22 -55t-22 -54q-21 -22 -54 -22t-55 21z" />
    <glyph glyph-name="fidblgrave" unicode="f&#x209;" horiz-adv-x="546" 
d="M500 676l37 -176l-33 -13l-99 146q-21 31 -21 59q0 25 14.5 41.5t37.5 16.5q49 0 64 -74zM282 372h-88v-190q0 -40 4 -93q2 -30 12.5 -43.5t37.5 -23.5l-3 -23q-41 3 -111 3q-62 0 -102 -3l-3 23q27 11 36 24.5t10 42.5q2 80 2 93v147q0 31 -7 41.5t-37 16.5l-4 32
q30 11 40 34q7 17 8 24q3 11 6 33l6 34q37 199 163 199q48 0 72.5 -24t38.5 -90l27 -129l-33 -13l-89 130q-7 8 -17 26q-16 31 -33 31q-29 0 -29 -52q0 -18 3 -65q3 -46 3 -88v-35h154q64 0 107 25l21 -8q-5 -117 -5 -181v-88q0 -13 2 -93q1 -30 8 -43.5t29 -23.5l-3 -23
q-40 3 -96 3q-62 0 -102 -3l-3 23q27 11 36 24.5t10 42.5q2 80 2 93v37q0 51 -3 94q-2 32 -17.5 45.5t-52.5 13.5z" />
    <glyph glyph-name="ffidblgrave" unicode="ff&#x209;" horiz-adv-x="972" 
d="M529 743q50 0 82 -26.5t32 -65.5q0 -25 -15.5 -42.5t-39.5 -17.5q-23 0 -36.5 12t-25.5 42q-11 29 -31 29q-29 0 -29 -52q0 -18 3 -65q3 -46 3 -88v-35q20 0 40.5 1t40.5 2t29 1l8 -20l-8 -46h-110v-190q0 -40 4 -93q2 -30 12.5 -43.5t37.5 -23.5l-3 -23q-41 3 -111 3
q-62 0 -102 -3l-3 23q27 11 36 24.5t10 42.5q2 80 2 93v115q0 44 -12.5 59.5t-49.5 15.5h-99v-190q0 -40 4 -93q2 -30 12.5 -43.5t37.5 -23.5l-3 -23q-41 3 -111 3q-62 0 -102 -3l-3 23q27 11 36 24.5t10 42.5q2 80 2 93v147q0 31 -7 41.5t-37 16.5l-4 32q30 11 40 34
q7 17 8 24q2 6 7 33l6 34q37 199 161 199q50 0 82 -26.5t32 -65.5q0 -25 -15.5 -42.5t-39.5 -17.5q-23 0 -36.5 12t-25.5 42q-11 29 -31 29q-29 0 -29 -52q0 -18 3 -65q3 -46 3 -88v-35h161q3 40 14 110q36 199 160 199zM898 263v-81q0 -13 2 -93q1 -30 8 -43.5t29 -23.5
l-3 -23q-40 3 -96 3q-62 0 -102 -3l-3 23q27 11 36 24.5t10 42.5q2 80 2 93v37q-2 94 -8 113t-44 27v21q73 24 153 72l21 -8q-5 -93 -5 -181zM926 676l37 -176l-33 -13l-99 146q-21 31 -21 59q0 25 14.5 41.5t37.5 16.5q49 0 64 -74zM779 676l37 -176l-33 -13l-99 146
q-21 31 -21 59q0 25 14.5 41.5t37.5 16.5q49 0 64 -74z" />
    <glyph glyph-name="longsidblgrave" unicode="&#x17f;&#x209;" horiz-adv-x="546" 
d="M500 676l37 -176l-33 -13l-99 146q-21 31 -21 59q0 25 14.5 41.5t37.5 16.5q49 0 64 -74zM195 469l-1 -287q0 -40 4 -93q2 -30 12.5 -43.5t37.5 -23.5l-3 -23q-41 3 -111 3q-62 0 -102 -3l-3 23q27 11 36 24.5t10 42.5q2 80 2 93v147q0 31 -7 41.5t-37 16.5l-4 32
q30 11 40 34q7 17 8 24q3 11 6 33l6 34q37 199 163 199q48 0 72.5 -24t38.5 -90l27 -129l-33 -13l-89 130q-7 8 -17 26q-16 31 -33 31q-29 0 -29 -52q0 -18 3 -65q3 -46 3 -88zM472 263v-81q0 -13 2 -93q1 -30 8 -43.5t29 -23.5l-3 -23q-40 3 -96 3q-62 0 -102 -3l-3 23
q27 11 36 24.5t10 42.5q2 80 2 93v37q-2 94 -8 113t-44 27v21q73 24 153 72l21 -8q-5 -93 -5 -181z" />
    <glyph glyph-name="fiinvbreve" unicode="f&#x20b;" horiz-adv-x="652" 
d="M311 591q-23 0 -36.5 12t-25.5 42q-11 29 -31 29q-29 0 -29 -52q0 -18 3 -65q3 -46 3 -88v-35q20 0 40 1l40 2t29 1l8 -20l-8 -46h-110v-190q0 -40 4 -93q2 -30 12.5 -43.5t37.5 -23.5l-3 -23q-41 3 -111 3q-62 0 -102 -3l-3 23q27 11 36 24.5t10 42.5q2 80 2 93v147
q0 31 -7 41.5t-37 16.5l-4 32q30 11 40 34q7 17 8 24q3 11 6 33l6 34q37 199 163 199q50 0 82 -26.5t32 -65.5q0 -25 -15.5 -42.5t-39.5 -17.5zM578 263v-81q0 -13 2 -93q1 -30 8 -43.5t29 -23.5l-3 -23q-40 3 -96 3q-62 0 -102 -3l-3 23q27 11 36 24.5t10 42.5q2 80 2 93
v37q-2 94 -8 113t-44 27v21q73 24 153 72l21 -8q-5 -93 -5 -181zM372 519q4 108 41.5 165.5t99.5 57.5t99.5 -57.5t41.5 -165.5l-43 -4q-15 67 -38.5 97t-59.5 30t-59.5 -30t-38.5 -97z" />
    <glyph glyph-name="ffiinvbreve" unicode="ff&#x20b;" horiz-adv-x="929" 
d="M529 743q50 0 82 -26.5t32 -65.5q0 -25 -15.5 -42.5t-39.5 -17.5q-23 0 -36.5 12t-25.5 42q-11 29 -31 29q-29 0 -29 -52q0 -18 3 -65q3 -46 3 -88v-35q20 0 40.5 1t40.5 2t29 1l8 -20l-8 -46h-110v-190q0 -40 4 -93q2 -30 12.5 -43.5t37.5 -23.5l-3 -23q-41 3 -111 3
q-62 0 -102 -3l-3 23q27 11 36 24.5t10 42.5q2 80 2 93v115q0 44 -12.5 59.5t-49.5 15.5h-99v-190q0 -40 4 -93q2 -30 12.5 -43.5t37.5 -23.5l-3 -23q-41 3 -111 3q-62 0 -102 -3l-3 23q27 11 36 24.5t10 42.5q2 80 2 93v147q0 31 -7 41.5t-37 16.5l-4 32q30 11 40 34
q7 17 8 24q2 6 7 33l6 34q37 199 161 199q50 0 82 -26.5t32 -65.5q0 -25 -15.5 -42.5t-39.5 -17.5q-23 0 -36.5 12t-25.5 42q-11 29 -31 29q-29 0 -29 -52q0 -18 3 -65q3 -46 3 -88v-35h161q3 40 14 110q36 199 160 199zM649 519q4 108 41.5 165.5t99.5 57.5t99.5 -57.5
t41.5 -165.5l-43 -4q-15 67 -38.5 97t-59.5 30t-59.5 -30t-38.5 -97zM855 263v-81q0 -13 2 -93q1 -30 8 -43.5t29 -23.5l-3 -23q-41 3 -96 3q-61 0 -102 -3l-3 23q27 11 36 24.5t10 42.5q2 80 2 93v37q-2 94 -8 113t-44 27v21q74 24 153 72l21 -8q-5 -93 -5 -181z" />
    <glyph glyph-name="longsiinvbreve" unicode="&#x17f;&#x20b;" horiz-adv-x="652" 
d="M195 469l-1 -287q0 -40 4 -93q2 -30 12.5 -43.5t37.5 -23.5l-3 -23q-41 3 -111 3q-62 0 -102 -3l-3 23q27 11 36 24.5t10 42.5q2 80 2 93v147q0 31 -7 41.5t-37 16.5l-4 32q30 11 40 34q7 17 8 24q3 11 6 33l6 34q37 199 163 199q50 0 82 -26.5t32 -65.5
q0 -25 -15.5 -42.5t-39.5 -17.5q-23 0 -36.5 12t-25.5 42q-11 29 -31 29q-29 0 -29 -52q0 -18 3 -65q3 -46 3 -88zM372 519q4 108 41.5 165.5t99.5 57.5t99.5 -57.5t41.5 -165.5l-43 -4q-15 67 -38.5 97t-59.5 30t-59.5 -30t-38.5 -97zM578 263v-81q0 -13 2 -93
q1 -30 8 -43.5t29 -23.5l-3 -23q-40 3 -96 3q-62 0 -102 -3l-3 23q27 11 36 24.5t10 42.5q2 80 2 93v37q-2 94 -8 113t-44 27v21q73 24 153 72l21 -8q-5 -93 -5 -181z" />
    <glyph glyph-name="fodblgrave" unicode="f&#x20d;" horiz-adv-x="829" 
d="M311 591q-23 0 -36.5 12t-25.5 42q-11 29 -31 29q-29 0 -29 -52q0 -18 3 -65q3 -46 3 -88v-35q20 0 40 1l40 2t29 1l8 -20l-8 -46h-110v-190q0 -40 4 -93q2 -30 12.5 -43.5t37.5 -23.5l-3 -23q-41 3 -111 3q-62 0 -102 -3l-3 23q27 11 36 24.5t10 42.5q2 80 2 93v147
q0 31 -7 41.5t-37 16.5l-4 32q30 11 40 34q7 17 8 24q3 11 6 33l6 34q37 199 163 199q50 0 82 -26.5t32 -65.5q0 -25 -15.5 -42.5t-39.5 -17.5zM563 393q-50 0 -79.5 -44t-29.5 -124q0 -87 31.5 -135.5t86.5 -48.5q49 0 77.5 44.5t28.5 124.5q0 83 -34 132q-33 51 -81 51z
M326 217q0 97 69 165q69 69 171 69q106 0 173 -67q68 -68 68 -167q0 -98 -68 -166t-168 -68q-109 0 -177 67q-68 68 -68 167zM659 676l37 -176l-33 -13l-99 146q-21 31 -21 59q0 25 14.5 41.5t37.5 16.5q49 0 64 -74zM512 676l37 -176l-33 -13l-99 146q-21 31 -21 59
q0 25 14.5 41.5t37.5 16.5q49 0 64 -74z" />
    <glyph glyph-name="ffodblgrave" unicode="ff&#x20d;" horiz-adv-x="1107" 
d="M529 743q50 0 82 -26.5t32 -65.5q0 -25 -15.5 -42.5t-39.5 -17.5q-23 0 -36.5 12t-25.5 42q-11 29 -31 29q-29 0 -29 -52q0 -18 3 -65q3 -46 3 -88v-35q20 0 40.5 1t40.5 2t29 1l8 -20l-8 -46h-110v-190q0 -40 4 -93q2 -30 12.5 -43.5t37.5 -23.5l-3 -23q-41 3 -111 3
q-62 0 -102 -3l-3 23q27 11 36 24.5t10 42.5q2 80 2 93v115q0 44 -12.5 59.5t-49.5 15.5h-99v-190q0 -40 4 -93q2 -30 12.5 -43.5t37.5 -23.5l-3 -23q-41 3 -111 3q-62 0 -102 -3l-3 23q27 11 36 24.5t10 42.5q2 80 2 93v147q0 31 -7 41.5t-37 16.5l-4 32q30 11 40 34
q7 17 8 24q2 6 7 33l6 34q37 199 161 199q50 0 82 -26.5t32 -65.5q0 -25 -15.5 -42.5t-39.5 -17.5q-23 0 -36.5 12t-25.5 42q-11 29 -31 29q-29 0 -29 -52q0 -18 3 -65q3 -46 3 -88v-35h161q3 40 14 110q36 199 160 199zM841 393q-50 0 -79.5 -44t-29.5 -124
q0 -87 31.5 -135.5t86.5 -48.5q49 0 77.5 44.5t28.5 124.5q0 83 -34 132q-33 51 -81 51zM604 217q0 97 69 165q69 69 171 69q106 0 173 -67q68 -68 68 -167q0 -98 -68 -166t-168 -68q-109 0 -177 67q-68 68 -68 167zM937 676l37 -176l-33 -13l-99 146q-21 31 -21 59
q0 25 14.5 41.5t37.5 16.5q49 0 64 -74zM790 676l37 -176l-33 -13l-99 146q-21 31 -21 59q0 25 14.5 41.5t37.5 16.5q49 0 64 -74z" />
    <glyph glyph-name="longsodblgrave" unicode="&#x17f;&#x20d;" horiz-adv-x="829" 
d="M195 469l-1 -287q0 -40 4 -93q2 -30 12.5 -43.5t37.5 -23.5l-3 -23q-41 3 -111 3q-62 0 -102 -3l-3 23q27 11 36 24.5t10 42.5q2 80 2 93v147q0 31 -7 41.5t-37 16.5l-4 32q30 11 40 34q7 17 8 24q3 11 6 33l6 34q37 199 163 199q50 0 82 -26.5t32 -65.5
q0 -25 -15.5 -42.5t-39.5 -17.5q-23 0 -36.5 12t-25.5 42q-11 29 -31 29q-29 0 -29 -52q0 -18 3 -65q3 -46 3 -88zM563 393q-50 0 -79.5 -44t-29.5 -124q0 -87 31.5 -135.5t86.5 -48.5q49 0 77.5 44.5t28.5 124.5q0 83 -34 132q-33 51 -81 51zM326 217q0 97 69 165
q69 69 171 69q106 0 173 -67q68 -68 68 -167q0 -98 -68 -166t-168 -68q-109 0 -177 67q-68 68 -68 167zM659 676l37 -176l-33 -13l-99 146q-21 31 -21 59q0 25 14.5 41.5t37.5 16.5q49 0 64 -74zM512 676l37 -176l-33 -13l-99 146q-21 31 -21 59q0 25 14.5 41.5t37.5 16.5
q49 0 64 -74z" />
    <glyph glyph-name="frdblgrave" unicode="f&#x211;" horiz-adv-x="704" 
d="M311 591q-23 0 -36.5 12t-25.5 42q-11 29 -31 29q-29 0 -29 -52q0 -18 3 -65q3 -46 3 -88v-35q20 0 40 1l40 2t29 1l8 -20l-8 -46h-110v-190q0 -40 4 -93q2 -30 12.5 -43.5t37.5 -23.5l-3 -23q-41 3 -111 3q-62 0 -102 -3l-3 23q27 11 36 24.5t10 42.5q2 80 2 93v147
q0 31 -7 41.5t-37 16.5l-4 32q30 11 40 34q7 17 8 24q3 11 6 33l6 34q37 199 163 199q50 0 82 -26.5t32 -65.5q0 -25 -15.5 -42.5t-39.5 -17.5zM522 342h2q40 109 112 109q33 0 55 -21.5t22 -52.5q0 -29 -16.5 -46.5t-41.5 -17.5q-21 0 -42 15q-20 16 -35 16q-13 2 -24.5 -9
t-20.5 -41t-9 -76v-36q0 -53 2 -93q2 -31 9 -44t28 -23l-3 -23q-40 3 -96 3q-62 0 -102 -3l-3 23q27 11 36 24.5t10 42.5q2 80 2 93v37q-2 94 -8 113t-44 27v21q73 24 153 72l21 -8q-7 -45 -7 -102zM648 676l37 -176l-33 -13l-99 146q-21 31 -21 59q0 25 14.5 41.5
t37.5 16.5q49 0 64 -74zM501 676l37 -176l-33 -13l-99 146q-21 31 -21 59q0 25 14.5 41.5t37.5 16.5q49 0 64 -74z" />
    <glyph glyph-name="ffrdblgrave" unicode="ff&#x211;" horiz-adv-x="979" 
d="M529 743q50 0 82 -26.5t32 -65.5q0 -25 -15.5 -42.5t-39.5 -17.5q-23 0 -36.5 12t-25.5 42q-11 29 -31 29q-29 0 -29 -52q0 -18 3 -65q3 -46 3 -88v-35q20 0 40.5 1t40.5 2t29 1l8 -20l-8 -46h-110v-190q0 -40 4 -93q2 -30 12.5 -43.5t37.5 -23.5l-3 -23q-41 3 -111 3
q-62 0 -102 -3l-3 23q27 11 36 24.5t10 42.5q2 80 2 93v115q0 44 -12.5 59.5t-49.5 15.5h-99v-190q0 -40 4 -93q2 -30 12.5 -43.5t37.5 -23.5l-3 -23q-41 3 -111 3q-62 0 -102 -3l-3 23q27 11 36 24.5t10 42.5q2 80 2 93v147q0 31 -7 41.5t-37 16.5l-4 32q30 11 40 34
q7 17 8 24q2 6 7 33l6 34q37 199 161 199q50 0 82 -26.5t32 -65.5q0 -25 -15.5 -42.5t-39.5 -17.5q-23 0 -36.5 12t-25.5 42q-11 29 -31 29q-29 0 -29 -52q0 -18 3 -65q3 -46 3 -88v-35h161q3 40 14 110q36 199 160 199zM923 676l37 -176l-33 -13l-99 146q-21 31 -21 59
q0 25 14.5 41.5t37.5 16.5q49 0 64 -74zM776 676l37 -176l-33 -13l-99 146q-21 31 -21 59q0 25 14.5 41.5t37.5 16.5q49 0 64 -74zM797 342h2q40 109 112 109q35 0 56 -21.5t21 -52.5q0 -29 -16.5 -46.5t-41.5 -17.5q-21 0 -42 15q-20 16 -35 16q-13 2 -24.5 -9t-20.5 -41
t-9 -76v-36q0 -53 2 -93q2 -31 9 -44t28 -23l-3 -23q-41 3 -96 3q-61 0 -102 -3l-3 23q27 11 36 24.5t10 42.5q2 80 2 93v37q-2 94 -8 113t-44 27v21q74 24 153 72l21 -8q-7 -45 -7 -102z" />
    <glyph glyph-name="longsrdblgrave" unicode="&#x17f;&#x211;" horiz-adv-x="704" 
d="M195 469l-1 -287q0 -40 4 -93q2 -30 12.5 -43.5t37.5 -23.5l-3 -23q-41 3 -111 3q-62 0 -102 -3l-3 23q27 11 36 24.5t10 42.5q2 80 2 93v147q0 31 -7 41.5t-37 16.5l-4 32q30 11 40 34q7 17 8 24q3 11 6 33l6 34q37 199 163 199q50 0 82 -26.5t32 -65.5
q0 -25 -15.5 -42.5t-39.5 -17.5q-23 0 -36.5 12t-25.5 42q-11 29 -31 29q-29 0 -29 -52q0 -18 3 -65q3 -46 3 -88zM522 342h2q40 109 112 109q33 0 55 -21.5t22 -52.5q0 -29 -16.5 -46.5t-41.5 -17.5q-21 0 -42 15q-20 16 -35 16q-13 2 -24.5 -9t-20.5 -41t-9 -76v-36
q0 -53 2 -93q2 -31 9 -44t28 -23l-3 -23q-40 3 -96 3q-62 0 -102 -3l-3 23q27 11 36 24.5t10 42.5q2 80 2 93v37q-2 94 -8 113t-44 27v21q73 24 153 72l21 -8q-7 -45 -7 -102zM648 676l37 -176l-33 -13l-99 146q-21 31 -21 59q0 25 14.5 41.5t37.5 16.5q49 0 64 -74z
M501 676l37 -176l-33 -13l-99 146q-21 31 -21 59q0 25 14.5 41.5t37.5 16.5q49 0 64 -74z" />
    <glyph glyph-name="frinvbreve" unicode="f&#x213;" horiz-adv-x="682" 
d="M311 591q-23 0 -36.5 12t-25.5 42q-11 29 -31 29q-29 0 -29 -52q0 -18 3 -65q3 -46 3 -88v-35q20 0 40 1l40 2t29 1l8 -20l-8 -46h-110v-190q0 -40 4 -93q2 -30 12.5 -43.5t37.5 -23.5l-3 -23q-41 3 -111 3q-62 0 -102 -3l-3 23q27 11 36 24.5t10 42.5q2 80 2 93v147
q0 31 -7 41.5t-37 16.5l-4 32q30 11 40 34q7 17 8 24q3 11 6 33l6 34q37 199 163 199q50 0 82 -26.5t32 -65.5q0 -25 -15.5 -42.5t-39.5 -17.5zM500 342h2q40 109 112 109q33 0 55 -21.5t22 -52.5q0 -29 -16.5 -46.5t-41.5 -17.5q-21 0 -42 15q-20 16 -35 16q-13 2 -24.5 -9
t-20.5 -41t-9 -76v-36q0 -53 2 -93q2 -31 9 -44t28 -23l-3 -23q-40 3 -96 3q-62 0 -102 -3l-3 23q27 11 36 24.5t10 42.5q2 80 2 93v37q-2 94 -8 113t-44 27v21q73 24 153 72l21 -8q-7 -45 -7 -102zM392 519q4 108 41.5 165.5t99.5 57.5t99.5 -57.5t41.5 -165.5l-43 -4
q-15 67 -38.5 97t-59.5 30t-59.5 -30t-38.5 -97z" />
    <glyph glyph-name="ffrinvbreve" unicode="ff&#x213;" horiz-adv-x="960" 
d="M529 743q50 0 82 -26.5t32 -65.5q0 -25 -15.5 -42.5t-39.5 -17.5q-23 0 -36.5 12t-25.5 42q-11 29 -31 29q-29 0 -29 -52q0 -18 3 -65q3 -46 3 -88v-35q20 0 40.5 1t40.5 2t29 1l8 -20l-8 -46h-110v-190q0 -40 4 -93q2 -30 12.5 -43.5t37.5 -23.5l-3 -23q-41 3 -111 3
q-62 0 -102 -3l-3 23q27 11 36 24.5t10 42.5q2 80 2 93v115q0 44 -12.5 59.5t-49.5 15.5h-99v-190q0 -40 4 -93q2 -30 12.5 -43.5t37.5 -23.5l-3 -23q-41 3 -111 3q-62 0 -102 -3l-3 23q27 11 36 24.5t10 42.5q2 80 2 93v147q0 31 -7 41.5t-37 16.5l-4 32q30 11 40 34
q7 17 8 24q2 6 7 33l6 34q37 199 161 199q50 0 82 -26.5t32 -65.5q0 -25 -15.5 -42.5t-39.5 -17.5q-23 0 -36.5 12t-25.5 42q-11 29 -31 29q-29 0 -29 -52q0 -18 3 -65q3 -46 3 -88v-35h161q3 40 14 110q36 199 160 199zM778 342h2q40 109 112 109q33 0 55 -21.5t22 -52.5
q0 -29 -16.5 -46.5t-41.5 -17.5q-21 0 -42 15q-20 16 -35 16q-13 2 -24.5 -9t-20.5 -41t-9 -76v-36q0 -53 2 -93q2 -31 9 -44t28 -23l-3 -23q-40 3 -96 3q-62 0 -102 -3l-3 23q27 11 36 24.5t10 42.5q2 80 2 93v37q-2 94 -8 113t-44 27v21q73 24 153 72l21 -8
q-7 -45 -7 -102zM670 519q4 108 41.5 165.5t99.5 57.5t99.5 -57.5t41.5 -165.5l-43 -4q-15 67 -38.5 97t-59.5 30t-59.5 -30t-38.5 -97z" />
    <glyph glyph-name="longsrinvbreve" unicode="&#x17f;&#x213;" horiz-adv-x="682" 
d="M195 469l-1 -287q0 -40 4 -93q2 -30 12.5 -43.5t37.5 -23.5l-3 -23q-41 3 -111 3q-62 0 -102 -3l-3 23q27 11 36 24.5t10 42.5q2 80 2 93v147q0 31 -7 41.5t-37 16.5l-4 32q30 11 40 34q7 17 8 24q3 11 6 33l6 34q37 199 163 199q50 0 82 -26.5t32 -65.5
q0 -25 -15.5 -42.5t-39.5 -17.5q-23 0 -36.5 12t-25.5 42q-11 29 -31 29q-29 0 -29 -52q0 -18 3 -65q3 -46 3 -88zM392 519q4 108 41.5 165.5t99.5 57.5t99.5 -57.5t41.5 -165.5l-43 -4q-15 67 -38.5 97t-59.5 30t-59.5 -30t-38.5 -97zM500 342h2q40 109 112 109
q33 0 55 -21.5t22 -52.5q0 -29 -16.5 -46.5t-41.5 -17.5q-21 0 -42 15q-20 16 -35 16q-13 2 -24.5 -9t-20.5 -41t-9 -76v-36q0 -53 2 -93q2 -31 9 -44t28 -23l-3 -23q-40 3 -96 3q-62 0 -102 -3l-3 23q27 11 36 24.5t10 42.5q2 80 2 93v37q-2 94 -8 113t-44 27v21
q73 24 153 72l21 -8q-7 -45 -7 -102z" />
    <glyph glyph-name="fudblgrave" unicode="f&#x215;" horiz-adv-x="830" 
d="M311 591q-23 0 -36.5 12t-25.5 42q-11 29 -31 29q-29 0 -29 -52q0 -18 3 -65q3 -46 3 -88v-35q20 0 40 1l40 2t29 1l8 -20l-8 -46h-110v-190q0 -40 4 -93q2 -30 12.5 -43.5t37.5 -23.5l-3 -23q-41 3 -111 3q-62 0 -102 -3l-3 23q27 11 36 24.5t10 42.5q2 80 2 93v147
q0 31 -7 41.5t-37 16.5l-4 32q30 11 40 34q7 17 8 24q3 11 6 33l6 34q37 199 163 199q50 0 82 -26.5t32 -65.5q0 -25 -15.5 -42.5t-39.5 -17.5zM754 257v-50q2 -94 8 -113t44 -27v-21q-68 -26 -141 -62l-22 5l-3 81l-3 1q-48 -89 -128 -89q-72 0 -110 60q-23 38 -23 97v100
q0 63 -3 95q-2 30 -12.5 45t-35.5 27l3 26q88 1 172 5q-7 -111 -7 -180v-115q0 -72 63 -72q38 0 59.5 23.5t21.5 63.5v82q0 63 -3 95q-2 30 -12.5 45t-35.5 27l3 26q88 1 172 5q-7 -111 -7 -180zM654 676l37 -176l-33 -13l-99 146q-21 31 -21 59q0 25 14.5 41.5t37.5 16.5
q49 0 64 -74zM507 676l37 -176l-33 -13l-99 146q-21 31 -21 59q0 25 14.5 41.5t37.5 16.5q49 0 64 -74z" />
    <glyph glyph-name="ffudblgrave" unicode="ff&#x215;" horiz-adv-x="1108" 
d="M529 743q50 0 82 -26.5t32 -65.5q0 -25 -15.5 -42.5t-39.5 -17.5q-23 0 -36.5 12t-25.5 42q-11 29 -31 29q-29 0 -29 -52q0 -18 3 -65q3 -46 3 -88v-35q20 0 40.5 1t40.5 2t29 1l8 -20l-8 -46h-110v-190q0 -40 4 -93q2 -30 12.5 -43.5t37.5 -23.5l-3 -23q-41 3 -111 3
q-62 0 -102 -3l-3 23q27 11 36 24.5t10 42.5q2 80 2 93v115q0 44 -12.5 59.5t-49.5 15.5h-99v-190q0 -40 4 -93q2 -30 12.5 -43.5t37.5 -23.5l-3 -23q-41 3 -111 3q-62 0 -102 -3l-3 23q27 11 36 24.5t10 42.5q2 80 2 93v147q0 31 -7 41.5t-37 16.5l-4 32q30 11 40 34
q7 17 8 24q2 6 7 33l6 34q37 199 161 199q50 0 82 -26.5t32 -65.5q0 -25 -15.5 -42.5t-39.5 -17.5q-23 0 -36.5 12t-25.5 42q-11 29 -31 29q-29 0 -29 -52q0 -18 3 -65q3 -46 3 -88v-35h161q3 40 14 110q36 199 160 199zM1032 257v-50q2 -94 8 -113t44 -27v-21
q-68 -26 -141 -62l-22 5l-3 81l-3 1q-48 -89 -128 -89q-73 0 -110 60q-23 38 -23 97v100q0 63 -3 95q-2 30 -12.5 45t-35.5 27l3 26q88 1 172 5q-7 -111 -7 -180v-115q0 -72 63 -72q38 0 59.5 23.5t21.5 63.5v82q0 63 -3 95q-2 30 -12.5 45t-35.5 27l3 26q88 1 172 5
q-7 -111 -7 -180zM932 676l37 -176l-33 -13l-99 146q-21 31 -21 59q0 25 14.5 41.5t37.5 16.5q49 0 64 -74zM785 676l37 -176l-33 -13l-99 146q-21 31 -21 59q0 25 14.5 41.5t37.5 16.5q49 0 64 -74z" />
    <glyph glyph-name="longsudblgrave" unicode="&#x17f;&#x215;" horiz-adv-x="830" 
d="M754 257v-50q2 -94 8 -113t44 -27v-21q-68 -26 -141 -62l-22 5l-3 81l-3 1q-48 -89 -128 -89q-72 0 -110 60q-23 38 -23 97v100q0 63 -3 95q-2 30 -12.5 45t-35.5 27l3 26q88 1 172 5q-7 -111 -7 -180v-115q0 -72 63 -72q38 0 59.5 23.5t21.5 63.5v82q0 63 -3 95
q-2 30 -12.5 45t-35.5 27l3 26q88 1 172 5q-7 -111 -7 -180zM195 469l-1 -287q0 -40 4 -93q2 -30 12.5 -43.5t37.5 -23.5l-3 -23q-41 3 -111 3q-62 0 -102 -3l-3 23q27 11 36 24.5t10 42.5q2 80 2 93v147q0 31 -7 41.5t-37 16.5l-4 32q30 11 40 34q7 17 8 24q3 11 6 33l6 34
q37 199 163 199q50 0 82 -26.5t32 -65.5q0 -25 -15.5 -42.5t-39.5 -17.5q-23 0 -36.5 12t-25.5 42q-11 29 -31 29q-29 0 -29 -52q0 -18 3 -65q3 -46 3 -88zM654 676l37 -176l-33 -13l-99 146q-21 31 -21 59q0 25 14.5 41.5t37.5 16.5q49 0 64 -74zM507 676l37 -176l-33 -13
l-99 146q-21 31 -21 59q0 25 14.5 41.5t37.5 16.5q49 0 64 -74z" />
    <glyph glyph-name="fytilde" unicode="f&#x1ef9;" horiz-adv-x="788" 
d="M311 591q-23 0 -36.5 12t-25.5 42q-11 29 -31 29q-29 0 -29 -52q0 -18 3 -65q3 -46 3 -88v-35q20 0 40 1l40 2t29 1l8 -20l-8 -46h-110v-190q0 -40 4 -93q2 -30 12.5 -43.5t37.5 -23.5l-3 -23q-41 3 -111 3q-62 0 -102 -3l-3 23q27 11 36 24.5t10 42.5q2 80 2 93v147
q0 31 -7 41.5t-37 16.5l-4 32q30 11 40 34q7 17 8 24q3 11 6 33l6 34q37 199 163 199q50 0 82 -26.5t32 -65.5q0 -25 -15.5 -42.5t-39.5 -17.5zM487 -111l36 86l-116 276q-2 5 -18.5 45t-24.5 56q-19 39 -43 58l4 23q29 -3 102 -3q66 0 99 3l3 -24q-18 -10 -24.5 -19
t-6.5 -24q0 -35 31 -113l53 -135l53 139q21 55 21 95q0 21 -6.5 32.5t-27.5 25.5l4 23q33 -3 81 -3q46 0 80 3l3 -23q-38 -29 -58 -70q-21 -44 -39 -89l-153 -384q-30 -76 -64.5 -109.5t-80.5 -33.5q-34 0 -56.5 18t-22.5 48q0 28 18.5 45t45.5 17q10 0 30 -6t25 -6
q18 0 29 10.5t23 38.5zM497 622q-32 0 -67 -26l-22 14q14 46 45.5 73.5t67.5 27.5q27 0 62 -19q17 -8 33 -17q13 -6 35 -6q33 0 70 27l22 -16q-36 -99 -117 -99q-27 0 -63 18q-44 23 -66 23z" />
    <glyph glyph-name="ffytilde" unicode="ff&#x1ef9;" horiz-adv-x="1066" 
d="M529 743q50 0 82 -26.5t32 -65.5q0 -25 -15.5 -42.5t-39.5 -17.5q-23 0 -36.5 12t-25.5 42q-11 29 -31 29q-29 0 -29 -52q0 -18 3 -65q3 -46 3 -88v-35q20 0 40.5 1t40.5 2t29 1l8 -20l-8 -46h-110v-190q0 -40 4 -93q2 -30 12.5 -43.5t37.5 -23.5l-3 -23q-41 3 -111 3
q-62 0 -102 -3l-3 23q27 11 36 24.5t10 42.5q2 80 2 93v115q0 44 -12.5 59.5t-49.5 15.5h-99v-190q0 -40 4 -93q2 -30 12.5 -43.5t37.5 -23.5l-3 -23q-41 3 -111 3q-62 0 -102 -3l-3 23q27 11 36 24.5t10 42.5q2 80 2 93v147q0 31 -7 41.5t-37 16.5l-4 32q30 11 40 34
q7 17 8 24q2 6 7 33l6 34q37 199 161 199q50 0 82 -26.5t32 -65.5q0 -25 -15.5 -42.5t-39.5 -17.5q-23 0 -36.5 12t-25.5 42q-11 29 -31 29q-29 0 -29 -52q0 -18 3 -65q3 -46 3 -88v-35h161q3 40 14 110q36 199 160 199zM765 -111l36 86l-116 276q-2 5 -18.5 45t-24.5 56
q-19 39 -43 58l4 23q29 -3 102 -3q66 0 99 3l3 -24q-18 -10 -24.5 -19t-6.5 -24q0 -35 31 -113l53 -135l53 139q21 55 21 95q0 21 -6.5 32.5t-27.5 25.5l4 23q33 -3 81 -3q45 0 80 3l3 -23q-38 -29 -58 -70q-21 -44 -39 -89l-153 -384q-30 -76 -64.5 -109.5t-80.5 -33.5
q-34 0 -56.5 18t-22.5 48q0 28 18.5 45t45.5 17q10 0 30 -6t25 -6q18 0 29 10.5t23 38.5zM775 622q-32 0 -67 -26l-22 14q14 46 45.5 73.5t67.5 27.5q27 0 62 -19q17 -8 33 -17q13 -6 35 -6q33 0 70 27l22 -16q-36 -99 -117 -99q-27 0 -63 18q-44 23 -66 23z" />
    <glyph glyph-name="longsytilde" unicode="&#x17f;&#x1ef9;" horiz-adv-x="788" 
d="M487 -111l36 86l-116 276q-2 5 -18.5 45t-24.5 56q-19 39 -43 58l4 23q29 -3 102 -3q66 0 99 3l3 -24q-18 -10 -24.5 -19t-6.5 -24q0 -35 31 -113l53 -135l53 139q21 55 21 95q0 21 -6.5 32.5t-27.5 25.5l4 23q33 -3 81 -3q46 0 80 3l3 -23q-38 -29 -58 -70
q-21 -44 -39 -89l-153 -384q-30 -76 -64.5 -109.5t-80.5 -33.5q-34 0 -56.5 18t-22.5 48q0 28 18.5 45t45.5 17q10 0 30 -6t25 -6q18 0 29 10.5t23 38.5zM195 469l-1 -287q0 -40 4 -93q2 -30 12.5 -43.5t37.5 -23.5l-3 -23q-41 3 -111 3q-62 0 -102 -3l-3 23q27 11 36 24.5
t10 42.5q2 80 2 93v147q0 31 -7 41.5t-37 16.5l-4 32q30 11 40 34q7 17 8 24q3 11 6 33l6 34q37 199 163 199q50 0 82 -26.5t32 -65.5q0 -25 -15.5 -42.5t-39.5 -17.5q-23 0 -36.5 12t-25.5 42q-11 29 -31 29q-29 0 -29 -52q0 -18 3 -65q3 -46 3 -88zM497 622q-32 0 -67 -26
l-22 14q14 46 45.5 73.5t67.5 27.5q27 0 62 -19q17 -8 33 -17q13 -6 35 -6q33 0 70 27l22 -16q-36 -99 -117 -99q-27 0 -63 18q-44 23 -66 23z" />
    <glyph glyph-name=".notdef" horiz-adv-x="300" 
 />
    <glyph glyph-name=".null" horiz-adv-x="0" 
 />
    <glyph glyph-name="nonmarkingreturn" horiz-adv-x="333" 
 />
    <glyph glyph-name="space" unicode=" " 
 />
    <glyph glyph-name="exclam" unicode="!" 
d="M143 182h-36q-13 156 -45 348q-12 70 -12 98q0 37 21 62.5t54 25.5t54 -25.5t21 -62.5q0 -28 -12 -98q-32 -192 -45 -348zM70 5q-22 22 -22 55t22 55t55 22t55 -22t22 -55t-22 -55t-55 -22t-55 22z" />
    <glyph glyph-name="quotedbl" unicode="&#x22;" horiz-adv-x="417" 
d="M140 464h-30q-3 18 -38 159q-11 46 -11 65q0 28 18.5 47t46.5 19q27 0 45 -19t18 -47q0 -19 -11 -65q-35 -141 -38 -159zM307 464h-30q-3 18 -38 159q-11 46 -11 65q0 28 18.5 47t46.5 19q27 0 45 -19t18 -47q0 -19 -11 -65q-35 -141 -38 -159z" />
    <glyph glyph-name="numbersign" unicode="#" horiz-adv-x="500" 
d="M348 286h91v-66h-109l-58 -220h-70l58 220h-100l-58 -220h-69l58 220h-84v66h102l35 133h-83v66h101l57 215h69l-57 -215h100l57 215h70l-57 -215h92v-66h-110zM313 419h-100l-35 -133h100z" />
    <glyph glyph-name="dollar" unicode="$" horiz-adv-x="502" 
d="M288 -113h-65v97q-99 2 -180 34q-13 69 -24 185l35 9q30 -66 56 -101t57 -50q33 -14 82 -14q50 0 76.5 24.5t26.5 69.5t-30 76t-109 85q-100 69 -134 112q-38 47 -38 117q0 72 50 121.5t132 60.5v98h65v-96q82 -5 164 -44q2 -42 2 -86q0 -41 -2 -83l-34 -3
q-26 71 -58 110q-40 49 -98 49q-47 0 -75.5 -30t-28.5 -78q0 -39 39 -78q17 -15 96 -69q91 -60 125 -97q48 -53 48 -128t-48 -126t-130 -64v-101z" />
    <glyph glyph-name="percent" unicode="%" horiz-adv-x="809" 
d="M41 579q0 69 48 116q48 48 117 48q72 0 120 -48q48 -46 48 -116q0 -69 -48 -118q-48 -48 -116 -48q-73 0 -122 47q-47 47 -47 119zM618 772l54 -37l-501 -791l-54 37zM108 578q0 -47 29 -77t73 -30q39 0 68 30q29 32 29 77t-29 76q-29 30 -70 30q-42 0 -71 -30.5
t-29 -75.5zM435 150q0 70 48 116q48 48 117 48q72 0 120 -48q48 -47 48 -116q0 -68 -48 -118q-48 -48 -116 -48q-73 0 -122 47q-47 47 -47 119zM502 149q0 -47 29 -77t73 -30q40 0 68 30q29 32 29 77t-29 76q-28 30 -70 30t-71 -30.5t-29 -75.5z" />
    <glyph glyph-name="ampersand" unicode="&#x26;" horiz-adv-x="806" 
d="M617 275l-31 -45l-21 -32l52 -57q38 -43 58.5 -58.5t38.5 -15.5q22 0 47 16l19 -27q-28 -70 -110 -70q-70 0 -138 72l-38 41q-43 -59 -94 -85.5t-125 -26.5q-104 0 -171 59q-66 60 -66 152q0 76 44.5 134.5t129.5 87.5q-59 71 -59 135q0 70 52 115q52 46 132 46
q72 0 120 -42q48 -40 48 -99q0 -111 -150 -148l176 -193l12 22q30 56 30 92q0 39 -44 53l3 32q50 -3 104 -3q59 0 98 3l3 -32q-51 -25 -93 -87zM316 75q82 0 144 60l-220 249q-80 -57 -80 -156q0 -68 41.5 -110.5t114.5 -42.5zM264 588q0 -54 57 -124q80 45 80 113
q0 39 -20 64t-51 25q-30 0 -48 -21t-18 -57z" />
    <glyph glyph-name="quotesingle" unicode="'" 
d="M140 464h-30q-3 18 -38 159q-11 46 -11 65q0 28 18.5 47t46.5 19q27 0 45 -19t18 -47q0 -19 -11 -65q-35 -141 -38 -159z" />
    <glyph glyph-name="parenleft" unicode="(" horiz-adv-x="380" 
d="M349 -174l-34 -48q-121 80 -189.5 205.5t-68.5 280.5t68.5 280.5t189.5 205.5l34 -48q-219 -164 -219 -438t219 -438z" />
    <glyph glyph-name="parenright" unicode=")" horiz-adv-x="380" 
d="M31 702l34 48q121 -80 189.5 -205.5t68.5 -280.5t-68.5 -280.5t-189.5 -205.5l-34 48q219 164 219 438t-219 438z" />
    <glyph glyph-name="asterisk" unicode="*" horiz-adv-x="452" 
d="M200 539q-27 5 -93 6q-27 1 -44 9q-33 14 -33 44q0 18 13 30t32 12q23 0 55 -21q63 -43 80 -51q-10 49 -23 91q-6 24 -6 40q0 22 13 36.5t32 14.5q31 0 41 -31t-2 -60l-6 -21q-8 -30 -16 -70q1 1 77 50q34 22 54 22t34 -12.5t14 -30.5q0 -30 -32 -44q-22 -9 -61 -9
q-40 0 -77 -5q37 -37 70 -62q41 -33 41 -62q0 -17 -12 -29.5t-30 -12.5q-41 0 -60 57q-20 60 -36 91q-16 -31 -36 -91q-19 -57 -60 -57q-18 0 -30 12.5t-12 29.5q0 14 5.5 25t12.5 17.5t23 19.5q48 41 72 62z" />
    <glyph glyph-name="plus" unicode="+" horiz-adv-x="500" 
d="M218 267v167h65v-167h167v-65h-167v-168h-65v168h-168v65h168z" />
    <glyph glyph-name="comma" unicode="," 
d="M218 12q0 -66 -43.5 -114.5t-118.5 -64.5l-11 33q92 32 92 89q0 30 -34 43q-56 23 -56 71q0 28 20.5 48t52.5 20q41 0 69 -37q29 -37 29 -88z" />
    <glyph glyph-name="hyphen" unicode="-" 
d="M250 197h-250v75h250v-75z" />
    <glyph glyph-name="period" unicode="." 
d="M70 5q-22 22 -22 55t22 55t55 22t55 -22t22 -55t-22 -55t-55 -22t-55 22z" />
    <glyph glyph-name="slash" unicode="/" horiz-adv-x="355" 
d="M267 756l68 -20l-246 -833l-68 20z" />
    <glyph glyph-name="zero" unicode="0" horiz-adv-x="598" 
d="M43 238q0 107 74 181t181 74q110 0 184 -74q73 -73 73 -181q0 -109 -73 -183q-74 -74 -178 -74q-114 0 -188 72q-73 73 -73 185zM149 236q0 -73 43 -119q44 -45 111 -45q62 0 104 47q43 46 43 117t-43 117q-44 47 -108 47q-63 0 -107 -47q-43 -46 -43 -117z" />
    <glyph glyph-name="one" unicode="1" horiz-adv-x="323" 
d="M103 205v64q0 48 -2 94q-2 36 -13 54t-38 29l3 29q53 -3 108 -3q57 0 109 3l3 -29q-27 -11 -37.5 -28.5t-12.5 -54.5q-2 -46 -2 -94v-64q0 -48 2 -94q2 -37 12.5 -54.5t37.5 -28.5l-3 -29q-52 3 -109 3q-55 0 -108 -3l-3 29q27 11 38 29t13 54q2 46 2 94z" />
    <glyph glyph-name="two" unicode="2" horiz-adv-x="455" 
d="M226 493q70 0 114 -50q40 -46 40 -109q0 -68 -48 -123q-48 -54 -165 -117h139q64 0 105 41l26 -16q-23 -64 -57 -122q-40 3 -107 3h-106q-78 0 -130 -4l-8 51q125 85 177 147q52 61 52 116q0 40 -19 63t-52 23q-57 0 -116 -60l-29 34q24 55 73.5 89t110.5 34z" />
    <glyph glyph-name="three" unicode="3" horiz-adv-x="410" 
d="M191 493q75 0 117 -44q40 -41 40 -102q0 -47 -27 -81t-90 -63q62 -18 100.5 -65.5t38.5 -112.5q0 -104 -82 -176q-82 -71 -226 -88l-10 48q196 46 196 174q0 132 -157 139l-3 44q143 68 143 152q0 34 -21 55t-54 21q-56 0 -115 -63l-25 36q22 56 70 91t105 35z" />
    <glyph glyph-name="four" unicode="4" horiz-adv-x="583" 
d="M542 137l29 -17q-16 -50 -56 -123q-41 3 -101 3q0 -50 3 -129q3 -81 3 -100l-89 -12l-30 10v231h-96q-92 0 -173 -3l-8 45q152 227 326 451l67 -11q-3 -90 -3 -149v-237h30q63 0 98 41zM126 96h175v246q-128 -173 -175 -246z" />
    <glyph glyph-name="five" unicode="5" horiz-adv-x="445" 
d="M56 181l47 291h183q24 0 99 5l18 -25l-41 -95h-222l-14 -72q235 -52 235 -245q0 -104 -73 -172t-224 -106l-14 46q194 70 194 200q0 72 -45 113.5t-143 59.5z" />
    <glyph glyph-name="six" unicode="6" horiz-adv-x="560" 
d="M347 453q70 0 120 -53q58 -61 58 -173q0 -101 -65 -169q-64 -67 -162 -67q-110 0 -179 81q-68 82 -68 208q0 171 112.5 290t321.5 181l18 -46q-163 -77 -240 -182t-77 -244q0 -112 29 -171t82 -59q45 0 71.5 46t26.5 126q0 66 -31 105t-78 39q-29 0 -56 -11l-4 41
q46 58 121 58z" />
    <glyph glyph-name="seven" unicode="7" horiz-adv-x="508" 
d="M299 223l85 142h-219q-33 0 -56 -13q-24 -12 -36 -27q-9 -11 -34 -48l-38 17q4 14 59 181q41 -3 106 -3h173q82 0 148 3l17 -26q-208 -391 -342 -696h-102l-17 30l89 159q57 99 76 129z" />
    <glyph glyph-name="eight" unicode="8" horiz-adv-x="510" 
d="M458 533q0 -109 -129 -153q81 -52 114 -100.5t33 -107.5q0 -78 -57 -130q-57 -51 -154 -51q-100 0 -162 50q-62 51 -62 128q0 62 39.5 106.5t107.5 65.5q-60 46 -86.5 88t-26.5 92q0 73 54 121q55 48 138 48q82 0 137 -44q54 -44 54 -113zM169 175q0 -56 28 -90.5
t71 -34.5q40 0 64 26t24 68q0 44 -27 82q-28 40 -108 89q-52 -62 -52 -140zM342 528q0 42 -21.5 69.5t-56.5 27.5q-31 0 -52.5 -23t-21.5 -59q0 -67 104 -135q48 46 48 120z" />
    <glyph glyph-name="nine" unicode="9" horiz-adv-x="560" 
d="M213 29q-70 0 -120 53q-58 61 -58 173q0 101 67 168q68 68 166 68q108 0 174 -75q67 -73 67 -202q0 -177 -112.5 -298t-321.5 -185l-18 46q163 77 240 182.5t77 247.5q0 111 -28 168.5t-80 57.5q-45 0 -73 -47t-28 -125q0 -66 31 -105t78 -39q29 0 56 11l4 -41
q-46 -58 -121 -58z" />
    <glyph glyph-name="colon" unicode=":" 
d="M70 5q-22 22 -22 55t22 55t55 22t55 -22t22 -55t-22 -55t-55 -22t-55 22zM70 314q-22 22 -22 55t22 55t55 22t55 -22t22 -55t-22 -55t-55 -22t-55 22z" />
    <glyph glyph-name="semicolon" unicode=";" 
d="M218 12q0 -66 -43.5 -114.5t-118.5 -64.5l-11 33q92 32 92 89q0 30 -34 43q-56 23 -56 71q0 28 20.5 48t52.5 20q41 0 69 -37q29 -37 29 -88zM70 314q-22 22 -22 55t22 55t55 22t55 -22t22 -55t-22 -55t-55 -22t-55 22z" />
    <glyph glyph-name="less" unicode="&#x3c;" horiz-adv-x="500" 
d="M450 120v-73l-400 166v39l400 177v-69l-290 -126z" />
    <glyph glyph-name="equal" unicode="=" horiz-adv-x="500" 
d="M50 277v65h400v-65h-400zM50 127v65h400v-65h-400z" />
    <glyph glyph-name="greater" unicode="&#x3e;" horiz-adv-x="500" 
d="M450 252v-39l-400 -166v73l290 114l-290 126v69z" />
    <glyph glyph-name="question" unicode="?" horiz-adv-x="344" 
d="M334 459q0 -78 -45 -122t-128 -48l-6 -56l-6 -51h-37q-16 114 -30 191l19 25q108 0 144 18t36 63q0 50 -33 81t-84 31q-9 0 -30 -3t-28 -3q-29 0 -48.5 16t-19.5 42q0 32 20 49.5t56 17.5q94 0 157 -75q63 -73 63 -176zM70 5q-22 22 -22 55t22 55t55 22t55 -22t22 -55
t-22 -55t-55 -22t-55 22z" />
    <glyph glyph-name="at" unicode="@" horiz-adv-x="800" 
d="M540 271l1 -139q0 -37 37 -37q41 0 68 40.5t27 115.5q0 117 -72 191q-71 75 -188 75q-129 0 -209 -83q-78 -82 -78 -221t82 -220t219 -81q76 0 173 45l25 -55q-92 -59 -207 -59q-158 0 -265 104q-106 103 -106 268q0 158 106 267q107 110 260 110q149 0 242 -98t93 -243
q0 -106 -52 -167q-51 -62 -127 -62q-93 0 -124 66q-31 -70 -108 -70q-40 0 -67 26t-27 63q0 61 63 97q44 26 130 53v15q0 31 -17 48q-17 18 -47 18q-42 0 -82 -31l-28 44q19 31 56.5 52t79.5 21q70 0 113 -52q29 -38 29 -101zM436 181v19l-36 -16q-53 -27 -53 -62
q0 -28 29 -28q25 0 42.5 23.5t17.5 63.5z" />
    <glyph glyph-name="A" unicode="A" horiz-adv-x="635" 
d="M112 218l173 500h55l180 -500q36 -93 42 -107q31 -64 64 -83l-3 -29q-53 3 -110 3q-65 0 -114 -3l-3 29q32 15 32 38q0 25 -41 145h-210q-33 -99 -33 -139q0 -17 9 -26.5t33 -17.5l-3 -29q-39 3 -97 3q-40 0 -74 -3l-3 29q36 23 61 81q25 55 42 109zM366 272l-86 245
l-82 -245h168z" />
    <glyph glyph-name="B" unicode="B" horiz-adv-x="579" 
d="M151 2q-69 0 -118 -3l-3 29q27 11 37 28t12 54q2 46 2 108v266q0 62 -2 108q-2 37 -12 54t-37 28l3 29q49 -3 112 -3q19 0 77 2q44 3 66 3q112 0 171 -48t59 -130q0 -108 -131 -143v-5q166 -34 166 -175q0 -95 -67 -151t-194 -56q-9 0 -57 3q-62 2 -84 2zM286 344
q-15 1 -78 1v-131q0 -31 1 -56t1 -46q4 -36 19 -47.5t59 -11.5q66 0 102 38t36 110q0 137 -140 143zM283 407q111 11 111 117q0 59 -29.5 93.5t-78.5 34.5q-41 0 -57.5 -12t-18.5 -40q-2 -38 -2 -95v-102q50 0 75 4z" />
    <glyph glyph-name="C" unicode="C" horiz-adv-x="739" 
d="M435 47q67 0 106.5 19t67.5 65q25 41 44 103l39 -8q-3 -82 -18 -193q-94 -49 -247 -49q-159 0 -276 91q-58 46 -91.5 117.5t-33.5 157.5q0 163 116 264q116 102 292 102q127 0 238 -44q3 -81 3 -89q0 -41 -3 -89l-38 -2q-19 68 -58 107q-52 54 -144 54q-115 0 -188 -82
t-73 -218q0 -141 77 -224q78 -82 187 -82z" />
    <glyph glyph-name="D" unicode="D" horiz-adv-x="734" 
d="M311 53q125 0 189 75.5t64 218.5q0 141 -69.5 221t-190.5 80q-55 0 -73.5 -8.5t-20.5 -36.5q-2 -40 -2 -99v-290q0 -48 3 -105q1 -35 22 -46q19 -10 78 -10zM139 700q6 0 76 2q54 3 102 3q167 0 279 -97t112 -266q0 -160 -108 -254q-106 -94 -280 -94q-64 0 -113 4t-70 4
q-55 0 -104 -3l-3 29q27 11 37 28t12 54q2 46 2 108v266q0 62 -2 108q-2 37 -12 54t-37 28l3 29q49 -3 106 -3z" />
    <glyph glyph-name="E" unicode="E" horiz-adv-x="532" 
d="M470 533l-36 -9q-24 58 -51 84q-26 23 -55 33q-27 8 -61 8q-35 0 -44.5 -8.5t-11.5 -39.5q-3 -31 -3 -103v-112q71 0 110 4q31 4 46.5 19t27.5 52l32 -5q-3 -39 -3 -97t3 -97l-32 -5q-12 35 -27 50q-14 15 -47 20q-28 4 -110 4v-111q0 -33 1 -60q0 -11 0.5 -23t1 -18
t0.5 -8q3 -36 15.5 -47t48.5 -11q37 0 75 5q48 7 77 48q17 25 40 90l39 -9q-9 -78 -31 -190q-102 5 -324 5q-69 0 -118 -3l-3 29q27 11 37 28t12 54q2 46 2 108v266q0 62 -2 108q-2 37 -12 54t-37 28l3 29q49 -3 112 -3h187q76 0 115 3q11 -63 23 -170z" />
    <glyph glyph-name="F" unicode="F" horiz-adv-x="498" 
d="M142 2q-60 0 -109 -3l-3 29q27 11 37 28t12 54q2 46 2 108v266q0 62 -2 108q-2 37 -12 54t-37 28l3 29q49 -3 112 -3h197q76 0 115 3q11 -63 23 -170l-36 -9q-24 58 -51 84q-26 23 -55 33q-27 8 -71 8q-35 0 -44.5 -8.5t-11.5 -39.5q-3 -31 -3 -103v-112q61 0 100 4
q31 4 46.5 19t27.5 52l32 -5q-3 -39 -3 -97t3 -97l-32 -5q-12 29 -19 41.5t-28 21t-44.5 10t-82.5 1.5v-113q0 -62 2 -108q2 -38 13.5 -54.5t45.5 -27.5l-3 -29q-50 3 -124 3z" />
    <glyph glyph-name="G" unicode="G" horiz-adv-x="750" 
d="M561 133q0 50 -4 81q-4 36 -21 52t-66 29l3 30q50 -3 139 -3q62 0 112 3l3 -29q-11 -6 -18 -10.5t-12 -12.5t-7.5 -12.5t-4 -18t-2 -21.5t-1 -30.5t-1.5 -37.5q0 -66 5 -118q-99 -51 -255 -51q-159 0 -276 91q-58 46 -91.5 117.5t-33.5 157.5q0 163 116 264
q116 102 292 102q136 0 238 -38q3 -40 3 -81q0 -67 -3 -98l-38 -2q-23 76 -58 111q-46 45 -144 45q-116 0 -189 -82q-72 -83 -72 -218q0 -143 78 -226q78 -81 195 -81q65 0 89 19t24 68z" />
    <glyph glyph-name="H" unicode="H" horiz-adv-x="716" 
d="M635 484v-266q0 -62 2 -108q2 -37 12 -54t37 -28l-3 -29q-49 3 -111 3t-112 -3l-3 29q27 11 37 28t12 54q2 46 2 108v118h-300v-118q0 -62 2 -108q2 -37 12 -54t37 -28l-3 -29q-50 3 -111 3q-63 0 -112 -3l-3 29q27 11 37 28t12 54q2 46 2 108v266q0 62 -2 108
q-2 37 -12 54t-37 28l3 29q49 -3 112 -3q61 0 111 3l3 -29q-27 -11 -37 -28t-12 -54q-2 -46 -2 -108v-87h300v87q0 62 -2 108q-2 37 -12 54t-37 28l3 29q49 -3 112 -3q62 0 111 3l3 -29q-27 -11 -37 -28t-12 -54q-2 -46 -2 -108z" />
    <glyph glyph-name="I" unicode="I" horiz-adv-x="289" 
d="M208 484v-266q0 -62 2 -108q2 -37 12 -54t37 -28l-3 -29q-50 3 -111 3q-63 0 -112 -3l-3 29q27 11 37 28t12 54q2 46 2 108v266q0 62 -2 108q-2 37 -12 54t-37 28l3 29q49 -3 112 -3q61 0 111 3l3 -29q-27 -11 -37 -28t-12 -54q-2 -46 -2 -108z" />
    <glyph glyph-name="J" unicode="J" horiz-adv-x="437" 
d="M15 59l26 36q45 -39 91 -39q63 0 86 53q14 33 14 113v262q0 62 -2 108q-2 37 -12 54t-37 28l3 29q50 -3 111 -3q63 0 112 3l3 -29q-27 -11 -37 -28t-12 -54q-2 -46 -2 -108v-296q0 -90 -53 -148q-53 -56 -134 -56q-100 0 -157 75z" />
    <glyph glyph-name="K" unicode="K" horiz-adv-x="665" 
d="M412 480l-67 -73q88 -136 221 -302q53 -65 99 -88v-25q-19 -8 -51 -8q-61 0 -107 24t-90 79q-125 154 -198 275l114 117q106 107 106 154q0 26 -33 41l3 29q39 -3 119 -3q46 0 79 3l3 -29q-16 -11 -89 -84q-101 -101 -109 -110zM208 484v-266q0 -62 2 -108q2 -37 12 -54
t37 -28l-3 -29q-50 3 -111 3q-63 0 -112 -3l-3 29q27 11 37 28t12 54q2 46 2 108v266q0 62 -2 108q-2 37 -12 54t-37 28l3 29q49 -3 112 -3q61 0 111 3l3 -29q-27 -11 -37 -28t-12 -54q-2 -46 -2 -108z" />
    <glyph glyph-name="L" unicode="L" horiz-adv-x="526" 
d="M208 484v-264q0 -46 3 -109q2 -35 15 -47q26 -21 122 -4q45 7 77 53q20 29 42 95l43 -9q-12 -93 -33 -202q-102 5 -326 5q-69 0 -118 -3l-3 29q27 11 37 28t12 54q2 46 2 108v266q0 62 -2 108q-2 37 -12 54t-37 28l3 29q49 -3 112 -3q61 0 111 3l3 -29q-27 -11 -37 -28
t-12 -54q-2 -46 -2 -108z" />
    <glyph glyph-name="M" unicode="M" horiz-adv-x="900" 
d="M439 -16h-51l-237 562l-12 -329q-1 -23 -1 -108q0 -35 10 -52.5t39 -29.5l-3 -29q-58 3 -83 3q-21 0 -80 -3l-3 29q29 11 39.5 28.5t12.5 53.5q2 16 7 109l12 266q1 15 1 57q0 60 -12 88.5t-50 43.5l3 30q67 -3 192 -3l227 -537l228 537q146 0 185 3l3 -29
q-30 -12 -41 -29t-13 -53q-2 -38 0 -83l10 -292q1 -62 4 -112q2 -36 12 -50.5t40 -27.5l-3 -29q-39 3 -89 3q-100 0 -139 -3l-3 29q38 11 45 44q7 24 7 69q0 60 -1 77l-11 332z" />
    <glyph glyph-name="N" unicode="N" horiz-adv-x="743" 
d="M666 484v-328q0 -112 3 -164l-50 -16l-473 578v-337q0 -62 2 -108q2 -37 12 -54t37 -28l-3 -29q-56 3 -81 3q-21 0 -80 -3l-3 29q27 11 37 28t12 54q2 46 2 108v261q0 66 -2 110q-2 40 -11.5 57t-37.5 29l3 29q46 -3 151 -3l417 -499v283q0 62 -2 108q-2 37 -12 54
t-37 28l3 29q59 -3 79 -3q36 0 82 3l3 -29q-27 -11 -37 -28t-12 -54q-2 -46 -2 -108z" />
    <glyph glyph-name="O" unicode="O" horiz-adv-x="819" 
d="M26 350q0 158 110 262q112 104 272 104q166 0 276 -105q109 -103 109 -261q0 -157 -109 -262q-110 -104 -267 -104q-173 0 -282 102t-109 264zM397 650q-97 0 -162 -77q-64 -76 -64 -212q0 -141 71 -227q72 -85 180 -85q98 0 160 81q62 82 62 210q0 137 -71 223
q-70 87 -176 87z" />
    <glyph glyph-name="P" unicode="P" horiz-adv-x="551" 
d="M145 700q35 0 71 1t86 1q109 0 170.5 -51t61.5 -140q0 -92 -64 -144t-168 -52q-29 0 -51 5l2 45q73 0 111 37.5t38 108.5q0 65 -34.5 101.5t-97.5 36.5q-33 0 -45.5 -10t-14.5 -40q-2 -42 -2 -103v-278q0 -62 2 -108q2 -38 13.5 -54.5t45.5 -27.5l-3 -29q-50 3 -124 3
q-60 0 -109 -3l-3 29q27 11 37 28t12 54q2 46 2 108v266q0 62 -2 108q-2 37 -12 54t-37 28l3 29q49 -3 112 -3z" />
    <glyph glyph-name="Q" unicode="Q" horiz-adv-x="819" 
d="M26 350q0 158 110 262q112 104 272 104q166 0 276 -105q109 -103 109 -261q0 -124 -70 -216q-68 -92 -182 -130q116 -103 255 -155t320 -52q88 0 180 23l10 -38q-125 -58 -297 -58q-367 0 -648 263q-149 16 -243 116q-92 100 -92 247zM397 650q-94 0 -160 -78
q-66 -76 -66 -211q0 -141 72 -227q73 -85 179 -85q98 0 160 81q62 82 62 210q0 137 -73 223q-72 87 -174 87z" />
    <glyph glyph-name="R" unicode="R" horiz-adv-x="639" 
d="M210 110q2 -38 13.5 -54.5t45.5 -27.5l-3 -29q-50 3 -124 3q-60 0 -109 -3l-3 29q27 11 37 28t12 54q2 46 2 108v266q0 62 -2 108q-2 37 -12 54t-37 28l3 29q49 -3 112 -3q35 0 71 1t86 1q104 0 160 -55q57 -54 57 -133q0 -120 -133 -159q89 -158 176 -267q42 -53 77 -71
v-25q-21 -8 -54 -8q-56 0 -97.5 24t-83.5 81q-70 95 -136 236q-33 -3 -60 -3v-104q0 -62 2 -108zM243 381q73 0 107 30t34 103q0 60 -33 97.5t-85 37.5q-30 0 -42 -10t-14 -40q-2 -42 -2 -103v-113q12 -2 35 -2z" />
    <glyph glyph-name="S" unicode="S" horiz-adv-x="502" 
d="M158 550q0 -39 39 -78q17 -15 96 -69q91 -60 125 -97q48 -53 48 -128q0 -88 -65 -141t-166 -53q-108 0 -192 34q-13 69 -24 185l35 9q30 -66 56 -101t57 -50q33 -14 82 -14q50 0 76.5 24.5t26.5 69.5t-30 76t-109 85q-100 69 -134 112q-38 47 -38 117q0 82 62 133
q61 52 160 52q96 0 189 -45q2 -42 2 -86q0 -41 -2 -83l-34 -3q-26 71 -58 110q-40 49 -98 49q-47 0 -75.5 -30t-28.5 -78z" />
    <glyph glyph-name="T" unicode="T" horiz-adv-x="647" 
d="M260 218v280q0 72 -3 103q-2 31 -11.5 39.5t-44.5 8.5q-25 0 -52 -8q-29 -10 -55 -33q-26 -24 -48 -84l-38 7q6 96 13 172q39 -3 115 -3h375q76 0 115 3q7 -76 13 -172l-38 -7q-23 60 -48 84q-26 23 -55 33q-27 8 -52 8q-35 0 -44.5 -8.5t-11.5 -39.5q-3 -31 -3 -103
v-280q0 -62 2 -108q2 -38 13.5 -54.5t45.5 -27.5l-3 -29q-49 3 -122 3q-71 0 -121 -3l-3 29q34 11 45.5 27.5t13.5 54.5q2 46 2 108z" />
    <glyph glyph-name="U" unicode="U" horiz-adv-x="666" 
d="M528 256v228q0 62 -2 108q-2 37 -12 54t-37 28l3 29q59 -3 80 -3q42 0 81 3l3 -29q-27 -11 -37 -28t-12 -54q-2 -46 -2 -108v-232q0 -118 -72 -193q-71 -75 -189 -75q-119 0 -186 66.5t-67 186.5v247q0 62 -2 108q-2 37 -12 54t-37 28l3 29q49 -3 112 -3q61 0 111 3
l3 -29q-27 -11 -37 -28t-12 -54q-2 -46 -2 -108v-250q0 -81 41 -126.5t113 -45.5q78 0 123 51t45 143z" />
    <glyph glyph-name="V" unicode="V" horiz-adv-x="627" 
d="M248 491l103 -306l99 306q33 103 33 139q0 17 -9 26.5t-33 17.5l3 29q39 -3 97 -3q39 0 74 3l3 -29q-36 -23 -61 -81q-22 -51 -41 -109l-169 -500h-56l-176 500q-23 67 -42 107q-31 64 -64 83l3 29q39 -3 119 -3q66 0 105 3l3 -29q-32 -15 -32 -38q0 -20 41 -145z" />
    <glyph glyph-name="W" unicode="W" horiz-adv-x="973" 
d="M607 491l98 -306l93 306q31 100 31 139q0 17 -9 26.5t-33 17.5l3 29q39 -3 97 -3q39 0 74 3l3 -29q-36 -23 -61 -81q-8 -20 -39 -109l-162 -500h-57l-156 463l-153 -463h-57l-166 500q-26 78 -40 107q-31 64 -64 83l3 29q39 -3 114 -3q69 0 108 3l3 -29q-32 -15 -32 -38
q0 -18 39 -145l95 -306l84 266q20 68 20 109q0 75 -71 114l3 29q39 -3 110 -3q72 0 111 3l3 -29q-32 -15 -32 -38q0 -22 40 -145z" />
    <glyph glyph-name="X" unicode="X" horiz-adv-x="646" 
d="M331 470l18 -28l29 41q77 104 77 147q0 29 -38 43l3 30q67 -3 103 -3q41 0 90 3l3 -30q-40 -23 -82 -81l-83 -113l-67 -90l99 -153l37 -58l44 -67q39 -57 73 -82l-3 -30q-58 3 -115 3q-71 0 -131 -3l-3 30q38 15 38 40q0 31 -69 138l-51 78l-52 -71q-71 -98 -71 -144
q0 -26 39 -41l-3 -30q-58 3 -117 3q-54 0 -87 -3l-3 30q35 23 81 81q13 15 87 113l90 117l-86 134q-50 82 -74 116q-44 60 -72 83l3 30q39 -3 113 -3q88 0 127 3l3 -30q-38 -15 -38 -40q0 -29 88 -163z" />
    <glyph glyph-name="Y" unicode="Y" horiz-adv-x="589" 
d="M437 484l-74 -131v-135q0 -62 2 -108q2 -38 13.5 -54.5t45.5 -27.5l-3 -29q-49 3 -122 3q-71 0 -121 -3l-3 29q34 11 45.5 27.5t13.5 54.5q2 46 2 108v125l-86 141q-61 104 -68 114q-35 53 -73 75l3 30q59 -3 103 -3q97 0 136 3l3 -29q-38 -15 -38 -34q0 -32 63 -131
l54 -85l35 60q67 115 67 153q0 24 -38 38l3 28q39 -3 98 -3q44 0 79 3l3 -28q-40 -24 -75 -79q-34 -52 -68 -112z" />
    <glyph glyph-name="Z" unicode="Z" horiz-adv-x="646" 
d="M353 -1l-165 1q-112 0 -157 -3l-11 43l439 601q-47 6 -126 6h-44q-69 0 -99 -10t-55 -31q-27 -26 -50 -82l-36 9q12 107 23 170q39 -3 115 -3h257q117 0 162 3l12 -44l-423 -598q54 -6 125 -6h67q44 0 82 8q47 11 75 52q28 43 45 90l39 -9q-9 -99 -28 -199h-11t-31 0.5
t-48.5 0.5t-69.5 0.5t-87 0.5z" />
    <glyph glyph-name="bracketleft" unicode="[" horiz-adv-x="380" 
d="M315 -155v-68h-202v972h202v-68h-132v-836h132z" />
    <glyph glyph-name="backslash" unicode="\" horiz-adv-x="355" 
d="M335 -77l-68 -20l-246 833l68 20z" />
    <glyph glyph-name="bracketright" unicode="]" horiz-adv-x="380" 
d="M267 749v-972h-202v68h132v836h-132v68h202z" />
    <glyph glyph-name="asciicircum" unicode="^" horiz-adv-x="500" 
d="M132 312h-73l166 400h39l177 -400h-69l-126 290z" />
    <glyph glyph-name="underscore" unicode="_" horiz-adv-x="500" 
d="M500 -112h-500v65h500v-65z" />
    <glyph glyph-name="grave" unicode="`" 
d="M171 672l35 -183l-35 -13l-106 149q-22 31 -22 62q0 26 17 44.5t42 18.5q54 0 69 -78z" />
    <glyph glyph-name="a" unicode="a" horiz-adv-x="426" 
d="M246 170v29q-28 -11 -46 -20q-66 -35 -66 -79q0 -17 10.5 -27.5t28.5 -10.5q30 0 51.5 29.5t21.5 78.5zM246 253v25q0 40 -21 61q-21 22 -57 22q-46 0 -96 -35l-31 43q21 34 65 57t93 23q85 0 128 -54q35 -44 35 -118v-79q0 -47 1 -68q1 -58 48 -86l-13 -49
q-18 -3 -34 -3q-96 0 -111 78h-2q-38 -86 -124 -86q-47 0 -76 28t-29 71q0 67 68 108q48 30 156 62z" />
    <glyph glyph-name="b" unicode="b" horiz-adv-x="516" 
d="M261 39q50 0 77.5 46t27.5 127q0 69 -26 110t-71 41q-83 0 -83 -129v-97q0 -98 75 -98zM69 24v495q-2 94 -8 113t-44 27v21q73 24 153 72l21 -8q-5 -93 -5 -181v-208l1 -1q48 97 139 97q72 0 119 -62t47 -154q0 -113 -64 -183q-63 -70 -171 -70q-97 0 -188 42z" />
    <glyph glyph-name="c" unicode="c" horiz-adv-x="454" 
d="M249 395q-46 0 -77 -42t-31 -112t34 -112t92 -42q41 0 71 16.5t60 54.5l29 -19q-53 -156 -186 -156q-93 0 -157 66q-63 68 -63 158q0 106 69 175q70 69 168 69q83 0 133 -44q40 -36 40 -82q0 -30 -17 -49.5t-45 -19.5q-56 0 -65 68q-9 71 -55 71z" />
    <glyph glyph-name="d" unicode="d" horiz-adv-x="534" 
d="M245 396q-45 0 -73 -40.5t-28 -115.5q0 -82 31.5 -129.5t80.5 -47.5q40 0 62.5 31t22.5 86v91q0 60 -27 92.5t-69 32.5zM458 563v-356q2 -94 8 -113t44 -27v-21q-68 -26 -141 -62l-21 5l-3 80l-2 1q-19 -39 -54.5 -63t-75.5 -24q-80 0 -135 61q-54 61 -54 166
q0 107 62 174q63 67 152 67q58 0 103 -30v98q-2 94 -8 113t-44 27v21q73 24 153 72l21 -8q-5 -93 -5 -181z" />
    <glyph glyph-name="e" unicode="e" horiz-adv-x="470" 
d="M24 208q0 105 65 175q66 69 161 69q85 0 137 -49t52 -126q0 -13 -2 -29h-297q-1 -4 -1 -14q0 -65 34.5 -105.5t91.5 -40.5q46 0 76.5 17t64.5 61l32 -20q-62 -162 -192 -162q-96 0 -159 66t-63 158zM146 300h171q-3 94 -75 94q-34 0 -60.5 -26t-35.5 -68z" />
    <glyph glyph-name="f" unicode="f" horiz-adv-x="304" 
d="M369 581q-47 0 -67 54q-6 17 -8.5 22.5t-7 13t-9.5 9.5t-14 4q-69 0 -69 -170v-80q20 0 40.5 1t40.5 2t29 1l8 -20l-8 -46h-110v-190q0 -40 4 -93q2 -30 12.5 -43.5t37.5 -23.5l-3 -23q-41 3 -111 3q-62 0 -102 -3l-3 23q27 11 36 24.5t10 42.5q2 80 2 93v147
q0 31 -7 41.5t-37 16.5l-4 32q29 10 39 34q7 15 8 25q2 8 6 33t6 33q21 96 72 147.5t126 51.5q61 0 99.5 -29t38.5 -73q0 -25 -15.5 -42.5t-39.5 -17.5z" />
    <glyph glyph-name="g" unicode="g" horiz-adv-x="478" 
d="M484 420l-8 -50l-77 8q30 -42 30 -90q0 -74 -53 -124q-52 -48 -128 -48q-72 0 -119 39q-23 -21 -23 -49q0 -42 67 -45l109 -5q80 -4 122 -42.5t42 -100.5q0 -76 -67 -131q-66 -57 -168 -57q-94 0 -144.5 35t-50.5 93q0 63 74 116q-65 33 -65 103q0 64 69 113
q-31 46 -31 93q0 70 53 120t126 50q20 0 66 -7.5t64 -7.5q63 0 104 4zM371 -118q0 54 -95 57q-115 5 -151 11q-14 -26 -14 -51q0 -40 39.5 -65t109.5 -25q53 0 82 21t29 52zM243 398q-28 0 -44 -28.5t-16 -82.5q0 -121 61 -121q60 0 60 110q0 57 -16.5 89.5t-44.5 32.5z" />
    <glyph glyph-name="h" unicode="h" horiz-adv-x="533" 
d="M195 276v-94q0 -13 2 -93q1 -30 8 -43.5t29 -23.5l-3 -23q-41 3 -96 3q-61 0 -102 -3l-3 23q27 11 36 24.5t10 42.5q2 80 2 93v337q-2 94 -8 113t-44 27v21q74 24 153 72l21 -8q-5 -93 -5 -181v-201q53 89 130 89q75 0 112 -60q23 -38 23 -97v-112q0 -13 2 -93
q1 -29 10.5 -42.5t36.5 -24.5l-3 -23q-40 3 -102 3q-56 0 -96 -3l-3 23q21 10 28 23.5t8 43.5q2 80 2 93v109q0 34 -17 53t-48 19q-38 0 -60.5 -24t-22.5 -63z" />
    <glyph glyph-name="i" unicode="i" horiz-adv-x="272" 
d="M198 263v-81q0 -13 2 -93q1 -30 8 -43.5t29 -23.5l-3 -23q-40 3 -96 3q-62 0 -102 -3l-3 23q27 11 36 24.5t10 42.5q2 80 2 93v37q-2 94 -8 113t-44 27v21q73 24 153 72l21 -8q-5 -93 -5 -181zM84 603q-21 22 -21 55t21 54q22 22 55 22t54 -22q22 -21 22 -54t-22 -55
q-21 -21 -54 -21t-55 21z" />
    <glyph glyph-name="j" unicode="j" horiz-adv-x="249" 
d="M191 263v-130q0 -76 3 -142q-11 -178 -161 -255l-23 26q36 46 50 91q14 44 14 116v250q-2 94 -8 113t-44 27v21q74 24 153 72l21 -8q-5 -93 -5 -181zM77 603q-21 22 -21 55t21 54q22 22 55 22t54 -22q22 -21 22 -54t-22 -55q-21 -21 -54 -21t-55 21z" />
    <glyph glyph-name="k" unicode="k" horiz-adv-x="491" 
d="M298 72l-94 166l49 48q53 53 53 83q0 23 -33 39l4 25q44 -3 94 -3q43 0 87 3l3 -23q-25 -18 -83 -71l-61 -59l120 -197q20 -32 30 -46q9 -11 24 -18v-21q-20 -7 -37 -7q-110 0 -156 81zM195 563v-381q0 -13 2 -93q1 -30 8 -43.5t29 -23.5l-3 -23q-41 3 -96 3
q-61 0 -102 -3l-3 23q27 11 36 24.5t10 42.5q2 80 2 93v337q-2 94 -8 113t-44 27v21q74 24 153 72l21 -8q-5 -93 -5 -181z" />
    <glyph glyph-name="l" unicode="l" horiz-adv-x="264" 
d="M195 563v-381q0 -13 2 -93q1 -30 8 -43.5t29 -23.5l-3 -23q-41 3 -96 3q-61 0 -102 -3l-3 23q27 11 36 24.5t10 42.5q2 80 2 93v337q-2 94 -8 113t-44 27v21q74 24 153 72l21 -8q-5 -93 -5 -181z" />
    <glyph glyph-name="m" unicode="m" horiz-adv-x="777" 
d="M451 276v-94q0 -13 2 -93q1 -29 10.5 -42.5t36.5 -24.5l-3 -23q-41 3 -102 3q-55 0 -96 -3l-3 23q21 10 28 23.5t8 43.5q2 80 2 93v109q0 34 -15.5 53t-44.5 19q-35 0 -55.5 -24t-20.5 -63v-94q0 -13 2 -93q1 -30 8 -43.5t29 -23.5l-3 -23q-40 3 -96 3q-62 0 -102 -3
l-3 23q27 11 36 24.5t10 42.5q2 80 2 93v37q-2 94 -8 113t-44 27v21q73 24 153 72l21 -8q-5 -35 -7 -79h2q48 86 124 86q71 0 107 -60q8 -14 13 -30h2q27 48 57.5 69t73.5 21q71 0 107 -60q22 -37 22 -97v-112q0 -13 2 -93q1 -29 10.5 -42.5t36.5 -24.5l-3 -23q-40 3 -102 3
q-56 0 -96 -3l-3 23q21 10 28 23.5t8 43.5q2 80 2 93v109q0 34 -15.5 53t-44.5 19q-35 0 -55.5 -24t-20.5 -63z" />
    <glyph glyph-name="n" unicode="n" horiz-adv-x="536" 
d="M198 276v-94q0 -13 2 -93q1 -30 8 -43.5t29 -23.5l-3 -23q-40 3 -96 3q-62 0 -102 -3l-3 23q27 11 36 24.5t10 42.5q2 80 2 93v37q-2 94 -8 113t-44 27v21q73 24 153 72l21 -8q-7 -45 -7 -82h2q27 46 57 67.5t73 21.5q74 0 112 -60q23 -38 23 -97v-112q0 -13 2 -93
q1 -29 10.5 -42.5t36.5 -24.5l-3 -23q-41 3 -102 3q-55 0 -96 -3l-3 23q21 10 28 23.5t8 43.5q2 80 2 93v109q0 34 -17 53t-48 19q-38 0 -60.5 -24t-22.5 -63z" />
    <glyph glyph-name="o" unicode="o" horiz-adv-x="525" 
d="M259 393q-50 0 -79.5 -44t-29.5 -124q0 -87 31.5 -135.5t86.5 -48.5q49 0 77.5 44.5t28.5 124.5q0 83 -34 132q-33 51 -81 51zM22 217q0 97 69 165q69 69 171 69q106 0 173 -67q68 -68 68 -167q0 -98 -68 -166t-168 -68q-109 0 -177 67q-68 68 -68 167z" />
    <glyph glyph-name="p" unicode="p" horiz-adv-x="531" 
d="M292 41q41 0 67 40.5t26 112.5q0 82 -29.5 128.5t-78.5 46.5q-40 0 -63.5 -30.5t-23.5 -84.5v-86q0 -62 27.5 -94.5t74.5 -32.5zM188 364h2q19 40 54.5 63.5t77.5 23.5q78 0 131 -62q54 -61 54 -165q0 -108 -61 -175q-62 -66 -149 -66q-63 0 -107 32v-96q0 -40 4 -93
q2 -30 12.5 -43.5t37.5 -23.5l-3 -23q-41 3 -111 3q-62 0 -102 -3l-3 23q27 11 36 24.5t10 42.5q2 80 2 93v300q-2 94 -8 113t-44 27v21q73 24 153 72l21 -8q-7 -50 -7 -80z" />
    </font>
</defs>
</svg>
