<?xml version="1.0" standalone="no"?>
<!DOCTYPE svg PUBLIC "-//W3C//DTD SVG 1.1//EN" "http://www.w3.org/Graphics/SVG/1.1/DTD/svg11.dtd" >
<svg xmlns="http://www.w3.org/2000/svg" xmlns:xlink="http://www.w3.org/1999/xlink" version="1.1">
<metadata>
Created by FontForge 20170910 at Fri Dec 22 02:47:54 2017
 By Jimmy Wärting
Copyright 2014-2017 Indian Type Foundry (info@indiantypefoundry.com)
</metadata>
<defs>
<font id="Poppins-Black" horiz-adv-x="335" >
  <font-face 
    font-family="Poppins Black"
    font-weight="900"
    font-stretch="normal"
    units-per-em="1000"
    panose-1="0 0 10 0 0 0 0 0 0 0"
    ascent="800"
    descent="-200"
    x-height="564"
    cap-height="708"
    bbox="-626 -627 2420 1135"
    underline-thickness="50"
    underline-position="-100"
    unicode-range="U+000D-FB02"
  />
<missing-glyph horiz-adv-x="500" 
d="M0 0v700h500v-700h-500zM250 395l170 255h-340zM280 350l170 -255v510zM80 50h340l-170 255zM50 605v-510l170 255z" />
    <glyph glyph-name=".notdef" horiz-adv-x="500" 
d="M0 0v700h500v-700h-500zM250 395l170 255h-340zM280 350l170 -255v510zM80 50h340l-170 255zM50 605v-510l170 255z" />
    <glyph glyph-name="NULL" horiz-adv-x="0" 
 />
    <glyph glyph-name="NULL" horiz-adv-x="0" 
 />
    <glyph glyph-name="CR" unicode="&#xd;" horiz-adv-x="170" 
 />
    <glyph glyph-name="space" unicode=" " horiz-adv-x="170" 
 />
    <glyph glyph-name="dvA" unicode="&#x905;" horiz-adv-x="847" 
d="M259 493c31 0 58 13 58 44c0 24 -14 40 -36 40c-23 0 -37 -17 -37 -38h-187c0 123 86 210 224 210c134 0 216 -73 216 -185c0 -70 -36 -121 -95 -146v-4c19 -6 35 -14 48 -25h127v351h280v-169h-77v-571h-203v222h-74c-16 -99 -95 -159 -208 -159
c-149 0 -244 87 -244 216h190c0 -21 13 -42 41 -42c26 0 40 18 40 43c0 29 -21 50 -63 50h-49v163h49z" />
    <glyph glyph-name="dvAA" unicode="&#x906;" horiz-adv-x="1181" 
d="M259 493c31 0 58 13 58 44c0 24 -14 40 -36 40c-23 0 -37 -17 -37 -38h-187c0 123 86 210 224 210c134 0 216 -73 216 -185c0 -70 -36 -121 -95 -146v-4c19 -6 35 -14 48 -25h127v351h615v-169h-76v-571h-204v571h-132v-571h-203v222h-74c-16 -99 -95 -159 -208 -159
c-149 0 -244 87 -244 216h190c0 -21 13 -42 41 -42c26 0 40 18 40 43c0 29 -21 50 -63 50h-49v163h49z" />
    <glyph glyph-name="dvI" unicode="&#x907;" horiz-adv-x="577" 
d="M-12 571v169h601v-169h-117v-187h-191c-18 0 -30 -8 -30 -23c0 -14 10 -22 31 -22h43c103 0 207 -43 207 -184c0 -103 -64 -176 -170 -176c-42 0 -77 13 -97 26v-94h-193v258h183c1 -29 20 -41 45 -41s39 13 39 33c0 23 -16 36 -54 36c-21 0 -41 0 -69 2
c-76 5 -170 48 -170 164c0 112 79 165 184 165h45v43h-287z" />
    <glyph glyph-name="dvII" unicode="&#x908;" horiz-adv-x="577" 
d="M265 5v-94h-193v258h183c1 -29 20 -41 45 -41s39 13 39 33c0 23 -16 36 -54 36c-21 0 -41 0 -69 2c-76 5 -170 48 -170 164c0 112 79 165 184 165h45v43h-287v169h290v58c0 103 41 232 219 232c146 0 222 -87 214 -228h-178c3 41 -10 60 -32 60c-27 0 -35 -20 -35 -61
v-61h123v-169h-117v-187h-191c-18 0 -30 -8 -30 -23c0 -14 10 -22 31 -22h43c103 0 207 -43 207 -184c0 -103 -64 -176 -170 -176c-42 0 -77 13 -97 26z" />
    <glyph glyph-name="dvU" unicode="&#x909;" horiz-adv-x="559" 
d="M-11 570v170h581v-170h-66v-32c0 -82 -34 -132 -80 -145v-3c58 -21 102 -83 102 -167c0 -130 -86 -218 -234 -218c-153 0 -259 86 -259 240h194c0 -35 21 -59 55 -59c32 0 52 21 52 54c0 32 -19 58 -60 58h-69v177h39c31 0 64 15 64 72v23h-319z" />
    <glyph glyph-name="dvUU" unicode="&#x90a;" horiz-adv-x="845" 
d="M-11 571v169h865v-169h-350v-33c0 -82 -34 -132 -80 -145v-3h160c144 0 235 -64 235 -196c0 -99 -62 -180 -189 -180c-21 0 -42 2 -66 7v152h29c21 0 31 12 31 28s-11 29 -37 29h-65c1 -6 1 -13 1 -19c0 -117 -85 -206 -231 -206c-153 0 -259 86 -259 240h194
c0 -35 21 -59 55 -59c32 0 52 21 52 54c0 32 -19 58 -60 58h-69v177h39c31 0 64 15 64 72v24h-319z" />
    <glyph glyph-name="dvvR" unicode="&#x90b;" horiz-adv-x="1071" 
d="M463 0v110l-132 -110h-261v8l385 287c-16 27 -46 44 -85 44c-73 0 -109 -48 -109 -112h-204c0 164 88 283 251 283c68 0 118 -21 155 -56v117h-474v169h1093v-169h-432v-112h124c29 0 50 12 50 41v23h174v-347h-31c-45 0 -63 -21 -63 -49c0 -34 32 -47 74 -47
c18 0 39 3 57 7v-161c-25 -4 -59 -7 -85 -7c-142 0 -241 70 -241 189c0 85 46 141 115 169v33c-27 -8 -54 -11 -81 -11h-93v-299h-187z" />
    <glyph glyph-name="dvvRR" unicode="&#x960;" horiz-adv-x="1071" 
d="M463 0v110l-132 -110h-261v8l385 287c-16 27 -46 44 -85 44c-73 0 -109 -48 -109 -112h-204c0 164 88 283 251 283c68 0 118 -21 155 -56v117h-474v169h1096v-169h-435v-112h124c29 0 50 12 50 41v23h174v-352h-33c-32 0 -57 -6 -57 -33c0 -26 28 -32 57 -32h64v-150h-52
c-36 0 -70 -4 -70 -36c0 -33 40 -36 71 -36c45 0 90 11 104 15v-149c-35 -15 -92 -22 -136 -22c-114 0 -234 44 -234 170c0 63 43 113 106 128v4c-56 12 -105 45 -105 119s55 110 111 124v37c-27 -8 -54 -11 -81 -11h-93v-299h-187z" />
    <glyph glyph-name="dvvL" unicode="&#x90c;" horiz-adv-x="909" 
d="M-11 571v169h931v-169h-176v-75c70 -33 124 -105 124 -225c0 -37 -6 -70 -16 -100h-6c-72 0 -90 -20 -90 -51c0 -29 34 -44 79 -44c18 0 38 1 58 6v-161c-31 -4 -58 -6 -85 -6c-146 0 -246 69 -246 195c0 73 47 128 103 154v8c0 42 -22 68 -58 68c-49 0 -63 -43 -63 -77
v-36h-168v36c0 34 -14 77 -63 77c-41 0 -64 -28 -64 -72c0 -63 34 -80 74 -80c5 0 16 0 26 1v-176c-16 -1 -28 -1 -35 -1c-175 0 -272 100 -272 259c0 176 121 248 240 248c88 0 143 -38 173 -95h4c18 35 48 62 88 78v69h-558z" />
    <glyph glyph-name="dvvLL" unicode="&#x961;" horiz-adv-x="921" 
d="M-11 571v169h943v-169h-188v-75c70 -33 124 -105 124 -225c0 -37 -6 -70 -16 -100h-25c-32 0 -58 -6 -58 -33c0 -26 29 -32 58 -32h64v-150h-52c-37 0 -71 -4 -71 -36c0 -33 41 -36 72 -36c45 0 90 11 104 15v-149c-35 -15 -92 -22 -136 -22c-114 0 -234 44 -234 170
c0 63 43 113 106 128v4c-56 12 -105 45 -105 119c0 65 42 100 90 117v6c0 42 -22 68 -58 68c-49 0 -63 -43 -63 -77v-36h-168v36c0 34 -14 77 -63 77c-41 0 -64 -28 -64 -72c0 -63 34 -80 74 -80c5 0 16 0 26 1v-176c-16 -1 -28 -1 -35 -1c-175 0 -272 100 -272 259
c0 176 121 248 240 248c88 0 143 -38 173 -95h4c18 35 48 62 88 78v69h-558z" />
    <glyph glyph-name="dvE" unicode="&#x90f;" horiz-adv-x="653" 
d="M-11 571v169h675v-169h-71v-56c0 -153 -65 -245 -256 -217v182c39 -8 58 9 58 40v51h-122v-313c0 -48 29 -66 56 -66c30 0 53 19 53 51h199c0 -144 -102 -224 -249 -224c-173 0 -262 102 -262 247l-1 305h-80z" />
    <glyph glyph-name="dvAI" unicode="&#x910;" horiz-adv-x="653" 
d="M332 19c-173 0 -262 102 -262 247l-1 305h-80v169h402c-60 91 -79 109 -161 109h-59v163h56c170 -1 227 -34 354 -272h83v-169h-71v-56c0 -153 -65 -245 -256 -217v182c39 -8 58 9 58 40v51h-122v-313c0 -48 29 -66 56 -66c30 0 53 19 53 51h199
c0 -144 -102 -224 -249 -224z" />
    <glyph glyph-name="dvO" unicode="&#x913;" horiz-adv-x="1181" 
d="M780 0h-203v222h-74c-16 -99 -95 -159 -208 -159c-149 0 -244 87 -244 216h190c0 -21 13 -42 41 -42c26 0 40 18 40 43c0 29 -21 50 -63 50h-49v163h49c31 0 58 13 58 44c0 24 -14 40 -36 40c-23 0 -37 -17 -37 -38h-187c0 123 86 210 224 210c134 0 216 -73 216 -185
c0 -70 -36 -121 -95 -146v-4c19 -6 35 -14 48 -25h127v351h338c-60 91 -79 109 -161 109h-59v163h56c170 -1 227 -34 354 -272h87v-169h-76v-571h-204v571h-132v-571z" />
    <glyph glyph-name="dvAU" unicode="&#x914;" horiz-adv-x="1181" 
d="M780 0h-203v222h-74c-16 -99 -95 -159 -208 -159c-149 0 -244 87 -244 216h190c0 -21 13 -42 41 -42c26 0 40 18 40 43c0 29 -21 50 -63 50h-49v163h49c31 0 58 13 58 44c0 24 -14 40 -36 40c-23 0 -37 -17 -37 -38h-187c0 123 86 210 224 210c134 0 216 -73 216 -185
c0 -70 -36 -121 -95 -146v-4c19 -6 35 -14 48 -25h127v351h348c-98 51 -81 51 -187 51h-61v125h56c86 0 112 0 166 -39c-58 88 -99 88 -157 88h-65v126h60c167 0 192 -16 366 -351h89v-169h-76v-571h-204v571h-132v-571z" />
    <glyph glyph-name="dvEcandra" unicode="&#x90d;" horiz-adv-x="653" 
d="M-11 571v169h675v-169h-71v-56c0 -153 -65 -245 -256 -217v182c39 -8 58 9 58 40v51h-122v-313c0 -48 29 -66 56 -66c30 0 53 19 53 51h199c0 -144 -102 -224 -249 -224c-173 0 -262 102 -262 247l-1 305h-80zM327 808c-182 0 -262 91 -262 233h174c0 -50 25 -84 88 -84
c62 0 88 34 88 84h174c0 -142 -81 -233 -262 -233z" />
    <glyph glyph-name="dvAcandra" unicode="&#x972;" horiz-adv-x="852" 
d="M259 493c31 0 58 13 58 44c0 24 -14 40 -36 40c-23 0 -37 -17 -37 -38h-187c0 123 86 210 224 210c134 0 216 -73 216 -185c0 -70 -36 -121 -95 -146v-4c19 -6 35 -14 48 -25h127v351h280v-169h-77v-571h-203v222h-74c-16 -99 -95 -159 -208 -159
c-149 0 -244 87 -244 216h190c0 -21 13 -42 41 -42c26 0 40 18 40 43c0 29 -21 50 -63 50h-49v163h49zM686 814c-182 0 -262 91 -262 233h174c0 -50 25 -84 88 -84c62 0 88 34 88 84h174c0 -142 -81 -233 -262 -233z" />
    <glyph glyph-name="dvOcandra" unicode="&#x911;" horiz-adv-x="1181" 
d="M259 493c31 0 58 13 58 44c0 24 -14 40 -36 40c-23 0 -37 -17 -37 -38h-187c0 123 86 210 224 210c134 0 216 -73 216 -185c0 -70 -36 -121 -95 -146v-4c19 -6 35 -14 48 -25h127v351h615v-169h-76v-571h-204v571h-132v-571h-203v222h-74c-16 -99 -95 -159 -208 -159
c-149 0 -244 87 -244 216h190c0 -21 13 -42 41 -42c26 0 40 18 40 43c0 29 -21 50 -63 50h-49v163h49zM851 808c-182 0 -262 91 -262 233h174c0 -50 25 -84 88 -84c62 0 88 34 88 84h174c0 -142 -81 -233 -262 -233z" />
    <glyph glyph-name="dvmAA" unicode="&#x93e;" 
d="M66 0v571h-77v169h357v-169h-76v-571h-204z" />
    <glyph glyph-name="dvmI" unicode="&#x93f;" 
d="M270 571v-571h-204v571h-77v169h78c12 174 160 313 437 313c288 0 439 -155 439 -339v-18h-204v14c0 112 -102 178 -235 178c-125 0 -223 -54 -235 -148h77v-169h-76z" />
    <glyph glyph-name="dvmII" unicode="&#x940;" 
d="M-270 696v69c0 169 72 288 272 288c204 0 268 -125 268 -288v-25h76v-169h-76v-571h-204v571h-77v169h83v35c0 39 -4 107 -70 107c-70 0 -74 -68 -74 -107v-79h-198z" />
    <glyph glyph-name="dvmU" unicode="&#x941;" horiz-adv-x="0" 
d="M-220 -365c-134 0 -278 61 -277 247h180c-1 -65 38 -89 92 -89c44 0 67 19 67 50s-22 52 -69 52h-43v157h43c161 0 241 -77 241 -211c0 -127 -91 -206 -234 -206z" />
    <glyph glyph-name="dvmUU" unicode="&#x942;" horiz-adv-x="0" 
d="M-200 -346c-110 0 -208 60 -208 192c0 128 99 199 234 199c235 0 281 -171 281 -315c0 -25 -1 -48 -2 -71h-165v77c0 103 -30 159 -118 159c-31 0 -68 -12 -68 -50c0 -35 31 -47 60 -47h23v-144h-37z" />
    <glyph glyph-name="dvmvR" unicode="&#x943;" horiz-adv-x="0" 
d="M-136 -352c-114 0 -239 51 -239 203c0 119 86 197 236 197c12 0 62 -1 73 -2v-136h-55c-39 0 -58 -21 -58 -51c0 -38 36 -50 77 -50c37 0 71 9 89 14v-157c-42 -13 -83 -18 -123 -18z" />
    <glyph glyph-name="dvmvRR" unicode="&#x944;" horiz-adv-x="0" 
d="M-97 -503c-114 0 -234 43 -234 169c0 64 43 113 106 128v4c-56 13 -105 45 -105 119c0 101 101 131 170 131h94v-108h-12c-32 0 -57 -6 -57 -33c0 -26 28 -33 57 -33h64v-149h-51c-37 0 -71 -4 -71 -37c0 -32 40 -35 71 -35c45 0 90 11 104 15v-150
c-35 -14 -92 -21 -136 -21z" />
    <glyph glyph-name="dvmvL" unicode="&#x962;" horiz-adv-x="0" 
d="M101 -486c-111 0 -188 54 -188 151c0 56 36 98 79 118v4c0 32 -17 53 -44 53c-37 0 -47 -32 -47 -59v-27h-130v27c0 27 -11 59 -47 59c-32 0 -50 -21 -50 -55c0 -48 27 -61 57 -61c3 0 12 0 19 2v-137h-26c-134 0 -209 77 -209 198c0 135 93 190 184 190
c67 0 109 -29 132 -72h3c23 43 71 72 138 72c88 0 180 -55 180 -190c0 -28 -5 -53 -12 -76h-6c-57 0 -71 -15 -71 -39c0 -22 26 -34 59 -34c14 0 30 1 45 5v-124c-23 -3 -45 -5 -66 -5z" />
    <glyph glyph-name="dvmvLL" unicode="&#x963;" horiz-adv-x="0" 
d="M205 -612c-27 -10 -69 -15 -105 -15c-87 0 -177 31 -177 128c0 51 32 88 80 99v2c-43 10 -80 37 -80 93c0 50 32 78 69 90v2c0 32 -17 53 -44 53c-37 0 -47 -32 -47 -59v-27h-130v27c0 27 -11 59 -47 59c-32 0 -50 -21 -50 -55c0 -48 27 -61 57 -61c3 0 12 0 19 2v-137
h-26c-134 0 -209 77 -209 198c0 135 93 190 184 190c67 0 109 -29 132 -72h3c23 43 71 72 138 72c88 0 180 -55 180 -190c0 -28 -5 -53 -12 -76h-23c-26 0 -45 -5 -45 -25c0 -18 21 -24 46 -24h47v-115h-39c-30 0 -55 -2 -55 -29c0 -24 30 -26 55 -26c34 0 68 8 79 11v-115z
" />
    <glyph glyph-name="dvmE" unicode="&#x947;" horiz-adv-x="0" 
d="M-258 735c-62 95 -81 114 -164 114h-59v163h56c170 -1 227 -34 357 -277h-190z" />
    <glyph glyph-name="dvmAI" unicode="&#x948;" horiz-adv-x="0" 
d="M-243 737c-105 54 -85 54 -193 54h-61v125h56c86 0 112 0 166 -39c-58 88 -99 88 -157 88h-65v126h60c167 0 192 -16 368 -354h-174z" />
    <glyph glyph-name="dvmO" unicode="&#x94b;" horiz-adv-x="336" 
d="M270 0h-204v571h-77v169h86c-60 91 -79 109 -161 109h-59v163h56c170 -1 227 -34 354 -272h81v-169h-76v-571z" />
    <glyph glyph-name="dvmAU" unicode="&#x94c;" 
d="M270 0h-204v571h-77v169h91c-98 51 -81 51 -187 51h-61v125h56c86 0 112 0 166 -39c-58 88 -99 88 -157 88h-65v126h60c167 0 192 -16 366 -351h88v-169h-76v-571z" />
    <glyph glyph-name="dvmEcandra" unicode="&#x945;" horiz-adv-x="0" 
d="M-178 807c-182 0 -262 91 -262 233h174c0 -50 25 -84 88 -84c62 0 88 34 88 84h174c0 -142 -81 -233 -262 -233z" />
    <glyph glyph-name="dvmOcandra" unicode="&#x949;" horiz-adv-x="337" 
d="M67 0v571h-77v169h357v-169h-76v-571h-204zM168 807c-182 0 -262 91 -262 233h174c0 -50 25 -84 88 -84c62 0 88 34 88 84h174c0 -142 -81 -233 -262 -233z" />
    <glyph glyph-name="dvKA" unicode="&#x915;" horiz-adv-x="946" 
d="M384 0v100c-30 -36 -77 -57 -140 -57c-129 0 -202 101 -202 235c0 137 73 235 210 235c60 0 104 -19 132 -52v110h-395v169h968v-169h-377v-110c28 33 71 52 126 52c132 0 198 -107 198 -230c0 -144 -86 -227 -205 -227c-24 0 -44 2 -71 9v158c3 -1 9 -2 15 -2
c32 0 54 22 54 57c0 31 -17 62 -58 62c-38 0 -59 -27 -59 -73v-267h-196zM316 214c39 0 68 27 68 65c-1 37 -27 62 -67 62c-41 0 -68 -27 -68 -64c0 -36 25 -63 67 -63z" />
    <glyph glyph-name="dvKHA" unicode="&#x916;" horiz-adv-x="977" 
d="M658 249c30 0 51 21 51 54c-1 28 -17 53 -51 53c-31 0 -54 -19 -54 -53c0 -36 23 -54 54 -54zM612 95c-10 0 -21 1 -30 2c-48 -62 -124 -106 -226 -106c-186 0 -302 108 -302 306v109h19c97 0 130 42 130 117v48h-214v169h999v-169h-76v-571h-203v125
c-22 -19 -54 -30 -97 -30zM361 166c44 0 70 15 85 32c-15 31 -23 67 -23 105c0 116 76 206 189 206c43 0 74 -12 97 -32v94h-301v-77c0 -126 -59 -206 -152 -226c2 -56 36 -102 105 -102z" />
    <glyph glyph-name="dvGA" unicode="&#x917;" horiz-adv-x="859" 
d="M589 0v571h-93v-198c0 -136 -70 -238 -230 -238c-147 0 -238 74 -238 228c0 11 0 22 1 33h197v-32c0 -34 8 -56 34 -56c29 0 32 31 32 56v207h-303v169h881v-169h-77v-571h-204z" />
    <glyph glyph-name="dvGHA" unicode="&#x918;" horiz-adv-x="691" 
d="M317 252c59 0 105 38 105 102v217h-154v-19c0 -34 14 -58 60 -58h35v-163h-51c-33 0 -50 -16 -50 -40c0 -26 23 -39 55 -39zM-11 571v169h713v-169h-75v-571h-205v143c-39 -38 -93 -56 -156 -56c-113 0 -211 61 -211 182c0 73 45 121 91 139v4c-47 16 -82 55 -82 130v29
h-75z" />
    <glyph glyph-name="dvNGA" unicode="&#x919;" horiz-adv-x="728" 
d="M622 253c-56 0 -101 45 -101 100c0 57 45 102 101 102c57 0 102 -45 102 -102c0 -55 -45 -100 -102 -100zM-11 571v169h750v-169h-262v-187h-190c-18 0 -31 -8 -31 -22c0 -16 12 -23 30 -23h44c104 0 208 -45 208 -179c0 -114 -85 -184 -235 -184
c-141 0 -257 64 -265 193h203c3 -34 36 -41 56 -41c27 0 48 11 48 34c0 20 -14 35 -53 35h-32c-71 0 -208 19 -208 172c0 104 79 157 184 157h45v45h-292z" />
    <glyph glyph-name="dvCA" unicode="&#x91a;" horiz-adv-x="765" 
d="M-11 571v169h787v-169h-77v-571h-204v134c-38 -41 -95 -62 -163 -62c-114 0 -200 68 -200 183c0 35 10 65 29 89h-110v159h374v-159h-46c-28 0 -56 -16 -56 -51c0 -36 31 -54 73 -53c68 2 99 53 99 139v192h-506z" />
    <glyph glyph-name="dvCHA" unicode="&#x91b;" horiz-adv-x="828" 
d="M-11 571v169h850v-169h-168v-57c74 -31 117 -102 117 -199c0 -179 -133 -299 -384 -299c-204 0 -350 70 -350 223c0 72 33 120 91 148v4c-46 15 -81 54 -81 130v50h-75zM406 189c140 0 204 43 204 136c0 29 -9 58 -34 58s-36 -24 -36 -56c0 -22 4 -46 10 -67h-166
c-6 19 -12 51 -12 90c0 88 45 142 111 166v55h-215v-41c0 -33 11 -58 47 -58h19v-162h-15c-38 0 -58 -23 -58 -51c0 -40 31 -70 145 -70z" />
    <glyph glyph-name="dvJA" unicode="&#x91c;" horiz-adv-x="872" 
d="M-11 571v169h894v-169h-76v-571h-204v308h-68c-5 -134 -97 -228 -245 -228c-169 0 -253 99 -253 239v162h205v-156c0 -44 16 -67 48 -67c31 0 46 23 46 67v156h267v90h-614z" />
    <glyph glyph-name="dvJHA" unicode="&#x91d;" horiz-adv-x="882" 
d="M282 339h334v232h-144v-187h-191c-18 0 -30 -8 -30 -23c0 -14 10 -22 31 -22zM616 0v187h-96c4 -17 6 -35 6 -55c0 -89 -60 -152 -159 -152c-44 0 -81 12 -102 25v-94h-192v257h183c0 -28 19 -40 44 -40s39 13 39 33c0 21 -14 36 -54 36c-21 0 -41 0 -69 2
c-76 5 -170 48 -170 164c0 112 79 165 184 165h45v43h-286v169h904v-169h-77v-571h-200z" />
    <glyph glyph-name="dvNYA" unicode="&#x91e;" horiz-adv-x="851" 
d="M-11 571v169h873v-169h-76v-571h-204v196h-67c-28 -107 -118 -165 -231 -165c-130 0 -236 72 -242 209h192c9 -31 35 -38 52 -38c36 0 56 31 56 72c0 39 -20 71 -56 71c-17 0 -43 -7 -52 -37h-192c6 137 112 210 242 210c108 0 194 -53 227 -151h71v204h-593z" />
    <glyph glyph-name="dvTTA" unicode="&#x91f;" horiz-adv-x="643" 
d="M-11 571v169h665v-169h-148v-222h-160c-54 0 -100 -30 -100 -86c0 -48 33 -82 90 -82c59 0 94 36 94 89h194c0 -161 -109 -265 -283 -265c-177 0 -299 102 -299 260c0 140 95 243 264 253v53h-317z" />
    <glyph glyph-name="dvTTHA" unicode="&#x920;" horiz-adv-x="668" 
d="M334 188c58 0 90 37 90 88s-32 87 -90 87c-56 0 -89 -36 -89 -87s33 -88 89 -88zM334 19c-164 0 -292 94 -292 257c0 135 85 214 190 244v51h-243v169h690v-169h-246v-50c107 -29 194 -108 194 -245c0 -163 -129 -257 -293 -257z" />
    <glyph glyph-name="dvDDA" unicode="&#x921;" horiz-adv-x="560" 
d="M-11 571v169h582v-169h-94v-187h-190c-18 0 -31 -8 -31 -22c0 -16 12 -23 30 -23h44c104 0 208 -45 208 -179c0 -114 -85 -184 -235 -184c-141 0 -257 64 -265 193h203c3 -34 36 -41 56 -41c27 0 48 11 48 34c0 20 -14 35 -53 35h-32c-71 0 -208 19 -208 172
c0 104 79 157 184 157h44v45h-291z" />
    <glyph glyph-name="dvDDHA" unicode="&#x922;" horiz-adv-x="664" 
d="M-11 571v169h686v-169h-148v-179h-130c-89 0 -158 -48 -158 -136c0 -70 37 -130 142 -130c58 0 104 18 104 63c0 17 -10 28 -26 28s-25 -12 -25 -24c0 -5 1 -10 3 -14h-143c-3 15 -5 31 -5 43c0 90 72 138 179 138c122 0 190 -69 190 -171c0 -132 -97 -208 -281 -208
c-188 0 -335 99 -335 284c0 167 122 265 288 265h6v41h-347z" />
    <glyph glyph-name="dvNNA" unicode="&#x923;" horiz-adv-x="921" 
d="M316 291c27 0 40 18 40 44v236h-82v-236c0 -26 17 -44 42 -44zM-11 571v169h943v-169h-77v-571h-204v571h-95v-217c0 -133 -78 -234 -240 -234c-165 0 -241 106 -241 234v217h-86z" />
    <glyph glyph-name="dvTA" unicode="&#x924;" horiz-adv-x="717" 
d="M-11 571v169h739v-169h-77v-571h-204v314h-111c-52 0 -88 -30 -88 -76c0 -44 26 -78 87 -78h16v-159h-49c-136 0 -260 66 -260 242c0 172 134 245 284 245h121v83h-458z" />
    <glyph glyph-name="dvTHA" unicode="&#x925;" horiz-adv-x="812" 
d="M542 0v165c-32 -50 -106 -93 -210 -93c-172 0 -292 109 -292 292c0 27 1 55 6 84h80c106 0 172 23 172 91c0 21 -12 37 -30 37c-19 0 -33 -13 -33 -40c0 -12 2 -21 4 -30h-183c-2 13 -4 26 -4 35c0 142 104 208 218 208c128 0 219 -81 219 -216
c0 -118 -72 -218 -248 -228c11 -29 43 -65 122 -65c99 0 179 65 179 204v296h281v-169h-77v-571h-204z" />
    <glyph glyph-name="dvDA" unicode="&#x926;" horiz-adv-x="613" 
d="M-11 571v169h635l-1 -169h-94v-235h-198c-52 0 -80 -29 -80 -70c0 -38 23 -62 60 -62c39 0 58 28 58 63h189v-311h-199v123c-25 -23 -63 -35 -108 -35c-103 0 -209 67 -209 227c0 152 110 239 267 239h15v61h-335z" />
    <glyph glyph-name="dvDHA" unicode="&#x927;" horiz-adv-x="744" 
d="M292 65c-125 0 -231 63 -231 186c0 86 63 129 111 143v4c-60 20 -120 73 -120 168c0 116 86 183 197 183c123 0 189 -74 189 -176c0 -14 -1 -35 -2 -45h-149c1 10 1 13 1 18c0 22 -14 33 -31 33c-20 0 -33 -14 -33 -36c0 -53 66 -62 109 -62h62v-163h-52
c-42 0 -75 -10 -75 -44c0 -28 27 -43 77 -43c91 0 144 61 144 154v355h276v-169h-72v-571h-204v136c-43 -46 -108 -71 -197 -71z" />
    <glyph glyph-name="dvNA" unicode="&#x928;" horiz-adv-x="844" 
d="M282 210c33 0 56 23 56 56c0 32 -23 56 -56 56c-34 0 -58 -24 -58 -56c0 -33 24 -56 58 -56zM-11 571v169h866v-169h-77v-571h-204v322h-91c10 -23 16 -51 16 -85c0 -135 -104 -198 -220 -198c-121 0 -238 79 -238 226c0 156 120 226 255 226h278v80h-585z" />
    <glyph glyph-name="dvPA" unicode="&#x92a;" horiz-adv-x="691" 
d="M340 307c56 0 82 42 82 93v171h-161v-170c0 -52 24 -94 79 -94zM-11 571v169h713v-169h-76v-571h-204v181c-32 -28 -76 -45 -136 -45c-151 0 -229 117 -229 265v170h-68z" />
    <glyph glyph-name="dvPHA" unicode="&#x92b;" horiz-adv-x="984" 
d="M332 307c50 0 74 38 74 83v181h-145v-181c0 -46 22 -83 71 -83zM-11 571v169h1006v-169h-385v-109c31 32 77 51 136 51c130 0 198 -104 198 -225c0 -147 -85 -232 -205 -232c-26 0 -52 3 -79 12v155c8 -2 16 -3 23 -3c36 0 54 27 54 58s-17 62 -58 62
c-44 0 -69 -33 -69 -95v-245h-204v179c-30 -27 -73 -43 -128 -43c-145 0 -221 112 -221 254v181h-68z" />
    <glyph glyph-name="dvBA" unicode="&#x92c;" horiz-adv-x="687" 
d="M426 0v85c-32 -31 -82 -46 -140 -46c-142 0 -244 104 -244 249c0 138 102 236 244 236c53 0 101 -11 140 -35v82h-437v169h709v-169h-76v-571h-196zM330 395c-23 0 -43 -6 -61 -17l167 -113c1 7 2 15 2 23c0 62 -45 107 -108 107zM330 182c23 0 43 6 60 16l-168 114
c-2 -8 -3 -16 -3 -24c0 -65 51 -106 111 -106z" />
    <glyph glyph-name="dvBHA" unicode="&#x92d;" horiz-adv-x="890" 
d="M280 208c37 0 51 26 51 58v39h-37c-37 0 -63 -16 -63 -49s22 -48 49 -48zM284 36c-145 0 -242 86 -242 219c0 150 113 216 246 216h43v63c0 24 -8 42 -31 42c-20 0 -31 -17 -31 -39c0 -9 1 -18 3 -28h-204c-2 10 -4 24 -4 36c0 113 72 204 228 204
c175 0 229 -116 229 -253v-25h98v269h282v-169h-78v-571h-204v305h-98v-28c0 -146 -79 -241 -237 -241z" />
    <glyph glyph-name="dvMA" unicode="&#x92e;" horiz-adv-x="879" 
d="M272 208c37 0 52 26 52 58v39h-38c-36 0 -62 -16 -62 -49s21 -48 48 -48zM608 471v100h-94v-100h94zM-11 571v169h901v-169h-77v-571h-205v305h-94v-28c0 -146 -80 -241 -238 -241c-145 0 -241 86 -241 219c0 150 113 216 245 216h44v100h-335z" />
    <glyph glyph-name="dvYA" unicode="&#x92f;" horiz-adv-x="769" 
d="M366 232c90 0 133 63 133 143v196h-111v-69c0 -87 -31 -168 -138 -188c5 -44 45 -82 116 -82zM-11 571v169h791v-169h-77v-571h-204v121c-41 -36 -100 -58 -178 -58c-176 0 -275 111 -275 282c0 23 2 45 5 69h8c114 0 128 60 128 126v31h-198z" />
    <glyph glyph-name="dvRA" unicode="&#x930;" horiz-adv-x="528" 
d="M-11 571v169h550v-169h-63v-26c0 -139 -44 -259 -224 -269v-77c0 -19 7 -35 27 -35c18 0 26 16 26 35v33h195c1 -12 1 -21 1 -26c0 -130 -79 -215 -218 -215c-153 0 -233 97 -233 218v229h98c103 0 124 46 124 107v26h-283z" />
    <glyph glyph-name="dvLA" unicode="&#x932;" horiz-adv-x="920" 
d="M606 5c-7 0 -19 0 -35 1v177c9 -1 21 -2 26 -2c40 0 74 26 74 80c0 44 -23 72 -64 72c-49 0 -63 -42 -63 -77v-29h-168v29c0 35 -14 77 -63 77c-41 0 -64 -28 -64 -72c0 -54 34 -80 74 -80c5 0 16 1 26 2v-177c-16 -1 -28 -1 -35 -1c-175 0 -272 108 -272 259
c0 176 121 248 240 248c90 0 144 -37 176 -94h3c23 41 58 72 110 86v67h-582v169h942v-169h-160v-94c62 -37 107 -106 107 -213c0 -151 -97 -259 -272 -259z" />
    <glyph glyph-name="dvVA" unicode="&#x935;" horiz-adv-x="662" 
d="M321 203c46 0 77 33 77 77s-31 75 -77 75c-49 0 -79 -34 -79 -76s30 -76 79 -76zM673 571h-76v-571h-199v95c-33 -36 -80 -54 -135 -54c-144 0 -221 108 -221 243c0 130 77 233 221 233c55 0 102 -18 135 -52v106h-409v169h684v-169z" />
    <glyph glyph-name="dvSHA" unicode="&#x936;" horiz-adv-x="882" 
d="M309 -6c-158 0 -257 92 -257 240v203h135c77 0 160 14 160 93c0 23 -10 43 -35 43c-26 0 -37 -19 -37 -46v-27h-203c-1 11 -2 23 -2 34c0 125 92 215 242 215c143 0 242 -82 242 -232c0 -176 -131 -250 -289 -250h-7v-45c0 -26 8 -54 46 -54c28 0 42 21 42 48v17h198
c1 -11 1 -18 1 -20c0 -140 -92 -219 -236 -219zM610 0v740h283v-169h-76v-571h-207z" />
    <glyph glyph-name="dvSSA" unicode="&#x937;" horiz-adv-x="710" 
d="M343 291c45 0 75 21 90 51l-179 101v-48c0 -57 28 -104 89 -104zM444 462v109h-188zM-11 571v169h732v-169h-77v-571h-200v169c-32 -31 -79 -49 -145 -49c-159 0 -242 124 -242 281v170h-68z" />
    <glyph glyph-name="dvSA" unicode="&#x938;" horiz-adv-x="834" 
d="M441 520c0 -29 -3 -58 -11 -85h134v136h-123v-51zM-11 571v169h856v-169h-77v-571h-204v269h-312v-68c0 -19 9 -37 32 -37c22 0 30 17 30 35v13h196c1 -11 1 -20 1 -25c0 -119 -82 -196 -223 -196c-156 0 -238 99 -238 220v202h63c104 0 124 46 124 107v51h-248z" />
    <glyph glyph-name="dvHA" unicode="&#x939;" horiz-adv-x="584" 
d="M551 86c-8 -130 -111 -203 -247 -203c-151 0 -255 89 -255 238c0 76 31 133 81 170c-39 27 -58 66 -58 111c0 73 56 129 161 129h48v40h-292v169h606v-169h-120v-183h-167c-19 0 -34 -8 -34 -28c0 -6 2 -12 6 -17c10 1 19 1 29 1c154 0 231 -81 242 -200h-195
c-4 23 -24 40 -52 40c-25 0 -56 -19 -56 -66c0 -50 30 -68 56 -68c25 0 46 14 52 36h195z" />
    <glyph glyph-name="dvLLA" unicode="&#x933;" horiz-adv-x="938" 
d="M306 199c36 0 64 25 64 64c0 37 -28 64 -64 64c-39 0 -65 -27 -65 -65c0 -39 27 -63 65 -63zM632 199c38 0 65 24 65 63c0 38 -26 65 -65 65c-37 0 -64 -27 -64 -64c0 -39 27 -64 64 -64zM663 26c-78 0 -151 31 -191 101h-6c-40 -70 -113 -101 -191 -101
c-126 0 -233 88 -233 237c0 146 106 236 233 236c65 0 138 -17 192 -100h4c33 52 75 78 117 90v82h-599v169h960v-169h-164v-104c66 -38 111 -109 111 -204c0 -149 -107 -237 -233 -237z" />
    <glyph glyph-name="dvK_SSA" horiz-adv-x="899" 
d="M260 528c0 -32 26 -61 75 -59c20 15 33 33 33 56c0 24 -17 51 -55 51c-31 0 -53 -20 -53 -48zM361 -68v143c-27 -28 -71 -42 -120 -42c-111 0 -192 69 -192 177c0 93 57 143 123 179c-50 25 -94 73 -94 155c0 117 99 205 241 205c120 0 217 -59 217 -181
c0 -41 -13 -74 -33 -101h135v273h272v-169h-77v-571h-195v321h-327c-33 -16 -52 -34 -52 -65c0 -32 25 -55 58 -55c43 0 62 37 62 67h168v-336h-186z" />
    <glyph glyph-name="dvJ_NYA" horiz-adv-x="867" 
d="M600 0v326h-98c25 -25 40 -60 40 -107c0 -107 -81 -169 -177 -169c-50 0 -94 14 -125 40v-108h-198v294h190c4 -33 26 -60 67 -60c40 0 58 25 58 53c0 42 -35 57 -61 57h-52v162h356v83h-611v169h889v-169h-77v-571h-201z" />
    <glyph glyph-name="dvKxA" unicode="&#x958;" horiz-adv-x="946" 
d="M384 0v100c-30 -36 -77 -57 -140 -57c-129 0 -202 101 -202 235c0 137 73 235 210 235c60 0 104 -19 132 -52v110h-395v169h968v-169h-377v-110c28 33 71 52 126 52c132 0 198 -107 198 -230c0 -144 -86 -227 -205 -227c-24 0 -44 2 -71 9v158c3 -1 9 -2 15 -2
c32 0 54 22 54 57c0 31 -17 62 -58 62c-38 0 -59 -27 -59 -73v-267h-196zM217 -227c-63 0 -113 50 -113 112c0 64 50 115 113 115c64 0 114 -51 114 -115c0 -62 -50 -112 -114 -112zM316 214c39 0 68 27 68 65c-1 37 -27 62 -67 62c-41 0 -68 -27 -68 -64
c0 -36 25 -63 67 -63z" />
    <glyph glyph-name="dvKHxA" unicode="&#x959;" horiz-adv-x="977" 
d="M612 95c-10 0 -21 1 -30 2c-48 -62 -124 -106 -226 -106c-186 0 -302 108 -302 306v109h19c97 0 130 42 130 117v48h-214v169h999v-169h-76v-571h-203v125c-22 -19 -54 -30 -97 -30zM330 -275c-63 0 -113 50 -113 112c0 64 50 115 113 115c64 0 114 -51 114 -115
c0 -62 -50 -112 -114 -112zM658 249c30 0 51 21 51 54c-1 28 -17 53 -51 53c-31 0 -54 -19 -54 -53c0 -36 23 -54 54 -54zM361 166c44 0 70 15 85 32c-15 31 -23 67 -23 105c0 116 76 206 189 206c43 0 74 -12 97 -32v94h-301v-77c0 -126 -59 -206 -152 -226
c2 -56 36 -102 105 -102z" />
    <glyph glyph-name="dvGxA" unicode="&#x95a;" horiz-adv-x="858" 
d="M589 0v571h-93v-198c0 -136 -70 -238 -230 -238c-147 0 -238 74 -238 228c0 11 0 22 1 33h197v-32c0 -34 8 -56 34 -56c29 0 32 31 32 56v207h-303v169h881v-169h-77v-571h-204zM265 -135c-63 0 -113 50 -113 112c0 64 50 115 113 115c64 0 114 -51 114 -115
c0 -62 -50 -112 -114 -112z" />
    <glyph glyph-name="dvJxA" unicode="&#x95b;" horiz-adv-x="872" 
d="M-11 571v169h894v-169h-76v-571h-204v308h-68c-5 -134 -97 -228 -245 -228c-169 0 -253 99 -253 239v162h205v-156c0 -44 16 -67 48 -67c31 0 46 23 46 67v156h267v90h-614zM289 -189c-63 0 -113 50 -113 112c0 64 50 115 113 115c64 0 114 -51 114 -115
c0 -62 -50 -112 -114 -112z" />
    <glyph glyph-name="dvDDxA" unicode="&#x95c;" horiz-adv-x="560" 
d="M-11 571v169h582v-169h-94v-187h-190c-18 0 -31 -8 -31 -22c0 -16 12 -23 30 -23h44c104 0 208 -45 208 -179c0 -114 -85 -184 -235 -184c-141 0 -257 64 -265 193h203c3 -34 36 -41 56 -41c27 0 48 11 48 34c0 20 -14 35 -53 35h-32c-71 0 -208 19 -208 172
c0 104 79 157 184 157h44v45h-291zM303 -293c-63 0 -113 50 -113 112c0 64 50 115 113 115c64 0 114 -51 114 -115c0 -62 -50 -112 -114 -112z" />
    <glyph glyph-name="dvDDHxA" unicode="&#x95d;" horiz-adv-x="664" 
d="M-11 571v169h686v-169h-148v-179h-130c-89 0 -158 -48 -158 -136c0 -70 37 -130 142 -130c58 0 104 18 104 63c0 17 -10 28 -26 28s-25 -12 -25 -24c0 -5 1 -10 3 -14h-143c-3 15 -5 31 -5 43c0 90 72 138 179 138c122 0 190 -69 190 -171c0 -132 -97 -208 -281 -208
c-188 0 -335 99 -335 284c0 167 122 265 288 265h6v41h-347zM360 -287c-63 0 -113 50 -113 112c0 64 50 115 113 115c64 0 114 -51 114 -115c0 -62 -50 -112 -114 -112z" />
    <glyph glyph-name="dvPHxA" unicode="&#x95e;" horiz-adv-x="984" 
d="M332 307c50 0 74 38 74 83v181h-145v-181c0 -46 22 -83 71 -83zM-11 571v169h1006v-169h-385v-109c31 32 77 51 136 51c130 0 198 -104 198 -225c0 -147 -85 -232 -205 -232c-26 0 -52 3 -79 12v155c8 -2 16 -3 23 -3c36 0 54 27 54 58s-17 62 -58 62
c-44 0 -69 -33 -69 -95v-245h-204v179c-30 -27 -73 -43 -128 -43c-145 0 -221 112 -221 254v181h-68zM206 -127c-63 0 -113 50 -113 112c0 64 50 115 113 115c64 0 114 -51 114 -115c0 -62 -50 -112 -114 -112z" />
    <glyph glyph-name="dvRxA" unicode="&#x931;" horiz-adv-x="528" 
d="M-11 571v169h550v-169h-63v-26c0 -139 -44 -259 -224 -269v-77c0 -19 7 -35 27 -35c18 0 26 16 26 35v33h195c1 -12 1 -21 1 -26c0 -130 -79 -215 -218 -215c-153 0 -233 97 -233 218v229h98c103 0 124 46 124 107v26h-283zM104 -246c-63 0 -113 50 -113 112
c0 64 50 115 113 115c64 0 114 -51 114 -115c0 -62 -50 -112 -114 -112z" />
    <glyph glyph-name="dvK" horiz-adv-x="677" 
d="M384 0v100c-30 -36 -77 -57 -140 -57c-129 0 -202 101 -202 235c0 137 73 235 210 235c60 0 104 -19 132 -52v110h-395v169h915v-169h-324v-110c28 33 71 52 126 52c132 0 198 -107 198 -235h-207c0 31 -17 62 -58 62c-38 0 -59 -27 -59 -73v-267h-196zM316 214
c39 0 68 27 68 65c-1 37 -27 62 -67 62c-41 0 -68 -27 -68 -64c0 -36 25 -63 67 -63z" />
    <glyph glyph-name="dvKH" horiz-adv-x="667" 
d="M-11 571v169h905v-169h-486v-77c0 -126 -59 -206 -152 -226c2 -56 36 -102 105 -102c46 0 72 16 87 35c-15 28 -23 61 -23 99c0 130 101 206 236 206c134 0 233 -76 233 -206c0 -135 -105 -208 -233 -208c-27 0 -52 3 -76 9c-48 -64 -125 -110 -229 -110
c-186 0 -302 108 -302 306v109h19c97 0 130 42 130 117v48h-214zM604 300c0 -35 22 -56 57 -56s56 21 56 56c0 34 -21 55 -56 55s-57 -21 -57 -55z" />
    <glyph glyph-name="dvG" horiz-adv-x="588" 
d="M-11 571v169h610v-169h-103v-198c0 -136 -70 -238 -230 -238c-147 0 -238 74 -238 228c0 11 0 22 1 33h197v-32c0 -34 8 -56 34 -56c29 0 32 31 32 56v207h-303z" />
    <glyph glyph-name="dvGH" horiz-adv-x="360" 
d="M-11 571v169h606v-169h-327v-19c0 -34 14 -58 60 -58h35v-163h-51c-33 0 -50 -16 -50 -40c0 -26 23 -39 55 -39c78 0 105 47 105 102h173c0 -143 -96 -267 -278 -267c-164 0 -262 61 -262 182c0 73 45 121 91 139v4c-47 16 -82 55 -82 130v29h-75z" />
    <glyph glyph-name="dvNG" horiz-adv-x="728" 
d="M622 253c-56 0 -101 45 -101 100c0 57 45 102 101 102c57 0 102 -45 102 -102c0 -55 -45 -100 -102 -100zM349 -305l-134 238h202l139 -238h-207zM-11 571v169h750v-169h-262v-187h-190c-18 0 -31 -8 -31 -22c0 -16 12 -23 30 -23h44c104 0 208 -45 208 -179
c0 -114 -85 -184 -235 -184c-141 0 -257 64 -265 193h203c3 -34 36 -41 56 -41c27 0 48 11 48 34c0 20 -14 35 -53 35h-32c-71 0 -208 19 -208 172c0 104 79 157 184 157h45v45h-292z" />
    <glyph glyph-name="dvC" horiz-adv-x="434" 
d="M51 344v159h374v-159h-46c-28 0 -56 -16 -56 -51c0 -36 31 -54 73 -53c68 2 99 53 99 139h177c1 -192 -104 -309 -297 -309c-144 0 -243 60 -243 185c0 35 10 65 29 89h-110zM-11 571v169h683v-169h-683z" />
    <glyph glyph-name="dvCH" horiz-adv-x="828" 
d="M-11 571v169h850v-169h-571v-41c0 -33 11 -58 47 -58h19v-162h-15c-38 0 -58 -23 -58 -51c0 -40 31 -70 145 -70c140 0 204 43 204 136c0 29 -9 58 -34 58s-36 -24 -36 -56c0 -22 4 -46 10 -67h-166c-6 19 -12 51 -12 90c0 125 91 182 206 182c130 0 210 -85 210 -217
c0 -179 -133 -299 -384 -299c-204 0 -350 70 -350 223c0 72 33 120 91 148v4c-46 15 -81 54 -81 130v50h-75z" />
    <glyph glyph-name="dvJ" horiz-adv-x="553" 
d="M290 80c-169 0 -253 99 -253 239v162h205v-156c0 -44 16 -67 48 -67c31 0 46 23 46 67v156h376v-173h-177c-5 -134 -97 -228 -245 -228zM-11 571v169h723v-169h-723z" />
    <glyph glyph-name="dvJH" horiz-adv-x="555" 
d="M-11 571v169h708v-169h-225v-187h-191c-18 0 -30 -8 -30 -23c0 -14 10 -22 31 -22h415v-152h-177c4 -17 6 -35 6 -55c0 -89 -60 -152 -159 -152c-44 0 -81 12 -102 25v-94h-192v257h183c0 -28 19 -40 44 -40s39 13 39 33c0 21 -14 36 -54 36c-21 0 -41 0 -69 2
c-76 5 -170 48 -170 164c0 112 79 165 184 165h45v43h-286z" />
    <glyph glyph-name="dvNY" horiz-adv-x="527" 
d="M284 31c-130 0 -236 72 -242 209h192c9 -31 35 -38 52 -38c36 0 56 31 56 72c0 39 -20 71 -56 71c-17 0 -43 -7 -52 -37h-192c6 137 112 210 242 210c108 0 194 -53 227 -151h181v-171h-177c-28 -107 -118 -165 -231 -165zM-11 571v169h703v-169h-703z" />
    <glyph glyph-name="dvTT" horiz-adv-x="643" 
d="M377 -275l-134 238h202l139 -238h-207zM-11 571v169h665v-169h-148v-222h-160c-54 0 -100 -30 -100 -86c0 -48 33 -82 90 -82c59 0 94 36 94 89h194c0 -161 -109 -265 -283 -265c-177 0 -299 102 -299 260c0 140 95 243 264 253v53h-317z" />
    <glyph glyph-name="dvTTH" horiz-adv-x="668" 
d="M334 188c58 0 90 37 90 88s-32 87 -90 87c-56 0 -89 -36 -89 -87s33 -88 89 -88zM334 19c-164 0 -292 94 -292 257c0 135 85 214 190 244v51h-243v169h690v-169h-246v-50c107 -29 194 -108 194 -245c0 -163 -129 -257 -293 -257zM376 -262l-134 238h202l139 -238h-207z
" />
    <glyph glyph-name="dvDD" horiz-adv-x="560" 
d="M328 -305l-134 238h202l139 -238h-207zM-11 571v169h582v-169h-94v-187h-190c-18 0 -31 -8 -31 -22c0 -16 12 -23 30 -23h44c104 0 208 -45 208 -179c0 -114 -85 -184 -235 -184c-141 0 -257 64 -265 193h203c3 -34 36 -41 56 -41c27 0 48 11 48 34c0 20 -14 35 -53 35
h-32c-71 0 -208 19 -208 172c0 104 79 157 184 157h44v45h-291z" />
    <glyph glyph-name="dvDDH" horiz-adv-x="664" 
d="M381 -300l-134 238h202l139 -238h-207zM-11 571v169h686v-169h-148v-179h-130c-89 0 -158 -48 -158 -136c0 -70 37 -130 142 -130c58 0 104 18 104 63c0 17 -10 28 -26 28s-25 -12 -25 -24c0 -5 1 -10 3 -14h-143c-3 15 -5 31 -5 43c0 90 72 138 179 138
c122 0 190 -69 190 -171c0 -132 -97 -208 -281 -208c-188 0 -335 99 -335 284c0 167 122 265 288 265h6v41h-347z" />
    <glyph glyph-name="dvNN" horiz-adv-x="597" 
d="M-11 571v169h619v-169h-52v-217c0 -133 -78 -234 -240 -234c-165 0 -241 106 -241 234v217h-86zM316 291c27 0 40 18 40 44v236h-82v-236c0 -26 17 -44 42 -44z" />
    <glyph glyph-name="dvT" horiz-adv-x="379" 
d="M557 314h-221c-52 0 -88 -30 -88 -76c0 -44 26 -78 87 -78h16v-159h-49c-136 0 -260 66 -260 242c0 172 134 245 284 245h231v-174zM-11 571v169h568v-169h-568z" />
    <glyph glyph-name="dvTH" horiz-adv-x="477" 
d="M716 367c0 -196 -169 -296 -349 -296c-198 0 -327 104 -327 293c0 27 1 55 6 84h80c106 0 172 23 172 91c0 21 -12 37 -30 37c-19 0 -33 -13 -33 -40c0 -12 2 -21 4 -30h-183c-2 13 -4 26 -4 35c0 142 104 208 218 208c128 0 219 -81 219 -216c0 -118 -72 -218 -248 -228
c11 -29 43 -65 122 -65c100 0 179 41 179 127h174z" />
    <glyph glyph-name="dvD" horiz-adv-x="612" 
d="M491 -325l-134 238h202l139 -238h-207zM-11 571v169h635l-1 -169h-94v-235h-198c-52 0 -80 -29 -80 -70c0 -38 23 -62 60 -62c39 0 58 28 58 63h189v-311h-199v123c-25 -23 -63 -35 -108 -35c-103 0 -209 67 -209 227c0 152 110 239 267 239h15v61h-335z" />
    <glyph glyph-name="dvDH" horiz-adv-x="426" 
d="M337 63c-156 0 -276 56 -276 188c0 86 63 129 111 143v4c-60 20 -120 73 -120 168c0 116 86 183 197 183c123 0 189 -74 189 -176c0 -14 -1 -35 -2 -45h-149c1 10 1 13 1 18c0 22 -14 33 -31 33c-20 0 -33 -14 -33 -36c0 -53 66 -62 109 -62h62v-163h-52
c-42 0 -75 -10 -75 -44c0 -36 47 -43 89 -43c93 0 132 40 132 95h178c0 -159 -129 -263 -330 -263z" />
    <glyph glyph-name="dvN" horiz-adv-x="517" 
d="M279 39c-121 0 -238 79 -238 226c0 156 120 226 255 226h400v-169h-213c10 -23 16 -51 16 -85c0 -135 -104 -198 -220 -198zM282 210c33 0 56 23 56 56c0 32 -23 56 -56 56c-34 0 -58 -24 -58 -56c0 -33 24 -56 58 -56zM-11 571v169h707v-169h-707z" />
    <glyph glyph-name="dvP" horiz-adv-x="345" 
d="M-11 571v169h600v-169h-328v-170c0 -52 25 -94 82 -94c54 0 79 42 79 93h167c0 -150 -91 -264 -261 -264c-178 0 -271 117 -271 265v170h-68z" />
    <glyph glyph-name="dvPH" horiz-adv-x="676" 
d="M332 307c50 0 74 38 74 83v181h-145v-181c0 -46 22 -83 71 -83zM-11 571v169h955v-169h-334v-109c31 32 77 51 136 51c131 0 198 -104 198 -235h-207c0 31 -16 62 -58 62c-44 0 -69 -33 -69 -95v-245h-204v179c-30 -27 -73 -43 -128 -43c-145 0 -221 112 -221 254v181
h-68z" />
    <glyph glyph-name="dvB" horiz-adv-x="369" 
d="M315 38c-179 0 -273 112 -273 250c0 130 94 238 273 238c186 0 272 -110 272 -238c0 -137 -87 -250 -272 -250zM321 389c-23 0 -43 -6 -61 -17l167 -115c2 8 3 16 3 25c0 62 -45 107 -109 107zM-11 571v169h603v-169h-603zM321 176c23 0 43 6 59 15l-167 114
c-2 -7 -3 -15 -3 -23c0 -65 52 -106 111 -106z" />
    <glyph glyph-name="dvBH" horiz-adv-x="559" 
d="M280 208c37 0 51 26 51 58v39h-37c-37 0 -63 -16 -63 -49s22 -48 49 -48zM284 36c-145 0 -242 86 -242 219c0 150 113 216 246 216h43v63c0 24 -8 42 -31 42c-20 0 -31 -17 -31 -39c0 -9 1 -18 3 -28h-204c-2 10 -4 24 -4 36c0 113 72 204 228 204
c175 0 229 -116 229 -253v-25h205v-166h-205v-28c0 -146 -79 -241 -237 -241z" />
    <glyph glyph-name="dvM" horiz-adv-x="551" 
d="M272 208c37 0 52 26 52 58v39h-38c-36 0 -62 -16 -62 -49s21 -48 48 -48zM-11 571v169h732v-169h-207v-100h207v-166h-207v-28c0 -146 -80 -241 -238 -241c-145 0 -241 86 -241 219c0 150 113 216 245 216h44v100h-335z" />
    <glyph glyph-name="dvY" horiz-adv-x="421" 
d="M-11 571v169h697v-169h-298v-69c0 -87 -31 -168 -138 -188c6 -55 61 -82 123 -82c85 0 126 52 126 114h187c2 -157 -114 -284 -321 -284c-194 0 -319 101 -319 283c0 23 2 45 5 69h8c114 0 128 60 128 126v31h-198z" />
    <glyph glyph-name="dvR" horiz-adv-x="528" 
d="M299 -291l-134 238h202l139 -238h-207zM-11 571v169h550v-169h-63v-26c0 -139 -44 -259 -224 -269v-77c0 -19 7 -35 27 -35c18 0 26 16 26 35v33h195c1 -12 1 -21 1 -26c0 -130 -79 -215 -218 -215c-153 0 -233 97 -233 218v229h98c103 0 124 46 124 107v26h-283z" />
    <glyph glyph-name="dvL" horiz-adv-x="622" 
d="M461 418c32 57 87 94 178 94c118 0 239 -72 239 -248l-207 -3c0 44 -23 72 -64 72c-49 0 -63 -42 -63 -77v-29h-168v29c0 35 -14 77 -63 77c-41 0 -64 -28 -64 -72c0 -54 34 -80 74 -80c5 0 16 1 26 2v-177c-16 -1 -28 -1 -35 -1c-175 0 -272 108 -272 259
c0 176 121 248 240 248c90 0 144 -37 176 -94h3zM-11 571v169h889v-169h-889z" />
    <glyph glyph-name="dvV" horiz-adv-x="337" 
d="M316 41c-180 0 -274 108 -274 243c0 130 94 233 274 233c188 0 281 -109 281 -238c0 -128 -94 -238 -281 -238zM321 201c48 0 81 33 81 79s-33 78 -81 78c-51 0 -83 -35 -83 -79s32 -78 83 -78zM-11 571v169h608v-169h-608z" />
    <glyph glyph-name="dvSH" horiz-adv-x="562" 
d="M309 -6c-158 0 -257 92 -257 240v203h135c77 0 160 14 160 93c0 23 -10 43 -35 43c-26 0 -37 -19 -37 -46v-27h-203c-1 11 -2 23 -2 34c0 125 92 215 242 215c143 0 242 -82 242 -232c0 -176 -131 -250 -289 -250h-7v-45c0 -26 8 -54 46 -54c28 0 42 21 42 48v17h198
c1 -11 1 -18 1 -20c0 -140 -92 -219 -236 -219z" />
    <glyph glyph-name="dvSS" horiz-adv-x="381" 
d="M347 291c45 0 73 20 87 49l-180 103v-48c0 -62 29 -104 93 -104zM-11 571v169h629v-169h-364v-1l364 -209c0 -118 -92 -241 -279 -241c-185 0 -282 124 -282 281v170h-68z" />
    <glyph glyph-name="dvS" horiz-adv-x="503" 
d="M-11 571v169h637v-169h-185v-51c0 -29 -3 -58 -11 -85h196v-166h-374v-68c0 -19 9 -37 32 -37c22 0 30 17 30 35v13h196c1 -11 1 -20 1 -25c0 -119 -82 -196 -223 -196c-156 0 -238 99 -238 220v202h63c104 0 124 46 124 107v51h-248z" />
    <glyph glyph-name="dvH" horiz-adv-x="584" 
d="M551 86c-8 -130 -111 -203 -247 -203c-151 0 -255 89 -255 238c0 76 31 133 81 170c-39 27 -58 66 -58 111c0 73 56 129 161 129h48v40h-292v169h606v-169h-120v-183h-167c-19 0 -34 -8 -34 -28c0 -6 2 -12 6 -17c10 1 19 1 29 1c154 0 231 -81 242 -200h-195
c-4 23 -24 40 -52 40c-25 0 -56 -19 -56 -66c0 -50 30 -68 56 -68c25 0 46 14 52 36h195zM337 -397l-134 238h202l139 -238h-207z" />
    <glyph glyph-name="dvLL" horiz-adv-x="938" 
d="M275 26c-126 0 -233 88 -233 237c0 146 106 236 233 236c65 0 138 -17 192 -100h4c53 83 127 100 192 100c127 0 233 -90 233 -236c0 -149 -107 -237 -233 -237c-78 0 -151 31 -191 101h-6c-40 -70 -113 -101 -191 -101zM306 199c36 0 64 25 64 64c0 37 -28 64 -64 64
c-39 0 -65 -27 -65 -65c0 -39 27 -63 65 -63zM632 199c38 0 65 24 65 63c0 38 -26 65 -65 65c-37 0 -64 -27 -64 -64c0 -39 27 -64 64 -64zM-11 571v169h960v-169h-960z" />
    <glyph glyph-name="dvK_SS" horiz-adv-x="578" 
d="M260 528c0 -32 26 -61 75 -59c20 15 33 33 33 56c0 24 -17 51 -55 51c-31 0 -53 -20 -53 -48zM361 -68v143c-27 -28 -71 -42 -120 -42c-111 0 -192 69 -192 177c0 93 57 143 123 179c-50 25 -94 73 -94 155c0 117 99 205 241 205c120 0 217 -59 217 -181
c0 -41 -13 -74 -33 -101h217v-146h-409c-33 -16 -52 -34 -52 -65c0 -32 25 -55 58 -55c43 0 62 37 62 67h168v-336h-186z" />
    <glyph glyph-name="dvJ_NY" horiz-adv-x="552" 
d="M-11 571v169h731v-169h-731zM244 326v162h476v-162h-218c25 -25 40 -60 40 -107c0 -107 -81 -169 -177 -169c-50 0 -94 14 -125 40v-108h-198v294h190c4 -33 26 -60 67 -60c40 0 58 25 58 53c0 42 -35 57 -61 57h-52z" />
    <glyph glyph-name="dvKx" horiz-adv-x="677" 
d="M384 0v100c-30 -36 -77 -57 -140 -57c-129 0 -202 101 -202 235c0 137 73 235 210 235c60 0 104 -19 132 -52v110h-395v169h915v-169h-324v-110c28 33 71 52 126 52c132 0 198 -107 198 -235h-207c0 31 -17 62 -58 62c-38 0 -59 -27 -59 -73v-267h-196zM217 -227
c-63 0 -113 50 -113 112c0 64 50 115 113 115c64 0 114 -51 114 -115c0 -62 -50 -112 -114 -112zM316 214c39 0 68 27 68 65c-1 37 -27 62 -67 62c-41 0 -68 -27 -68 -64c0 -36 25 -63 67 -63z" />
    <glyph glyph-name="dvKHx" horiz-adv-x="667" 
d="M-11 571v169h905v-169h-486v-77c0 -126 -59 -206 -152 -226c2 -56 36 -102 105 -102c46 0 72 16 87 35c-15 28 -23 61 -23 99c0 130 101 206 236 206c134 0 233 -76 233 -206c0 -135 -105 -208 -233 -208c-27 0 -52 3 -76 9c-48 -64 -125 -110 -229 -110
c-186 0 -302 108 -302 306v109h19c97 0 130 42 130 117v48h-214zM330 -275c-63 0 -113 50 -113 112c0 64 50 115 113 115c64 0 114 -51 114 -115c0 -62 -50 -112 -114 -112zM604 300c0 -35 22 -56 57 -56s56 21 56 56c0 34 -21 55 -56 55s-57 -21 -57 -55z" />
    <glyph glyph-name="dvGx" horiz-adv-x="588" 
d="M-11 571v169h610v-169h-103v-198c0 -136 -70 -238 -230 -238c-147 0 -238 74 -238 228c0 11 0 22 1 33h197v-32c0 -34 8 -56 34 -56c29 0 32 31 32 56v207h-303zM265 -135c-63 0 -113 50 -113 112c0 64 50 115 113 115c64 0 114 -51 114 -115c0 -62 -50 -112 -114 -112z
" />
    <glyph glyph-name="dvJx" horiz-adv-x="553" 
d="M290 80c-169 0 -253 99 -253 239v162h205v-156c0 -44 16 -67 48 -67c31 0 46 23 46 67v156h376v-173h-177c-5 -134 -97 -228 -245 -228zM-11 571v169h723v-169h-723zM289 -189c-63 0 -113 50 -113 112c0 64 50 115 113 115c64 0 114 -51 114 -115
c0 -62 -50 -112 -114 -112z" />
    <glyph glyph-name="dvPHx" horiz-adv-x="676" 
d="M332 307c50 0 74 38 74 83v181h-145v-181c0 -46 22 -83 71 -83zM-11 571v169h955v-169h-334v-109c31 32 77 51 136 51c131 0 198 -104 198 -235h-207c0 31 -16 62 -58 62c-44 0 -69 -33 -69 -95v-245h-204v179c-30 -27 -73 -43 -128 -43c-145 0 -221 112 -221 254v181
h-68zM206 -127c-63 0 -113 50 -113 112c0 64 50 115 113 115c64 0 114 -51 114 -115c0 -62 -50 -112 -114 -112z" />
    <glyph glyph-name="dvAnusvara" unicode="&#x902;" horiz-adv-x="0" 
d="M-170 799c-63 0 -113 51 -113 113c0 64 50 114 113 114c64 0 115 -50 115 -114c0 -62 -51 -113 -115 -113z" />
    <glyph glyph-name="dvCandrabindu" unicode="&#x901;" horiz-adv-x="0" 
d="M-178 807c-168 0 -262 80 -262 233h161c0 -52 38 -90 101 -90c62 0 99 38 99 90h163c0 -153 -94 -233 -262 -233zM-180 989c-39 0 -72 32 -72 73c0 40 33 73 72 73c43 0 74 -33 74 -73c0 -41 -31 -73 -74 -73z" />
    <glyph glyph-name="dvVisarga" unicode="&#x903;" horiz-adv-x="310" 
d="M155 340c-63 0 -114 51 -114 113c0 63 51 114 114 114s114 -51 114 -114c0 -62 -51 -113 -114 -113zM155 59c-63 0 -114 50 -114 112c0 64 51 114 114 114s114 -50 114 -114c0 -62 -51 -112 -114 -112z" />
    <glyph glyph-name="dvAvagraha" unicode="&#x93d;" horiz-adv-x="610" 
d="M45 37v170h237c22 0 34 6 34 23c0 58 -205 104 -205 285c0 102 73 157 180 157h243v-171h-191c-11 0 -24 -2 -24 -18c0 -56 205 -100 205 -284c0 -106 -83 -162 -188 -162h-291z" />
    <glyph glyph-name="dvVirama" unicode="&#x94d;" horiz-adv-x="0" 
d="M-132 -289l-134 238h202l139 -238h-207z" />
    <glyph glyph-name="dvNukta" unicode="&#x93c;" horiz-adv-x="0" 
d="M-235 -335c-63 0 -113 50 -113 112c0 64 50 115 113 115c64 0 114 -51 114 -115c0 -62 -50 -112 -114 -112z" />
    <glyph glyph-name="dvZero" unicode="&#x966;" horiz-adv-x="662" 
d="M32 376c0 219 88 371 300 371c211 0 300 -152 300 -371c0 -220 -89 -372 -300 -372c-212 0 -300 152 -300 372zM413 376c0 91 -9 161 -81 161c-73 0 -82 -70 -82 -161c0 -92 9 -162 82 -162c72 0 81 70 81 162z" />
    <glyph glyph-name="dvOne" unicode="&#x967;" horiz-adv-x="399" 
d="M116 0v523h-106v208h339v-731h-233z" />
    <glyph glyph-name="dvTwo" unicode="&#x968;" horiz-adv-x="566" 
d="M28 10v167c141 106 290 229 290 334c0 32 -15 50 -38 50c-24 0 -44 -24 -40 -83h-215c7 194 133 269 270 269c182 0 247 -103 247 -219c0 -145 -110 -266 -226 -339h229v-179h-517z" />
    <glyph glyph-name="dvThree" unicode="&#x969;" horiz-adv-x="615" 
d="M45 502c4 159 95 245 258 245c162 0 248 -90 248 -204c0 -104 -64 -149 -107 -163v-4c69 -26 120 -75 120 -167c0 -129 -93 -216 -247 -216c-164 0 -277 72 -280 256h216c-3 -47 12 -73 54 -73c24 0 42 19 42 49c0 36 -20 57 -81 57h-37v179h36c18 -1 68 -2 68 54
c0 36 -18 49 -37 49c-32 0 -37 -33 -37 -62h-216z" />
    <glyph glyph-name="dvFour" unicode="&#x96a;" horiz-adv-x="704" 
d="M365 0v110h-313v185l298 425h239v-418h72v-192h-72v-110h-224zM275 302h108v165z" />
    <glyph glyph-name="dvFive" unicode="&#x96b;" horiz-adv-x="660" 
d="M94 731h490v-195h-290v-84c25 23 67 37 118 37c142 0 208 -111 208 -236c0 -161 -96 -253 -253 -253c-176 0 -277 98 -274 234h216c0 -16 9 -44 47 -44c35 0 49 28 49 67c0 40 -20 59 -52 59c-30 0 -43 -17 -43 -33h-216v448z" />
    <glyph glyph-name="dvSix" unicode="&#x96c;" horiz-adv-x="633" 
d="M572 509h-207c-7 38 -20 58 -53 58c-54 0 -63 -61 -63 -158c24 36 71 60 129 60c124 0 211 -77 211 -230c0 -151 -99 -246 -258 -246c-226 0 -279 161 -279 367c0 269 80 384 274 384c171 0 239 -117 246 -235zM323 299c-35 0 -59 -20 -59 -57c0 -41 23 -59 59 -59
s59 18 59 59c0 37 -24 57 -59 57z" />
    <glyph glyph-name="dvSeven" unicode="&#x96d;" horiz-adv-x="512" 
d="M18 731h484v-163l-228 -568h-228l230 541h-258v190z" />
    <glyph glyph-name="dvEight" unicode="&#x96e;" horiz-adv-x="657" 
d="M149 402c-51 29 -85 78 -85 150c0 103 82 195 264 195s264 -92 264 -195c0 -72 -34 -121 -85 -150c67 -39 101 -97 101 -177c0 -157 -132 -236 -280 -236s-280 79 -280 236c0 80 34 138 101 177zM328 456c25 0 46 18 46 59c0 38 -20 61 -46 61s-46 -23 -46 -61
c0 -41 21 -59 46 -59zM328 307c-40 0 -65 -29 -65 -69c0 -38 23 -68 65 -68s65 30 65 68c0 40 -25 69 -65 69z" />
    <glyph glyph-name="dvNine" unicode="&#x96f;" horiz-adv-x="597" 
d="M47 228h207c7 -38 23 -58 56 -58c54 0 60 61 60 158c-24 -36 -71 -60 -129 -60c-122 0 -211 77 -211 233c0 151 101 246 258 246c226 0 281 -151 281 -358c0 -251 -65 -396 -264 -396c-166 0 -251 117 -258 235zM296 438c35 0 59 20 59 57c0 41 -23 59 -59 59
s-59 -18 -59 -59c0 -37 24 -57 59 -57z" />
    <glyph glyph-name="dvOm" unicode="&#x950;" horiz-adv-x="1082" 
d="M303 9c-151 0 -242 87 -242 215h190c0 -20 13 -41 40 -41s41 18 41 43c0 30 -21 51 -63 51h-49v171h49c31 0 58 13 58 45c0 23 -14 39 -36 39c-23 0 -37 -16 -37 -38h-188c0 124 88 211 229 211c134 0 216 -73 216 -186c0 -70 -36 -123 -96 -148v-4c1 0 2 -1 3 -1h55
c65 0 87 15 87 85c0 147 59 229 227 229c165 0 234 -89 234 -247v-112c0 -203 -107 -311 -281 -311c-34 0 -66 3 -104 10v168c25 -3 47 -6 66 -6c97 0 121 60 121 146v133c0 27 -9 47 -36 47c-29 0 -37 -25 -37 -59c0 -169 -49 -238 -231 -241v-3c0 -121 -90 -196 -216 -196
zM553 714c-168 0 -262 80 -262 233h161c0 -52 39 -89 101 -89s100 37 100 89h163c0 -153 -95 -233 -263 -233zM552 896c-39 0 -72 32 -72 73s33 74 72 74c42 0 73 -33 73 -74s-31 -73 -73 -73z" />
    <glyph glyph-name="dvAbbreviationsign" unicode="&#x970;" horiz-adv-x="465" 
d="M234 500c103 0 174 -71 174 -172c0 -100 -71 -171 -174 -171c-104 0 -177 71 -177 171c0 101 73 172 177 172zM234 381c-32 0 -56 -22 -56 -53s24 -52 56 -52c30 0 52 21 52 52s-22 53 -52 53z" />
    <glyph glyph-name="danda" unicode="&#x964;" horiz-adv-x="383" 
d="M343 740v-740h-202v740h202z" />
    <glyph glyph-name="doubledanda" unicode="&#x965;" horiz-adv-x="695" 
d="M343 740v-740h-202v740h202zM655 740v-740h-203v740h203z" />
    <glyph glyph-name="rupee" unicode="&#x20a8;" horiz-adv-x="1229" 
d="M424 462c0 36 -22 60 -64 60h-88v-120h88c42 0 64 18 64 60zM50 708h330c178 0 269 -102 269 -232c0 -93 -52 -172 -153 -205l154 -271h-244l-134 254v-254h-222v708zM674 393c0 96 83 178 243 178c172 0 262 -88 285 -202h-217c-8 29 -39 38 -71 38
c-26 0 -44 -6 -44 -22c0 -61 338 -9 338 -212c0 -100 -83 -180 -236 -180c-165 0 -270 71 -292 202h217c4 -31 39 -39 72 -39c30 0 39 9 39 22c0 67 -334 4 -334 215z" />
    <glyph glyph-name="indianrupee" unicode="&#x20b9;" horiz-adv-x="577" 
d="M30 563v145h517v-145h-58v-33h58v-124h-63c-20 -99 -96 -183 -247 -183v-19c0 -29 7 -49 34 -49c26 0 33 16 33 56h205c-8 -129 -79 -221 -228 -221c-157 0 -251 72 -251 252v123c175 0 230 3 246 41h-246v124h252v33h-252z" />
    <glyph glyph-name="zerowidthnonjoiner" unicode="&#x200c;" horiz-adv-x="0" 
d="M24 -230h-47v1041h47v-1041z" />
    <glyph glyph-name="zerowidthjoiner" unicode="&#x200d;" horiz-adv-x="0" 
d="M128 593l-33 -33l-72 75v-865h-47v865l-69 -73l-33 33l93 93l-95 95l33 33l95 -95l96 95l32 -32l-96 -96z" />
    <glyph glyph-name="dottedcircle" unicode="&#x25cc;" horiz-adv-x="651" 
d="M557 409c0 -25 -18 -42 -43 -42s-43 17 -43 42s18 42 43 42s43 -17 43 -42zM181 123c0 -25 -18 -42 -43 -42s-43 17 -43 42s18 42 43 42s43 -17 43 -42zM279 47c0 -25 -18 -42 -43 -42s-43 17 -43 42s18 42 43 42s43 -17 43 -42zM136 236c0 -25 -18 -42 -43 -42
s-43 17 -43 42s18 42 43 42s43 -17 43 -42zM403 33c0 -25 -18 -42 -43 -42s-43 17 -43 42s18 42 43 42s43 -17 43 -42zM151 357c0 -25 -18 -42 -43 -42s-43 17 -43 42s18 42 43 42s43 -17 43 -42zM518 79c0 -25 -18 -42 -43 -42s-43 17 -43 42s18 42 43 42s43 -17 43 -42z
M227 456c0 -25 -18 -42 -43 -42s-43 17 -43 42s18 42 43 42s43 -17 43 -42zM591 175c0 -25 -18 -42 -43 -42s-43 17 -43 42s18 42 43 42s43 -17 43 -42zM344 498c0 -25 -18 -42 -43 -42s-43 17 -43 42s18 42 43 42s43 -17 43 -42zM601 295c0 -25 -18 -42 -43 -42
s-43 17 -43 42s18 42 43 42s43 -17 43 -42zM465 483c0 -25 -18 -42 -43 -42s-43 17 -43 42s18 42 43 42s43 -17 43 -42z" />
    <glyph glyph-name="dvReph" horiz-adv-x="0" 
d="M-254 709v89c0 103 41 232 219 232c146 0 222 -87 214 -228h-178c3 41 -10 60 -32 60c-27 0 -35 -20 -35 -61v-92h-188z" />
    <glyph glyph-name="dvEyelash" horiz-adv-x="391" 
d="M490 319c-50 -36 -125 -61 -202 -61c-131 0 -252 61 -259 230h194c5 -62 45 -85 94 -85c42 0 70 12 93 25zM-11 571v169h502v-169h-502z" />
    <glyph glyph-name="dvRashtrasign" horiz-adv-x="0" 
d="M-626 -97l133 179h271l134 -179h-205l-65 98l-64 -98h-204z" />
    <glyph glyph-name="dvK_RA" horiz-adv-x="946" 
d="M384 0v111l-113 -157h-218l104 126c-71 33 -115 107 -115 198c0 137 73 235 210 235c60 0 104 -19 132 -52v110h-395v169h968v-169h-377v-110c28 33 71 52 126 52c132 0 198 -107 198 -230c0 -144 -86 -227 -205 -227c-24 0 -44 2 -71 9v158c3 -1 9 -2 15 -2
c32 0 54 22 54 57c0 31 -17 62 -58 62c-38 0 -56 -30 -59 -73v-267h-196zM316 214c39 0 68 27 68 65c-1 37 -27 62 -67 62c-41 0 -68 -27 -68 -64c0 -36 25 -63 67 -63z" />
    <glyph glyph-name="dvKH_RA" horiz-adv-x="977" 
d="M709 0v125c-22 -19 -54 -30 -97 -30c-11 0 -21 1 -31 2l-163 -227h-217v10l99 124c-153 20 -246 121 -246 293v109h19c97 0 130 42 130 117v48h-214v169h999v-169h-76v-571h-203zM658 249c30 0 51 21 51 54c-1 28 -17 53 -51 53c-31 0 -54 -19 -54 -53
c0 -36 23 -54 54 -54zM361 166c44 0 70 15 85 32c-15 31 -23 67 -23 105c0 116 76 206 189 206c43 0 74 -12 97 -32v94h-301v-77c0 -126 -59 -206 -152 -226c2 -56 36 -102 105 -102z" />
    <glyph glyph-name="dvG_RA" horiz-adv-x="858" 
d="M594 0v141l-160 -161h-234l389 366v225h-93v-120c0 -135 -70 -238 -230 -238c-147 0 -238 74 -238 228c0 11 0 22 1 33h197v-32c0 -34 8 -55 34 -55c29 0 32 30 32 55v129h-303v169h880v-169h-76v-571h-199z" />
    <glyph glyph-name="dvGH_RA" horiz-adv-x="691" 
d="M317 252c59 0 105 38 105 102v217h-154v-14c0 -34 14 -63 60 -63h35v-163h-51c-33 0 -50 -16 -50 -40c0 -26 23 -39 55 -39zM-11 571v169h713v-169h-75v-571h-205v137l-132 -183h-218l125 151c-81 19 -142 74 -142 164c0 73 45 121 91 139v4c-47 16 -82 55 -82 130v29
h-75z" />
    <glyph glyph-name="dvNG_RA" horiz-adv-x="728" 
d="M622 253c-56 0 -101 45 -101 100c0 57 45 102 101 102c57 0 102 -45 102 -102c0 -55 -45 -100 -102 -100zM-11 571v169h750v-169h-262v-187h-190c-18 0 -31 -8 -31 -22c0 -16 12 -23 30 -23h44c104 0 208 -45 208 -179c0 -65 -28 -116 -80 -148l110 -146h-205l-64 98
l-65 -98h-204l109 147c-58 31 -97 83 -101 156h203c3 -34 36 -41 56 -41c27 0 48 11 48 34c0 20 -14 35 -53 35h-32c-71 0 -208 19 -208 172c0 104 79 157 184 157h45v45h-292z" />
    <glyph glyph-name="dvC_RA" horiz-adv-x="765" 
d="M-11 571v169h787v-169h-77v-571h-204v140c-2 -1 -4 -3 -6 -5l-129 -181h-218l114 138c-74 23 -124 80 -124 163c0 35 10 65 29 89h-110v159h374v-159h-46c-28 0 -56 -16 -56 -51c0 -36 31 -54 73 -53c68 2 99 53 99 139v192h-506z" />
    <glyph glyph-name="dvCH_RA" horiz-adv-x="828" 
d="M-11 571v169h850v-169h-168v-57c74 -31 117 -102 117 -199c0 -132 -72 -232 -211 -275l101 -135h-205l-64 98l-65 -98h-204l97 131c-112 30 -183 96 -183 203c0 72 33 120 91 148v4c-46 15 -81 54 -81 130v50h-75zM406 189c140 0 204 43 204 136c0 29 -9 58 -34 58
s-36 -24 -36 -56c0 -22 4 -46 10 -67h-166c-6 19 -12 51 -12 90c0 88 45 142 111 166v55h-215v-41c0 -33 11 -58 47 -58h19v-162h-15c-38 0 -58 -23 -58 -51c0 -40 31 -70 145 -70z" />
    <glyph glyph-name="dvJ_RA" horiz-adv-x="872" 
d="M-11 571v169h894v-169h-76v-571h-190v106l-137 -164h-222l354 374v8h-92c-23 -105 -102 -175 -230 -175c-169 0 -253 99 -253 239v100h205v-94c0 -44 15 -67 47 -67c31 0 47 23 47 67v94h276v83h-623z" />
    <glyph glyph-name="dvJH_RA" horiz-adv-x="979" 
d="M282 339h432v232h-242v-187h-191c-18 0 -30 -8 -30 -23c0 -14 10 -22 31 -22zM914 0h-172l-110 -119h-203l291 298v8h-200c4 -17 6 -35 6 -55c0 -89 -60 -152 -159 -152c-44 0 -81 12 -102 25v-94h-192v257h183c0 -28 19 -40 44 -40s39 13 39 33c0 21 -14 36 -54 36
c-21 0 -41 0 -69 2c-76 5 -170 48 -170 164c0 112 79 165 184 165h45v43h-286v169h1001v-169h-76v-571z" />
    <glyph glyph-name="dvNY_RA" horiz-adv-x="851" 
d="M-11 571v169h914v-169h-77v-571h-180l-75 -96h-205l262 296v16h-110c-24 -113 -117 -174 -234 -174c-130 0 -236 72 -242 209h192c9 -31 35 -38 52 -38c36 0 56 29 56 67c0 36 -20 65 -56 65c-17 0 -43 -7 -52 -37h-192c6 137 112 210 242 210c101 0 184 -46 221 -131
h117v184h-633z" />
    <glyph glyph-name="dvTT_RA" horiz-adv-x="643" 
d="M-11 571v169h665v-169h-148v-222h-160c-54 0 -100 -30 -100 -86c0 -48 33 -82 90 -82c59 0 94 36 94 89h194c0 -101 -43 -179 -117 -224l103 -138h-205l-64 97v0h-1l-64 -97h-204l101 135c-82 44 -131 122 -131 222c0 140 95 243 264 253v53h-317z" />
    <glyph glyph-name="dvTTH_RA" horiz-adv-x="672" 
d="M334 188c58 0 90 37 90 88s-32 87 -90 87c-56 0 -89 -36 -89 -87s33 -88 89 -88zM403 -97l-64 98l-65 -98h-204l111 149c-84 40 -139 117 -139 224c0 135 85 214 190 244v51h-243v169h690v-169h-246v-50c107 -29 194 -108 194 -245c0 -104 -52 -180 -133 -221l114 -152
h-205z" />
    <glyph glyph-name="dvDD_RA" horiz-adv-x="560" 
d="M-11 571v169h582v-169h-94v-187h-190c-18 0 -31 -8 -31 -22c0 -16 12 -23 30 -23h44c104 0 208 -45 208 -179c0 -66 -29 -117 -82 -149l109 -145h-205l-64 98l-65 -98h-204l110 148c-57 32 -95 83 -99 155h203c3 -34 36 -41 56 -41c27 0 48 11 48 34c0 20 -14 35 -53 35
h-32c-71 0 -208 19 -208 172c0 104 79 157 184 157h44v45h-291z" />
    <glyph glyph-name="dvDDH_RA" horiz-adv-x="664" 
d="M-11 571v169h686v-169h-148v-179h-130c-89 0 -158 -48 -158 -136c0 -70 37 -130 142 -130c58 0 104 18 104 63c0 17 -10 28 -26 28s-25 -12 -25 -24c0 -5 1 -10 3 -14h-143c-3 15 -5 31 -5 43c0 90 72 138 179 138c122 0 190 -69 190 -171c0 -92 -47 -156 -137 -187
l98 -131h-205l-64 98l-65 -98h-204l111 149c-91 45 -150 128 -150 245c0 167 122 265 288 265h6v41h-347z" />
    <glyph glyph-name="dvNN_RA" horiz-adv-x="916" 
d="M316 380c27 0 40 18 40 44v147h-82v-147c0 -26 17 -44 42 -44zM-11 571v169h938v-169h-77v-571h-191v139l-167 -194h-230l389 416v210h-95v-128c0 -133 -78 -234 -240 -234c-165 0 -241 106 -241 234v128h-86z" />
    <glyph glyph-name="dvT_RA" horiz-adv-x="720" 
d="M-11 571v169h742v-169h-76v-571h-197v126l-131 -125h-267v8l374 318c-20 14 -48 23 -76 23c-62 0 -109 -35 -109 -104h-204c-4 155 91 264 259 264c61 0 113 -17 151 -44v105h-466z" />
    <glyph glyph-name="dvTH_RA" horiz-adv-x="812" 
d="M542 0v165c-7 -10 -16 -20 -26 -29v0l-211 -201h-251v11l173 147c-114 35 -187 131 -187 271c0 27 1 55 6 84h80c106 0 172 23 172 91c0 21 -12 37 -30 37c-19 0 -33 -13 -33 -40c0 -12 2 -21 4 -30h-183c-2 13 -4 26 -4 35c0 142 104 208 218 208
c128 0 219 -81 219 -216c0 -118 -72 -218 -248 -228c11 -29 43 -65 122 -65c99 0 179 65 179 204v296h281v-169h-77v-571h-204z" />
    <glyph glyph-name="dvD_RA" horiz-adv-x="612" 
d="M-11 571v169h634v-169h-94v-235h-198c-52 0 -80 -29 -80 -70c0 -38 23 -62 60 -62c39 0 58 28 58 63h189v-311h-199v124l-119 -164h-217l131 158c-64 30 -112 93 -112 197c0 152 110 239 267 239h15v61h-335z" />
    <glyph glyph-name="dvDH_RA" horiz-adv-x="744" 
d="M489 0v136l-152 -211h-218l123 148c-102 15 -181 74 -181 178c0 86 63 129 111 143v4c-60 20 -120 73 -120 168c0 116 86 183 197 183c123 0 189 -74 189 -176c0 -14 -1 -35 -2 -45h-149c1 10 1 13 1 18c0 22 -14 33 -31 33c-20 0 -33 -14 -33 -36c0 -53 66 -62 109 -62
h62v-163h-52c-42 0 -75 -10 -75 -44c0 -28 27 -43 77 -43c91 0 144 61 144 154v355h276v-169h-72v-571h-204z" />
    <glyph glyph-name="dvN_RA" horiz-adv-x="896" 
d="M282 210c33 0 56 23 56 56c0 32 -23 56 -56 56c-34 0 -58 -24 -58 -56c0 -33 24 -56 58 -56zM-11 571v169h918v-169h-76v-571h-183v55l-118 -153h-220l326 357v63h-153c10 -23 16 -51 16 -85c0 -118 -97 -198 -220 -198c-121 0 -238 79 -238 226c0 156 120 226 255 226
h340v80h-647z" />
    <glyph glyph-name="dvP_RA" horiz-adv-x="691" 
d="M340 307c56 0 82 42 82 93v171h-161v-170c0 -52 24 -94 79 -94zM-11 571v169h713v-169h-76v-571h-204v183l-153 -218h-218l156 193c-99 32 -150 128 -150 243v170h-68z" />
    <glyph glyph-name="dvPH_RA" horiz-adv-x="984" 
d="M332 307c50 0 74 38 74 83v181h-145v-181c0 -46 22 -83 71 -83zM-11 571v169h1006v-169h-385v-109c31 32 77 51 136 51c130 0 198 -104 198 -225c0 -147 -85 -232 -205 -232c-26 0 -52 3 -79 12v155c8 -2 16 -3 23 -3c36 0 54 27 54 58s-17 62 -58 62
c-44 0 -69 -33 -69 -95v-245h-204v176l-138 -211h-218l147 194c-92 33 -140 123 -140 231v181h-68z" />
    <glyph glyph-name="dvB_RA" horiz-adv-x="686" 
d="M426 0v86l-111 -154h-212l106 128c-100 29 -167 115 -167 228c0 138 102 236 244 236c53 0 101 -11 140 -35v82h-437v169h708v-169h-75v-571h-196zM330 395c-23 0 -43 -6 -61 -17l167 -113c1 7 2 15 2 23c0 62 -45 107 -108 107zM330 182c23 0 43 6 60 16l-168 114
c-2 -8 -3 -16 -3 -24c0 -65 51 -106 111 -106z" />
    <glyph glyph-name="dvBH_RA" horiz-adv-x="890" 
d="M280 225c40 0 54 27 54 60v32h-45c-34 0 -60 -17 -60 -48c0 -28 22 -44 51 -44zM283 59c-143 0 -241 82 -241 209c0 147 113 211 246 211h46v55c0 25 -10 43 -37 43c-23 0 -34 -18 -34 -38c0 -9 1 -16 3 -26h-198c-2 11 -4 25 -4 37c0 110 72 199 228 199
c172 0 225 -116 225 -253v-17h132v261h272v-169h-78v-571h-183v69l-167 -168h-220l376 346v70h-132v-21c0 -137 -81 -237 -234 -237z" />
    <glyph glyph-name="dvM_RA" horiz-adv-x="879" 
d="M272 225c41 0 55 28 55 61v32h-46c-34 0 -59 -17 -59 -48c0 -28 21 -45 50 -45zM619 480v91h-109v-91h109zM-11 571v169h901v-169h-77v-571h-183v69l-167 -168h-220l376 346v71h-109v-22c0 -137 -81 -237 -235 -237c-143 0 -240 83 -240 210c0 147 113 211 245 211h47v91
h-338z" />
    <glyph glyph-name="dvY_RA" horiz-adv-x="769" 
d="M366 232c90 0 133 63 133 143v196h-111v-69c0 -87 -31 -168 -138 -188c5 -44 45 -82 116 -82zM-11 571v169h791v-169h-77v-571h-204v122l-195 -186h-247v11l161 136c-111 35 -172 130 -172 262c0 23 2 45 5 69h8c114 0 128 60 128 126v31h-198z" />
    <glyph glyph-name="dvL_RA" horiz-adv-x="920" 
d="M606 5c-7 0 -19 0 -35 1v177c9 -1 21 -2 26 -2c40 0 74 26 74 80c0 44 -23 72 -64 72c-49 0 -63 -42 -63 -77v-29h-168v29c0 35 -14 77 -63 77c-41 0 -64 -28 -64 -72c0 -54 34 -80 74 -80c5 0 16 1 26 2v-177c-16 -1 -28 -1 -35 -1c-175 0 -272 108 -272 259
c0 176 121 248 240 248c90 0 144 -37 176 -94h3c23 41 58 72 110 86v67h-582v169h942v-169h-160v-94c62 -37 107 -106 107 -213c0 -151 -97 -259 -272 -259zM438 -214l133 179h271l134 -179h-205l-64 98l-65 -98h-204z" />
    <glyph glyph-name="dvV_RA" horiz-adv-x="662" 
d="M321 203c46 0 77 33 77 77s-31 75 -77 75c-49 0 -79 -34 -79 -76s30 -76 79 -76zM673 571h-76v-571h-199v103l-112 -149h-217l99 118c-82 34 -126 116 -126 212c0 130 77 233 221 233c55 0 102 -18 135 -52v106h-409v169h684v-169z" />
    <glyph glyph-name="dvSH_RA" horiz-adv-x="896" 
d="M332 454l1 -1c24 19 45 43 45 74c0 28 -18 53 -50 54c-32 0 -53 -23 -53 -51c0 -35 26 -61 57 -76zM631 0v131l-42 21l-170 -167h-239v18l253 224l-82 40l-117 -94h-231v24l196 152c-70 50 -113 110 -113 191c0 124 89 209 236 209c149 0 240 -81 240 -200
c0 -66 -18 -113 -75 -169l144 -70v430h276v-169h-76v-571h-200z" />
    <glyph glyph-name="dvSS_RA" horiz-adv-x="710" 
d="M444 460v111h-190v-1zM343 291c44 0 74 20 89 50l-178 100v-46c0 -57 28 -104 89 -104zM-11 571v169h732v-169h-77v-571h-200v173l-175 -208h-218l167 174c-106 35 -161 138 -161 262v170h-68z" />
    <glyph glyph-name="dvS_RA" horiz-adv-x="941" 
d="M441 520c0 -29 -3 -58 -11 -85h251v136h-240v-51zM-11 571v169h963v-169h-77v-571h-175v92l-122 -161h-192l295 348h-438v-79c0 -18 8 -36 30 -36s30 17 30 34v14h176c1 -12 1 -20 1 -25c0 -119 -74 -196 -203 -196c-148 0 -227 98 -227 219v203h63c104 0 124 46 124 107
v51h-248z" />
    <glyph glyph-name="dvH_RA" horiz-adv-x="584" 
d="M551 42c-8 -123 -111 -193 -247 -193c-151 0 -255 96 -255 253c0 84 32 147 85 187c-42 27 -62 66 -62 113c0 73 56 129 161 129h48v40h-292v169h606v-169h-120v-183h-167c-19 0 -34 -8 -34 -28c0 -6 2 -13 7 -18c9 1 19 1 28 1c127 0 229 -70 240 -173l-63 -80h-177
l63 79c-10 10 -27 22 -56 22c-46 0 -77 -35 -77 -97c0 -59 38 -87 76 -87c29 0 50 16 58 35h178z" />
    <glyph glyph-name="dvLL_RA" horiz-adv-x="938" 
d="M306 199c36 0 64 25 64 64c0 37 -28 64 -64 64c-39 0 -65 -27 -65 -65c0 -39 27 -63 65 -63zM632 199c38 0 65 24 65 63c0 38 -26 65 -65 65c-37 0 -64 -27 -64 -64c0 -39 27 -64 64 -64zM734 -84l-64 98l-65 -98h-204l117 157c-18 14 -34 32 -46 54h-6
c-40 -70 -113 -101 -191 -101c-126 0 -233 88 -233 237c0 146 106 236 233 236c65 0 138 -17 192 -100h4c33 52 75 78 117 90v82h-599v169h960v-169h-164v-104c66 -38 111 -109 111 -204c0 -80 -31 -143 -79 -183l122 -164h-205z" />
    <glyph glyph-name="dvKx_RA" horiz-adv-x="1043" 
d="M481 0v111l-113 -157h-218l104 126c-71 33 -115 107 -115 198c0 137 73 235 210 235c60 0 104 -19 132 -52v110h-492v169h1065v-169h-378v-110c28 33 71 52 126 52c133 0 199 -107 199 -230c0 -144 -86 -227 -205 -227c-24 0 -44 2 -72 9v158c4 -1 10 -2 16 -2
c31 0 54 22 54 57c0 31 -17 62 -58 62c-38 0 -56 -30 -60 -73v-267h-195zM68 -25c-52 0 -93 41 -93 92c0 52 41 94 93 94c53 0 94 -42 94 -94c0 -51 -41 -92 -94 -92zM413 214c39 0 68 27 68 65c-1 37 -27 62 -67 62c-42 0 -68 -27 -68 -64c0 -36 24 -63 67 -63z" />
    <glyph glyph-name="dvKHx_RA" horiz-adv-x="977" 
d="M709 0v125c-22 -19 -54 -30 -97 -30c-11 0 -21 1 -31 2l-163 -227h-217v10l99 124c-153 20 -246 121 -246 293v109h19c97 0 130 42 130 117v48h-214v169h999v-169h-76v-571h-203zM77 -157c-52 0 -93 41 -93 92c0 52 41 94 93 94c53 0 94 -42 94 -94
c0 -51 -41 -92 -94 -92zM658 249c30 0 51 21 51 54c-1 28 -17 53 -51 53c-31 0 -54 -19 -54 -53c0 -36 23 -54 54 -54zM361 166c44 0 70 15 85 32c-15 31 -23 67 -23 105c0 116 76 206 189 206c43 0 74 -12 97 -32v94h-301v-77c0 -126 -59 -206 -152 -226
c2 -56 36 -102 105 -102z" />
    <glyph glyph-name="dvGx_RA" horiz-adv-x="858" 
d="M594 0v141l-160 -161h-234l389 366v225h-93v-120c0 -135 -70 -238 -230 -238c-147 0 -238 74 -238 228c0 11 0 22 1 33h197v-32c0 -34 8 -55 34 -55c29 0 32 30 32 55v129h-303v169h880v-169h-76v-571h-199zM101 -1c-52 0 -93 41 -93 92c0 52 41 94 93 94
c53 0 94 -42 94 -94c0 -51 -41 -92 -94 -92z" />
    <glyph glyph-name="dvJx_RA" horiz-adv-x="872" 
d="M-11 571v169h894v-169h-76v-571h-190v106l-137 -164h-222l354 374v8h-92c-23 -105 -102 -175 -230 -175c-169 0 -253 99 -253 239v100h205v-94c0 -44 15 -67 47 -67c31 0 47 23 47 67v94h276v83h-623zM141 -56c-52 0 -93 41 -93 92c0 52 41 94 93 94c53 0 94 -42 94 -94
c0 -51 -41 -92 -94 -92z" />
    <glyph glyph-name="dvPHx_RA" horiz-adv-x="1082" 
d="M429 307c51 0 74 38 74 83v181h-144v-181c0 -46 22 -83 70 -83zM-11 571v169h1104v-169h-385v-109c30 32 77 51 135 51c131 0 199 -104 199 -225c0 -147 -85 -232 -205 -232c-26 0 -52 3 -80 12v155c9 -2 16 -3 24 -3c36 0 54 27 54 58s-17 62 -58 62
c-44 0 -69 -33 -69 -95v-245h-205v176l-137 -211h-218l147 194c-92 33 -141 123 -141 231v181h-165zM91 32c-52 0 -93 41 -93 92c0 52 41 94 93 94c53 0 94 -42 94 -94c0 -51 -41 -92 -94 -92z" />
    <glyph glyph-name="dvK_R" horiz-adv-x="677" 
d="M384 0v111l-113 -157h-218l104 126c-71 33 -115 107 -115 198c0 137 73 235 210 235c60 0 104 -19 132 -52v110h-395v169h915v-169h-324v-110c28 33 71 52 126 52c132 0 198 -107 198 -235h-207c0 31 -17 62 -58 62c-38 0 -56 -30 -59 -73v-267h-196zM316 214
c39 0 68 27 68 65c-1 37 -27 62 -67 62c-41 0 -68 -27 -68 -64c0 -36 25 -63 67 -63z" />
    <glyph glyph-name="dvKH_R" horiz-adv-x="667" 
d="M-11 571v169h905v-169h-486v-77c0 -126 -59 -206 -152 -226c2 -56 36 -102 105 -102c46 0 72 16 87 35c-15 28 -23 61 -23 99c0 130 101 206 236 206c134 0 233 -76 233 -206c0 -135 -105 -208 -233 -208c-27 0 -53 3 -77 10l-166 -232h-217v10l99 124
c-153 20 -246 121 -246 293v109h19c97 0 130 42 130 117v48h-214zM661 244c35 0 56 21 56 56c0 34 -21 55 -56 55s-57 -21 -57 -55c0 -35 22 -56 57 -56z" />
    <glyph glyph-name="dvG_R" horiz-adv-x="588" 
d="M633 180l-199 -200h-234l433 407v-207zM-11 571v169h644v-169h-137v-120c0 -135 -70 -238 -230 -238c-147 0 -238 74 -238 228c0 11 0 22 1 33h197v-32c0 -34 8 -55 34 -55c29 0 32 30 32 55v129h-303z" />
    <glyph glyph-name="dvGH_R" horiz-adv-x="360" 
d="M-11 571v169h606v-169h-327v-19c0 -34 14 -58 60 -58h35v-163h-51c-33 0 -50 -16 -50 -40c0 -26 23 -39 55 -39c78 0 105 47 105 102h173c0 -59 -17 -116 -49 -161v0l-173 -239h-217l112 135c-134 11 -213 72 -213 180c0 73 45 121 91 139v4c-47 16 -82 55 -82 130v29
h-75z" />
    <glyph glyph-name="dvNG_R" horiz-adv-x="728" 
d="M622 253c-56 0 -101 45 -101 100c0 57 45 102 101 102c57 0 102 -45 102 -102c0 -55 -45 -100 -102 -100zM331 -411l-134 238h202l139 -238h-207zM-11 571v169h750v-169h-262v-187h-190c-18 0 -31 -8 -31 -22c0 -16 12 -23 30 -23h44c104 0 208 -45 208 -179
c0 -65 -28 -116 -80 -148l110 -146h-205l-64 98l-65 -98h-204l109 147c-58 31 -97 83 -101 156h203c3 -34 36 -41 56 -41c27 0 48 11 48 34c0 20 -14 35 -53 35h-32c-71 0 -208 19 -208 172c0 104 79 157 184 157h45v45h-292z" />
    <glyph glyph-name="dvC_R" horiz-adv-x="434" 
d="M-11 571v169h683v-169h-683zM51 344v159h374v-159h-46c-28 0 -56 -16 -56 -51c0 -36 31 -54 73 -53c68 2 99 53 99 139h177c0 -78 -17 -144 -50 -194v0v-1c-4 -5 -7 -9 -11 -14l-155 -216h-218l97 118c-122 10 -203 70 -203 183c0 35 10 65 29 89h-110z" />
    <glyph glyph-name="dvCH_R" horiz-adv-x="828" 
d="M-11 571v169h850v-169h-571v-41c0 -33 11 -58 47 -58h19v-162h-15c-38 0 -58 -23 -58 -51c0 -40 31 -70 145 -70c140 0 204 43 204 136c0 29 -9 58 -34 58s-36 -24 -36 -56c0 -22 4 -46 10 -67h-166c-6 19 -12 51 -12 90c0 125 91 182 206 182c130 0 210 -85 210 -217
s-72 -232 -211 -275l101 -135h-205l-64 98l-65 -98h-204l97 131c-112 30 -183 96 -183 203c0 72 33 120 91 148v4c-46 15 -81 54 -81 130v50h-75z" />
    <glyph glyph-name="dvJ_R" horiz-adv-x="553" 
d="M-11 571v169h723v-169h-723zM480 -58h-222l353 372h-94c-25 -100 -103 -165 -227 -165c-169 0 -253 99 -253 239v100h205v-94c0 -44 15 -67 47 -67c31 0 47 23 47 67v94h376v-269z" />
    <glyph glyph-name="dvJH_R" horiz-adv-x="555" 
d="M-11 571v169h785v-169h-302v-187h-191c-18 0 -30 -8 -30 -23c0 -14 10 -22 31 -22h492v-300l-142 -158h-203l299 306h-208c4 -17 6 -35 6 -55c0 -89 -60 -152 -159 -152c-44 0 -81 12 -102 25v-94h-192v257h183c0 -28 19 -40 44 -40s39 13 39 33c0 21 -14 36 -54 36
c-21 0 -41 0 -69 2c-76 5 -170 48 -170 164c0 112 79 165 184 165h45v43h-286z" />
    <glyph glyph-name="dvNY_R" horiz-adv-x="527" 
d="M284 42c-130 0 -236 72 -242 209h192c9 -31 35 -38 52 -38c36 0 56 29 56 67c0 36 -20 65 -56 65c-17 0 -43 -7 -52 -37h-192c6 137 112 210 242 210c101 0 184 -46 221 -131h215v-292l-149 -191h-205l275 312h-123c-24 -113 -117 -174 -234 -174zM-11 571v169h731v-169
h-731z" />
    <glyph glyph-name="dvTT_R" horiz-adv-x="643" 
d="M380 -368l-134 238h202l139 -238h-207zM-11 571v169h665v-169h-148v-222h-160c-54 0 -100 -30 -100 -86c0 -48 33 -82 90 -82c59 0 94 36 94 89h194c0 -101 -43 -179 -117 -224l103 -138h-205l-64 97v0h-1l-64 -97h-204l101 135c-82 44 -131 122 -131 222
c0 140 95 243 264 253v53h-317z" />
    <glyph glyph-name="dvTTH_R" horiz-adv-x="672" 
d="M334 188c58 0 90 37 90 88s-32 87 -90 87c-56 0 -89 -36 -89 -87s33 -88 89 -88zM403 -97l-64 98l-65 -98h-204l111 149c-84 40 -139 117 -139 224c0 135 85 214 190 244v51h-243v169h690v-169h-246v-50c107 -29 194 -108 194 -245c0 -104 -52 -180 -133 -221l114 -152
h-205zM375 -374l-134 238h202l139 -238h-207z" />
    <glyph glyph-name="dvDD_R" horiz-adv-x="560" 
d="M330 -411l-134 238h202l139 -238h-207zM-11 571v169h582v-169h-94v-187h-190c-18 0 -31 -8 -31 -22c0 -16 12 -23 30 -23h44c104 0 208 -45 208 -179c0 -66 -29 -117 -82 -149l109 -145h-205l-64 98l-65 -98h-204l110 148c-57 32 -95 83 -99 155h203c3 -34 36 -41 56 -41
c27 0 48 11 48 34c0 20 -14 35 -53 35h-32c-71 0 -208 19 -208 172c0 104 79 157 184 157h44v45h-291z" />
    <glyph glyph-name="dvDDH_R" horiz-adv-x="664" 
d="M388 -406l-134 238h202l139 -238h-207zM-11 571v169h686v-169h-148v-179h-130c-89 0 -158 -48 -158 -136c0 -70 37 -130 142 -130c58 0 104 18 104 63c0 17 -10 28 -26 28s-25 -12 -25 -24c0 -5 1 -10 3 -14h-143c-3 15 -5 31 -5 43c0 90 72 138 179 138
c122 0 190 -69 190 -171c0 -92 -47 -156 -137 -187l98 -131h-205l-64 98l-65 -98h-204l111 149c-91 45 -150 128 -150 245c0 167 122 265 288 265h6v41h-347z" />
    <glyph glyph-name="dvNN_R" horiz-adv-x="597" 
d="M262 -55l425 453v-226l-195 -227h-230zM-11 571v169h698v-169h-131v-128c0 -133 -78 -234 -240 -234c-165 0 -241 106 -241 234v128h-86zM316 380c27 0 40 18 40 44v147h-82v-147c0 -26 17 -44 42 -44z" />
    <glyph glyph-name="dvT_R" horiz-adv-x="403" 
d="M45 246c0 144 105 266 300 266c133 0 259 -70 299 -207l-317 -304h-267v8l374 318c-20 14 -47 23 -76 23c-62 0 -109 -35 -109 -104h-204zM-11 571v169h655v-169h-655z" />
    <glyph glyph-name="dvTH_R" horiz-adv-x="477" 
d="M373 -82h-252v11l174 147c-157 23 -255 123 -255 288c0 27 1 55 6 84h80c106 0 172 23 172 91c0 21 -12 37 -30 37c-19 0 -33 -13 -33 -40c0 -12 2 -21 4 -30h-183c-2 13 -4 26 -4 35c0 142 104 208 218 208c128 0 219 -81 219 -216c0 -118 -72 -218 -248 -228
c11 -29 43 -65 122 -65c100 0 179 41 179 127h174c0 -87 -33 -155 -86 -204z" />
    <glyph glyph-name="dvD_R" horiz-adv-x="612" 
d="M492 -325l-134 238h202l139 -238h-207zM-11 571v169h634v-169h-94v-235h-198c-52 0 -80 -29 -80 -70c0 -38 23 -62 60 -62c39 0 58 28 58 63h189v-311h-199v124l-119 -164h-217l131 158c-64 30 -112 93 -112 197c0 152 110 239 267 239h15v61h-335z" />
    <glyph glyph-name="dvDH_R" horiz-adv-x="426" 
d="M667 326c0 -59 -18 -111 -51 -153l-178 -248h-218l115 138c-155 1 -274 57 -274 188c0 86 63 129 111 143v4c-60 20 -120 73 -120 168c0 116 86 183 197 183c123 0 189 -74 189 -176c0 -14 -1 -35 -2 -45h-149c1 10 1 13 1 18c0 22 -14 33 -31 33c-20 0 -33 -14 -33 -36
c0 -53 66 -62 109 -62h62v-163h-52c-42 0 -75 -10 -75 -44c0 -36 47 -43 89 -43c93 0 132 40 132 95h178z" />
    <glyph glyph-name="dvN_R" horiz-adv-x="517" 
d="M279 39c-121 0 -238 79 -238 226c0 156 120 226 255 226h400v-375l-166 -214h-220l382 420h-209c10 -23 16 -51 16 -85c0 -135 -104 -198 -220 -198zM282 210c33 0 56 23 56 56c0 32 -23 56 -56 56c-34 0 -58 -24 -58 -56c0 -33 24 -56 58 -56zM-11 571v169h707v-169
h-707z" />
    <glyph glyph-name="dvP_R" horiz-adv-x="345" 
d="M-11 571v169h600v-169h-328v-170c0 -52 25 -94 82 -94c54 0 79 42 79 93h167c0 -69 -19 -130 -57 -177l-181 -258h-217l142 175c-144 20 -219 128 -219 261v170h-68z" />
    <glyph glyph-name="dvPH_R" horiz-adv-x="676" 
d="M332 307c50 0 74 38 74 83v181h-145v-181c0 -46 22 -83 71 -83zM-11 571v169h955v-169h-334v-109c31 32 77 51 136 51c131 0 198 -104 198 -235h-207c0 31 -16 62 -58 62c-44 0 -69 -33 -69 -95v-245h-204v176l-138 -211h-218l147 194c-92 33 -140 123 -140 231v181h-68z
" />
    <glyph glyph-name="dvB_R" horiz-adv-x="369" 
d="M-11 571v169h603v-169h-603zM397 -68h-202l88 107c-158 13 -241 119 -241 249s94 238 273 238c186 0 272 -110 272 -238c0 -56 -14 -108 -44 -150l3 1zM321 389c-23 0 -43 -6 -61 -17l167 -115c2 8 3 16 3 25c0 62 -45 107 -109 107zM321 176c23 0 43 6 59 15l-167 114
c-2 -7 -3 -15 -3 -23c0 -65 52 -106 111 -106z" />
    <glyph glyph-name="dvBH_R" horiz-adv-x="559" 
d="M280 225c40 0 54 27 54 60v32h-45c-34 0 -60 -17 -60 -48c0 -28 22 -44 51 -44zM283 59c-143 0 -241 82 -241 209c0 147 113 211 246 211h46v55c0 25 -10 43 -37 43c-23 0 -34 -18 -34 -38c0 -9 1 -16 3 -26h-198c-2 11 -4 25 -4 37c0 110 72 199 228 199
c172 0 225 -116 225 -253v-17h210v-342l-234 -236h-220l452 416h-208v-21c0 -137 -81 -237 -234 -237z" />
    <glyph glyph-name="dvM_R" horiz-adv-x="551" 
d="M272 225c41 0 55 28 55 61v32h-46c-34 0 -59 -17 -59 -48c0 -28 21 -45 50 -45zM-11 571v169h732v-169h-211v-91h209v-162v0l-1 -160l-255 -257h-220l454 417h-187v-22c0 -137 -81 -237 -235 -237c-143 0 -240 83 -240 210c0 147 113 211 245 211h47v91h-338z" />
    <glyph glyph-name="dvY_R" horiz-adv-x="421" 
d="M-11 571v169h697v-169h-298v-69c0 -87 -31 -168 -138 -188c6 -55 61 -82 123 -82c85 0 126 52 126 114h187c1 -77 -26 -147 -79 -198v0l-224 -212h-247v11l146 122c-146 25 -236 121 -236 276c0 23 2 45 5 69h8c114 0 128 60 128 126v31h-198z" />
    <glyph glyph-name="dvL_R" horiz-adv-x="920" 
d="M606 5c-7 0 -19 0 -35 1v177c9 -1 21 -2 26 -2c40 0 74 26 74 80c0 44 -23 72 -64 72c-49 0 -63 -42 -63 -77v-29h-168v29c0 35 -14 77 -63 77c-41 0 -64 -28 -64 -72c0 -54 34 -80 74 -80c5 0 16 1 26 2v-177c-16 -1 -28 -1 -35 -1c-175 0 -272 108 -272 259
c0 176 121 248 240 248c90 0 144 -37 176 -94h3c23 41 58 72 110 86v67h-582v169h942v-169h-160v-94c62 -37 107 -106 107 -213c0 -151 -97 -259 -272 -259zM438 -214l133 179h271l134 -179h-205l-64 98l-65 -98h-204zM738 -490l-134 238h202l139 -238h-207z" />
    <glyph glyph-name="dvV_R" horiz-adv-x="337" 
d="M321 203c47 0 77 33 77 77s-30 75 -77 75c-49 0 -79 -34 -79 -76s30 -76 79 -76zM403 -68h-212l91 110c-158 13 -240 116 -240 242c0 130 94 233 274 233c188 0 281 -109 281 -238c0 -50 -14 -97 -43 -136h1zM-11 571v169h608v-169h-608z" />
    <glyph glyph-name="dvSH_R" horiz-adv-x="537" 
d="M332 454h1c23 19 45 42 45 73c0 28 -18 53 -50 54c-32 0 -53 -23 -53 -51c0 -35 26 -61 57 -76zM3 173v24l196 153c-70 50 -113 109 -113 190c0 124 89 209 236 209c149 0 240 -81 240 -200c0 -66 -18 -113 -75 -169l102 -49v-179l-170 -167h-244v12l259 229l-83 41
l-117 -94h-231z" />
    <glyph glyph-name="dvSS_R" horiz-adv-x="381" 
d="M347 291c45 0 73 20 87 49l-180 103v-48c0 -62 29 -104 93 -104zM-11 571v169h629v-169h-364v-1l364 -209c0 -53 -19 -108 -56 -151v0l-206 -245h-217l151 158c-153 20 -233 136 -233 278v170h-68z" />
    <glyph glyph-name="dvS_R" horiz-adv-x="503" 
d="M386 -69l279 329v-214l-87 -115h-192zM-11 571v169h676v-169h-224v-51c0 -29 -3 -58 -11 -85h235v-156h-422v-79c0 -18 8 -36 30 -36s30 17 30 34v14h176c1 -12 1 -20 1 -25c0 -119 -74 -196 -203 -196c-148 0 -227 98 -227 219v203h63c104 0 124 46 124 107v51h-248z
" />
    <glyph glyph-name="dvH_R" horiz-adv-x="584" 
d="M551 42c-8 -123 -111 -193 -247 -193c-151 0 -255 96 -255 253c0 84 32 147 85 187c-42 27 -62 66 -62 113c0 73 56 129 161 129h48v40h-292v169h606v-169h-120v-183h-167c-19 0 -34 -8 -34 -28c0 -6 2 -13 7 -18c9 1 19 1 28 1c127 0 229 -70 240 -173l-63 -80h-177
l63 79c-10 10 -27 22 -56 22c-46 0 -77 -35 -77 -97c0 -59 38 -87 76 -87c29 0 50 16 58 35h178zM333 -431l-134 238h202l139 -238h-207z" />
    <glyph glyph-name="dvLL_R" horiz-adv-x="938" 
d="M275 26c-126 0 -233 88 -233 237c0 146 106 236 233 236c65 0 138 -17 192 -100h4c53 83 127 100 192 100c127 0 233 -90 233 -236c0 -80 -31 -143 -79 -183l122 -164h-205l-64 98l-65 -98h-204l117 157c-18 14 -34 32 -46 54h-6c-40 -70 -113 -101 -191 -101zM306 199
c36 0 64 25 64 64c0 37 -28 64 -64 64c-39 0 -65 -27 -65 -65c0 -39 27 -63 65 -63zM632 199c38 0 65 24 65 63c0 38 -26 65 -65 65c-37 0 -64 -27 -64 -64c0 -39 27 -64 64 -64zM-11 571v169h960v-169h-960z" />
    <glyph glyph-name="dvKx_R" horiz-adv-x="774" 
d="M481 0v111l-113 -157h-218l104 126c-71 33 -115 107 -115 198c0 137 73 235 210 235c60 0 104 -19 132 -52v110h-492v169h1012v-169h-325v-110c28 33 71 52 126 52c133 0 199 -107 199 -235h-207c0 31 -17 62 -58 62c-38 0 -56 -30 -60 -73v-267h-195zM68 -25
c-52 0 -93 41 -93 92c0 52 41 94 93 94c53 0 94 -42 94 -94c0 -51 -41 -92 -94 -92zM413 214c39 0 68 27 68 65c-1 37 -27 62 -67 62c-42 0 -68 -27 -68 -64c0 -36 24 -63 67 -63z" />
    <glyph glyph-name="dvKHx_R" horiz-adv-x="667" 
d="M-11 571v169h905v-169h-486v-77c0 -126 -59 -206 -152 -226c2 -56 36 -102 105 -102c46 0 72 16 87 35c-15 28 -23 61 -23 99c0 130 101 206 236 206c134 0 233 -76 233 -206c0 -135 -105 -208 -233 -208c-27 0 -53 3 -77 10l-166 -232h-217v10l99 124
c-153 20 -246 121 -246 293v109h19c97 0 130 42 130 117v48h-214zM77 -157c-52 0 -93 41 -93 92c0 52 41 94 93 94c53 0 94 -42 94 -94c0 -51 -41 -92 -94 -92zM661 244c35 0 56 21 56 56c0 34 -21 55 -56 55s-57 -21 -57 -55c0 -35 22 -56 57 -56z" />
    <glyph glyph-name="dvGx_R" horiz-adv-x="588" 
d="M633 180l-199 -200h-234l433 407v-207zM-11 571v169h644v-169h-137v-120c0 -135 -70 -238 -230 -238c-147 0 -238 74 -238 228c0 11 0 22 1 33h197v-32c0 -34 8 -55 34 -55c29 0 32 30 32 55v129h-303zM101 -1c-52 0 -93 41 -93 92c0 52 41 94 93 94c53 0 94 -42 94 -94
c0 -51 -41 -92 -94 -92z" />
    <glyph glyph-name="dvJx_R" horiz-adv-x="553" 
d="M-11 571v169h723v-169h-723zM480 -58h-222l353 372h-94c-25 -100 -103 -165 -227 -165c-169 0 -253 99 -253 239v100h205v-94c0 -44 15 -67 47 -67c31 0 47 23 47 67v94h376v-269zM141 -56c-52 0 -93 41 -93 92c0 52 41 94 93 94c53 0 94 -42 94 -94
c0 -51 -41 -92 -94 -92z" />
    <glyph glyph-name="dvPHx_R" horiz-adv-x="774" 
d="M429 307c51 0 74 38 74 83v181h-144v-181c0 -46 22 -83 70 -83zM-11 571v169h1053v-169h-334v-109c30 32 77 51 135 51c131 0 199 -104 199 -235h-207c0 31 -17 62 -58 62c-44 0 -69 -33 -69 -95v-245h-205v176l-137 -211h-218l147 194c-92 33 -141 123 -141 231v181
h-165zM91 32c-52 0 -93 41 -93 92c0 52 41 94 93 94c53 0 94 -42 94 -94c0 -51 -41 -92 -94 -92z" />
    <glyph glyph-name="dvK_KA" horiz-adv-x="1601" 
d="M580 571v-110c28 33 71 52 125 52c38 0 70 -9 98 -24c29 15 64 24 104 24c60 0 104 -19 132 -52v110h-459zM316 214c39 0 68 27 68 65c-1 37 -27 62 -67 62c-41 0 -68 -27 -68 -64c0 -36 25 -63 67 -63zM1039 0v100c-30 -36 -77 -57 -140 -57c-129 0 -202 101 -202 235
h-1c0 31 -16 62 -57 62c-38 0 -59 -27 -59 -73v-267h-196v100c-30 -36 -77 -57 -140 -57c-129 0 -202 101 -202 235c0 137 73 235 210 235c60 0 104 -19 132 -52v110h-395v169h1623v-169h-377v-110c28 33 71 52 126 52c132 0 198 -107 198 -230c0 -144 -86 -227 -205 -227
c-24 0 -44 2 -71 9v158c3 -1 9 -2 15 -2c32 0 54 22 54 57c0 31 -17 62 -58 62c-38 0 -59 -27 -59 -73v-267h-196zM971 214c39 0 68 27 68 65c-1 37 -27 62 -67 62c-41 0 -68 -27 -68 -64c0 -36 25 -63 67 -63z" />
    <glyph glyph-name="dvKx_KxA" horiz-adv-x="1601" 
d="M580 571v-110c28 33 71 52 125 52c37 0 67 -10 91 -28c30 18 67 28 111 28c60 0 104 -19 132 -52v110h-459zM217 -227c-63 0 -113 50 -113 112c0 64 50 115 113 115c64 0 114 -51 114 -115c0 -62 -50 -112 -114 -112zM872 -227c-63 0 -113 50 -113 112
c0 64 50 115 113 115c64 0 114 -51 114 -115c0 -62 -50 -112 -114 -112zM316 214c39 0 68 27 68 65c-1 37 -27 62 -67 62c-41 0 -68 -27 -68 -64c0 -36 25 -63 67 -63zM971 214c39 0 68 27 68 65c-1 37 -27 62 -67 62c-41 0 -68 -27 -68 -64c0 -36 25 -63 67 -63zM1039 0
v100c-30 -36 -77 -57 -140 -57c-129 0 -202 101 -202 235h-1c0 31 -16 62 -57 62c-38 0 -59 -27 -59 -73v-267h-196v100c-30 -36 -77 -57 -140 -57c-129 0 -202 101 -202 235c0 137 73 235 210 235c60 0 104 -19 132 -52v110h-395v169h1623v-169h-377v-110
c28 33 71 52 126 52c132 0 198 -107 198 -230c0 -144 -86 -227 -205 -227c-24 0 -44 2 -71 9v158c3 -1 9 -2 15 -2c32 0 54 22 54 57c0 31 -17 62 -58 62c-38 0 -59 -27 -59 -73v-267h-196z" />
    <glyph glyph-name="dvK_KHA" horiz-adv-x="1620" 
d="M580 571v-118c28 31 71 50 125 50c56 0 96 -19 125 -50c10 19 15 42 15 70v48h-265zM316 214c39 0 68 27 68 65c-1 37 -27 62 -67 62c-41 0 -68 -27 -68 -64c0 -36 25 -63 67 -63zM1352 0v126c-22 -19 -54 -31 -98 -31c-10 0 -20 1 -29 2c-48 -62 -124 -106 -226 -106
c-187 0 -303 108 -303 285v2c0 31 -16 62 -57 62c-38 0 -59 -27 -59 -73v-267h-196v100c-30 -36 -77 -57 -140 -57c-129 0 -202 101 -202 235c0 137 73 235 210 235c60 0 104 -19 132 -52v110h-395v169h1642v-169h-77v-571h-202zM1300 249c31 0 52 21 52 54
c-1 28 -18 53 -52 53c-30 0 -53 -19 -53 -53c0 -36 23 -54 53 -54zM1004 166c44 0 70 15 85 32c-15 31 -23 67 -23 105c0 116 75 206 188 206c43 0 75 -12 98 -32v94h-302v-77c0 -126 -59 -205 -151 -226c2 -56 36 -102 105 -102z" />
    <glyph glyph-name="dvK_CA" horiz-adv-x="1310" 
d="M868 294c0 -37 31 -55 73 -54c68 2 99 53 99 139v192h-460v-115c28 31 72 47 136 47h254v-159h-46c-28 0 -56 -15 -56 -50zM316 214c39 0 68 27 68 65c-1 37 -27 62 -67 62c-41 0 -68 -27 -68 -64c0 -36 25 -63 67 -63zM580 269v-269h-196v100c-30 -36 -77 -57 -140 -57
c-129 0 -202 101 -202 235c0 137 73 235 210 235c60 0 104 -19 132 -52v110h-395v169h1332v-169h-76v-571h-205v134c-38 -41 -95 -62 -163 -62c-114 0 -200 52 -200 167c0 43 16 79 45 105h-70c-51 0 -72 -30 -72 -75z" />
    <glyph glyph-name="dvK_JA" horiz-adv-x="1528" 
d="M316 214c39 0 68 27 68 65c-1 37 -27 62 -67 62c-41 0 -68 -27 -68 -64c0 -36 25 -63 67 -63zM946 258c31 0 46 23 46 67v156h267v90h-679v-110c28 33 71 52 125 52c133 0 193 -98 193 -182v-6c0 -44 16 -67 48 -67zM580 267v-267h-196v100c-30 -36 -77 -57 -140 -57
c-129 0 -202 101 -202 235c0 137 73 235 210 235c60 0 104 -19 132 -52v110h-395v169h1550v-169h-76v-571h-204v308h-68c-5 -134 -97 -228 -245 -228c-168 0 -250 99 -250 203v1c0 30 -16 56 -57 56c-38 0 -59 -27 -59 -73z" />
    <glyph glyph-name="dvK_TTA" horiz-adv-x="1297" 
d="M580 571v-110c28 33 71 52 125 52c46 0 82 -13 111 -34c39 22 87 36 144 39v53h-380zM316 214c39 0 68 27 68 65c-1 37 -27 62 -67 62c-41 0 -68 -27 -68 -64c0 -36 25 -63 67 -63zM580 267v-267h-196v100c-30 -36 -77 -57 -140 -57c-129 0 -202 101 -202 235
c0 137 73 235 210 235c60 0 104 -19 132 -52v110h-395v169h1319v-169h-148v-222h-160c-54 0 -100 -30 -100 -86c0 -48 33 -82 90 -82c59 0 94 36 94 89h194c0 -161 -109 -265 -283 -265c-177 0 -299 102 -299 260v13v0c0 31 -16 62 -57 62c-38 0 -59 -27 -59 -73z" />
    <glyph glyph-name="dvK_NNA" horiz-adv-x="1533" 
d="M580 571v-121c25 26 61 41 107 44v77h-107zM316 214c39 0 68 27 68 65c-1 37 -27 62 -67 62c-41 0 -68 -27 -68 -64c0 -36 25 -63 67 -63zM928 291c27 0 40 18 40 44v236h-82v-236c0 -26 17 -44 42 -44zM580 267v-267h-196v100c-30 -36 -77 -57 -140 -57
c-129 0 -202 101 -202 235c0 137 73 235 210 235c60 0 104 -19 132 -52v110h-395v169h1555v-169h-77v-571h-204v571h-95v-217c0 -133 -78 -234 -240 -234c-131 0 -206 67 -231 159h-1v3c-2 8 -4 17 -5 26c-8 18 -24 32 -52 32c-38 0 -59 -27 -59 -73z" />
    <glyph glyph-name="dvK_TA" horiz-adv-x="1085" 
d="M-11 571v169h1107v-169h-379v-126c28 33 72 52 127 52c132 0 199 -108 199 -231c0 -144 -87 -227 -206 -227c-24 0 -45 2 -72 9v158c3 -1 9 -2 16 -2c32 0 55 22 55 58c0 30 -17 61 -57 61s-62 -29 -62 -72v-251h-197v313h-93c-53 0 -89 -29 -89 -76c0 -43 27 -77 88 -77
h15v-159h-49c-134 0 -257 76 -257 216c0 39 8 72 22 99h-116v171h479v84h-531z" />
    <glyph glyph-name="dvKx_TA" horiz-adv-x="1366" 
d="M580 571v-113c27 29 68 45 120 45c53 0 95 -17 125 -44c45 20 96 29 150 29h121v83h-516zM217 -227c-63 0 -113 50 -113 112c0 64 50 115 113 115c64 0 114 -51 114 -115c0 -62 -50 -112 -114 -112zM316 214c39 0 68 27 68 65c-1 37 -27 62 -67 62c-41 0 -68 -27 -68 -64
c0 -36 25 -63 67 -63zM580 267v-267h-196v100c-30 -36 -77 -57 -140 -57c-129 0 -202 101 -202 235c0 137 73 235 210 235c60 0 104 -19 132 -52v110h-395v169h1388v-169h-77v-571h-204v314h-111c-52 0 -88 -30 -88 -76c0 -44 26 -78 87 -78h16v-159h-49
c-136 0 -260 66 -260 242c0 8 0 16 1 24c-2 45 -23 72 -53 72c-38 0 -59 -26 -59 -72z" />
    <glyph glyph-name="dvK_T_YA" horiz-adv-x="1783" 
d="M974 489c80 0 141 -21 185 -56c37 23 43 64 43 107v31h-622v-107c24 25 58 39 101 39c51 0 90 -23 115 -59c50 31 112 45 178 45zM316 214c39 0 68 27 68 65c-1 37 -27 62 -67 62c-41 0 -68 -27 -68 -64c0 -36 25 -63 67 -63zM1381 232c90 0 133 63 133 143v196h-111v-69
c0 -89 -46 -172 -138 -195c8 -41 48 -75 116 -75zM580 267v-267h-196v100c-30 -36 -77 -57 -140 -57c-129 0 -202 101 -202 235c0 137 73 235 210 235c60 0 104 -19 132 -52v110h-395v169h1806v-169h-77v-571h-204v121c-41 -36 -100 -58 -178 -58c-141 0 -233 71 -264 188
c-17 42 -43 64 -88 64c-51 0 -86 -30 -86 -76c0 -44 26 -78 87 -78h16v-159h-49c-136 0 -260 66 -260 243v12v0c1 52 -21 82 -53 82c-38 0 -59 -26 -59 -72z" />
    <glyph glyph-name="dvK_T_RA" horiz-adv-x="1373" 
d="M580 571v-108c27 32 68 50 120 50c43 0 79 -15 107 -40c40 24 90 37 149 37c61 0 113 -17 151 -44v105h-527zM316 214c39 0 68 27 68 65c-1 37 -27 62 -67 62c-41 0 -68 -27 -68 -64c0 -36 25 -63 67 -63zM580 267v-267h-196v100c-30 -36 -77 -57 -140 -57
c-129 0 -202 101 -202 235c0 137 73 235 210 235c60 0 104 -19 132 -52v110h-395v169h1394v-169h-76v-571h-197v126l-131 -125h-267v8l374 318c-20 14 -48 23 -76 23c-62 0 -109 -35 -109 -104h-204v9c-2 56 -19 85 -58 85c-38 0 -59 -27 -59 -73z" />
    <glyph glyph-name="dvK_T_VA" horiz-adv-x="1690" 
d="M690 503c45 0 83 -23 107 -60c50 31 113 45 179 45h198c32 19 71 29 117 29c55 0 102 -18 135 -52v106h-846v-110c25 27 63 42 110 42zM316 214c39 0 68 27 68 65c-1 37 -27 62 -67 62c-41 0 -68 -27 -68 -64c0 -36 25 -63 67 -63zM1349 203c46 0 77 33 77 77
s-31 75 -77 75c-49 0 -79 -34 -79 -76s30 -76 79 -76zM1701 571h-76v-571h-199v95c-33 -36 -80 -54 -135 -54c-144 0 -221 108 -221 243c0 10 0 20 1 30h-85c-52 0 -88 -30 -88 -76c0 -44 26 -78 87 -78h16v-159h-49c-136 0 -260 66 -260 242v6v0c1 56 -12 90 -53 90
c-38 0 -59 -26 -59 -72v-267h-196v100c-30 -36 -77 -57 -140 -57c-129 0 -202 101 -202 235c0 137 73 235 210 235c60 0 104 -19 132 -52v110h-395v169h1712v-169z" />
    <glyph glyph-name="dvK_THA" horiz-adv-x="1460" 
d="M316 214c39 0 68 27 68 65c-1 37 -27 62 -67 62c-41 0 -68 -27 -68 -64c0 -36 25 -63 67 -63zM705 503c57 0 99 -20 127 -52c72 8 114 33 114 88c0 21 -12 37 -30 37c-9 0 -14 -2 -21 -5v0h-315v-118c28 31 71 50 125 50zM1191 0v165c-33 -50 -106 -93 -211 -93
c-150 0 -262 84 -287 229c-7 22 -24 39 -54 39c-38 0 -59 -27 -59 -73v-267h-196v100c-30 -36 -77 -57 -140 -57c-129 0 -202 101 -202 235c0 137 73 235 210 235c60 0 104 -19 132 -52v110h-395v169h859c23 6 46 9 70 9c128 0 220 -81 220 -216c0 -118 -72 -218 -249 -228
c11 -29 43 -65 122 -65c99 0 180 65 180 204v296h280v-173h-76v-567h-204z" />
    <glyph glyph-name="dvK_DA" horiz-adv-x="1266" 
d="M580 571v-110c28 33 71 52 125 52c46 0 83 -13 113 -34c41 20 90 31 145 31h16v61h-399zM316 214c39 0 68 27 68 65c-1 37 -27 62 -67 62c-41 0 -68 -27 -68 -64c0 -36 25 -63 67 -63zM1213 -44h-200v122c-25 -22 -62 -34 -107 -34c-103 0 -210 67 -210 227v7v0
c0 31 -16 62 -57 62c-38 0 -59 -27 -59 -73v-267h-196v100c-30 -36 -77 -57 -140 -57c-129 0 -202 101 -202 235c0 137 73 235 210 235c60 0 104 -19 132 -52v110h-395v169h1288v-169h-94v-235h-198c-51 0 -80 -29 -80 -70c0 -38 24 -62 61 -62c38 0 58 28 58 63h189v-311z
" />
    <glyph glyph-name="dvK_NA" horiz-adv-x="1498" 
d="M580 571v-110c28 33 71 52 125 52c56 0 95 -16 121 -45c37 15 80 23 124 23h278v80h-648zM936 210c33 0 56 23 56 56c0 32 -23 56 -56 56c-34 0 -58 -24 -58 -56c0 -33 24 -56 58 -56zM316 214c39 0 68 27 68 65c-1 37 -27 62 -67 62c-41 0 -68 -27 -68 -64
c0 -36 25 -63 67 -63zM580 267v-267h-196v100c-30 -36 -77 -57 -140 -57c-129 0 -202 101 -202 235c0 137 73 235 210 235c60 0 104 -19 132 -52v110h-395v169h1520v-169h-77v-571h-204v322h-91c10 -23 16 -51 16 -85c0 -135 -104 -198 -220 -198c-121 0 -238 79 -238 226
c0 7 0 14 1 20c-3 29 -19 55 -57 55s-59 -27 -59 -73z" />
    <glyph glyph-name="dvK_PA" horiz-adv-x="1311" 
d="M580 571v-114c23 25 56 40 98 45v69h-98zM316 214c39 0 68 27 68 65c-1 37 -27 62 -67 62c-41 0 -68 -27 -68 -64c0 -36 25 -63 67 -63zM961 307c56 0 82 42 82 93v171h-161v-170c0 -52 24 -94 79 -94zM580 267v-267h-196v100c-30 -36 -77 -57 -140 -57
c-129 0 -202 101 -202 235c0 137 73 235 210 235c60 0 104 -19 132 -52v110h-395v169h1334v-169h-76v-571h-204v181c-32 -28 -76 -45 -136 -45c-115 0 -188 68 -216 166v0c-6 21 -23 38 -52 38c-38 0 -59 -27 -59 -73z" />
    <glyph glyph-name="dvK_P_RA" horiz-adv-x="1311" 
d="M580 571v-114c23 25 56 40 98 45v69h-98zM316 214c39 0 68 27 68 65c-1 37 -27 62 -67 62c-41 0 -68 -27 -68 -64c0 -36 25 -63 67 -63zM961 307c56 0 82 42 82 93v171h-161v-170c0 -52 24 -94 79 -94zM1043 0v183l-153 -218h-218l156 193c-69 22 -114 75 -136 144v0
c-6 21 -23 38 -53 38c-38 0 -59 -27 -59 -73v-267h-196v100c-30 -36 -77 -57 -140 -57c-129 0 -202 101 -202 235c0 137 73 235 210 235c60 0 104 -19 132 -52v110h-395v169h1334v-169h-76v-571h-204z" />
    <glyph glyph-name="dvK_PHA" horiz-adv-x="1608" 
d="M580 571v-114c24 25 58 41 101 45v69h-101zM316 214c39 0 68 27 68 65c-1 37 -27 62 -67 62c-41 0 -68 -27 -68 -64c0 -36 25 -63 67 -63zM956 307c50 0 74 38 74 83v181h-145v-181c0 -46 22 -83 71 -83zM580 267v-267h-196v100c-30 -36 -77 -57 -140 -57
c-129 0 -202 101 -202 235c0 137 73 235 210 235c60 0 104 -19 132 -52v110h-395v169h1630v-169h-385v-109c31 32 77 51 136 51c130 0 198 -104 198 -225c0 -147 -85 -232 -205 -232c-26 0 -52 3 -79 12v155c8 -2 16 -3 23 -3c36 0 54 27 54 58s-17 62 -58 62
c-44 0 -69 -33 -69 -95v-245h-204v179c-30 -27 -73 -43 -128 -43c-114 0 -186 70 -211 168c-6 20 -23 36 -52 36c-38 0 -59 -27 -59 -73z" />
    <glyph glyph-name="dvKx_PHA" horiz-adv-x="1608" 
d="M580 571v-114c24 25 58 41 101 45v69h-101zM956 307c50 0 74 38 74 83v181h-145v-181c0 -46 22 -83 71 -83zM580 267v-267h-196v100c-30 -36 -77 -57 -140 -57c-129 0 -202 101 -202 235c0 137 73 235 210 235c60 0 104 -19 132 -52v110h-395v169h1630v-169h-385v-109
c31 32 77 51 136 51c130 0 198 -104 198 -225c0 -147 -85 -232 -205 -232c-26 0 -52 3 -79 12v155c8 -2 16 -3 23 -3c36 0 54 27 54 58s-17 62 -58 62c-44 0 -69 -33 -69 -95v-245h-204v179c-30 -27 -73 -43 -128 -43c-114 0 -186 70 -211 168c-6 20 -23 36 -52 36
c-38 0 -59 -27 -59 -73zM217 -227c-63 0 -113 50 -113 112c0 64 50 115 113 115c64 0 114 -51 114 -115c0 -62 -50 -112 -114 -112zM316 214c39 0 68 27 68 65c-1 37 -27 62 -67 62c-41 0 -68 -27 -68 -64c0 -36 25 -63 67 -63z" />
    <glyph glyph-name="dvKx_PHxA" horiz-adv-x="1609" 
d="M580 571v-114c24 26 58 41 102 45v69h-102zM217 -227c-63 0 -113 50 -113 112c0 64 50 115 113 115c64 0 114 -51 114 -115c0 -62 -50 -112 -114 -112zM831 -127c-63 0 -113 50 -113 112c0 64 50 115 113 115c64 0 114 -51 114 -115c0 -62 -50 -112 -114 -112zM316 214
c39 0 68 27 68 65c-1 37 -27 62 -67 62c-41 0 -68 -27 -68 -64c0 -36 25 -63 67 -63zM957 307c50 0 74 38 74 83v181h-145v-181c0 -46 22 -83 71 -83zM580 267v-267h-196v100c-30 -36 -77 -57 -140 -57c-129 0 -202 101 -202 235c0 137 73 235 210 235c60 0 104 -19 132 -52
v110h-395v169h1631v-169h-385v-109c31 32 77 51 136 51c130 0 198 -104 198 -225c0 -147 -85 -232 -205 -232c-26 0 -52 3 -79 12v155c8 -2 16 -3 23 -3c36 0 54 27 54 58s-17 62 -58 62c-44 0 -69 -33 -69 -95v-245h-204v179c-30 -27 -73 -43 -128 -43
c-113 0 -185 68 -210 166h-1c-6 21 -23 38 -53 38c-38 0 -59 -27 -59 -73z" />
    <glyph glyph-name="dvKx_BA" horiz-adv-x="1341" 
d="M580 571v-110c28 33 71 52 125 52c38 0 68 -11 92 -29c40 25 88 40 143 40c53 0 101 -11 140 -35v82h-500zM1080 0v85c-32 -31 -82 -46 -140 -46c-139 0 -239 99 -244 239v0c0 31 -16 62 -57 62c-38 0 -59 -27 -59 -73v-267h-196v100c-30 -36 -77 -57 -140 -57
c-129 0 -202 101 -202 235c0 137 73 235 210 235c60 0 104 -19 132 -52v110h-395v169h1363v-169h-76v-571h-196zM217 -227c-63 0 -113 50 -113 112c0 64 50 115 113 115c64 0 114 -51 114 -115c0 -62 -50 -112 -114 -112zM316 214c39 0 68 27 68 65c-1 37 -27 62 -67 62
c-41 0 -68 -27 -68 -64c0 -36 25 -63 67 -63zM984 395c-23 0 -43 -6 -61 -17l167 -113c1 7 2 15 2 23c0 62 -45 107 -108 107zM984 182c23 0 43 6 60 16l-168 114c-2 -8 -3 -16 -3 -24c0 -65 51 -106 111 -106z" />
    <glyph glyph-name="dvK_MA" horiz-adv-x="1539" 
d="M705 503c57 0 98 -19 126 -50c33 12 70 18 109 18h44v100h-404v-116c28 31 71 48 125 48zM316 214c39 0 68 27 68 65c-1 37 -27 62 -67 62c-41 0 -68 -27 -68 -64c0 -36 25 -63 67 -63zM932 208c37 0 52 26 52 58v39h-38c-36 0 -62 -16 -62 -49s21 -48 48 -48zM1268 471
v100h-94v-100h94zM580 267v-267h-196v100c-30 -36 -77 -57 -140 -57c-129 0 -202 101 -202 235c0 137 73 235 210 235c60 0 104 -19 132 -52v110h-395v169h1561v-169h-77v-571h-205v305h-94v-28c0 -146 -80 -241 -238 -241c-145 0 -241 86 -241 219c0 8 0 16 1 24
c-1 31 -17 61 -57 61c-38 0 -59 -27 -59 -73z" />
    <glyph glyph-name="dvKx_MA" horiz-adv-x="1525" 
d="M705 503c57 0 98 -19 126 -50c33 12 70 18 109 18h44v100h-404v-116c28 31 71 48 125 48zM217 -227c-63 0 -113 50 -113 112c0 64 50 115 113 115c64 0 114 -51 114 -115c0 -62 -50 -112 -114 -112zM316 214c39 0 68 27 68 65c-1 37 -27 62 -67 62c-41 0 -68 -27 -68 -64
c0 -36 25 -63 67 -63zM932 208c37 0 52 26 52 58v39h-38c-36 0 -62 -16 -62 -49s21 -48 48 -48zM1268 471v100h-94v-100h94zM580 267v-267h-196v100c-30 -36 -77 -57 -140 -57c-129 0 -202 101 -202 235c0 137 73 235 210 235c60 0 104 -19 132 -52v110h-395v169h1561v-169
h-77v-571h-205v305h-94v-28c0 -146 -80 -241 -238 -241c-145 0 -241 86 -241 219c0 8 0 16 1 24c-1 31 -17 61 -57 61c-38 0 -59 -27 -59 -73z" />
    <glyph glyph-name="dvK_YA" horiz-adv-x="1414" 
d="M580 571v-118c28 31 71 50 125 50c47 0 84 -15 112 -41c12 22 15 49 15 77v32h-252zM316 214c39 0 68 27 68 65c-1 37 -27 62 -67 62c-41 0 -68 -27 -68 -64c0 -36 25 -63 67 -63zM1011 232c90 0 133 63 133 143v196h-111v-70c0 -87 -31 -168 -139 -188
c5 -43 45 -81 117 -81zM580 267v-267h-196v100c-30 -36 -77 -57 -140 -57c-129 0 -202 101 -202 235c0 137 73 235 210 235c60 0 104 -19 132 -52v110h-395v169h1436v-169h-77v-571h-204v121c-41 -36 -100 -58 -178 -58c-159 0 -256 91 -272 234c-6 21 -21 43 -55 43
c-38 -1 -59 -27 -59 -73z" />
    <glyph glyph-name="dvK_LA" horiz-adv-x="1574" 
d="M1115 418c23 41 58 72 110 86v67h-645v-116c28 31 71 48 125 48c37 0 67 -11 92 -29c41 26 90 38 139 38c90 0 144 -37 176 -94h3zM316 214c39 0 68 27 68 65c-1 37 -27 62 -67 62c-41 0 -68 -27 -68 -64c0 -36 25 -63 67 -63zM580 267v-267h-196v100
c-30 -36 -77 -57 -140 -57c-129 0 -202 101 -202 235c0 137 73 235 210 235c60 0 104 -19 132 -52v110h-395v169h1596v-169h-160v-94c62 -37 107 -106 107 -213c0 -151 -97 -259 -272 -259c-7 0 -19 0 -35 1v177c9 -1 21 -2 26 -2c40 0 74 26 74 80c0 44 -23 72 -64 72
c-49 0 -63 -42 -63 -77v-29h-168v29c0 35 -14 77 -63 77c-41 0 -64 -28 -64 -72c0 -54 34 -80 74 -80c5 0 16 1 26 2v-177c-16 -1 -28 -1 -35 -1c-175 0 -272 108 -272 259v14v0c0 31 -16 62 -57 62c-38 0 -59 -27 -59 -73z" />
    <glyph glyph-name="dvK_VA" horiz-adv-x="1316" 
d="M580 571v-116c28 31 70 48 124 48c34 0 62 -8 85 -22c34 23 77 36 129 36c55 0 102 -18 135 -52v106h-473zM316 214c39 0 68 27 68 65c-1 37 -27 62 -67 62c-41 0 -68 -27 -68 -64c0 -36 25 -63 67 -63zM976 203c46 0 77 33 77 77s-31 75 -77 75c-49 0 -79 -34 -79 -76
s30 -76 79 -76zM1328 571h-76v-571h-199v95c-33 -36 -80 -54 -135 -54c-142 0 -219 105 -221 237h-1c0 31 -16 62 -57 62c-38 0 -59 -27 -59 -73v-267h-196v100c-30 -36 -77 -57 -140 -57c-129 0 -202 101 -202 235c0 137 73 235 210 235c60 0 104 -19 132 -52v110h-395v169
h1339v-169z" />
    <glyph glyph-name="dvK_V_YA" horiz-adv-x="1771" 
d="M963 517c86 0 149 -32 189 -81c32 23 37 62 37 103v32h-609v-116c28 31 70 48 124 48c38 0 69 -10 94 -28c42 27 97 42 165 42zM316 214c39 0 68 27 68 65c-1 37 -27 62 -67 62c-41 0 -68 -27 -68 -64c0 -36 25 -63 67 -63zM976 203c44 0 78 28 77 80v4c-1 4 -1 8 -2 13
c-7 32 -37 55 -75 55c-49 0 -79 -34 -79 -76s30 -76 79 -76zM1368 232c91 0 134 63 134 143v196h-111v-71c0 -90 -31 -175 -136 -202c11 -37 50 -66 113 -66zM580 267v-267h-196v100c-30 -36 -77 -57 -140 -57c-129 0 -202 101 -202 235c0 137 73 235 210 235
c60 0 104 -19 132 -52v110h-395v169h1793v-169h-76v-571h-204v122c-41 -37 -101 -59 -179 -59c-71 0 -130 18 -175 52c-38 -45 -97 -74 -177 -74c-177 0 -271 105 -274 237h-1c0 31 -16 62 -57 62c-38 0 -59 -27 -59 -73z" />
    <glyph glyph-name="dvK_SHA" horiz-adv-x="1526" 
d="M316 214c39 0 68 27 68 65c-1 37 -27 62 -67 62c-41 0 -68 -27 -68 -64c0 -36 25 -63 67 -63zM705 503c65 0 110 -26 138 -66c73 2 148 18 148 93c0 23 -11 43 -39 43c-7 0 -9 0 -17 -2h-355v-118c28 31 71 50 125 50zM953 -6c-158 0 -257 92 -257 240v44
c0 31 -16 62 -57 62c-38 0 -59 -27 -59 -73v-267h-196v100c-30 -36 -77 -57 -140 -57c-129 0 -202 101 -202 235c0 137 73 235 210 235c60 0 104 -19 132 -52v110h-395v169h890c24 6 50 9 78 9c142 0 241 -82 241 -232c0 -176 -131 -250 -289 -250h-7v-45
c0 -26 9 -54 46 -54c28 0 42 21 42 48v17h198c1 -11 1 -18 1 -20c0 -140 -92 -219 -236 -219zM1254 0v740h283v-169h-76v-571h-207z" />
    <glyph glyph-name="dvK_SS_MA" horiz-adv-x="1465" 
d="M859 204c37 0 51 26 51 59v38h-37c-37 0 -63 -16 -63 -48c0 -33 22 -49 49 -49zM260 528c0 -32 26 -61 75 -59c20 15 33 33 33 56c0 24 -17 51 -55 51c-31 0 -53 -20 -53 -48zM361 -68v143c-27 -28 -71 -42 -120 -42c-111 0 -192 69 -192 177c0 93 57 143 123 179
c-50 25 -94 73 -94 155c0 117 99 205 241 205c120 0 217 -59 217 -181c0 -41 -13 -74 -33 -101h407v104h-289v169h855v-169h-76v-571h-205v301h-95v-28c0 -146 -79 -241 -237 -241c-145 0 -242 86 -242 220c0 25 3 48 9 69h-319c-33 -16 -52 -34 -52 -65
c0 -32 25 -55 58 -55c43 0 62 37 62 67h168v-336h-186zM1195 467v104h-95v-104h95z" />
    <glyph glyph-name="dvK_SS_M_YA" horiz-adv-x="1907" 
d="M856 194c37 0 51 27 51 59v39h-37c-36 0 -63 -17 -63 -49c0 -33 22 -49 49 -49zM260 528c0 -32 26 -61 75 -59c20 15 33 33 33 56c0 24 -17 51 -55 51c-31 0 -53 -20 -53 -48zM361 -68v143c-27 -28 -71 -42 -120 -42c-111 0 -192 69 -192 177c0 93 57 143 123 179
c-50 25 -94 73 -94 155c0 117 99 205 241 205c120 0 217 -59 217 -181c0 -46 -16 -81 -41 -110h412v113h-289v169h1300v-169h-77v-571h-204v128c-41 -37 -101 -59 -179 -59c-154 0 -249 86 -270 223h-91v-28c0 -147 -79 -241 -237 -241c-145 0 -242 86 -242 219
c0 30 4 56 12 79h-319c-33 -16 -52 -34 -52 -65c0 -32 25 -55 58 -55c43 0 62 37 62 67h168v-336h-186zM1244 458c70 0 81 41 81 81v32h-228v-113h147zM1504 237c90 0 133 63 133 143v191h-111v-64c0 -84 -46 -164 -140 -186c5 -44 45 -84 118 -84z" />
    <glyph glyph-name="dvK_SS_YA" horiz-adv-x="1340" 
d="M260 528c0 -32 26 -61 75 -59c20 15 33 33 33 56c0 24 -17 51 -55 51c-31 0 -53 -20 -53 -48zM361 -68v143c-27 -28 -71 -42 -120 -42c-111 0 -192 69 -192 177c0 93 57 143 123 179c-50 25 -94 73 -94 155c0 117 99 205 241 205c120 0 217 -59 217 -181
c0 -46 -16 -81 -41 -110h164c63 0 99 37 99 81v32h-145v169h738v-169h-76v-571h-205v119c-39 -35 -95 -56 -168 -56c-163 0 -273 101 -283 258h-308c-33 -16 -52 -34 -52 -65c0 -32 25 -55 58 -55c43 0 62 37 62 67h168v-336h-186zM937 232c91 0 133 63 133 143v196h-110
v-32c0 -89 -35 -177 -140 -207c5 -53 45 -100 117 -100z" />
    <glyph glyph-name="dvK_SS_VA" horiz-adv-x="1242" 
d="M260 528c0 -32 26 -61 75 -59c20 15 33 33 33 56c0 24 -17 51 -55 51c-31 0 -53 -20 -53 -48zM361 -68v143c-27 -28 -71 -42 -120 -42c-111 0 -192 69 -192 177c0 93 57 143 123 179c-50 25 -94 73 -94 155c0 117 99 205 241 205c120 0 217 -59 217 -181
c0 -41 -13 -74 -33 -101h194c37 31 86 50 147 50c54 0 101 -18 134 -52v106h-370v169h645v-169h-75v-571h-200v95c-33 -36 -80 -54 -134 -54c-144 0 -222 108 -222 243c0 13 1 25 2 37h-313c-33 -16 -52 -34 -52 -65c0 -32 25 -55 58 -55c43 0 62 37 62 67h168v-336h-186z
M902 203c46 0 76 33 76 77s-30 75 -76 75c-49 0 -79 -34 -79 -76s30 -76 79 -76z" />
    <glyph glyph-name="dvK_SA" horiz-adv-x="1480" 
d="M705 494c64 0 107 -26 135 -66c34 19 43 52 43 92v50h-303v-123c28 29 71 47 125 47zM316 214c39 0 68 27 68 65c-1 37 -27 62 -67 62c-41 0 -68 -27 -68 -64c0 -36 25 -63 67 -63zM1087 520c0 -29 -3 -58 -11 -85h134v136h-123v-51zM1157 187c0 -119 -82 -196 -223 -196
c-156 0 -238 99 -238 220v68c0 30 -16 61 -57 61c-38 0 -59 -27 -59 -73v-267h-196v100c-30 -36 -77 -57 -140 -57c-129 0 -202 101 -202 235c0 137 73 235 210 235c60 0 104 -19 132 -52v109h-395v170h1502v-169h-77v-571h-204v269h-312v-68c0 -19 9 -37 32 -37
c22 0 30 17 30 35v13h196c1 -11 1 -20 1 -25z" />
    <glyph glyph-name="dvK_S_TTA" horiz-adv-x="1803" 
d="M705 494c64 0 107 -26 135 -66c34 19 43 52 43 92v50h-303v-123c28 29 71 47 125 47zM316 214c39 0 68 27 68 65c-1 37 -27 62 -67 62c-41 0 -68 -27 -68 -64c0 -36 25 -63 67 -63zM1087 520c0 -29 -3 -58 -11 -85h188c45 48 113 78 201 83v53h-378v-51zM1157 187
c0 -119 -82 -196 -223 -196c-156 0 -238 99 -238 220v68c0 30 -16 61 -57 61c-38 0 -59 -27 -59 -73v-267h-196v100c-30 -36 -77 -57 -140 -57c-129 0 -202 101 -202 235c0 137 73 235 210 235c60 0 104 -19 132 -52v109h-395v170h1824v-169h-148v-222h-160
c-54 0 -100 -30 -100 -86c0 -48 33 -82 90 -82c59 0 94 36 94 89h194c0 -161 -109 -265 -283 -265c-177 0 -299 102 -299 260v4h-303v-68c0 -19 9 -37 32 -37c22 0 30 17 30 35v13h196c1 -11 1 -20 1 -25z" />
    <glyph glyph-name="dvK_S_DDA" horiz-adv-x="1726" 
d="M705 494c64 0 107 -26 135 -66c34 19 43 52 43 92v50h-303v-123c28 29 71 47 125 47zM316 214c39 0 68 27 68 65c-1 37 -27 62 -67 62c-41 0 -68 -27 -68 -64c0 -36 25 -63 67 -63zM1088 520c0 -29 -3 -58 -11 -85h154c26 60 91 91 171 91h44v45h-358v-51zM1469 -24
c-141 0 -257 64 -265 193h203c3 -34 36 -41 56 -41c27 0 48 11 48 34c0 20 -14 35 -53 35h-32c-51 0 -136 10 -180 72h-347v-68c0 -19 9 -37 31 -37s31 17 31 35v13h195c1 -11 1 -20 1 -25c0 -119 -81 -196 -223 -196c-156 0 -238 99 -238 220v68c0 30 -16 61 -57 61
c-38 0 -59 -27 -59 -73v-267h-196v100c-30 -36 -77 -57 -140 -57c-129 0 -202 101 -202 235c0 137 73 235 210 235c60 0 104 -19 132 -52v109h-395v170h1748v-169h-94v-187h-190c-18 0 -31 -8 -31 -22c0 -16 12 -23 30 -23h44c104 0 208 -45 208 -179
c0 -114 -85 -184 -235 -184z" />
    <glyph glyph-name="dvK_S_TA" horiz-adv-x="1876" 
d="M705 494c64 0 107 -26 135 -66c34 19 43 52 43 92v50h-303v-123c28 29 71 47 125 47zM316 214c39 0 68 27 68 65c-1 37 -27 62 -67 62c-41 0 -68 -27 -68 -64c0 -36 25 -63 67 -63zM1087 520c0 -29 -3 -58 -11 -85h218c51 36 119 53 191 53h121v83h-519v-51zM1157 187
c0 -119 -82 -196 -223 -196c-156 0 -238 99 -238 220v68c0 30 -16 61 -57 61c-38 0 -59 -27 -59 -73v-267h-196v100c-30 -36 -77 -57 -140 -57c-129 0 -202 101 -202 235c0 137 73 235 210 235c60 0 104 -19 132 -52v109h-395v170h1898v-169h-77v-571h-204v314h-111
c-52 0 -88 -30 -88 -76c0 -44 26 -78 87 -78h16v-159h-49c-136 0 -260 66 -260 242c0 9 0 18 1 26h-304v-68c0 -19 9 -37 32 -37c22 0 30 17 30 35v13h196c1 -11 1 -20 1 -25z" />
    <glyph glyph-name="dvK_S_P_RA" horiz-adv-x="1834" 
d="M705 494c64 0 107 -26 135 -66c34 19 43 52 43 92v50h-303v-123c28 29 71 47 125 47zM316 214c39 0 68 27 68 65c-1 37 -27 62 -67 62c-41 0 -68 -27 -68 -64c0 -36 25 -63 67 -63zM1087 520c0 -29 -3 -58 -11 -85h124v136h-113v-51zM1483 307c56 0 82 42 82 93v171h-161
v-170c0 -52 24 -94 79 -94zM1565 0v183l-153 -218h-218l156 193c-57 19 -98 58 -123 111h-329v-68c0 -19 9 -37 32 -37c22 0 30 17 30 35v13h196c1 -11 1 -20 1 -25c0 -119 -82 -196 -223 -196c-156 0 -238 99 -238 220v68c0 30 -16 61 -57 61c-38 0 -59 -27 -59 -73v-267
h-196v100c-30 -36 -77 -57 -140 -57c-129 0 -202 101 -202 235c0 137 73 235 210 235c60 0 104 -19 132 -52v109h-395v170h1856v-169h-76v-571h-204z" />
    <glyph glyph-name="dvK_S_P_LA" horiz-adv-x="2410" 
d="M705 494c64 0 107 -26 135 -66c34 19 43 52 43 92v50h-303v-123c28 29 71 47 125 47zM316 214c39 0 68 27 68 65c-1 37 -27 62 -67 62c-41 0 -68 -27 -68 -64c0 -36 25 -63 67 -63zM1088 520c0 -29 -3 -58 -11 -85h123v136h-112v-51zM1478 307c33 0 54 18 64 42
c33 115 131 163 229 163c90 0 144 -37 176 -94h3c23 41 58 72 110 86v67h-656v-170c0 -52 23 -94 74 -94zM1157 187c0 -119 -81 -196 -223 -196c-156 0 -238 99 -238 220v68c0 30 -16 61 -57 61c-38 0 -59 -27 -59 -73v-267h-196v100c-30 -36 -77 -57 -140 -57
c-129 0 -202 101 -202 235c0 137 73 235 210 235c60 0 104 -19 132 -52v109h-395v170h2431v-169h-160v-94c62 -37 107 -106 107 -213c0 -151 -97 -259 -272 -259c-7 0 -19 0 -35 1v177c9 -1 21 -2 26 -2c40 0 74 26 74 80c0 44 -23 72 -64 72c-49 0 -63 -42 -63 -77v-29
h-168v29c0 35 -14 77 -63 77c-41 0 -64 -28 -64 -72c0 -54 34 -80 74 -80c5 0 16 1 26 2v-177c-16 -1 -28 -1 -35 -1c-129 0 -215 58 -252 149c-28 -12 -61 -18 -98 -18c-112 0 -188 53 -225 133h-329v-68c0 -19 9 -37 31 -37s31 17 31 35v13h195c1 -11 1 -20 1 -25z" />
    <glyph glyph-name="dvKH_KHA" horiz-adv-x="1641" 
d="M604 300c0 -35 22 -56 57 -56s56 21 56 56c0 34 -21 55 -56 55s-57 -21 -57 -55zM1322 249c30 0 51 21 51 54c-1 28 -18 53 -51 53c-31 0 -54 -19 -54 -53c0 -36 23 -54 54 -54zM1373 0v126c-22 -19 -54 -31 -98 -31c-10 0 -20 1 -29 2c-48 -62 -124 -106 -226 -106
c-116 0 -205 42 -255 120c-31 -12 -66 -19 -104 -19c-27 0 -52 3 -76 9c-48 -64 -125 -110 -229 -110c-186 0 -302 108 -302 306v109h19c97 0 130 42 130 117v48h-214v169h1663v-169h-77v-571h-202zM361 166c46 0 72 16 87 35c-15 28 -23 61 -23 99c0 130 101 206 236 206
c82 0 146 -32 183 -85c16 19 22 46 22 79v71h-458v-77c0 -126 -59 -206 -152 -226c2 -56 36 -102 105 -102zM1025 166c44 0 70 15 85 32c-15 31 -23 67 -23 105c0 116 76 206 188 206c43 0 75 -12 98 -32v94h-302v-77c0 -126 -59 -205 -151 -226c2 -56 36 -102 105 -102z
" />
    <glyph glyph-name="dvKH_TA" horiz-adv-x="1369" 
d="M661 244c35 0 56 21 56 56c0 34 -21 55 -56 55s-57 -21 -57 -55c0 -35 22 -56 57 -56zM361 166c45 0 72 16 87 34c-15 28 -23 62 -23 100c0 130 92 206 226 206c70 0 128 -21 167 -59c45 28 102 41 165 41h116v83h-691v-77c0 -126 -59 -206 -152 -226
c2 -56 36 -102 105 -102zM654 92c-25 0 -48 3 -70 8c-48 -63 -125 -109 -228 -109c-186 0 -302 108 -302 306v109h19c97 0 130 42 130 117v48h-214v169h1391v-169h-77v-571h-204v314h-110c-53 0 -89 -30 -89 -76c0 -44 27 -78 88 -78h15v-159h-44c-93 0 -171 31 -212 106
c-28 -10 -59 -15 -93 -15z" />
    <glyph glyph-name="dvKHx_TA" horiz-adv-x="1369" 
d="M366 -282c-63 0 -113 50 -113 112c0 64 50 115 113 115c64 0 114 -51 114 -115c0 -62 -50 -112 -114 -112zM661 244c35 0 56 21 56 56c0 34 -21 55 -56 55s-57 -21 -57 -55c0 -35 22 -56 57 -56zM361 166c45 0 72 16 87 34c-15 28 -23 62 -23 100c0 130 92 206 226 206
c70 0 128 -21 167 -59c45 28 102 41 165 41h116v83h-691v-77c0 -126 -59 -206 -152 -226c2 -56 36 -102 105 -102zM654 92c-25 0 -48 3 -70 8c-48 -63 -125 -109 -228 -109c-186 0 -302 108 -302 306v109h19c97 0 130 42 130 117v48h-214v169h1391v-169h-77v-571h-204v314
h-110c-53 0 -89 -30 -89 -76c0 -44 27 -78 88 -78h15v-159h-44c-93 0 -171 31 -212 106c-28 -10 -59 -15 -93 -15z" />
    <glyph glyph-name="dvKH_NA" horiz-adv-x="1520" 
d="M958 210c33 0 57 23 57 56c0 32 -24 56 -57 56c-34 0 -57 -24 -57 -56c0 -33 23 -56 57 -56zM661 244c35 0 56 21 56 56c0 34 -21 55 -56 55s-57 -21 -57 -55c0 -35 22 -56 57 -56zM361 166c46 0 72 16 87 35c-15 28 -23 61 -23 99c0 130 92 206 226 206
c70 0 127 -21 166 -59c40 30 94 44 155 44h278v80h-842v-77c0 -126 -59 -206 -152 -226c2 -56 36 -102 105 -102zM661 92c-27 0 -52 3 -76 9c-48 -64 -125 -110 -229 -110c-186 0 -302 108 -302 306v109h19c97 0 130 42 130 117v48h-214v169h1542v-169h-77v-571h-204v322
h-91c10 -23 16 -51 16 -85c0 -135 -97 -198 -211 -198c-73 0 -140 28 -182 82c-33 -19 -74 -29 -121 -29z" />
    <glyph glyph-name="dvKH_MA" horiz-adv-x="1556" 
d="M1285 471v100h-95v-100h95zM604 300c0 -35 22 -56 57 -56s56 21 56 56c0 34 -21 55 -56 55s-57 -21 -57 -55zM949 208c37 0 51 26 51 58v39h-37c-36 0 -63 -16 -63 -49s22 -48 49 -48zM361 166c46 0 72 16 87 35c-15 28 -23 61 -23 99c0 130 92 206 226 206
c74 0 134 -23 172 -66c37 21 82 31 134 31h43v100h-592v-77c0 -126 -59 -206 -152 -226c2 -56 36 -102 105 -102zM661 92c-27 0 -52 3 -76 9c-48 -64 -125 -110 -229 -110c-186 0 -302 108 -302 306v109h19c97 0 130 42 130 117v48h-214v169h1578v-169h-77v-571h-205v305
h-95v-28c0 -146 -72 -241 -230 -241c-85 0 -149 29 -187 80c-31 -16 -69 -24 -112 -24z" />
    <glyph glyph-name="dvKHx_MA" horiz-adv-x="1556" 
d="M330 -275c-63 0 -113 50 -113 112c0 64 50 115 113 115c64 0 114 -51 114 -115c0 -62 -50 -112 -114 -112zM604 300c0 -35 22 -56 57 -56s56 21 56 56c0 34 -21 55 -56 55s-57 -21 -57 -55zM1285 471v100h-95v-100h95zM949 208c37 0 51 26 51 58v39h-37
c-36 0 -63 -16 -63 -49s22 -48 49 -48zM361 166c46 0 72 16 87 35c-15 28 -23 61 -23 99c0 130 92 206 226 206c74 0 134 -23 172 -66c37 21 82 31 134 31h43v100h-592v-77c0 -126 -59 -206 -152 -226c2 -56 36 -102 105 -102zM661 92c-27 0 -52 3 -76 9
c-48 -64 -125 -110 -229 -110c-186 0 -302 108 -302 306v109h19c97 0 130 42 130 117v48h-214v169h1578v-169h-77v-571h-205v305h-95v-28c0 -146 -72 -241 -230 -241c-85 0 -149 29 -187 80c-31 -16 -69 -24 -112 -24z" />
    <glyph glyph-name="dvKH_YA" horiz-adv-x="1428" 
d="M661 244c35 0 56 21 56 56c0 34 -21 55 -56 55s-57 -21 -57 -55c0 -35 22 -56 57 -56zM1025 232c91 0 134 63 134 143v196h-112v-70c0 -87 -30 -168 -137 -188c8 -53 51 -81 115 -81zM361 166c46 0 72 16 87 35c-15 28 -23 61 -23 99c0 130 101 206 236 206
c71 0 128 -24 166 -64c18 23 19 57 19 97v32h-438v-77c0 -126 -59 -206 -152 -226c2 -56 36 -102 105 -102zM661 92c-27 0 -52 3 -76 9c-48 -64 -125 -110 -229 -110c-186 0 -302 108 -302 306v109h19c97 0 130 42 130 117v48h-214v169h1450v-169h-76v-571h-204v122
c-41 -37 -101 -59 -179 -59c-77 0 -135 23 -175 72c-37 -29 -87 -43 -144 -43z" />
    <glyph glyph-name="dvKHx_YA" horiz-adv-x="1428" 
d="M366 -282c-63 0 -113 50 -113 112c0 64 50 115 113 115c64 0 114 -51 114 -115c0 -62 -50 -112 -114 -112zM661 244c35 0 56 21 56 56c0 34 -21 55 -56 55s-57 -21 -57 -55c0 -35 22 -56 57 -56zM1025 232c91 0 134 63 134 143v196h-112v-70c0 -87 -30 -168 -137 -188
c8 -53 51 -81 115 -81zM361 166c46 0 72 16 87 35c-15 28 -23 61 -23 99c0 130 101 206 236 206c71 0 128 -24 166 -64c18 23 19 57 19 97v32h-438v-77c0 -126 -59 -206 -152 -226c2 -56 36 -102 105 -102zM661 92c-27 0 -52 3 -76 9c-48 -64 -125 -110 -229 -110
c-186 0 -302 108 -302 306v109h19c97 0 130 42 130 117v48h-214v169h1450v-169h-76v-571h-204v122c-41 -37 -101 -59 -179 -59c-77 0 -135 23 -175 72c-37 -29 -87 -43 -144 -43z" />
    <glyph glyph-name="dvKH_VA" horiz-adv-x="1320" 
d="M1056 0v95c-33 -36 -80 -54 -134 -54c-73 0 -124 27 -156 72c-30 -14 -65 -21 -105 -21c-27 0 -52 3 -76 9c-48 -64 -125 -110 -229 -110c-186 0 -302 108 -302 306v109h19c97 0 130 42 130 117v48h-214v169h1342v-169h-75v-571h-200zM661 244c35 0 56 21 56 56
c0 34 -21 55 -56 55s-57 -21 -57 -55c0 -35 22 -56 57 -56zM979 203c47 0 77 33 77 77s-30 75 -77 75c-49 0 -78 -34 -78 -76s29 -76 78 -76zM361 166c46 0 72 16 87 35c-15 28 -23 61 -23 99c0 130 92 206 226 206c54 0 99 -12 135 -35c32 29 77 46 136 46
c54 0 101 -18 134 -52v106h-648v-77c0 -126 -59 -206 -152 -226c2 -56 36 -102 105 -102z" />
    <glyph glyph-name="dvKHx_VA" horiz-adv-x="1320" 
d="M366 -282c-63 0 -113 50 -113 112c0 64 50 115 113 115c64 0 114 -51 114 -115c0 -62 -50 -112 -114 -112zM661 244c35 0 56 21 56 56c0 34 -21 55 -56 55s-57 -21 -57 -55c0 -35 22 -56 57 -56zM979 203c47 0 77 33 77 77s-30 75 -77 75c-49 0 -78 -34 -78 -76
s29 -76 78 -76zM1056 0v95c-33 -36 -80 -54 -134 -54c-73 0 -124 27 -156 72c-30 -14 -65 -21 -105 -21c-27 0 -52 3 -76 9c-48 -64 -125 -110 -229 -110c-186 0 -302 108 -302 306v109h19c97 0 130 42 130 117v48h-214v169h1342v-169h-75v-571h-200zM361 166
c46 0 72 16 87 35c-15 28 -23 61 -23 99c0 130 92 206 226 206c54 0 99 -12 135 -35c32 29 77 46 136 46c54 0 101 -18 134 -52v106h-648v-77c0 -126 -59 -206 -152 -226c2 -56 36 -102 105 -102z" />
    <glyph glyph-name="dvKH_SHA" horiz-adv-x="1525" 
d="M661 244c35 0 56 21 56 56c0 34 -21 55 -56 55s-57 -21 -57 -55c0 -35 22 -56 57 -56zM361 166c45 0 72 16 87 34c-15 28 -23 62 -23 100c0 130 92 206 226 206c76 0 138 -24 177 -69h2c77 0 160 14 160 93c0 23 -11 43 -39 43c-5 0 -9 0 -17 -2h-526v-77
c0 -126 -59 -206 -152 -226c2 -56 36 -102 105 -102zM953 -6c-103 0 -185 36 -225 107c-23 -6 -48 -9 -74 -9c-25 0 -48 3 -70 8c-48 -63 -125 -109 -228 -109c-186 0 -302 108 -302 306v109h19c97 0 130 42 130 117v48h-214v169h889c23 6 49 9 77 9c143 0 242 -82 242 -232
c0 -176 -131 -250 -289 -250h-7v-45c0 -26 8 -54 46 -54c28 0 42 21 42 48v17h198c1 -11 1 -18 1 -20c0 -140 -91 -219 -235 -219zM1253 0v740h283v-173h-76v-567h-207z" />
    <glyph glyph-name="dvKHx_SHA" horiz-adv-x="1525" 
d="M366 -282c-63 0 -113 50 -113 112c0 64 50 115 113 115c64 0 114 -51 114 -115c0 -62 -50 -112 -114 -112zM661 244c35 0 56 21 56 56c0 34 -21 55 -56 55s-57 -21 -57 -55c0 -35 22 -56 57 -56zM361 166c45 0 72 16 87 34c-15 28 -23 62 -23 100c0 130 92 206 226 206
c76 0 138 -24 177 -69h2c77 0 160 14 160 93c0 23 -11 43 -39 43c-5 0 -9 0 -17 -2h-526v-77c0 -126 -59 -206 -152 -226c2 -56 36 -102 105 -102zM953 -6c-103 0 -185 36 -225 107c-23 -6 -48 -9 -74 -9c-25 0 -48 3 -70 8c-48 -63 -125 -109 -228 -109
c-186 0 -302 108 -302 306v109h19c97 0 130 42 130 117v48h-214v169h889c23 6 49 9 77 9c143 0 242 -82 242 -232c0 -176 -131 -250 -289 -250h-7v-45c0 -26 8 -54 46 -54c28 0 42 21 42 48v17h198c1 -11 1 -18 1 -20c0 -140 -91 -219 -235 -219zM1253 0v740h283v-173h-76
v-567h-207z" />
    <glyph glyph-name="dvKHx_SA" horiz-adv-x="1506" 
d="M366 -282c-63 0 -113 50 -113 112c0 64 50 115 113 115c64 0 114 -51 114 -115c0 -62 -50 -112 -114 -112zM661 244c35 0 56 21 56 56c0 34 -21 55 -56 55s-57 -21 -57 -55c0 -35 22 -56 57 -56zM361 166c45 0 72 16 87 34c-15 28 -23 62 -23 100c0 130 92 206 226 206
c85 0 153 -31 191 -87c55 15 67 53 67 101v51h-501v-77c0 -126 -59 -206 -152 -226c2 -56 36 -102 105 -102zM1113 520c0 -29 -3 -58 -11 -85h134v136h-123v-51zM1183 187c0 -119 -81 -196 -223 -196c-107 0 -180 47 -214 116c-28 -10 -59 -15 -92 -15c-25 0 -48 3 -70 8
c-48 -63 -125 -109 -228 -109c-186 0 -302 108 -302 306v109h19c97 0 130 42 130 117v48h-214v169h1528v-169h-76v-571h-205v269h-311v-68c0 -19 8 -37 31 -37c22 0 30 17 30 35v13h196c1 -11 1 -20 1 -25z" />
    <glyph glyph-name="dvG_GA" horiz-adv-x="1391" 
d="M1122 0v571h-93v-198c0 -136 -70 -238 -230 -238c-147 0 -238 74 -238 228c0 11 0 22 1 33h197v-32c0 -34 8 -56 34 -56c29 0 32 31 32 56v207h-329v-198c0 -136 -70 -238 -230 -238c-147 0 -238 74 -238 228c0 11 0 22 1 33h197v-32c0 -34 8 -56 34 -56
c29 0 32 31 32 56v207h-303v169h1414v-169h-77v-571h-204z" />
    <glyph glyph-name="dvG_GHA" horiz-adv-x="1219" 
d="M845 252c59 0 105 38 105 102v217h-154v-19c0 -34 14 -58 60 -58h35v-163h-51c-33 0 -50 -16 -50 -40c0 -26 23 -39 55 -39zM1155 0h-205v143c-39 -38 -93 -56 -156 -56c-113 0 -211 61 -211 182c0 73 45 121 91 139v4c-47 16 -82 55 -82 130v29h-96v-198
c0 -136 -70 -238 -230 -238c-147 0 -238 74 -238 228c0 11 0 22 1 33h197v-32c0 -34 8 -56 34 -56c29 0 32 31 32 56v207h-303v169h1241v-169h-75v-571z" />
    <glyph glyph-name="dvG_JA" horiz-adv-x="1409" 
d="M1344 0h-204v308h-68c-5 -134 -97 -228 -245 -228c-169 0 -253 99 -253 239v162h205v-156c0 -44 16 -67 48 -67c31 0 46 23 46 67v156h267v90h-644v-198c0 -136 -70 -238 -230 -238c-147 0 -238 74 -238 228c0 11 0 22 1 33h197v-32c0 -34 8 -56 34 -56c29 0 32 31 32 56
v207h-303v169h1431v-169h-76v-571z" />
    <glyph glyph-name="dvG_NNA" horiz-adv-x="1435" 
d="M831 291c27 0 40 18 40 44v236h-82v-236c0 -26 17 -44 42 -44zM1370 0h-204v571h-95v-217c0 -133 -78 -234 -240 -234c-165 0 -241 106 -241 234v217h-94v-198c0 -136 -70 -238 -230 -238c-147 0 -238 74 -238 228c0 11 0 22 1 33h197v-32c0 -34 8 -56 34 -56
c29 0 32 31 32 56v207h-303v169h1458v-169h-77v-571z" />
    <glyph glyph-name="dvG_DA" horiz-adv-x="1145" 
d="M1090 -44h-199v123c-25 -23 -63 -35 -108 -35c-103 0 -209 67 -209 227c0 152 110 239 267 239h15v61h-360v-198c0 -136 -70 -238 -230 -238c-147 0 -238 74 -238 228c0 11 0 22 1 33h197v-32c0 -34 8 -56 34 -56c29 0 32 31 32 56v207h-303v169h1167l-1 -169h-94v-235
h-198c-52 0 -80 -29 -80 -70c0 -38 23 -62 60 -62c39 0 58 28 58 63h189v-311z" />
    <glyph glyph-name="dvG_DHA" horiz-adv-x="1267" 
d="M806 65c-125 0 -231 63 -231 186c0 86 63 129 111 143v4c-60 20 -120 73 -120 168v5h-70v-198c0 -136 -70 -238 -230 -238c-147 0 -238 74 -238 228c0 11 0 22 1 33h197v-32c0 -34 8 -56 34 -56c29 0 32 31 32 56v207h-303v169h707c21 6 43 9 67 9
c123 0 189 -74 189 -176c0 -14 -1 -35 -2 -45h-149c1 10 1 13 1 18c0 22 -14 33 -31 33c-20 0 -33 -14 -33 -36c0 -53 66 -62 109 -62h62v-163h-52c-42 0 -75 -10 -75 -44c0 -28 27 -43 77 -43c91 0 144 61 144 154v355h276v-169h-72v-571h-204v136
c-43 -46 -108 -71 -197 -71z" />
    <glyph glyph-name="dvG_DH_YA" horiz-adv-x="1724" 
d="M1321 232c90 0 133 63 133 143v196h-111v-69c0 -87 -31 -169 -139 -188c5 -44 46 -82 117 -82zM851 63c-156 0 -276 56 -276 188c0 86 63 129 111 143v4c-60 20 -120 73 -120 168v5h-70v-198c0 -136 -70 -238 -230 -238c-147 0 -238 74 -238 228c0 11 0 22 1 33h197v-32
c0 -34 8 -56 34 -56c29 0 32 31 32 56v207h-303v169h707c21 6 43 9 67 9c123 0 189 -74 189 -176c0 -14 -1 -35 -2 -45h-149c1 10 1 13 1 18c0 22 -14 33 -31 33c-20 0 -33 -14 -33 -36c0 -53 66 -62 109 -62h62v-163h-52c-42 0 -75 -10 -75 -44c0 -36 47 -43 89 -43
c92 0 130 48 130 114c0 23 2 45 5 69h8c113 0 128 60 128 126v31h-113v169h706v-169h-77v-571h-204v121c-41 -36 -100 -58 -178 -58c-91 0 -162 30 -208 82c-51 -52 -125 -82 -217 -82z" />
    <glyph glyph-name="dvG_DH_VA" horiz-adv-x="1621" 
d="M1556 0h-199v95c-33 -36 -80 -54 -135 -54c-88 0 -152 41 -187 103c-39 -48 -101 -81 -203 -81c-147 0 -257 56 -257 188c0 86 63 129 111 143v4c-60 20 -120 73 -120 168v5h-70v-198c0 -136 -70 -238 -230 -238c-147 0 -238 74 -238 228c0 11 0 22 1 33h197v-32
c0 -34 8 -56 34 -56c29 0 32 31 32 56v207h-303v169h707c21 6 43 9 67 9c123 0 189 -74 189 -176c0 -14 -1 -35 -2 -45h-149c1 10 1 13 1 18c0 22 -14 33 -31 33c-20 0 -33 -14 -33 -36c0 -53 66 -62 109 -62h62v-163h-52c-42 0 -75 -10 -75 -44c0 -36 47 -43 89 -43
c66 0 118 32 132 93l1 5c16 108 91 188 218 188c55 0 102 -18 135 -52v106h-328v169h603v-169h-76v-571zM1280 203c47 0 77 33 77 77s-30 75 -77 75c-49 0 -79 -34 -79 -76s30 -76 79 -76z" />
    <glyph glyph-name="dvG_NA" horiz-adv-x="1376" 
d="M815 210c33 0 56 23 56 56c0 32 -23 56 -56 56c-34 0 -58 -24 -58 -56c0 -33 24 -56 58 -56zM1311 0h-204v322h-91c10 -23 16 -51 16 -85c0 -135 -104 -198 -220 -198c-121 0 -238 79 -238 226c0 156 120 226 255 226h278v80h-611v-198c0 -136 -70 -238 -230 -238
c-147 0 -238 74 -238 228c0 11 0 22 1 33h197v-32c0 -34 8 -56 34 -56c29 0 32 31 32 56v207h-303v169h1399v-169h-77v-571z" />
    <glyph glyph-name="dvG_N_YA" horiz-adv-x="1821" 
d="M815 175c33 0 56 24 56 57c0 32 -23 56 -56 56c-34 0 -58 -24 -58 -56c0 -33 24 -57 58 -57zM1419 232c90 0 133 63 133 143v196h-111v-69c0 -81 -41 -158 -136 -186c16 -48 54 -84 114 -84zM1756 0h-204v122c-41 -37 -101 -59 -179 -59c-143 0 -236 86 -264 225h-93
c10 -23 16 -51 16 -85c0 -135 -104 -198 -220 -198c-121 0 -238 79 -238 226c0 156 120 226 255 226h282c114 0 129 39 129 83v31h-744v-198c0 -136 -70 -238 -230 -238c-147 0 -238 74 -238 228c0 11 0 22 1 33h197v-32c0 -34 8 -56 34 -56c29 0 32 31 32 56v207h-303v169
h1844v-169h-77v-571z" />
    <glyph glyph-name="dvG_BA" horiz-adv-x="1219" 
d="M958 0v85c-32 -31 -82 -46 -140 -46c-142 0 -244 104 -244 249c0 138 102 236 244 236c53 0 101 -11 140 -35v82h-462v-198c0 -136 -70 -238 -230 -238c-147 0 -238 74 -238 228c0 11 0 22 1 33h197v-32c0 -34 8 -56 34 -56c29 0 32 31 32 56v207h-303v169h1241v-169h-76
v-571h-196zM862 182c23 0 43 6 60 16l-168 114c-2 -8 -3 -16 -3 -24c0 -65 51 -106 111 -106zM862 395c-23 0 -43 -6 -61 -17l167 -113c1 7 2 15 2 23c0 62 -45 107 -108 107z" />
    <glyph glyph-name="dvG_BHA" horiz-adv-x="1422" 
d="M812 208c36 0 51 26 51 58v39h-38c-36 0 -62 -16 -62 -49s21 -48 49 -48zM815 36c-144 0 -241 86 -241 219c0 150 113 216 246 216h43v63c0 24 -9 42 -33 42c-5 0 -13 -2 -19 -5h-315v-198c0 -136 -70 -238 -230 -238c-147 0 -238 74 -238 228c0 11 0 22 1 33h197v-32
c0 -34 8 -56 34 -56c29 0 32 31 32 56v207h-303v169h756c24 6 50 9 79 9c175 0 229 -116 229 -253v-25h98v269h282v-169h-78v-571h-204v305h-98v-28c0 -146 -79 -241 -238 -241z" />
    <glyph glyph-name="dvG_BH_YA" horiz-adv-x="1840" 
d="M812 208c37 0 51 26 51 58v39h-37c-37 0 -63 -16 -63 -49s22 -48 49 -48zM816 36c-145 0 -242 86 -242 219c0 150 113 216 246 216h43v63c0 24 -8 42 -31 42c-20 0 -31 -17 -31 -39c0 -9 1 -18 3 -28h-204c-2 10 -4 24 -4 36c0 9 0 18 1 26h-101v-198
c0 -136 -70 -238 -230 -238c-147 0 -238 74 -238 228c0 11 0 22 1 33h197v-32c0 -34 8 -56 34 -56c29 0 32 31 32 56v207h-303v169h757c23 6 49 9 78 9c175 0 229 -116 229 -253v-25h125c66 0 81 12 81 69v31h-128v169h721v-169h-77v-571h-204v122
c-41 -37 -101 -59 -179 -59c-161 0 -258 94 -272 242h-67v-28c0 -146 -79 -241 -237 -241zM1438 232c90 0 133 63 133 143v196h-111v-69c0 -87 -31 -164 -140 -182c2 -47 42 -88 118 -88z" />
    <glyph glyph-name="dvG_MA" horiz-adv-x="1418" 
d="M1147 471v100h-94v-100h94zM811 208c37 0 52 26 52 58v39h-38c-36 0 -62 -16 -62 -49s21 -48 48 -48zM1352 0h-205v305h-94v-28c0 -146 -80 -241 -238 -241c-145 0 -241 86 -241 219c0 150 113 216 245 216h44v100h-367v-198c0 -136 -70 -238 -230 -238
c-147 0 -238 74 -238 228c0 11 0 22 1 33h197v-32c0 -34 8 -56 34 -56c29 0 32 31 32 56v207h-303v169h1440v-169h-77v-571z" />
    <glyph glyph-name="dvG_YA" horiz-adv-x="1297" 
d="M894 232c90 0 133 63 133 143v196h-111v-69c0 -87 -31 -168 -138 -188c5 -44 45 -82 116 -82zM1231 0h-204v121c-41 -36 -100 -58 -178 -58c-176 0 -275 111 -275 282c0 23 2 45 5 69h8c114 0 128 60 128 126v31h-219v-198c0 -136 -70 -238 -230 -238
c-147 0 -238 74 -238 228c0 11 0 22 1 33h197v-32c0 -34 8 -56 34 -56c29 0 32 31 32 56v207h-303v169h1319v-169h-77v-571z" />
    <glyph glyph-name="dvG_R_YA" horiz-adv-x="1297" 
d="M894 232c90 0 133 63 133 143v196h-111v-69c0 -87 -31 -168 -138 -188c5 -44 45 -82 116 -82zM849 63c-104 0 -181 39 -227 106l-188 -189h-234l374 351v14c0 23 2 45 5 69h8c114 0 128 60 128 126v31h-219v-120c0 -135 -70 -238 -230 -238c-147 0 -238 74 -238 228
c0 11 0 22 1 33h197v-32c0 -34 8 -55 34 -55c29 0 32 30 32 55v129h-303v169h1319v-169h-77v-571h-204v121c-41 -36 -100 -58 -178 -58z" />
    <glyph glyph-name="dvG_LA" horiz-adv-x="1452" 
d="M1138 5c-7 0 -19 0 -35 1v177c9 -1 21 -2 26 -2c40 0 74 26 74 80c0 44 -23 72 -64 72c-49 0 -63 -42 -63 -77v-29h-168v29c0 35 -14 77 -63 77c-41 0 -64 -28 -64 -72c0 -54 34 -80 74 -80c5 0 16 1 26 2v-177c-16 -1 -28 -1 -35 -1c-175 0 -272 108 -272 259
c0 176 121 248 240 248c90 0 144 -37 176 -94h3c23 41 58 72 110 86v67h-607v-198c0 -136 -70 -238 -230 -238c-147 0 -238 74 -238 228c0 11 0 22 1 33h197v-32c0 -34 8 -56 34 -56c29 0 32 31 32 56v207h-303v169h1474v-169h-160v-94c62 -37 107 -106 107 -213
c0 -151 -97 -259 -272 -259z" />
    <glyph glyph-name="dvG_VA" horiz-adv-x="1194" 
d="M853 203c46 0 77 33 77 77s-31 75 -77 75c-49 0 -79 -34 -79 -76s30 -76 79 -76zM1205 571h-76v-571h-199v95c-33 -36 -80 -54 -135 -54c-144 0 -221 108 -221 243c0 130 77 233 221 233c55 0 102 -18 135 -52v106h-434v-198c0 -136 -70 -238 -230 -238
c-147 0 -238 74 -238 228c0 11 0 22 1 33h197v-32c0 -34 8 -56 34 -56c29 0 32 31 32 56v207h-303v169h1216v-169z" />
    <glyph glyph-name="dvG_SA" horiz-adv-x="1368" 
d="M975 520c0 -29 -3 -58 -11 -85h134v136h-123v-51zM1045 187c0 -119 -82 -196 -223 -196c-156 0 -238 99 -238 220v202h63c104 0 124 46 124 107v51h-275v-198c0 -136 -70 -238 -230 -238c-147 0 -238 74 -238 228c0 11 0 22 1 33h197v-32c0 -34 8 -56 34 -56
c29 0 32 31 32 56v207h-303v169h1390v-169h-77v-571h-204v269h-312v-68c0 -19 9 -37 32 -37c22 0 30 17 30 35v13h196c1 -11 1 -20 1 -25z" />
    <glyph glyph-name="dvGH_NA" horiz-adv-x="1214" 
d="M653 210c33 0 56 23 56 56c0 32 -23 56 -56 56c-34 0 -58 -24 -58 -56c0 -33 24 -56 58 -56zM318 252c38 0 75 10 97 67l6 15c30 108 133 157 246 157h278v80h-677v-19c0 -34 14 -58 60 -58h35v-163h-51c-33 0 -50 -16 -50 -40c0 -26 25 -39 56 -39zM1226 571h-77v-571
h-204v322h-91c10 -23 16 -51 16 -85c0 -135 -104 -198 -220 -198c-81 0 -159 35 -203 102c-44 -38 -109 -54 -174 -54c-133 0 -218 61 -218 182c0 73 45 121 91 139v4c-47 16 -82 55 -82 130v29h-75v169h1237v-169z" />
    <glyph glyph-name="dvGH_MA" horiz-adv-x="1253" 
d="M982 471v100h-94v-100h94zM646 208c37 0 52 26 52 58v39h-38c-36 0 -62 -16 -62 -49s21 -48 48 -48zM318 252c38 0 75 10 97 65l4 10c30 99 126 144 235 144h44v100h-430v-19c0 -34 14 -58 60 -58h36v-163h-52c-33 0 -50 -16 -50 -40c0 -26 25 -39 56 -39zM1264 571h-77
v-571h-205v305h-94v-28c0 -146 -80 -241 -238 -241c-95 0 -169 37 -209 100c-43 -34 -102 -49 -163 -49c-136 0 -223 61 -223 182c0 73 45 121 91 139v4c-47 16 -82 55 -82 130v29h-75v169h1275v-169z" />
    <glyph glyph-name="dvGH_YA" horiz-adv-x="1145" 
d="M317 252c78 0 105 47 105 102v0c1 20 2 39 5 60h8c114 0 128 60 128 126v31h-295v-19c0 -34 14 -58 60 -58h35v-163h-51c-33 0 -50 -16 -50 -40c0 -26 23 -39 55 -39zM742 232c90 0 133 63 133 143v196h-111v-69c0 -87 -31 -168 -138 -188c5 -44 45 -82 116 -82z
M1156 571h-77v-571h-204v121c-41 -36 -100 -58 -178 -58c-88 0 -157 28 -203 77c-45 -33 -104 -53 -177 -53c-164 0 -262 61 -262 182c0 73 45 121 91 139v4c-47 16 -82 55 -82 130v29h-75v169h1167v-169z" />
    <glyph glyph-name="dvC_CA" horiz-adv-x="1109" 
d="M392 240c40 0 73 23 89 60c5 16 13 31 23 44h-125c-28 0 -56 -16 -56 -51c0 -36 29 -53 69 -53zM1119 571h-77v-571h-204v134c-38 -41 -95 -62 -163 -62c-66 0 -123 23 -159 65c-40 -44 -94 -67 -165 -67c-130 0 -219 60 -219 185c0 35 10 65 29 89h-110v159h717v-159
h-46c-28 0 -56 -16 -56 -51c0 -36 31 -54 73 -53c68 2 99 53 99 139v192h-849v169h1130v-169z" />
    <glyph glyph-name="dvC_CHA" horiz-adv-x="1247" 
d="M825 189c140 0 204 43 204 136c0 29 -9 58 -34 58s-36 -24 -36 -56c0 -22 4 -46 10 -67h-166c-6 19 -12 51 -12 90c0 88 45 142 111 166v55h-215v-41c0 -33 11 -58 47 -58h19v-162h-15c-38 0 -58 -23 -58 -51c0 -40 31 -70 145 -70zM1207 315c0 -179 -133 -299 -384 -299
c-140 0 -253 33 -310 103c-39 -31 -89 -48 -149 -49c-125 -3 -232 60 -232 185c0 35 10 65 29 89h-110v159h374v-159h-46c-28 0 -56 -16 -56 -51c0 -36 31 -54 73 -53c43 1 72 24 85 56c14 41 42 71 83 91v4c-46 15 -81 54 -81 130v50h-494v169h1269v-169h-168v-57
c74 -31 117 -102 117 -199z" />
    <glyph glyph-name="dvC_CH_VA" horiz-adv-x="1247" 
d="M827 -137c43 0 72 30 72 71v86c-24 -3 -49 -4 -69 -4v0c-51 0 -78 -36 -78 -77c0 -42 28 -76 75 -76zM825 189c140 0 204 43 204 136c0 29 -9 58 -34 58s-36 -24 -36 -56c0 -22 4 -46 10 -67h-166c-6 19 -12 51 -12 90c0 88 45 142 111 166v55h-215v-41
c0 -33 11 -58 47 -58h19v-162h-15c-38 0 -58 -23 -58 -51c0 -40 31 -70 145 -70zM1207 315c0 -102 -43 -185 -127 -237v-417h-181v97c-31 -34 -75 -50 -126 -50c-137 0 -211 94 -211 199c0 54 19 105 55 141c-43 17 -79 41 -104 71c-39 -31 -89 -48 -149 -49
c-125 -3 -232 60 -232 185c0 35 10 65 29 89h-110v159h374v-159h-46c-28 0 -56 -16 -56 -51c0 -36 31 -54 73 -53c43 1 72 24 85 56c14 41 42 71 83 91v4c-46 15 -81 54 -81 130v50h-494v169h1269v-169h-168v-57c74 -31 117 -102 117 -199z" />
    <glyph glyph-name="dvC_NA" horiz-adv-x="1306" 
d="M722 210c33 0 56 23 56 56c0 32 -23 56 -56 56c-34 0 -58 -24 -58 -56c0 -33 24 -56 58 -56zM1295 571h-77v-571h-204v322h-91c10 -23 16 -51 16 -85c0 -135 -104 -198 -220 -198c-73 0 -145 29 -190 84c-40 -34 -93 -53 -155 -53c-138 0 -242 63 -242 185
c0 35 10 65 29 89h-110v159h374v-159h-46c-28 0 -56 -16 -56 -51c0 -36 31 -53 72 -52c48 1 78 26 90 71c22 123 130 179 251 179h278v80h-1025v169h1306v-169z" />
    <glyph glyph-name="dvC_MA" horiz-adv-x="1324" 
d="M1053 471v100h-94v-100h94zM717 208c37 0 52 26 52 58v39h-38c-36 0 -62 -16 -62 -49s21 -48 48 -48zM1335 571h-77v-571h-205v305h-94v-28c0 -146 -80 -241 -238 -241c-87 0 -157 31 -198 85c-41 -33 -95 -51 -160 -51c-134 0 -231 64 -231 185c0 35 10 65 29 89h-110
v159h374v-159h-46c-28 0 -56 -16 -56 -51s29 -53 68 -53c51 0 82 28 95 75h1c26 108 125 156 238 156h44v100h-780v169h1346v-169z" />
    <glyph glyph-name="dvC_YA" horiz-adv-x="1217" 
d="M814 232c90 0 133 63 133 143v196h-111v-69c0 -87 -31 -168 -138 -188c5 -44 45 -82 116 -82zM1228 571h-77v-571h-204v121c-41 -36 -100 -58 -178 -58c-91 0 -161 29 -208 81c-43 -48 -106 -74 -187 -74c-144 0 -242 60 -242 185c0 35 10 65 29 89h-110v159h374v-159
h-46c-28 0 -56 -16 -56 -51c0 -36 31 -54 72 -53c63 2 94 46 99 124c1 17 3 33 5 50h8c114 0 128 60 128 126v31h-646v169h1239v-169z" />
    <glyph glyph-name="dvCH_YA" horiz-adv-x="1332" 
d="M406 189c140 0 204 43 204 136c0 29 -9 58 -34 58s-36 -24 -36 -56c0 -22 4 -46 10 -67h-166c-6 19 -12 51 -12 90c0 125 91 182 206 182c62 0 112 -21 146 -59c26 12 30 35 30 59v39h-486v-41c0 -33 11 -58 47 -58h19v-162h-15c-38 0 -58 -23 -58 -51
c0 -40 31 -70 145 -70zM929 232c83 0 133 61 133 143v196h-111v-69c0 -88 -55 -171 -153 -189c22 -50 60 -81 131 -81zM1343 571h-76v-571h-205v114c-36 -32 -85 -51 -149 -51c-83 0 -149 25 -196 70c-61 -74 -166 -117 -313 -117c-204 0 -350 70 -350 223
c0 72 33 120 91 148v4c-46 15 -81 54 -81 130v50h-75v169h1354v-169z" />
    <glyph glyph-name="dvCH_R_YA" horiz-adv-x="1332" 
d="M406 189c140 0 204 43 204 136c0 29 -9 58 -34 58s-36 -24 -36 -56c0 -22 4 -46 10 -67h-166c-6 19 -12 51 -12 90c0 125 91 182 206 182c62 0 112 -21 146 -59c26 12 30 35 30 59v39h-486v-41c0 -33 11 -58 47 -58h19v-162h-15c-38 0 -58 -23 -58 -51
c0 -40 31 -70 145 -70zM929 232c83 0 133 61 133 143v196h-111v-69c0 -88 -55 -171 -153 -189c22 -50 60 -81 131 -81zM473 -95l-64 98l-65 -98h-204l97 131c-112 30 -183 96 -183 203c0 72 33 120 91 148v4c-46 15 -81 54 -81 130v50h-75v169h1354v-169h-76v-571h-205v114
c-36 -32 -85 -51 -149 -51c-83 0 -149 25 -196 70c-34 -41 -81 -72 -141 -92l102 -136h-205z" />
    <glyph glyph-name="dvJ_KA" horiz-adv-x="1506" 
d="M944 0v100c-30 -36 -77 -57 -140 -57c-129 0 -202 101 -202 235c0 10 0 20 1 30h-68c-5 -134 -97 -228 -245 -228c-169 0 -253 99 -253 239v162h205v-156c0 -44 16 -67 48 -67c31 0 46 23 46 67v156h358c32 21 71 32 118 32c60 0 104 -19 132 -52v110h-955v169h1528v-169
h-377v-110c28 33 71 52 126 52c132 0 198 -107 198 -230c0 -144 -86 -227 -205 -227c-24 0 -44 2 -71 9v158c3 -1 9 -2 15 -2c32 0 54 22 54 57c0 31 -17 62 -58 62c-38 0 -59 -27 -59 -73v-267h-196zM876 214c39 0 68 27 68 65c-1 37 -27 62 -67 62c-41 0 -68 -27 -68 -64
c0 -36 25 -63 67 -63z" />
    <glyph glyph-name="dvJ_JA" horiz-adv-x="1436" 
d="M1371 0h-204v308h-68c-5 -134 -97 -228 -245 -228c-165 0 -248 94 -253 228h-66c-5 -134 -97 -228 -245 -228c-169 0 -253 99 -253 239v162h205v-156c0 -44 16 -67 48 -67c31 0 46 23 46 67v156h470v-156c0 -44 16 -67 48 -67c31 0 46 23 46 67v156h267v90h-1178v169
h1458v-169h-76v-571z" />
    <glyph glyph-name="dvJx_JxA" horiz-adv-x="1436" 
d="M289 -189c-63 0 -113 50 -113 112c0 64 50 115 113 115c64 0 114 -51 114 -115c0 -62 -50 -112 -114 -112zM853 -189c-63 0 -113 50 -113 112c0 64 50 115 113 115c64 0 114 -51 114 -115c0 -62 -50 -112 -114 -112zM1371 0h-204v308h-68c-5 -134 -97 -228 -245 -228
c-165 0 -248 94 -253 228h-66c-5 -134 -97 -228 -245 -228c-169 0 -253 99 -253 239v162h205v-156c0 -44 16 -67 48 -67c31 0 46 23 46 67v156h470v-156c0 -44 16 -67 48 -67c31 0 46 23 46 67v156h267v90h-1178v169h1458v-169h-76v-571z" />
    <glyph glyph-name="dvJ_J_NYA" horiz-adv-x="1417" 
d="M1150 0v318h-100c25 -27 42 -64 42 -114c0 -106 -81 -169 -177 -169c-50 0 -94 14 -125 40v-107h-199v293h191c4 -33 26 -60 67 -60s58 28 58 58c0 43 -36 59 -61 59h-311c-1 -140 -94 -238 -245 -238c-169 0 -253 99 -253 239v161h205v-155c0 -44 16 -67 48 -67
c31 0 46 23 46 67v155h814v91h-1161v169h1439v-169h-77v-571h-201z" />
    <glyph glyph-name="dvJ_J_YA" horiz-adv-x="1889" 
d="M1486 232c91 0 134 63 134 143v196h-111v-69c0 -85 -42 -165 -139 -192c8 -42 47 -78 116 -78zM1824 0h-204v122c-41 -37 -101 -59 -179 -59c-144 0 -236 80 -265 210c-22 -1 -49 -1 -80 -1c-19 -115 -108 -192 -242 -192c-147 0 -229 76 -248 188h-75
c-20 -112 -108 -188 -241 -188c-169 0 -253 99 -253 239v122h205v-116c0 -44 16 -67 48 -67c31 0 46 23 46 67v116h470v-116c0 -44 17 -67 48 -67s46 23 46 67v116h279c114 0 129 48 129 99v31h-1319v169h1911v-169h-76v-571z" />
    <glyph glyph-name="dvJ_J_VA" horiz-adv-x="1787" 
d="M1446 203c46 0 77 33 77 77s-31 75 -77 75c-49 0 -79 -34 -79 -76s30 -76 79 -76zM1798 571h-76v-571h-199v95c-33 -36 -80 -54 -135 -54c-144 0 -221 108 -221 243c0 8 0 16 1 24h-69c-5 -134 -97 -228 -245 -228c-165 0 -248 94 -253 228h-66
c-5 -134 -97 -228 -245 -228c-169 0 -253 99 -253 239v162h205v-156c0 -44 16 -67 48 -67c31 0 46 23 46 67v156h470v-156c0 -44 16 -67 48 -67c31 0 46 23 46 67v156h360c34 23 77 36 128 36c55 0 102 -18 135 -52v106h-1534v169h1809v-169z" />
    <glyph glyph-name="dvJ_JHA" horiz-adv-x="1432" 
d="M832 339h334v232h-144v-187h-191c-18 0 -30 -8 -30 -23c0 -14 10 -22 31 -22zM1166 0v187h-96c4 -17 6 -35 6 -55c0 -89 -60 -152 -159 -152c-44 0 -81 12 -102 25v-94h-192v257h183c0 -28 19 -40 44 -40s39 13 39 33c0 21 -14 36 -54 36c-21 0 -41 0 -69 2
c-63 4 -137 34 -162 109h-69c-5 -134 -97 -228 -245 -228c-169 0 -253 99 -253 239v162h205v-156c0 -44 16 -67 48 -67c31 0 46 23 46 67v156h305c34 32 83 47 139 47h45v43h-836v169h1454v-169h-77v-571h-200z" />
    <glyph glyph-name="dvJ_NY_YA" horiz-adv-x="1330" 
d="M927 232c90 0 133 63 133 143v196h-111v-69c0 -87 -38 -170 -134 -204c15 -37 49 -66 112 -66zM365 50c-50 0 -94 14 -125 40v-108h-198v294h190c4 -33 26 -60 67 -60c40 0 58 25 58 53c0 42 -35 57 -61 57h-52v162h293c78 0 137 -16 179 -47c27 24 32 60 32 99v31h-759
v169h1352v-169h-77v-571h-204v121c-41 -36 -100 -58 -178 -58c-149 0 -235 80 -264 209c-16 39 -44 54 -84 54h-32c25 -25 40 -60 40 -107c0 -107 -81 -169 -177 -169z" />
    <glyph glyph-name="dvJ_TTA" horiz-adv-x="1199" 
d="M897 5c-177 0 -299 102 -299 260c0 15 1 29 3 43h-66c-5 -134 -97 -228 -245 -228c-169 0 -253 99 -253 239v162h205v-156c0 -44 16 -67 48 -67c31 0 46 23 46 67v156h386c38 21 85 34 140 37v53h-873v169h1221v-169h-148v-222h-160c-54 0 -100 -30 -100 -86
c0 -48 33 -82 90 -82c59 0 94 36 94 89h194c0 -161 -109 -265 -283 -265z" />
    <glyph glyph-name="dvJ_DDA" horiz-adv-x="1096" 
d="M839 -24c-141 0 -257 64 -265 193h203c3 -34 36 -41 56 -41c27 0 48 11 48 34c0 20 -14 35 -53 35h-32c-60 0 -168 14 -199 111h-62c-5 -134 -97 -228 -245 -228c-169 0 -253 99 -253 239v162h205v-156c0 -44 16 -67 48 -67c31 0 46 23 46 67v156h298c33 30 82 45 138 45
h44v45h-827v169h1118v-169h-94v-187h-190c-18 0 -31 -8 -31 -22c0 -16 12 -23 30 -23h44c104 0 208 -45 208 -179c0 -114 -85 -184 -235 -184z" />
    <glyph glyph-name="dvJ_TA" horiz-adv-x="1274" 
d="M1209 0h-204v314h-111c-52 0 -88 -30 -88 -76c0 -44 26 -78 87 -78h16v-159h-49c-135 0 -258 72 -258 223c0 34 6 64 18 90h-85c-2 -138 -95 -234 -245 -234c-169 0 -253 99 -253 239v169h205v-163c0 -44 16 -67 48 -67c31 0 46 23 46 67v163h669v83h-1016v169h1296v-169
h-76v-571z" />
    <glyph glyph-name="dvJ_DA" horiz-adv-x="1168" 
d="M1113 -44h-199v123c-25 -23 -63 -35 -108 -35c-103 0 -209 67 -209 227c0 14 1 27 3 39h-65c-4 -135 -96 -230 -245 -230c-169 0 -253 99 -253 239v162h205v-156c0 -44 16 -67 48 -67c31 0 46 23 46 67v156h387c40 19 88 29 141 29h15v61h-890v169h1190l-1 -169h-94v-235
h-198c-52 0 -80 -29 -80 -70c0 -38 23 -62 60 -62c39 0 58 28 58 63h189v-311z" />
    <glyph glyph-name="dvJ_NA" horiz-adv-x="1416" 
d="M841 200c33 0 57 24 57 56c0 33 -24 57 -57 57s-57 -24 -57 -57c0 -32 23 -56 57 -56zM1337 0h-204v313h-92c10 -24 17 -52 17 -86c0 -134 -104 -198 -220 -198c-121 0 -237 79 -237 226c0 19 2 37 5 53h-71c-5 -134 -97 -228 -245 -228c-169 0 -253 99 -253 239v162h205
v-156c0 -44 16 -67 48 -67c31 0 46 23 46 67v156h797v90h-1144v169h1425v-169h-77v-571z" />
    <glyph glyph-name="dvJ_BA" horiz-adv-x="1241" 
d="M883 182c23 0 43 6 60 16l-168 114c-2 -8 -3 -16 -3 -24c0 -65 51 -106 111 -106zM979 0v85c-32 -31 -82 -46 -140 -46c-142 0 -244 104 -244 249c0 7 0 14 1 20h-61c-5 -134 -97 -228 -245 -228c-169 0 -253 99 -253 239v162h205v-156c0 -44 16 -67 48 -67
c31 0 46 23 46 67v156h356c40 27 90 43 147 43c53 0 101 -11 140 -35v82h-990v169h1262v-169h-76v-571h-196zM883 395c-23 0 -43 -6 -61 -17l167 -113c1 7 2 15 2 23c0 62 -45 107 -108 107z" />
    <glyph glyph-name="dvJ_MA" horiz-adv-x="1443" 
d="M1172 473v98h-95v-98h95zM836 209c37 0 51 27 51 58v40h-37c-36 0 -63 -17 -63 -49c0 -33 22 -49 49 -49zM1377 0h-205v307h-95v-29c0 -146 -79 -240 -237 -240c-143 0 -239 81 -239 206c0 25 3 47 9 67h-75c-4 -136 -96 -231 -245 -231c-169 0 -253 99 -253 239v154h205
v-148c0 -44 16 -67 48 -67c31 0 46 23 46 67v148h551v98h-898v169h1465v-169h-77v-571z" />
    <glyph glyph-name="dvJ_YA" horiz-adv-x="1325" 
d="M922 232c91 0 133 63 133 143v196h-110v-69c0 -85 -43 -165 -139 -191c7 -43 47 -79 116 -79zM1260 0h-205v121c-41 -36 -100 -58 -178 -58c-144 0 -236 80 -265 210c-23 -1 -49 -1 -81 -1c-18 -115 -107 -192 -241 -192c-169 0 -253 99 -253 239v122h205v-116
c0 -44 16 -67 48 -67c31 0 46 23 46 67v116h279c114 0 128 48 128 99v31h-754v169h1347v-169h-76v-571z" />
    <glyph glyph-name="dvJx_YA" horiz-adv-x="1325" 
d="M1260 0h-205v121c-41 -36 -100 -58 -178 -58c-144 0 -236 80 -265 210c-23 -1 -49 -1 -81 -1c-18 -115 -107 -192 -241 -192c-169 0 -253 99 -253 239v122h205v-116c0 -44 16 -67 48 -67c31 0 46 23 46 67v116h279c114 0 128 48 128 99v31h-754v169h1347v-169h-76v-571z
M289 -189c-63 0 -113 50 -113 112c0 64 50 115 113 115c64 0 114 -51 114 -115c0 -62 -50 -112 -114 -112zM922 232c91 0 133 63 133 143v196h-110v-69c0 -85 -43 -165 -139 -191c7 -43 47 -79 116 -79z" />
    <glyph glyph-name="dvJ_VA" horiz-adv-x="1223" 
d="M882 203c46 0 77 33 77 77s-31 75 -77 75c-49 0 -79 -34 -79 -76s30 -76 79 -76zM1234 571h-76v-571h-199v95c-33 -36 -80 -54 -135 -54c-144 0 -221 108 -221 243c0 8 0 16 1 24h-69c-5 -134 -97 -228 -245 -228c-169 0 -253 99 -253 239v162h205v-156
c0 -44 16 -67 48 -67c31 0 46 23 46 67v156h360c34 23 77 36 128 36c55 0 102 -18 135 -52v106h-970v169h1245v-169z" />
    <glyph glyph-name="dvJH_NA" horiz-adv-x="1380" 
d="M282 339h306c32 104 134 152 245 152h278v80h-639v-187h-191c-18 0 -30 -8 -30 -23c0 -14 10 -22 31 -22zM819 210c33 0 56 23 56 56c0 32 -23 56 -56 56c-34 0 -58 -24 -58 -56c0 -33 24 -56 58 -56zM265 5v-94h-192v257h183c0 -28 19 -40 44 -40s39 13 39 33
c0 21 -14 36 -54 36c-21 0 -41 0 -69 2c-76 5 -170 48 -170 164c0 112 79 165 184 165h45v43h-286v169h1403v-169h-77v-571h-204v322h-91c10 -23 16 -51 16 -85c0 -135 -104 -198 -220 -198c-97 0 -192 51 -226 148h-70c4 -17 6 -35 6 -55c0 -89 -60 -152 -159 -152
c-44 0 -81 12 -102 25z" />
    <glyph glyph-name="dvJH_MA" horiz-adv-x="1422" 
d="M1151 471v100h-94v-100h94zM815 208c37 0 52 26 52 58v39h-38c-36 0 -62 -16 -62 -49s21 -48 48 -48zM282 339h310c35 91 127 132 231 132h44v100h-395v-187h-191c-18 0 -30 -8 -30 -23c0 -14 10 -22 31 -22zM265 5v-94h-192v257h183c0 -28 19 -40 44 -40s39 13 39 33
c0 21 -14 36 -54 36c-21 0 -41 0 -69 2c-76 5 -170 48 -170 164c0 112 79 165 184 165h45v43h-286v169h1444v-169h-77v-571h-205v305h-94v-28c0 -146 -80 -241 -238 -241c-118 0 -204 57 -232 151h-67c4 -17 6 -35 6 -55c0 -89 -60 -152 -159 -152c-44 0 -81 12 -102 25z
" />
    <glyph glyph-name="dvJH_YA" horiz-adv-x="1296" 
d="M282 339h291v6c0 23 2 45 5 69h8c114 0 128 60 128 126v31h-242v-187h-191c-18 0 -30 -8 -30 -23c0 -14 10 -22 31 -22zM893 232c90 0 133 63 133 143v196h-111v-69c0 -87 -31 -168 -138 -188c5 -44 45 -82 116 -82zM265 5v-94h-192v257h183c0 -28 19 -40 44 -40
s39 13 39 33c0 21 -14 36 -54 36c-21 0 -41 0 -69 2c-76 5 -170 48 -170 164c0 112 79 165 184 165h45v43h-286v169h1318v-169h-77v-571h-204v121c-41 -36 -100 -58 -178 -58c-113 0 -194 46 -238 124h-90c4 -17 6 -35 6 -55c0 -89 -60 -152 -159 -152c-44 0 -81 12 -102 25
z" />
    <glyph glyph-name="dvNY_CA" horiz-adv-x="1273" 
d="M1207 0h-204v134c-38 -41 -95 -62 -163 -62c-71 0 -131 26 -166 74h-178c-40 -75 -118 -115 -212 -115c-130 0 -236 72 -242 209h192c9 -31 35 -38 52 -38c36 0 56 31 56 72c0 39 -20 71 -56 71c-17 0 -43 -7 -52 -37h-192c6 137 112 210 242 210c129 0 228 -76 240 -215
h123c5 15 13 29 22 41h-110v159h374v-159h-46c-28 0 -56 -16 -56 -51c0 -36 31 -54 73 -53c68 2 99 53 99 139v192h-1014v169h1295v-169h-77v-571z" />
    <glyph glyph-name="dvNY_CHA" horiz-adv-x="1347" 
d="M925 189c140 0 204 43 204 136c0 29 -9 58 -34 58s-36 -24 -36 -56c0 -22 4 -46 10 -67h-166c-6 19 -12 51 -12 90c0 88 45 142 111 166v55h-215v-41c0 -33 11 -58 47 -58h19v-162h-15c-38 0 -58 -23 -58 -51c0 -40 31 -70 145 -70zM923 16c-184 0 -320 57 -346 180h-62
c-28 -107 -118 -165 -231 -165c-130 0 -236 72 -242 209h192c9 -31 35 -38 52 -38c36 0 56 31 56 72c0 39 -20 71 -56 71c-17 0 -43 -7 -52 -37h-192c6 137 112 210 242 210c108 0 194 -53 227 -151h120c10 8 21 14 33 20v4c-46 15 -81 54 -81 130v50h-594v169h1369v-169
h-168v-57c74 -31 117 -102 117 -199c0 -179 -133 -299 -384 -299z" />
    <glyph glyph-name="dvNY_JA" horiz-adv-x="1409" 
d="M1344 0h-204v308h-68c-5 -134 -97 -228 -245 -228c-113 0 -188 44 -226 116h-86c-28 -107 -118 -165 -231 -165c-130 0 -236 72 -242 209h192c9 -31 35 -38 52 -38c36 0 56 31 56 72c0 39 -20 71 -56 71c-17 0 -43 -7 -52 -37h-192c6 137 112 210 242 210
c108 0 194 -53 227 -151h63v114h205v-156c0 -44 16 -67 48 -67c31 0 46 23 46 67v156h267v90h-1151v169h1431v-169h-76v-571z" />
    <glyph glyph-name="dvNY_SHA" horiz-adv-x="1413" 
d="M840 -6c-144 0 -239 76 -255 202h-70c-28 -107 -118 -165 -231 -165c-130 0 -236 72 -242 209h192c9 -31 35 -38 52 -38c36 0 56 31 56 72c0 39 -20 71 -56 71c-17 0 -43 -7 -52 -37h-192c6 137 112 210 242 210c108 0 194 -53 227 -151h72v70h135c77 0 160 14 160 93
c0 23 -10 43 -35 43c-26 0 -37 -19 -37 -46v-27h-203c-1 11 -2 23 -2 34c0 13 1 25 3 37h-615v169h777c23 6 49 9 77 9c143 0 242 -82 242 -232c0 -176 -131 -250 -289 -250h-7v-45c0 -26 8 -54 46 -54c28 0 42 21 42 48v17h198c1 -11 1 -18 1 -20
c0 -140 -92 -219 -236 -219zM1141 0v740h283v-169h-76v-571h-207z" />
    <glyph glyph-name="dvTT_TTA" horiz-adv-x="659" 
d="M-11 571v169h681v-169h-158v-222h-163c-52 0 -97 -28 -97 -82c0 -46 32 -80 89 -80c61 0 94 36 94 87h194c0 -159 -103 -256 -283 -262c-52 -2 -94 -28 -94 -83c0 -46 32 -80 89 -80c61 0 94 36 94 88h194c0 -160 -108 -263 -283 -263c-177 0 -299 99 -299 251
c0 71 31 131 85 171c-54 41 -85 103 -85 180c0 135 95 234 264 243v52h-322z" />
    <glyph glyph-name="dvTT_TTHA" horiz-adv-x="659" 
d="M-11 571v169h681v-169h-158v-222h-163c-52 0 -97 -28 -97 -82c0 -46 32 -80 89 -80c60 0 94 36 94 87h194c0 -75 -29 -135 -82 -176c51 -39 85 -97 85 -176c0 -156 -131 -246 -292 -246c-162 0 -292 90 -292 246c0 79 33 137 84 175c-60 44 -84 110 -84 179
c0 135 94 234 263 243v52h-322zM340 -154c57 0 89 35 89 85s-32 85 -89 85s-89 -35 -89 -85s32 -85 89 -85z" />
    <glyph glyph-name="dvTT_YA" horiz-adv-x="1330" 
d="M1065 0v84c-32 -34 -79 -56 -149 -56c-113 0 -230 64 -230 244v19h69c24 0 40 9 40 28c0 22 -18 30 -40 30h-409c-54 0 -100 -30 -100 -86c0 -48 33 -82 90 -82c53 0 84 32 84 79h193c0 -155 -105 -255 -273 -255c-176 0 -298 102 -298 260c0 140 95 243 264 253v53h-317
v169h1352v-169h-77v-571h-199zM959 180c53 0 106 34 106 115v276h-559v-62h254c161 0 232 -70 232 -167c0 -56 -36 -107 -106 -125c10 -20 32 -37 73 -37z" />
    <glyph glyph-name="dvTT_VA" horiz-adv-x="660" 
d="M326 -129c43 0 72 29 72 71v74c-21 -3 -44 -4 -68 -4c-51 0 -78 -33 -78 -71c0 -39 28 -70 74 -70zM-11 571v169h682v-169h-155v-222h-168c-55 0 -101 -28 -101 -82c0 -46 34 -80 96 -80c66 0 104 36 104 87h193c0 -68 -19 -123 -55 -166v-440h-187v98
c-32 -34 -79 -51 -133 -51c-134 0 -206 100 -206 212c0 64 25 122 72 161c-56 43 -87 108 -87 186c0 138 98 240 272 246v51h-327z" />
    <glyph glyph-name="dvTTH_TTHA" horiz-adv-x="677" 
d="M339 -156c58 0 91 36 91 87s-33 87 -91 87c-57 0 -90 -36 -90 -87s33 -87 90 -87zM339 185c58 0 91 36 91 88c0 50 -33 86 -91 86c-57 0 -90 -36 -90 -86c0 -52 33 -88 90 -88zM339 -324c-161 0 -292 90 -292 246c0 75 30 131 77 169c-48 43 -77 105 -77 182
c0 134 85 212 190 241v57h-248v169h699v-169h-250v-56c107 -29 193 -107 193 -242c0 -77 -29 -139 -77 -182c47 -38 77 -94 77 -169c0 -156 -131 -246 -292 -246z" />
    <glyph glyph-name="dvTTH_YA" horiz-adv-x="1339" 
d="M334 188c58 0 90 37 90 88s-32 87 -90 87c-56 0 -89 -36 -89 -87s33 -88 89 -88zM968 196c53 0 106 34 106 115v260h-641v-50h336c161 0 232 -68 232 -163c0 -56 -36 -107 -106 -125c10 -20 33 -37 73 -37zM1074 0v101c-32 -34 -79 -56 -149 -56c-112 0 -230 63 -230 243
v18h69c24 0 40 10 40 29c0 21 -18 29 -39 29h-166c13 -30 20 -63 20 -99c0 -147 -118 -246 -285 -246c-164 0 -292 94 -292 257c0 135 85 214 190 244v51h-243v169h1361v-169h-77v-571h-199z" />
    <glyph glyph-name="dvTTH_VA" horiz-adv-x="679" 
d="M344 193c58 0 91 36 91 87s-33 87 -91 87c-57 0 -91 -36 -91 -87s33 -87 91 -87zM332 -116c44 0 73 30 73 70v76c-22 -3 -45 -5 -69 -5c-47 0 -77 -30 -77 -72c0 -39 27 -69 73 -69zM595 -318h-190v98c-31 -34 -75 -51 -127 -51c-137 0 -210 95 -210 216
c0 62 23 118 66 155c-51 43 -82 105 -82 184c0 132 85 209 190 238v49h-253v169h701v-169h-247v-49c106 -28 192 -106 192 -242c0 -54 -14 -101 -40 -138v-460z" />
    <glyph glyph-name="dvDD_DDA" horiz-adv-x="571" 
d="M-11 571v169h593v-169h-100v-175h-191c-21 0 -34 -5 -34 -20c0 -17 17 -21 55 -21c140 0 231 -36 231 -158c0 -108 -96 -167 -260 -167c-25 0 -37 -6 -37 -20c0 -20 22 -21 58 -21c145 0 239 -34 239 -158c0 -109 -90 -168 -241 -168c-140 0 -251 58 -258 172h193
c3 -29 32 -42 63 -42c33 0 52 13 52 36c0 36 -39 36 -70 36c-136 0 -224 37 -224 140c0 40 18 71 49 92c-38 24 -63 60 -63 105h193c5 -24 32 -39 63 -39c33 0 52 14 52 35c0 33 -40 34 -70 34c-137 0 -224 41 -224 150c0 96 78 145 183 145h52v44h-304z" />
    <glyph glyph-name="dvDD_DDHA" horiz-adv-x="579" 
d="M-10 571v169h591v-169h-99v-175h-191c-21 0 -34 -5 -34 -20c0 -17 17 -21 55 -21c140 0 231 -36 231 -158c0 -101 -78 -149 -227 -168c-76 -10 -132 -50 -132 -124c0 -58 33 -109 129 -109c58 0 104 15 104 55c0 15 -9 26 -27 26c-15 0 -24 -10 -24 -22c0 -4 1 -8 3 -12
h-130c-3 14 -5 29 -5 39c0 82 64 126 163 126c112 0 182 -64 182 -155c0 -118 -88 -189 -260 -189c-166 0 -305 82 -305 247c0 85 37 147 99 183c-42 24 -70 60 -70 108h194c5 -24 32 -39 63 -39c33 0 52 14 52 35c0 33 -40 34 -70 34c-137 0 -224 41 -224 150
c0 96 78 145 183 145h52v44h-303z" />
    <glyph glyph-name="dvDD_YA" horiz-adv-x="1231" 
d="M966 0v101c-32 -34 -79 -56 -148 -56c-113 0 -231 63 -231 243v19h62c25 0 48 12 48 38c0 28 -26 39 -47 39h-363c-18 0 -31 -8 -31 -22c0 -16 12 -23 30 -23h44c104 0 208 -45 208 -179c0 -114 -85 -184 -235 -184c-141 0 -257 64 -265 193h203c3 -34 36 -41 56 -41
c27 0 48 11 48 34c0 20 -14 35 -53 35h-32c-71 0 -208 19 -208 172c0 104 79 157 184 157h44v45h-291v169h1253v-169h-76v-571h-200zM861 196c52 0 105 34 105 115v260h-489v-50h185c169 0 231 -67 231 -161c0 -59 -35 -110 -106 -127c11 -20 33 -37 74 -37z" />
    <glyph glyph-name="dvDD_VA" horiz-adv-x="581" 
d="M281 -142c39 0 66 25 66 58v97c-14 -1 -29 -2 -44 -2c-54 0 -89 -29 -89 -83c0 -43 30 -70 67 -70zM-11 571v169h603v-169h-110v-175h-191c-18 0 -34 -6 -34 -25c0 -31 34 -22 87 -26c121 -8 199 -53 199 -164c0 -35 -9 -65 -26 -90v-439h-170v104
c-29 -26 -69 -39 -116 -39c-115 0 -190 79 -190 189c0 65 28 121 78 153c-48 31 -76 75 -76 123h194c5 -23 32 -38 63 -38c33 0 52 13 52 38c0 38 -39 40 -85 40c-73 0 -209 17 -209 160c0 96 78 145 183 145h52v44h-304z" />
    <glyph glyph-name="dvDDH_DDHA" horiz-adv-x="679" 
d="M-11 571v169h701v-169h-185v-162h-119c-81 0 -143 -43 -143 -123c0 -62 33 -116 129 -116c59 0 105 15 105 54c0 16 -9 27 -26 27c-18 0 -26 -11 -26 -22c0 -4 1 -8 3 -12h-130c-3 14 -5 28 -5 39c0 83 66 126 165 126c117 0 181 -64 181 -155
c0 -120 -106 -189 -253 -189v0c-81 0 -143 -43 -143 -123c0 -62 33 -116 129 -116c59 0 105 15 105 55c0 15 -9 26 -27 26c-16 0 -25 -11 -25 -22c0 -4 1 -8 3 -12h-130c-3 14 -5 28 -5 39c0 82 65 126 163 126c113 0 183 -64 183 -155c0 -120 -92 -189 -271 -189
c-170 0 -309 86 -309 247c0 84 37 148 99 187c-62 43 -99 109 -99 194c0 151 113 239 266 239h7v37h-343z" />
    <glyph glyph-name="dvDDH_YA" horiz-adv-x="1356" 
d="M1091 0v100c-32 -33 -79 -55 -148 -55c-113 0 -231 63 -231 243v19h56c29 0 54 13 54 40c0 33 -28 45 -54 45h-371c-89 0 -158 -48 -158 -136c0 -70 37 -130 142 -130c58 0 104 18 104 63c0 17 -10 28 -26 28s-25 -12 -25 -24c0 -5 1 -10 3 -14h-143c-3 15 -5 31 -5 43
c0 90 72 138 179 138c122 0 190 -69 190 -171c0 -132 -97 -208 -281 -208c-188 0 -335 99 -335 284c0 167 122 265 288 265h6v41h-347v169h1378v-169h-76v-571h-200zM986 196c52 0 105 34 105 114v261h-564v-47h260c169 0 231 -65 231 -163c0 -71 -43 -112 -106 -128
c10 -20 33 -37 74 -37z" />
    <glyph glyph-name="dvDDH_VA" horiz-adv-x="669" 
d="M-11 571v169h691v-169h-175v-162h-119c-81 0 -143 -43 -143 -123c0 -62 33 -116 129 -116c58 0 104 15 104 54c0 16 -9 27 -26 27s-25 -11 -25 -22c0 -4 1 -8 3 -12h-130c-3 14 -5 28 -5 39c0 83 66 126 165 126c116 0 180 -64 180 -155c0 -50 -18 -91 -52 -122v-453
h-170v135c-31 -33 -75 -51 -127 -51c-139 0 -214 91 -214 203c0 64 28 120 77 155c-57 43 -93 111 -93 201c0 151 113 239 266 239h7v37h-343zM341 -109c47 0 75 33 75 74v75c-16 -1 -33 -2 -50 -2c-50 0 -100 -19 -100 -76c0 -39 28 -71 75 -71z" />
    <glyph glyph-name="dvNN_TTA" horiz-adv-x="1221" 
d="M316 291c27 0 40 18 40 44v236h-82v-236c0 -26 17 -44 42 -44zM1202 270c0 -161 -109 -265 -283 -265c-177 0 -299 102 -299 260c0 140 95 243 264 253v53h-328v-217c0 -133 -78 -234 -240 -234c-165 0 -241 106 -241 234v217h-86v169h1243v-169h-148v-222h-160
c-54 0 -100 -30 -100 -86c0 -48 33 -82 90 -82c59 0 94 36 94 89h194z" />
    <glyph glyph-name="dvNN_TTHA" horiz-adv-x="1253" 
d="M919 188c58 0 90 37 90 88s-32 87 -90 87c-56 0 -89 -36 -89 -87s33 -88 89 -88zM316 291c27 0 40 18 40 44v236h-82v-236c0 -26 17 -44 42 -44zM919 19c-164 0 -292 94 -292 257c0 135 85 214 190 244v51h-261v-217c0 -133 -78 -234 -240 -234c-165 0 -241 106 -241 234
v217h-86v169h1275v-169h-246v-50c107 -29 194 -108 194 -245c0 -163 -129 -257 -293 -257z" />
    <glyph glyph-name="dvNN_DDA" horiz-adv-x="1144" 
d="M316 291c27 0 40 18 40 44v236h-82v-236c0 -26 17 -44 42 -44zM1122 160c0 -114 -85 -184 -235 -184c-141 0 -257 64 -265 193h203c3 -34 36 -41 56 -41c27 0 48 11 48 34c0 20 -14 35 -53 35h-32c-71 0 -208 19 -208 172c0 104 79 157 184 157h44v45h-308v-217
c0 -133 -78 -234 -240 -234c-165 0 -241 106 -241 234v217h-86v169h1166v-169h-94v-187h-190c-18 0 -31 -8 -31 -22c0 -16 12 -23 30 -23h44c104 0 208 -45 208 -179z" />
    <glyph glyph-name="dvNN_DDHA" horiz-adv-x="1245" 
d="M316 291c27 0 40 18 40 44v236h-82v-236c0 -26 17 -44 42 -44zM1238 189c0 -132 -97 -208 -281 -208c-188 0 -335 99 -335 284c0 167 122 265 288 265h6v41h-360v-217c0 -133 -78 -234 -240 -234c-165 0 -241 106 -241 234v217h-86v169h1266v-169h-148v-179h-130
c-89 0 -158 -48 -158 -136c0 -70 37 -130 142 -130c58 0 104 18 104 63c0 17 -10 28 -26 28s-25 -12 -25 -24c0 -5 1 -10 3 -14h-143c-3 15 -5 31 -5 43c0 90 72 138 179 138c122 0 190 -69 190 -171z" />
    <glyph glyph-name="dvNN_NNA" horiz-adv-x="1479" 
d="M316 291c27 0 40 18 40 44v236h-82v-236c0 -26 17 -44 42 -44zM874 291c27 0 40 18 40 44v236h-82v-236c0 -26 17 -44 42 -44zM1490 571h-77v-571h-204v571h-95v-217c0 -133 -78 -234 -240 -234c-165 0 -241 106 -241 234v217h-77v-217c0 -133 -78 -234 -240 -234
c-165 0 -241 106 -241 234v217h-86v169h1501v-169z" />
    <glyph glyph-name="dvNN_MA" horiz-adv-x="1460" 
d="M1189 471v100h-94v-100h94zM853 208c37 0 52 26 52 58v39h-38c-36 0 -62 -16 -62 -49s21 -48 48 -48zM316 291c27 0 40 18 40 44v236h-82v-236c0 -26 17 -44 42 -44zM1471 571h-77v-571h-205v305h-94v-28c0 -146 -80 -241 -238 -241c-145 0 -241 86 -241 219
c0 150 113 216 245 216h44v100h-349v-217c0 -133 -78 -234 -240 -234c-165 0 -241 106 -241 234v217h-86v169h1482v-169z" />
    <glyph glyph-name="dvNN_YA" horiz-adv-x="1344" 
d="M1356 571h-77v-571h-204v121c-41 -36 -100 -58 -178 -58c-176 0 -275 111 -275 282c0 23 2 45 5 69h8c114 0 128 60 128 126v31h-207v-217c0 -133 -78 -234 -240 -234c-165 0 -241 106 -241 234v217h-86v169h1367v-169zM316 291c27 0 40 18 40 44v236h-82v-236
c0 -26 17 -44 42 -44zM942 232c90 0 133 63 133 143v196h-111v-69c0 -87 -31 -168 -138 -188c5 -44 45 -82 116 -82z" />
    <glyph glyph-name="dvNN_VA" horiz-adv-x="1249" 
d="M908 203c46 0 77 33 77 77s-31 75 -77 75c-49 0 -79 -34 -79 -76s30 -76 79 -76zM316 291c27 0 40 18 40 44v236h-82v-236c0 -26 17 -44 42 -44zM1260 571h-76v-571h-199v95c-33 -36 -80 -54 -135 -54c-144 0 -221 108 -221 243c0 130 77 233 221 233
c55 0 102 -18 135 -52v106h-429v-217c0 -133 -78 -234 -240 -234c-165 0 -241 106 -241 234v217h-86v169h1271v-169z" />
    <glyph glyph-name="dvT_KA" horiz-adv-x="1324" 
d="M762 0v100c-30 -36 -77 -57 -140 -57c-129 0 -202 101 -202 235c0 11 0 22 1 32h-85c-52 0 -88 -28 -88 -72s26 -78 87 -78h16v-159h-49c-136 0 -260 66 -260 242c0 170 134 241 284 241h191c31 19 69 29 113 29c60 0 104 -19 132 -52v110h-773v169h1346v-169h-377v-110
c28 33 71 52 126 52c132 0 198 -107 198 -230c0 -144 -86 -227 -205 -227c-24 0 -44 2 -71 9v158c3 -1 9 -2 15 -2c32 0 54 22 54 57c0 31 -17 62 -58 62c-38 0 -59 -27 -59 -73v-267h-196zM694 214c39 0 68 27 68 65c-1 37 -27 62 -67 62c-41 0 -68 -27 -68 -64
c0 -36 25 -63 67 -63z" />
    <glyph glyph-name="dvT_K_YA" horiz-adv-x="1791" 
d="M958 571v-118c28 31 71 50 125 50c47 0 84 -15 112 -41c12 22 15 49 15 77v32h-252zM694 214c39 0 68 27 68 65c-1 37 -27 62 -67 62c-41 0 -68 -27 -68 -64c0 -36 25 -63 67 -63zM1389 232c90 0 133 63 133 143v196h-111v-70c0 -87 -31 -168 -139 -188
c5 -43 45 -81 117 -81zM958 267v-267h-196v100c-30 -36 -77 -57 -140 -57c-129 0 -202 101 -202 235c0 11 0 22 1 32h-85c-52 0 -88 -28 -88 -72s26 -78 87 -78h16v-159h-49c-136 0 -260 66 -260 242c0 170 134 241 284 241h191c31 19 69 29 113 29c60 0 104 -19 132 -52
v110h-773v169h1814v-169h-77v-571h-204v121c-41 -36 -100 -58 -178 -58c-159 0 -256 91 -272 234c-6 21 -21 43 -55 43c-38 -1 -59 -27 -59 -73z" />
    <glyph glyph-name="dvT_K_RA" horiz-adv-x="1324" 
d="M762 0v111l-113 -157h-218l104 126c-71 33 -115 107 -115 198c0 11 0 22 1 32h-85c-52 0 -88 -28 -88 -72s26 -78 87 -78h16v-159h-49c-136 0 -260 66 -260 242c0 170 134 241 284 241h191c31 19 69 29 113 29c60 0 104 -19 132 -52v110h-773v169h1346v-169h-377v-110
c28 33 71 52 126 52c132 0 198 -107 198 -230c0 -144 -86 -227 -205 -227c-24 0 -44 2 -71 9v158c3 -1 9 -2 15 -2c32 0 54 22 54 57c0 31 -17 62 -58 62c-38 0 -56 -30 -59 -73v-267h-196zM694 214c39 0 68 27 68 65c-1 37 -27 62 -67 62c-41 0 -68 -27 -68 -64
c0 -36 25 -63 67 -63z" />
    <glyph glyph-name="dvT_K_VA" horiz-adv-x="1694" 
d="M958 571v-116c28 31 70 48 124 48c34 0 62 -8 85 -22c34 23 77 36 129 36c55 0 102 -18 135 -52v106h-473zM694 214c39 0 68 27 68 65c-1 37 -27 62 -67 62c-41 0 -68 -27 -68 -64c0 -36 25 -63 67 -63zM1354 203c46 0 77 33 77 77s-31 75 -77 75c-49 0 -79 -34 -79 -76
s30 -76 79 -76zM1706 571h-76v-571h-199v95c-33 -36 -80 -54 -135 -54c-142 0 -219 105 -221 237h-1c0 31 -16 62 -57 62c-38 0 -59 -27 -59 -73v-267h-196v100c-30 -36 -77 -57 -140 -57c-129 0 -202 101 -202 235c0 12 1 24 2 36h-86c-52 0 -88 -30 -88 -76
c0 -44 26 -78 87 -78h16v-159h-49c-136 0 -260 66 -260 242c0 172 134 245 284 245h198c29 16 65 25 106 25c60 0 104 -19 132 -52v110h-773v169h1717v-169z" />
    <glyph glyph-name="dvT_K_SSA" horiz-adv-x="1285" 
d="M647 528c0 -32 26 -61 75 -59c20 15 33 33 33 56c0 24 -17 51 -55 51c-31 0 -53 -20 -53 -48zM748 -68v143c-27 -28 -71 -42 -120 -42c-111 0 -192 69 -192 177h-1v13c0 59 -48 91 -98 91c-53 0 -89 -30 -89 -76c0 -44 26 -78 87 -78h16v-159h-49
c-136 0 -260 66 -260 242c0 163 120 245 255 245c103 0 177 -53 216 -128c15 11 30 20 46 29c-50 25 -94 73 -94 155c0 9 1 18 2 27h-478v169h642c23 6 48 9 75 9c120 0 217 -59 217 -181c0 -41 -13 -74 -33 -101h135v273h272v-169h-77v-571h-195v321h-327
c-33 -16 -52 -34 -52 -65c0 -32 25 -55 58 -55c43 0 62 37 62 67h168v-336h-186z" />
    <glyph glyph-name="dvT_KHA" horiz-adv-x="1368" 
d="M1100 0v125c-22 -19 -54 -30 -97 -30c-10 0 -21 1 -30 2c-48 -62 -124 -106 -225 -106c-171 0 -283 90 -301 258c-8 31 -30 65 -99 65c-65 0 -100 -30 -100 -76c0 -44 26 -78 87 -78h16v-159h-49c-136 0 -260 66 -260 242c0 168 138 249 294 249c99 0 169 -24 216 -66
c30 19 42 51 42 96v49h-605v169h1390v-169h-76v-571h-203zM752 166c44 0 70 15 85 32c-15 31 -23 67 -23 105c0 116 76 206 189 206c42 0 74 -12 97 -31v93h-301v-78c0 -126 -59 -206 -152 -226c2 -56 36 -101 105 -101zM1049 249c30 0 51 21 51 54c-1 28 -17 53 -51 53
c-31 0 -53 -19 -53 -53c0 -36 22 -54 53 -54z" />
    <glyph glyph-name="dvT_KH_RA" horiz-adv-x="1368" 
d="M1100 0v125c-22 -19 -54 -30 -97 -30c-11 0 -21 1 -31 2l-163 -227h-217v10l99 125c-138 17 -227 101 -243 243c-8 32 -30 66 -100 66c-65 0 -100 -30 -100 -76c0 -44 26 -78 87 -78h16v-159h-49c-136 0 -260 66 -260 242c0 168 138 249 294 249c99 0 169 -24 216 -66
c30 19 42 51 42 96v49h-605v169h1390v-169h-76v-571h-203zM752 166c44 0 70 15 85 32c-15 31 -23 67 -23 105c0 116 76 206 189 206c42 0 74 -12 97 -31v93h-301v-78c0 -126 -59 -206 -152 -226c2 -56 36 -101 105 -101zM1049 249c30 0 51 21 51 54c-1 28 -17 53 -51 53
c-31 0 -53 -19 -53 -53c0 -36 22 -54 53 -54z" />
    <glyph glyph-name="dvT_TA" horiz-adv-x="785" 
d="M-11 571v169h807v-169h-77v-571h-204v314h-110c-53 0 -89 -30 -89 -77c0 -43 27 -77 88 -77h15v-159h-49c-134 0 -257 76 -257 216c0 40 8 73 22 100h-116v171h496v83h-526z" />
    <glyph glyph-name="dvT_T_YA" horiz-adv-x="1203" 
d="M800 232c90 0 133 63 133 143v196h-111v-69c0 -89 -46 -172 -137 -195c8 -41 47 -75 115 -75zM1137 0h-204v121c-41 -36 -100 -58 -178 -58c-143 0 -235 73 -265 192c-18 39 -43 60 -86 60c-52 0 -89 -29 -89 -76c0 -43 27 -77 88 -77h15v-159h-49
c-134 0 -257 75 -257 216c0 39 8 72 22 99h-116v171h375c80 0 141 -22 185 -56c37 22 43 63 43 107v31h-633v169h1226v-169h-77v-571z" />
    <glyph glyph-name="dvT_T_VA" horiz-adv-x="1108" 
d="M767 203c46 0 77 33 77 77s-31 75 -77 75c-49 0 -79 -34 -79 -76s30 -76 79 -76zM1119 571h-76v-571h-199v95c-33 -36 -80 -54 -135 -54c-144 0 -221 108 -221 243c0 10 0 20 1 30h-84c-53 0 -89 -30 -89 -77c0 -43 27 -77 88 -77h15v-159h-49c-134 0 -257 76 -257 216
c0 40 8 73 22 100h-116v171h573c32 19 71 29 117 29c55 0 102 -18 135 -52v106h-855v169h1130v-169z" />
    <glyph glyph-name="dvT_THA" horiz-adv-x="1206" 
d="M936 0v165c-33 -50 -106 -93 -210 -93c-145 0 -253 78 -284 211h-117c-51 0 -77 -24 -77 -62c0 -34 23 -61 73 -61h30v-159h-55c-133 0 -254 62 -254 226c0 156 124 222 272 222h207c105 0 170 22 170 90c0 22 -11 37 -30 37c-18 0 -33 -13 -33 -40c0 -12 2 -21 4 -30
h-183c-2 13 -3 26 -3 35c0 10 1 20 2 30h-459v169h604c23 6 46 9 70 9c128 0 220 -81 220 -216c0 -117 -72 -217 -248 -227c10 -30 42 -66 122 -66c99 0 179 65 179 204v296h281v-169h-77v-571h-204z" />
    <glyph glyph-name="dvT_NA" horiz-adv-x="1222" 
d="M661 206c32 0 56 24 56 57c0 32 -24 56 -56 56c-34 0 -58 -24 -58 -56c0 -33 24 -57 58 -57zM1157 0h-205v319h-91c10 -23 16 -51 16 -85c0 -135 -104 -198 -219 -198c-122 0 -238 79 -238 226c0 19 2 36 5 52h-89c-52 0 -88 -30 -88 -76c0 -44 26 -78 87 -78h16v-159
h-49c-136 0 -260 66 -260 242c0 172 134 245 284 245h626v83h-963v169h1244v-169h-76v-571z" />
    <glyph glyph-name="dvT_N_YA" horiz-adv-x="1667" 
d="M661 175c33 0 56 24 56 57c0 32 -23 56 -56 56c-34 0 -58 -24 -58 -56c0 -33 24 -57 58 -57zM1265 232c90 0 133 63 133 143v196h-111v-69c0 -81 -41 -158 -136 -186c16 -48 54 -84 114 -84zM1602 0h-204v122c-41 -37 -101 -59 -179 -59c-143 0 -236 86 -264 225h-93
c10 -23 16 -51 16 -85c0 -135 -104 -198 -220 -198c-121 0 -238 79 -238 226c0 19 2 36 5 52h-93c-53 0 -84 -19 -84 -61c0 -35 24 -62 78 -62h25v-159h-49c-136 0 -260 63 -260 231c0 158 134 225 284 225h631c114 0 129 39 129 83v31h-1097v169h1690v-169h-77v-571z" />
    <glyph glyph-name="dvT_PA" horiz-adv-x="1041" 
d="M690 307c56 0 82 42 82 93v171h-161v-170c0 -52 24 -94 79 -94zM976 0h-204v181c-32 -28 -76 -45 -136 -45c-120 0 -194 74 -219 178h-81c-52 0 -88 -30 -88 -76c0 -44 26 -78 87 -78h16v-159h-49c-136 0 -260 66 -260 242c0 172 134 245 284 245h81v83h-418v169h1063
v-169h-76v-571z" />
    <glyph glyph-name="dvT_P_RA" horiz-adv-x="1041" 
d="M690 307c56 0 82 42 82 93v171h-161v-170c0 -52 24 -94 79 -94zM772 0v183l-153 -218h-218l156 193c-72 24 -119 81 -139 156h-82c-52 0 -88 -30 -88 -76c0 -44 26 -78 87 -78h16v-159h-49c-136 0 -260 66 -260 242c0 172 134 245 284 245h81v83h-418v169h1063v-169h-76
v-571h-204z" />
    <glyph glyph-name="dvT_P_LA" horiz-adv-x="1616" 
d="M685 307c33 0 54 18 64 42c33 115 131 163 229 163c90 0 144 -37 176 -94h3c23 41 58 72 110 86v67h-656v-170c0 -52 23 -94 74 -94zM351 1h-49c-136 0 -260 66 -260 242c0 172 134 245 284 245h81v83h-418v169h1638v-169h-160v-94c62 -37 107 -106 107 -213
c0 -151 -97 -259 -272 -259c-7 0 -19 0 -35 1v177c9 -1 21 -2 26 -2c40 0 74 26 74 80c0 44 -23 72 -64 72c-49 0 -63 -42 -63 -77v-29h-168v29c0 35 -14 77 -63 77c-41 0 -64 -28 -64 -72c0 -54 34 -80 74 -80c5 0 16 1 26 2v-177c-16 -1 -28 -1 -35 -1
c-129 0 -215 58 -252 149c-28 -12 -61 -18 -98 -18c-132 0 -214 74 -242 178h-82c-52 0 -88 -30 -88 -76c0 -44 26 -78 87 -78h16v-159z" />
    <glyph glyph-name="dvT_PHA" horiz-adv-x="1334" 
d="M682 307c50 0 74 38 74 83v181h-145v-181c0 -46 22 -83 71 -83zM960 0h-204v179c-30 -27 -73 -43 -128 -43c-118 0 -190 74 -213 178h-79c-52 0 -88 -30 -88 -76c0 -44 26 -78 87 -78h16v-159h-49c-136 0 -260 66 -260 242c0 172 134 245 284 245h81v83h-418v169h1356
v-169h-385v-109c31 32 77 51 136 51c130 0 198 -104 198 -225c0 -147 -85 -232 -205 -232c-26 0 -52 3 -79 12v155c8 -2 16 -3 23 -3c36 0 54 27 54 58s-17 62 -58 62c-44 0 -69 -33 -69 -95v-245z" />
    <glyph glyph-name="dvT_MA" horiz-adv-x="1259" 
d="M988 472v99h-95v-99h95zM652 208c37 0 52 27 52 59v39h-38c-36 0 -63 -17 -63 -49c0 -33 22 -49 49 -49zM1193 0h-205v306h-95v-28c0 -146 -79 -241 -237 -241c-145 0 -241 86 -241 219c0 15 1 29 3 42h-82c-52 0 -88 -25 -88 -66c0 -40 26 -72 87 -72h16v-159h-49
c-136 0 -260 65 -260 237c0 165 134 234 284 234h378v99h-715v169h1281v-169h-77v-571z" />
    <glyph glyph-name="dvT_M_YA" horiz-adv-x="1704" 
d="M653 189c37 0 52 26 52 59v38h-38c-36 0 -62 -16 -62 -48c0 -33 21 -49 48 -49zM1042 452c70 0 80 42 80 88v31h-227v-119h147zM1301 232c90 0 133 63 133 143v196h-111v-69c0 -85 -46 -164 -139 -187c5 -44 45 -83 117 -83zM1638 0h-204v121c-41 -36 -100 -58 -178 -58
c-155 0 -249 86 -270 223h-91v-28c0 -146 -80 -241 -238 -241c-145 0 -241 86 -241 220c0 15 1 29 3 42h-98c-43 0 -73 -23 -73 -60c0 -33 23 -59 75 -59h28v-159h-49c-136 0 -260 62 -260 227c0 158 129 224 274 224h389v119h-716v169h1726v-169h-77v-571z" />
    <glyph glyph-name="dvT_YA" horiz-adv-x="1134" 
d="M731 232c90 0 133 63 133 143v196h-111v-69c0 -89 -46 -172 -138 -195c8 -41 48 -75 116 -75zM1068 0h-204v121c-41 -36 -100 -58 -178 -58c-141 0 -233 71 -264 188c-17 42 -43 64 -88 64c-51 0 -86 -30 -86 -76c0 -44 26 -78 87 -78h16v-159h-49
c-136 0 -260 66 -260 243c0 171 133 244 282 244c80 0 141 -21 185 -56c37 23 43 64 43 107v31h-563v169h1156v-169h-77v-571z" />
    <glyph glyph-name="dvT_R_YA" horiz-adv-x="1163" 
d="M760 229c90 0 133 63 133 143v199h-111v-73c0 -86 -31 -168 -139 -187v-2l1 -4v0c8 -42 47 -76 116 -76zM1097 0h-204v120c-41 -37 -101 -59 -179 -59c-100 0 -175 36 -221 99l-166 -159h-267v8l374 318c-20 14 -47 23 -76 23c-62 0 -109 -35 -109 -104h-204
c0 144 105 266 300 266c77 0 151 -23 208 -70c23 24 28 59 28 95v34h-592v169h1185v-169h-77v-571z" />
    <glyph glyph-name="dvT_LA" horiz-adv-x="1300" 
d="M351 1h-49c-136 0 -260 66 -260 242c0 172 134 245 284 245h223c35 16 74 24 113 24c90 0 144 -37 176 -94h3c23 41 58 72 110 86v67h-962v169h1322v-169h-160v-94c62 -37 107 -106 107 -213c0 -151 -97 -259 -272 -259c-7 0 -19 0 -35 1v177c9 -1 21 -2 26 -2
c40 0 74 26 74 80c0 44 -23 72 -64 72c-49 0 -63 -42 -63 -77v-29h-168v29c0 35 -14 77 -63 77c-41 0 -64 -28 -64 -72c0 -54 34 -80 74 -80c5 0 16 1 26 2v-177c-16 -1 -28 -1 -35 -1c-175 0 -272 108 -272 259c0 18 1 34 4 50h-90c-52 0 -88 -30 -88 -76
c0 -44 26 -78 87 -78h16v-159z" />
    <glyph glyph-name="dvT_VA" horiz-adv-x="1040" 
d="M699 203c46 0 77 33 77 77s-31 75 -77 75c-49 0 -79 -34 -79 -76s30 -76 79 -76zM1051 571h-76v-571h-199v95c-33 -36 -80 -54 -135 -54c-144 0 -221 108 -221 243c0 10 0 20 1 30h-85c-52 0 -88 -30 -88 -76c0 -44 26 -78 87 -78h16v-159h-49c-136 0 -260 66 -260 242
c0 172 134 245 284 245h198c32 19 71 29 117 29c55 0 102 -18 135 -52v106h-787v169h1062v-169z" />
    <glyph glyph-name="dvT_SA" horiz-adv-x="1235" 
d="M842 519c0 -29 -3 -58 -11 -85h134v137h-123v-52zM912 187c0 -119 -82 -196 -224 -196c-155 0 -237 99 -237 220v20c0 35 -21 83 -103 83c-65 0 -100 -30 -100 -76c0 -44 26 -78 87 -78h16v-159h-49c-136 0 -260 66 -260 242c0 168 138 249 294 249
c106 0 180 -28 226 -76c62 13 76 53 76 103v52h-649v169h1257v-169h-77v-571h-204v268h-312v-67c0 -19 9 -37 32 -37c22 0 30 17 30 35v13h196c1 -11 1 -20 1 -25z" />
    <glyph glyph-name="dvT_S_NA" horiz-adv-x="1757" 
d="M842 519c0 -29 -3 -58 -11 -85h198c47 39 112 57 181 57h278v80h-646v-52zM1196 210c33 0 56 23 56 56c0 32 -23 56 -56 56c-34 0 -58 -24 -58 -56c0 -33 24 -56 58 -56zM912 187c0 -119 -82 -196 -224 -196c-155 0 -237 99 -237 220v20c0 35 -21 83 -103 83
c-65 0 -100 -30 -100 -76c0 -44 26 -78 87 -78h16v-159h-49c-136 0 -260 66 -260 242c0 168 138 249 294 249c106 0 180 -28 226 -76c62 13 76 53 76 103v52h-649v169h1780v-169h-77v-571h-204v322h-91c10 -23 16 -51 16 -85c0 -135 -104 -198 -220 -198
c-121 0 -238 79 -238 226v3h-302v-67c0 -19 9 -37 32 -37c22 0 30 17 30 35v13h196c1 -11 1 -20 1 -25z" />
    <glyph glyph-name="dvT_S_YA" horiz-adv-x="1674" 
d="M964 434c114 0 128 49 128 103v34h-250v-52c0 -29 -3 -58 -11 -85h133zM1271 230c90 0 133 63 133 143v198h-111v-72c0 -84 -42 -165 -139 -186c5 -44 45 -83 117 -83zM912 187c0 -119 -82 -196 -224 -196c-155 0 -237 99 -237 220v20c0 35 -21 83 -103 83
c-65 0 -100 -30 -100 -76c0 -44 26 -78 87 -78h16v-159h-49c-136 0 -260 66 -260 242c0 168 138 249 294 249c106 0 180 -28 226 -76c62 13 76 53 76 103v52h-649v169h1696v-169h-77v-571h-204v120c-41 -36 -100 -58 -178 -58c-149 0 -243 79 -268 206h-305v-67
c0 -19 9 -37 32 -37c22 0 30 17 30 35v13h196c1 -11 1 -20 1 -25z" />
    <glyph glyph-name="dvT_S_VA" horiz-adv-x="1576" 
d="M842 519c0 -29 -3 -58 -11 -85h169c37 51 97 83 177 83c55 0 102 -18 135 -52v106h-470v-52zM1235 203c46 0 77 33 77 77s-31 75 -77 75c-49 0 -79 -34 -79 -76s30 -76 79 -76zM1587 571h-76v-571h-199v95c-33 -36 -80 -54 -135 -54c-138 0 -215 99 -221 227h-303v-67
c0 -19 9 -37 32 -37c22 0 30 17 30 35v13h196c1 -11 1 -20 1 -25c0 -119 -82 -196 -224 -196c-155 0 -237 99 -237 220v20c0 35 -21 83 -103 83c-65 0 -100 -30 -100 -76c0 -44 26 -78 87 -78h16v-159h-49c-136 0 -260 66 -260 242c0 168 138 249 294 249
c106 0 180 -28 226 -76c62 13 76 53 76 103v52h-649v169h1598v-169z" />
    <glyph glyph-name="dvTH_NA" horiz-adv-x="1330" 
d="M1264 0h-204v322h-91c10 -23 16 -51 16 -85c0 -135 -104 -198 -219 -198c-74 0 -147 29 -192 86c-53 -43 -125 -64 -207 -64c-198 0 -327 108 -327 303c0 27 1 55 6 84h80c106 0 172 23 172 91c0 21 -12 37 -30 37c-19 0 -33 -13 -33 -40c0 -12 2 -21 4 -30h-183
c-2 13 -4 26 -4 35c0 142 104 208 218 208c128 0 219 -81 219 -216c0 -118 -72 -218 -248 -228c10 -32 41 -69 122 -74s150 18 169 81c22 123 130 179 250 179h278v80h-517v169h798v-169h-77v-571zM769 210c32 0 56 23 56 56c0 32 -24 56 -56 56c-34 0 -58 -24 -58 -56
c0 -33 24 -56 58 -56z" />
    <glyph glyph-name="dvTH_YA" horiz-adv-x="1265" 
d="M367 71c-198 0 -327 104 -327 293c0 27 1 55 6 84h80c106 0 172 23 172 91c0 21 -12 37 -30 37c-19 0 -33 -13 -33 -40c0 -12 2 -21 4 -30h-183c-2 13 -4 26 -4 35c0 142 104 208 218 208c128 0 219 -81 219 -216c0 -118 -72 -218 -248 -228c11 -29 43 -65 122 -65
c100 0 179 47 179 144v30h12c114 0 129 60 129 126v31h-136v169h729v-169h-77v-571h-204v122c-41 -37 -101 -59 -179 -59c-99 0 -173 35 -219 97c-59 -59 -143 -89 -230 -89zM862 232c90 0 133 63 133 143v196h-111v-69c0 -87 -31 -169 -139 -188c5 -44 45 -82 117 -82z" />
    <glyph glyph-name="dvTH_VA" horiz-adv-x="1150" 
d="M1085 0h-199v95c-33 -36 -80 -54 -135 -54c-85 0 -147 38 -183 97c-54 -45 -125 -67 -201 -67c-198 0 -327 104 -327 293c0 27 1 55 6 84h80c106 0 172 23 172 91c0 21 -12 37 -30 37c-19 0 -33 -13 -33 -40c0 -12 2 -21 4 -30h-183c-2 13 -4 26 -4 35
c0 142 104 208 218 208c128 0 219 -81 219 -216c0 -118 -71 -217 -247 -228c12 -29 49 -65 140 -65c78 0 131 38 156 113c23 96 96 164 213 164c55 0 102 -18 135 -52v106h-356v169h631v-169h-76v-571zM809 203c46 0 77 33 77 77s-31 75 -77 75c-49 0 -79 -34 -79 -76
s30 -76 79 -76z" />
    <glyph glyph-name="dvD_GA" horiz-adv-x="698" 
d="M-11 571v169h720v-169h-84v-230h-201c-55 0 -84 -27 -84 -70c0 -39 24 -67 63 -67c41 0 63 30 63 66h176v-565h-187v382c-16 -15 -36 -26 -60 -32v-52c0 -126 -65 -218 -211 -218c-126 0 -203 63 -203 190c0 10 0 20 1 30h171v-23c0 -20 7 -39 31 -39c28 0 31 29 31 52
v99c-49 40 -76 105 -76 179c0 150 110 237 266 237h16v61h-432z" />
    <glyph glyph-name="dvD_G_RA" horiz-adv-x="698" 
d="M-11 571v169h720v-169h-84v-230h-201c-55 0 -84 -27 -84 -70c0 -39 24 -67 63 -67c41 0 63 30 63 66h176v-565h-175v75l-125 -136h-196l309 305v138c-16 -15 -36 -26 -60 -32v-1c0 -126 -65 -218 -211 -218c-126 0 -203 63 -203 190c0 10 0 20 1 30h171v-23
c0 -20 7 -39 31 -39c28 0 31 29 31 52v48c-49 40 -76 105 -76 179c0 150 110 237 266 237h16v61h-432z" />
    <glyph glyph-name="dvD_GHA" horiz-adv-x="932" 
d="M307 5c52 0 86 41 96 108c-31 37 -51 88 -51 158c0 17 1 33 4 48c-18 6 -35 9 -50 9c-31 0 -58 -11 -58 -40s28 -40 55 -40h13v-158h-11c-26 0 -51 -14 -51 -42s19 -43 53 -43zM-11 571v169h954v-169h-104v-235h-198c-51 0 -80 -29 -80 -70c0 -38 24 -62 61 -62
c38 0 58 28 58 63h189v-311h-200v122c-25 -22 -62 -34 -107 -34c-7 0 -14 0 -20 1c-22 -126 -125 -206 -265 -206c-123 0 -228 62 -228 183c0 87 58 132 110 145v5c-53 18 -112 62 -112 152c0 99 70 172 226 172c56 0 116 -17 162 -42c47 37 111 56 184 56h16v61h-646z" />
    <glyph glyph-name="dvD_DA" horiz-adv-x="588" 
d="M347 -108v112c-23 -22 -60 -39 -117 -39c-79 0 -178 42 -178 153c0 61 37 111 102 127v4c-59 14 -103 60 -103 125c0 106 93 141 196 141h22v56h-281v169h611v-169h-130v-190h-161c-29 0 -51 -6 -51 -30c0 -21 20 -30 50 -30h35v-143h-39c-30 0 -41 -12 -41 -29
c0 -16 13 -34 53 -34c45 0 61 24 61 48h169v-271h-198z" />
    <glyph glyph-name="dvD_DHA" horiz-adv-x="932" 
d="M-11 571v169h954v-169h-104v-235h-198c-51 0 -80 -29 -80 -70c0 -38 24 -62 61 -62c38 0 58 28 58 63h189v-311h-200v122c-25 -22 -62 -34 -107 -34c-7 0 -14 0 -20 1c-22 -126 -125 -206 -265 -206c-123 0 -228 62 -228 183c0 87 58 132 110 145v5
c-53 18 -112 62 -112 152c0 107 83 183 269 170v-166c-41 0 -68 -11 -68 -40s28 -40 55 -40h13v-158h-11c-26 0 -51 -14 -51 -42s19 -43 53 -43c52 0 86 41 96 108c-31 37 -51 88 -51 158c0 152 111 239 267 239h16v61h-646z" />
    <glyph glyph-name="dvD_NA" horiz-adv-x="1428" 
d="M491 -325l-134 238h202l139 -238h-207zM866 210c33 0 56 23 56 56c0 32 -23 56 -56 56c-34 0 -58 -24 -58 -56c0 -33 24 -56 58 -56zM558 -44h-199v123c-25 -23 -63 -35 -108 -35c-103 0 -209 67 -209 227c0 152 110 239 267 239h15v61h-335v169h1450v-169h-77v-571h-204
v322h-91c10 -23 16 -51 16 -85c0 -135 -104 -198 -220 -198c-121 0 -238 79 -238 226c0 156 120 226 255 226h278v80h-629v-235h-198c-52 0 -80 -29 -80 -70c0 -38 23 -62 60 -62c39 0 58 28 58 63h189v-311z" />
    <glyph glyph-name="dvD_BA" horiz-adv-x="631" 
d="M-11 571v169h653v-169h-90v-230h-201c-55 0 -85 -27 -85 -70c0 -39 25 -67 63 -67c42 0 63 30 63 66h176v-585h-178v122c-32 -44 -81 -65 -139 -65c-141 0 -218 101 -218 215c0 75 34 139 97 177c-38 34 -64 85 -64 157c0 139 109 219 266 219h16v61h-359zM303 -121
c21 0 40 8 54 21l-144 96c-4 -10 -6 -21 -6 -33c0 -50 38 -85 96 -84zM304 49c-15 -1 -28 -4 -39 -8l123 -82c1 7 2 14 2 22v109c-20 -22 -49 -36 -86 -41z" />
    <glyph glyph-name="dvD_B_RA" horiz-adv-x="631" 
d="M-11 571v169h653v-169h-90v-230h-201c-55 0 -85 -27 -85 -70c0 -39 25 -67 63 -67c42 0 63 30 63 66h176v-585h-178v122c-1 -2 -2 -3 -3 -4l-118 -160h-208l98 116c-82 33 -126 112 -126 198c0 75 34 139 97 177c-38 34 -64 85 -64 157c0 139 109 219 266 219h16v61h-359
zM303 -121c21 0 40 8 54 21l-144 96c-4 -10 -6 -21 -6 -33c0 -50 38 -85 96 -84zM304 49c-15 -1 -28 -4 -39 -8l123 -82c1 7 2 14 2 22v109c-20 -22 -49 -36 -86 -41z" />
    <glyph glyph-name="dvD_BHA" horiz-adv-x="1492" 
d="M491 -325l-134 238h202l139 -238h-207zM-11 571v169h635l-1 -169h-94v-235h-198c-52 0 -80 -29 -80 -70c0 -38 23 -62 60 -62c39 0 58 28 58 63h189v-311h-199v123c-25 -23 -63 -35 -108 -35c-103 0 -209 67 -209 227c0 152 110 239 267 239h15v61h-335zM882 208
c37 0 51 26 51 58v39h-37c-37 0 -63 -16 -63 -49s22 -48 49 -48zM886 36c-145 0 -242 86 -242 219c0 150 113 216 246 216h43v63c0 24 -8 42 -31 42c-20 0 -31 -17 -31 -39c0 -9 1 -18 3 -28h-204c-2 10 -4 24 -4 36c0 113 72 204 228 204c175 0 229 -116 229 -253v-25h98
v269h282v-169h-78v-571h-204v305h-98v-28c0 -146 -79 -241 -237 -241z" />
    <glyph glyph-name="dvD_MA" horiz-adv-x="898" 
d="M283 -211c35 0 49 26 49 65v35h-37c-29 0 -65 -9 -65 -52c0 -27 20 -48 53 -48zM518 54h105v517h-130v-234h-198c-28 0 -45 -15 -45 -37s17 -36 45 -36h224zM-11 571v169h920v-169h-83v-963h-203v281h-104v-16c0 -153 -73 -251 -233 -251c-143 0 -233 82 -233 221
c0 166 122 212 258 212h23v47h-59c-124 0 -226 68 -226 202c0 148 95 206 222 206h23v61h-305z" />
    <glyph glyph-name="dvD_YA" horiz-adv-x="720" 
d="M322 174c66 0 132 35 132 132v265h-99v-119h-53c-24 0 -40 -12 -40 -30c0 -16 14 -29 40 -29h52v-153h-52c-26 0 -40 -13 -40 -31c0 -23 19 -35 60 -35zM-10 571v169h741v-169h-77v-571h-200v90c-37 -41 -96 -66 -181 -66c-122 0 -216 59 -216 163c0 65 37 106 95 123v6
c-61 13 -97 50 -97 104c0 74 61 100 106 102v49h-171z" />
    <glyph glyph-name="dvD_VA" horiz-adv-x="617" 
d="M-11 571v169h639v-169h-89v-230h-202c-55 0 -84 -27 -84 -70c0 -39 24 -67 63 -67c41 0 63 30 63 66h176v-565h-187v105c-32 -33 -78 -49 -130 -49c-129 0 -198 97 -198 206c0 68 28 127 80 164c-40 33 -67 86 -67 160c0 139 109 219 265 219h16v61h-345zM296 -89
c43 1 72 29 72 70v101c-20 -18 -46 -29 -77 -33c-45 -5 -68 -34 -68 -71s27 -68 73 -67z" />
    <glyph glyph-name="dvDH_NA" horiz-adv-x="1285" 
d="M1296 570h-76v-570h-204v322h-92c10 -23 16 -51 16 -85c0 -135 -103 -198 -219 -198c-81 0 -158 34 -202 100c-45 -50 -113 -76 -201 -76c-137 0 -257 56 -257 188c0 86 63 129 111 143v4c-60 20 -120 73 -120 168c0 116 86 183 197 183c123 0 189 -74 189 -176
c0 -14 -1 -35 -2 -45h-149c1 10 1 13 1 18c0 22 -14 33 -31 33c-20 0 -33 -14 -33 -36c0 -53 66 -62 109 -62h62v-163h-52c-42 0 -75 -10 -75 -44c0 -36 47 -43 89 -43c75 0 115 27 129 78l1 3c22 123 130 179 250 179h279v79h-501v170h781v-170zM724 210c32 0 56 23 56 56
c0 32 -24 56 -56 56c-34 0 -58 -24 -58 -56c0 -33 24 -56 58 -56z" />
    <glyph glyph-name="dvDH_N_YA" horiz-adv-x="1726" 
d="M1737 571h-77v-571h-204v122c-41 -37 -101 -59 -179 -59c-143 0 -236 86 -264 225h-94c10 -23 16 -51 16 -85c0 -135 -103 -198 -219 -198c-87 0 -172 41 -213 118c-44 -40 -107 -60 -185 -60c-137 0 -257 56 -257 188c0 86 63 129 111 143v4c-60 20 -120 73 -120 168
c0 116 86 183 197 183c123 0 189 -74 189 -176c0 -14 -1 -35 -2 -45h-149c1 10 1 13 1 18c0 22 -14 33 -31 33c-20 0 -33 -14 -33 -36c0 -53 66 -62 109 -62h62v-163h-52c-42 0 -75 -10 -75 -44c0 -36 47 -43 89 -43c73 0 111 25 130 70c31 107 132 156 245 156h283
c114 0 129 39 129 83v31h-653v169h1246v-169zM719 175c33 0 56 24 56 57c0 32 -23 56 -56 56c-34 0 -58 -24 -58 -56c0 -33 24 -57 58 -57zM1323 232c90 0 133 63 133 143v196h-111v-69c0 -81 -42 -158 -137 -187c16 -47 55 -83 115 -83z" />
    <glyph glyph-name="dvDH_MA" horiz-adv-x="1325" 
d="M1336 571h-77v-571h-205v305h-95v-28c0 -146 -79 -241 -237 -241c-83 0 -151 28 -193 78c-52 -34 -124 -51 -211 -51c-147 0 -257 56 -257 188c0 86 63 129 111 143v4c-60 20 -120 73 -120 168c0 116 86 183 197 183c123 0 189 -74 189 -176c0 -14 -1 -35 -2 -45h-149
c1 10 1 13 1 18c0 22 -14 33 -31 33c-20 0 -33 -14 -33 -36c0 -53 66 -62 109 -62h62v-163h-52c-42 0 -75 -10 -75 -44c0 -36 47 -43 89 -43c75 0 113 25 126 67l4 15v0c26 109 125 158 239 158h44v100h-255v169h821v-169zM718 208c37 0 52 26 52 58v39h-38
c-36 0 -62 -16 -62 -49s21 -48 48 -48zM1054 471v100h-95v-100h95z" />
    <glyph glyph-name="dvDH_YA" horiz-adv-x="1210" 
d="M337 63c-156 0 -276 56 -276 188c0 86 63 129 111 143v4c-60 20 -120 73 -120 168c0 116 86 183 197 183c123 0 189 -74 189 -176c0 -14 -1 -35 -2 -45h-149c1 10 1 13 1 18c0 22 -14 33 -31 33c-20 0 -33 -14 -33 -36c0 -53 66 -62 109 -62h62v-163h-52
c-42 0 -75 -10 -75 -44c0 -36 47 -43 89 -43c92 0 130 48 130 114c0 23 2 45 5 69h8c113 0 128 60 128 126v31h-113v169h706v-169h-77v-571h-204v121c-41 -36 -100 -58 -178 -58c-91 0 -162 30 -208 82c-51 -52 -125 -82 -217 -82zM807 232c90 0 133 63 133 143v196h-111
v-69c0 -87 -31 -169 -139 -188c5 -44 46 -82 117 -82z" />
    <glyph glyph-name="dvDH_VA" horiz-adv-x="1105" 
d="M1042 571v-571h-199v95c-33 -36 -80 -54 -135 -54c-88 0 -152 41 -187 103c-39 -48 -101 -81 -203 -81c-147 0 -257 56 -257 188c0 86 63 129 111 143v4c-60 20 -120 73 -120 168c0 116 86 183 197 183c123 0 189 -74 189 -176c0 -14 -1 -35 -2 -45h-149c1 10 1 13 1 18
c0 22 -14 33 -31 33c-20 0 -33 -14 -33 -36c0 -53 66 -62 109 -62h62v-163h-52c-42 0 -75 -10 -75 -44c0 -36 47 -43 89 -43c66 0 118 32 132 93l1 5c16 108 91 188 218 188c55 0 102 -18 135 -52v106h-328v169h603v-169h-76zM766 203c47 0 77 33 77 77s-30 75 -77 75
c-49 0 -79 -34 -79 -76s30 -76 79 -76z" />
    <glyph glyph-name="dvN_KA" horiz-adv-x="1467" 
d="M282 210c33 0 56 23 56 56c0 32 -23 56 -56 56c-34 0 -58 -24 -58 -56c0 -33 24 -56 58 -56zM837 214c39 0 68 27 68 65c-1 37 -27 62 -67 62c-41 0 -68 -27 -68 -64c0 -36 25 -63 67 -63zM905 0v100c-30 -36 -77 -57 -140 -57c-129 0 -202 101 -202 235c0 15 1 30 3 44
h-83c10 -23 16 -51 16 -85c0 -135 -104 -198 -220 -198c-121 0 -238 79 -238 226c0 156 120 226 255 226h377c28 14 61 22 100 22c60 0 104 -19 132 -52v110h-916v169h1489v-169h-377v-110c28 33 71 52 126 52c132 0 198 -107 198 -230c0 -144 -86 -227 -205 -227
c-24 0 -44 2 -71 9v158c3 -1 9 -2 15 -2c32 0 54 22 54 57c0 31 -17 62 -58 62c-38 0 -59 -27 -59 -73v-267h-196z" />
    <glyph glyph-name="dvN_K_SA" horiz-adv-x="2001" 
d="M282 210c33 0 56 23 56 56c0 32 -23 56 -56 56c-34 0 -58 -24 -58 -56c0 -33 24 -56 58 -56zM837 214c39 0 68 27 68 65c-1 37 -27 62 -67 62c-41 0 -68 -27 -68 -64c0 -36 25 -63 67 -63zM1226 494c64 0 107 -26 135 -66c34 19 43 52 43 92v50h-303v-123
c28 29 71 47 125 47zM1608 520c0 -29 -3 -58 -11 -85h134v136h-123v-51zM1678 187c0 -119 -82 -196 -223 -196c-156 0 -238 99 -238 220v68c0 30 -16 61 -57 61c-38 0 -59 -27 -59 -73v-267h-196v100c-30 -36 -77 -57 -140 -57c-129 0 -202 101 -202 235c0 15 1 30 3 44h-83
c10 -23 16 -51 16 -85c0 -135 -104 -198 -220 -198c-121 0 -238 79 -238 226c0 156 120 226 255 226h377c28 14 61 22 100 22c60 0 104 -19 132 -52v109h-395v1h-521v169h2023v-169h-77v-571h-204v269h-312v-68c0 -19 9 -37 32 -37c22 0 30 17 30 35v13h196
c1 -11 1 -20 1 -25z" />
    <glyph glyph-name="dvN_CA" horiz-adv-x="1206" 
d="M1217 571h-77v-571h-204v134c-38 -41 -96 -62 -163 -62c-124 0 -201 66 -201 177c0 31 10 60 29 83h-123c13 -25 21 -56 21 -94c0 -135 -104 -199 -220 -199c-121 0 -238 79 -238 226c0 156 120 226 255 226h570v-159h-46c-35 0 -56 -17 -56 -45c0 -32 29 -47 68 -47
c77 0 104 53 104 139v192h-947v169h1228v-169zM282 210c33 0 56 24 56 56c0 33 -23 57 -56 57c-34 0 -58 -24 -58 -57c0 -32 24 -56 58 -56z" />
    <glyph glyph-name="dvN_CHA" horiz-adv-x="1368" 
d="M282 210c33 0 56 23 56 56c0 32 -23 56 -56 56c-34 0 -58 -24 -58 -56c0 -33 24 -56 58 -56zM946 189c139 0 203 43 203 136c0 29 -9 58 -34 58c-24 0 -35 -24 -35 -56c0 -22 4 -46 9 -67h-166c-5 19 -11 51 -11 90c0 88 45 142 111 167v54h-215v-34c0 -34 10 -58 46 -58
h19v-163h-15c-38 0 -57 -25 -57 -57c0 -40 31 -70 145 -70zM943 16c-162 0 -287 45 -332 140c-26 52 -57 133 -125 158c8 -22 13 -47 13 -77c0 -135 -104 -198 -220 -198c-121 0 -238 79 -238 226c0 156 120 226 255 226h45c145 0 247 -42 309 -117c10 9 22 17 35 23v4
c-46 15 -81 52 -81 124v46h-615v169h1390v-169h-169v-57c74 -31 117 -102 117 -199c0 -179 -133 -299 -384 -299z" />
    <glyph glyph-name="dvN_TTA" horiz-adv-x="1160" 
d="M282 210c33 0 56 23 56 56c0 32 -23 56 -56 56c-34 0 -58 -24 -58 -56c0 -33 24 -56 58 -56zM858 5c-177 0 -299 102 -299 260c0 20 2 39 6 57h-82c10 -23 16 -51 16 -85c0 -135 -104 -198 -220 -198c-121 0 -238 79 -238 226c0 156 120 226 255 226h407
c34 15 74 25 120 27v53h-834v169h1182v-169h-148v-222h-160c-54 0 -100 -30 -100 -86c0 -48 33 -82 90 -82c59 0 94 36 94 89h194c0 -161 -109 -265 -283 -265z" />
    <glyph glyph-name="dvN_DDA" horiz-adv-x="1070" 
d="M282 210c33 0 56 23 56 56c0 32 -23 56 -56 56c-34 0 -58 -24 -58 -56c0 -33 24 -56 58 -56zM1049 160c0 -114 -85 -184 -235 -184c-141 0 -257 64 -265 193h203c3 -34 36 -41 56 -41c27 0 48 11 48 34c0 20 -14 35 -53 35h-32c-63 0 -178 15 -203 125h-85
c10 -23 16 -51 16 -85c0 -135 -104 -198 -220 -198c-121 0 -238 79 -238 226c0 156 120 226 255 226h326c32 23 76 35 125 35h44v45h-802v169h1093v-169h-94v-187h-190c-18 0 -31 -8 -31 -22c0 -16 12 -23 30 -23h44c104 0 208 -45 208 -179z" />
    <glyph glyph-name="dvN_TA" horiz-adv-x="1238" 
d="M282 206c33 0 56 24 56 57c0 32 -23 56 -56 56c-34 0 -58 -24 -58 -56c0 -33 24 -57 58 -57zM1173 0h-204v314h-111c-52 0 -88 -30 -88 -76c0 -44 26 -78 87 -78h16v-159h-49c-136 0 -260 66 -260 242c0 28 4 53 10 76h-91c10 -23 16 -51 16 -85
c0 -135 -104 -198 -220 -198c-121 0 -238 79 -238 226c0 156 120 226 255 226h673v83h-980v169h1261v-169h-77v-571z" />
    <glyph glyph-name="dvN_T_YA" horiz-adv-x="1657" 
d="M282 208c33 0 56 23 56 56c0 32 -23 56 -56 56c-34 0 -58 -24 -58 -56c0 -33 24 -56 58 -56zM1254 232c90 0 133 63 133 143v196h-111v-69c0 -89 -46 -172 -138 -195c8 -41 48 -75 116 -75zM1591 0h-204v121c-41 -36 -100 -58 -178 -58c-141 0 -233 71 -264 188
c-17 42 -43 64 -88 64c-51 0 -86 -30 -86 -76c0 -44 26 -78 87 -78h16v-159h-49c-136 0 -260 66 -260 243c0 28 3 53 10 75h-92c10 -23 16 -51 16 -85c0 -135 -104 -198 -220 -198c-121 0 -238 79 -238 226c0 156 120 226 255 226h551c80 0 141 -21 185 -56
c37 23 43 64 43 107v31h-1086v169h1679v-169h-77v-571z" />
    <glyph glyph-name="dvN_T_RA" horiz-adv-x="1214" 
d="M282 162c33 0 56 23 56 56c0 32 -23 56 -56 56c-34 0 -58 -24 -58 -56c0 -33 24 -56 58 -56zM499 189c0 -122 -102 -198 -222 -198c-123 0 -236 76 -236 218c0 153 120 230 255 230h318c44 44 106 71 184 71c61 0 113 -17 151 -44v105h-960v169h1236v-169h-76v-571h-197
v126l-131 -125h-267v8l374 318c-20 14 -48 23 -76 23c-52 0 -93 -24 -107 -76h-262c10 -23 16 -51 16 -85z" />
    <glyph glyph-name="dvN_T_SA" horiz-adv-x="1757" 
d="M282 211c33 0 56 24 56 57c0 32 -23 56 -56 56c-34 0 -58 -24 -58 -57c0 -32 24 -56 58 -56zM1364 519c0 -29 -3 -58 -11 -85h134v137h-123v-52zM1434 187c0 -119 -82 -196 -224 -196c-155 0 -237 99 -237 220v20c0 35 -21 83 -103 83c-65 0 -100 -30 -100 -76
c0 -44 26 -78 87 -78h16v-159h-49c-136 0 -260 66 -260 242c0 30 4 57 12 81h-93c10 -23 16 -51 16 -85c0 -135 -104 -198 -220 -198c-121 0 -238 78 -238 225c0 156 120 226 255 226h558v0h4c106 0 180 -28 226 -76c62 13 76 53 76 103v52h-1171v169h1779v-169h-77v-571
h-204v268h-312v-67c0 -19 9 -37 32 -37c22 0 30 17 30 35v13h196c1 -11 1 -20 1 -25z" />
    <glyph glyph-name="dvN_THA" horiz-adv-x="1335" 
d="M282 168c33 0 56 24 56 56c0 33 -23 57 -56 57c-34 0 -58 -24 -58 -57c0 -32 24 -56 58 -56zM1066 0v165c-33 -50 -106 -93 -210 -93c-144 0 -252 77 -284 209h-89c9 -23 16 -51 16 -85c0 -135 -104 -199 -220 -199c-121 0 -238 79 -238 226c0 156 120 226 255 226h354
c106 0 171 22 171 90c0 22 -12 37 -30 37s-33 -13 -33 -40c0 -12 2 -21 4 -30h-183c-2 13 -3 26 -3 35c0 10 1 20 2 30h-589v169h734c22 6 46 9 70 9c128 0 220 -81 220 -216c0 -117 -72 -217 -249 -227c11 -30 42 -66 122 -66c100 0 180 65 180 204v296h280v-169h-76v-571
h-204z" />
    <glyph glyph-name="dvN_TH_YA" horiz-adv-x="1788" 
d="M282 167c33 0 56 24 56 57c0 32 -23 56 -56 56c-34 0 -58 -24 -58 -57c0 -32 24 -56 58 -56zM1385 232c90 0 133 63 133 143v196h-111v-69c0 -87 -31 -169 -139 -188c5 -44 45 -82 117 -82zM890 71c-166 0 -284 73 -317 209h-90c10 -23 16 -51 16 -85
c0 -135 -104 -198 -220 -198c-121 0 -238 78 -238 225c0 156 120 226 255 226h353c106 0 172 23 172 91c0 21 -12 37 -30 37c-19 0 -33 -13 -33 -40c0 -12 2 -21 4 -30h-183c-2 13 -4 26 -4 35c0 10 1 21 2 30h-588v169h734c22 6 46 9 70 9c128 0 219 -81 219 -216
c0 -118 -72 -218 -248 -228c11 -29 43 -65 122 -65c100 0 179 47 179 144v30h12c114 0 129 60 129 126v31h-136v169h729v-169h-77v-571h-204v122c-41 -37 -101 -59 -179 -59c-99 0 -173 35 -219 97c-59 -59 -143 -89 -230 -89z" />
    <glyph glyph-name="dvN_TH_VA" horiz-adv-x="1673" 
d="M282 167c33 0 56 24 56 57c0 32 -23 56 -56 56c-34 0 -58 -24 -58 -57c0 -32 24 -56 58 -56zM1332 203c46 0 77 33 77 77s-31 75 -77 75c-49 0 -79 -34 -79 -76s30 -76 79 -76zM499 195c0 -135 -104 -198 -220 -198c-121 0 -238 78 -238 225c0 156 120 226 255 226h353
c106 0 172 23 172 91c0 21 -12 37 -30 37c-19 0 -33 -13 -33 -40c0 -12 2 -21 4 -30h-183c-2 13 -4 26 -4 35c0 10 1 21 2 30h-588v169h734c22 6 46 9 70 9c128 0 219 -81 219 -216c0 -118 -71 -217 -247 -228c12 -29 49 -65 140 -65c78 0 131 38 156 113
c23 96 96 164 213 164c55 0 102 -18 135 -52v106h-356v169h631v-169h-76v-571h-199v95c-33 -36 -80 -54 -135 -54c-85 0 -147 38 -183 97c-54 -45 -125 -67 -201 -67c-166 0 -284 73 -317 209h-90c10 -23 16 -51 16 -85z" />
    <glyph glyph-name="dvN_DA" horiz-adv-x="1131" 
d="M282 210c33 0 56 23 56 56c0 32 -23 56 -56 56c-34 0 -58 -24 -58 -56c0 -33 24 -56 58 -56zM1077 -44h-199v123c-25 -23 -63 -35 -108 -35c-103 0 -209 67 -209 227c0 18 2 35 4 51h-82c10 -23 16 -51 16 -85c0 -135 -104 -198 -220 -198c-121 0 -238 79 -238 226
c0 156 120 226 255 226h415c35 13 74 19 117 19h15v61h-854v169h1154l-1 -169h-94v-235h-198c-52 0 -80 -29 -80 -70c0 -38 23 -62 60 -62c39 0 58 28 58 63h189v-311z" />
    <glyph glyph-name="dvN_D_RA" horiz-adv-x="1130" 
d="M282 210c33 0 56 23 56 56c0 32 -23 56 -56 56c-34 0 -58 -24 -58 -56c0 -33 24 -56 58 -56zM878 -44v124l-119 -164h-217l131 158c-64 30 -112 93 -112 197c0 18 2 35 4 51h-82c10 -23 16 -51 16 -85c0 -135 -104 -198 -220 -198c-121 0 -238 79 -238 226
c0 156 120 226 255 226h415c35 13 74 19 117 19h15v61h-854v169h1153v-169h-94v-235h-198c-52 0 -80 -29 -80 -70c0 -38 23 -62 60 -62c39 0 58 28 58 63h189v-311h-199z" />
    <glyph glyph-name="dvN_D_VA" horiz-adv-x="1125" 
d="M282 210c33 0 56 23 56 56c0 32 -23 56 -56 56c-34 0 -58 -24 -58 -56c0 -33 24 -56 58 -56zM804 -89c43 1 72 29 72 70v101c-20 -18 -46 -29 -77 -33c-45 -5 -68 -34 -68 -71s27 -68 73 -67zM1063 -295h-187v105c-32 -33 -78 -49 -130 -49c-129 0 -198 97 -198 206
c0 68 28 127 80 164c-40 33 -67 86 -67 160c0 11 1 21 2 31h-80c10 -23 16 -51 16 -85c0 -135 -104 -198 -220 -198c-121 0 -238 79 -238 226c0 156 120 226 255 226h410c35 13 76 19 120 19h16v61h-853v169h1147v-169h-89v-230h-202c-55 0 -84 -27 -84 -70
c0 -39 24 -67 63 -67c41 0 63 30 63 66h176v-565z" />
    <glyph glyph-name="dvN_DHA" horiz-adv-x="1277" 
d="M815 65c-106 0 -199 46 -224 135c-19 48 -49 90 -104 110c8 -21 12 -45 12 -73c0 -135 -104 -198 -220 -198c-121 0 -238 79 -238 226c0 156 120 226 255 226h45c147 0 249 -43 309 -118c15 10 31 17 46 21v4c-61 20 -121 73 -121 168v5h-586v169h716c21 6 43 9 67 9
c123 0 189 -74 189 -176c0 -14 -1 -35 -2 -45h-149c1 10 1 13 1 18c0 22 -14 33 -31 33c-20 0 -32 -14 -32 -36c0 -53 65 -62 108 -62h62v-163h-52c-42 0 -75 -10 -75 -44c0 -28 28 -43 77 -43c91 0 144 61 144 154v355h276v-169h-72v-571h-204v136
c-43 -46 -108 -71 -197 -71zM282 210c33 0 56 23 56 56c0 32 -23 56 -56 56c-34 0 -58 -24 -58 -56c0 -33 24 -56 58 -56z" />
    <glyph glyph-name="dvN_DH_YA" horiz-adv-x="1733" 
d="M282 210c33 0 56 23 56 56c0 32 -23 56 -56 56c-34 0 -58 -24 -58 -56c0 -33 24 -56 58 -56zM1330 232c90 0 133 63 133 143v196h-111v-69c0 -87 -31 -169 -139 -188c5 -44 46 -82 117 -82zM860 63c-134 0 -242 41 -269 137c-19 48 -49 90 -104 110c8 -21 12 -45 12 -73
c0 -135 -104 -198 -220 -198c-121 0 -238 79 -238 226c0 156 120 226 255 226h45c147 0 249 -43 309 -118c15 10 31 17 45 21v4c-60 20 -120 73 -120 168v5h-586v169h716c21 6 43 9 67 9c123 0 189 -74 189 -176c0 -14 -1 -35 -2 -45h-149c1 10 1 13 1 18
c0 22 -14 33 -31 33c-20 0 -33 -14 -33 -36c0 -53 66 -62 109 -62h62v-163h-52c-42 0 -75 -10 -75 -44c0 -36 47 -43 89 -43c92 0 130 48 130 114c0 23 2 45 5 69h8c113 0 128 60 128 126v31h-113v169h706v-169h-77v-571h-204v121c-41 -36 -100 -58 -178 -58
c-91 0 -162 30 -208 82c-51 -52 -125 -82 -217 -82z" />
    <glyph glyph-name="dvN_DH_RA" horiz-adv-x="1277" 
d="M282 210c33 0 56 23 56 56c0 32 -23 56 -56 56c-34 0 -58 -24 -58 -56c0 -33 24 -56 58 -56zM1012 0v136l-152 -211h-218l123 148c-82 12 -149 53 -172 122c-19 51 -49 95 -106 115c8 -21 12 -45 12 -73c0 -135 -104 -198 -220 -198c-121 0 -238 79 -238 226
c0 156 120 226 255 226h45c147 0 249 -43 309 -118c15 10 31 17 45 21v4c-60 20 -120 73 -120 168v5h-586v169h716c21 6 43 9 67 9c123 0 189 -74 189 -176c0 -14 -1 -35 -2 -45h-149c1 10 1 13 1 18c0 22 -14 33 -31 33c-20 0 -33 -14 -33 -36c0 -53 66 -62 109 -62h62
v-163h-52c-42 0 -75 -10 -75 -44c0 -28 27 -43 77 -43c91 0 144 61 144 154v355h276v-169h-72v-571h-204z" />
    <glyph glyph-name="dvN_DH_VA" horiz-adv-x="1569" 
d="M282 210c33 0 56 23 56 56c0 32 -23 56 -56 56c-34 0 -58 -24 -58 -56c0 -33 24 -56 58 -56zM1289 203c47 0 77 33 77 77s-30 75 -77 75c-49 0 -79 -34 -79 -76s30 -76 79 -76zM1565 0h-199v95c-33 -36 -80 -54 -135 -54c-88 0 -152 41 -187 103
c-39 -48 -101 -81 -203 -81c-128 0 -228 42 -252 141c-19 46 -48 87 -102 106c8 -21 12 -45 12 -73c0 -135 -104 -198 -220 -198c-121 0 -238 79 -238 226c0 156 120 226 255 226h45c147 0 249 -43 309 -118c15 10 31 17 45 21v4c-60 20 -120 73 -120 168v5h-586v169h716
c21 6 43 9 67 9c123 0 189 -74 189 -176c0 -14 -1 -35 -2 -45h-149c1 10 1 13 1 18c0 22 -14 33 -31 33c-20 0 -33 -14 -33 -36c0 -53 66 -62 109 -62h62v-163h-52c-42 0 -75 -10 -75 -44c0 -36 47 -43 89 -43c66 0 118 32 132 93l1 5c16 108 91 188 218 188
c55 0 102 -18 135 -52v106h-328v169h603v-169h-76v-571z" />
    <glyph glyph-name="dvN_NA" horiz-adv-x="1366" 
d="M282 210c33 0 56 23 56 56c0 32 -23 56 -56 56c-34 0 -58 -24 -58 -56c0 -33 24 -56 58 -56zM804 210c33 0 56 23 56 56c0 32 -23 56 -56 56c-34 0 -58 -24 -58 -56c0 -33 24 -56 58 -56zM1300 0h-204v322h-91c10 -23 16 -51 16 -85c0 -135 -104 -198 -220 -198
c-121 0 -238 79 -238 226c0 20 2 39 6 57h-86c10 -23 16 -51 16 -85c0 -135 -104 -198 -220 -198c-121 0 -238 79 -238 226c0 156 120 226 255 226h800v80h-1107v169h1388v-169h-77v-571z" />
    <glyph glyph-name="dvN_N_YA" horiz-adv-x="1813" 
d="M282 175c33 0 56 24 56 57c0 32 -23 56 -56 56c-34 0 -58 -24 -58 -56c0 -33 24 -57 58 -57zM806 175c33 0 56 24 56 57c0 32 -23 56 -56 56c-34 0 -58 -24 -58 -56c0 -33 24 -57 58 -57zM1410 232c90 0 133 63 133 143v196h-111v-69c0 -81 -41 -158 -136 -186
c16 -48 54 -84 114 -84zM1747 0h-204v122c-41 -37 -101 -59 -179 -59c-143 0 -236 86 -264 225h-93c10 -23 16 -51 16 -85c0 -135 -104 -198 -220 -198c-121 0 -238 79 -238 226c0 20 2 39 6 57h-88c10 -23 16 -51 16 -85c0 -135 -104 -198 -220 -198
c-121 0 -238 79 -238 226c0 156 120 226 255 226h806c114 0 129 39 129 83v31h-1242v169h1835v-169h-77v-571z" />
    <glyph glyph-name="dvN_PA" horiz-adv-x="1195" 
d="M282 210c33 0 56 23 56 56c0 32 -23 56 -56 56c-34 0 -58 -24 -58 -56c0 -33 24 -56 58 -56zM844 307c56 0 82 42 82 93v171h-161v-170c0 -52 24 -94 79 -94zM1130 0h-204v181c-32 -28 -76 -45 -136 -45c-123 0 -197 77 -221 186h-86c10 -23 16 -51 16 -85
c0 -135 -104 -198 -220 -198c-121 0 -238 79 -238 226c0 156 120 226 255 226h265v80h-572v169h1217v-169h-76v-571z" />
    <glyph glyph-name="dvN_P_RA" horiz-adv-x="1195" 
d="M282 210c33 0 56 23 56 56c0 32 -23 56 -56 56c-34 0 -58 -24 -58 -56c0 -33 24 -56 58 -56zM844 307c56 0 82 42 82 93v171h-161v-170c0 -52 24 -94 79 -94zM926 0v183l-153 -218h-218l156 193c-75 24 -123 86 -141 164h-87c10 -23 16 -51 16 -85
c0 -135 -104 -198 -220 -198c-121 0 -238 79 -238 226c0 156 120 226 255 226h265v80h-572v169h1217v-169h-76v-571h-204z" />
    <glyph glyph-name="dvN_PHA" horiz-adv-x="1488" 
d="M282 210c33 0 56 23 56 56c0 32 -23 56 -56 56c-34 0 -58 -24 -58 -56c0 -33 24 -56 58 -56zM836 307c50 0 74 38 74 83v181h-145v-181c0 -46 22 -83 71 -83zM1114 0h-204v179c-30 -27 -73 -43 -128 -43c-121 0 -194 78 -215 186h-84c10 -23 16 -51 16 -85
c0 -135 -104 -198 -220 -198c-121 0 -238 79 -238 226c0 156 120 226 255 226h265v80h-572v169h1510v-169h-385v-109c31 32 77 51 136 51c130 0 198 -104 198 -225c0 -147 -85 -232 -205 -232c-26 0 -52 3 -79 12v155c8 -2 16 -3 23 -3c36 0 54 27 54 58s-17 62 -58 62
c-44 0 -69 -33 -69 -95v-245z" />
    <glyph glyph-name="dvN_PH_RA" horiz-adv-x="1488" 
d="M282 210c33 0 56 23 56 56c0 32 -23 56 -56 56c-34 0 -58 -24 -58 -56c0 -33 24 -56 58 -56zM836 307c50 0 74 38 74 83v181h-145v-181c0 -46 22 -83 71 -83zM910 0v176l-138 -211h-218l147 194c-72 25 -117 86 -133 163h-85c10 -23 16 -51 16 -85
c0 -135 -104 -198 -220 -198c-121 0 -238 79 -238 226c0 156 120 226 255 226h265v80h-572v169h1510v-169h-385v-109c31 32 77 51 136 51c130 0 198 -104 198 -225c0 -147 -85 -232 -205 -232c-26 0 -52 3 -79 12v155c8 -2 16 -3 23 -3c36 0 54 27 54 58s-17 62 -58 62
c-44 0 -69 -33 -69 -95v-245h-204z" />
    <glyph glyph-name="dvN_BHA" horiz-adv-x="1413" 
d="M805 208c37 0 51 27 51 59v39h-37c-37 0 -63 -17 -63 -49c0 -33 22 -49 49 -49zM809 37c-145 0 -242 86 -242 219c0 17 1 32 4 47h-88c10 -23 16 -51 16 -85c0 -135 -104 -198 -220 -198c-121 0 -238 79 -238 226c0 156 120 226 255 226h560v62c0 24 -8 42 -31 42
c-20 0 -31 -17 -31 -39c0 -9 1 -18 3 -28h-204c-2 10 -4 24 -4 36c0 9 0 18 1 26h-601v169h750c23 6 49 9 78 9c175 0 229 -116 229 -253v-24h98v268h282v-169h-78v-571h-204v306h-98v-28c0 -146 -79 -241 -237 -241zM282 190c33 0 56 24 56 57c0 32 -23 56 -56 56
c-34 0 -58 -24 -58 -56c0 -33 24 -57 58 -57z" />
    <glyph glyph-name="dvN_BH_YA" horiz-adv-x="1834" 
d="M282 190c33 0 56 23 56 56s-23 56 -56 56c-34 0 -58 -23 -58 -56s24 -56 58 -56zM1431 232c90 0 133 63 133 143v196h-111v-69c0 -87 -31 -164 -140 -182c2 -47 42 -88 118 -88zM805 208c37 0 51 26 51 58v39h-37c-37 0 -63 -16 -63 -49s22 -48 49 -48zM809 36
c-145 0 -242 86 -242 219c0 17 1 32 4 47h-88c10 -23 16 -51 16 -85c0 -134 -104 -198 -220 -198c-121 0 -238 79 -238 226c0 156 120 226 255 226h560v63c0 24 -8 42 -31 42c-20 0 -31 -17 -31 -39c0 -9 1 -18 3 -28h-204c-2 10 -4 24 -4 36c0 9 0 18 1 26h-601v169h750
c23 6 49 9 78 9c175 0 229 -116 229 -253v-25h125c66 0 81 12 81 69v31h-128v169h721v-169h-77v-571h-204v122c-41 -37 -101 -59 -179 -59c-161 0 -258 94 -272 242h-67v-28c0 -146 -79 -241 -237 -241z" />
    <glyph glyph-name="dvN_BH_VA" horiz-adv-x="1740" 
d="M282 190c33 0 56 23 56 56s-23 56 -56 56c-34 0 -58 -23 -58 -56s24 -56 58 -56zM1399 203c47 0 77 33 77 77s-30 75 -77 75c-49 0 -79 -34 -79 -76s30 -76 79 -76zM805 208c37 0 51 26 51 58v39h-37c-37 0 -63 -16 -63 -49s22 -48 49 -48zM809 36
c-145 0 -242 86 -242 219c0 17 1 32 4 47h-88c10 -23 16 -51 16 -85c0 -134 -104 -198 -220 -198c-121 0 -238 79 -238 226c0 156 120 226 255 226h560v63c0 24 -8 42 -31 42c-20 0 -31 -17 -31 -39c0 -9 1 -18 3 -28h-204c-2 10 -4 24 -4 36c0 9 0 18 1 26h-601v169h750
c23 6 49 9 78 9c175 0 229 -116 229 -253v-25h153c36 29 84 46 143 46c54 0 101 -18 134 -52v106h-352v169h627v-169h-75v-571h-200v95c-33 -36 -80 -54 -134 -54c-145 0 -222 108 -222 243c0 7 0 14 1 21h-75v-28c0 -146 -79 -241 -237 -241z" />
    <glyph glyph-name="dvN_MA" horiz-adv-x="1409" 
d="M803 208c37 0 51 27 51 59v39h-37c-36 0 -63 -17 -63 -49c0 -33 22 -49 49 -49zM282 190c33 0 56 24 56 57c0 32 -23 56 -56 56c-34 0 -58 -24 -58 -56c0 -33 24 -57 58 -57zM1139 472v99h-95v-99h95zM1344 0h-205v306h-95v-28c0 -146 -79 -241 -237 -241
c-145 0 -242 86 -242 219c0 17 1 32 4 47h-86c10 -23 16 -51 16 -85c0 -135 -104 -198 -220 -198c-121 0 -238 79 -238 226c0 156 120 226 255 226h558v99h-865v169h1431v-169h-76v-571z" />
    <glyph glyph-name="dvN_M_YA" horiz-adv-x="1854" 
d="M282 171c33 0 56 24 56 56c0 33 -23 56 -56 56c-34 0 -58 -23 -58 -56c0 -32 24 -56 58 -56zM1450 232c90 0 133 63 133 143v196h-111v-69c0 -85 -46 -164 -139 -187c5 -44 45 -83 117 -83zM802 189c37 0 52 26 52 59v38h-38c-36 0 -62 -16 -62 -48c0 -33 21 -49 48 -49z
M1191 452c70 0 80 42 80 88v31h-227v-119h147zM1787 0h-204v121c-41 -36 -100 -58 -178 -58c-155 0 -249 86 -270 223h-91v-28c0 -146 -80 -241 -238 -241c-145 0 -241 86 -241 220c0 18 2 35 5 50h-89c11 -24 18 -54 18 -89c0 -134 -104 -198 -220 -198
c-121 0 -238 79 -238 226c0 156 120 226 255 226h558v119h-865v169h1875v-169h-77v-571z" />
    <glyph glyph-name="dvN_YA" horiz-adv-x="1289" 
d="M282 175c33 0 56 24 56 57c0 32 -23 56 -56 56c-34 0 -58 -24 -58 -56c0 -33 24 -57 58 -57zM886 232c90 0 133 63 133 143v196h-111v-69c0 -81 -41 -158 -136 -186c16 -48 54 -84 114 -84zM1223 0h-204v122c-41 -37 -101 -59 -179 -59c-143 0 -236 86 -264 225h-93
c10 -23 16 -51 16 -85c0 -135 -104 -198 -220 -198c-121 0 -238 79 -238 226c0 156 120 226 255 226h282c114 0 129 39 129 83v31h-718v169h1311v-169h-77v-571z" />
    <glyph glyph-name="dvN_VA" horiz-adv-x="1183" 
d="M282 210c33 0 56 23 56 56c0 32 -23 56 -56 56c-34 0 -58 -24 -58 -56c0 -33 24 -56 58 -56zM843 203c46 0 77 33 77 77s-31 75 -77 75c-49 0 -79 -34 -79 -76s30 -76 79 -76zM1195 571h-76v-571h-199v95c-33 -36 -80 -54 -135 -54c-144 0 -221 108 -221 243
c0 13 1 26 2 38h-83c10 -23 16 -51 16 -85c0 -135 -104 -198 -220 -198c-121 0 -238 79 -238 226c0 156 120 226 255 226h377c31 17 69 26 112 26c55 0 102 -18 135 -52v106h-931v169h1206v-169z" />
    <glyph glyph-name="dvN_SA" horiz-adv-x="1357" 
d="M282 210c33 0 56 23 56 56c0 32 -23 56 -56 56c-34 0 -58 -24 -58 -56c0 -33 24 -56 58 -56zM964 520c0 -29 -3 -58 -11 -85h134v136h-123v-51zM1034 187c0 -119 -82 -196 -223 -196c-156 0 -238 99 -238 220v40c0 37 -25 71 -90 71c10 -23 16 -51 16 -85
c0 -135 -104 -198 -220 -198c-121 0 -238 79 -238 226c0 156 120 226 255 226h163c91 0 177 -20 233 -72c56 15 68 53 68 101v51h-771v169h1379v-169h-77v-571h-204v269h-312v-68c0 -19 9 -37 32 -37c22 0 30 17 30 35v13h196c1 -11 1 -20 1 -25z" />
    <glyph glyph-name="dvN_S_TTA" horiz-adv-x="1680" 
d="M282 210c33 0 56 23 56 56c0 32 -23 56 -56 56c-34 0 -58 -24 -58 -56c0 -33 24 -56 58 -56zM964 520c0 -29 -3 -58 -11 -85h188c45 48 113 78 201 83v53h-378v-51zM1034 187c0 -119 -82 -196 -223 -196c-156 0 -238 99 -238 220v40c0 37 -25 71 -90 71
c10 -23 16 -51 16 -85c0 -135 -104 -198 -220 -198c-121 0 -238 79 -238 226c0 156 120 226 255 226h163c91 0 177 -20 233 -72c56 15 68 53 68 101v51h-771v169h1701v-169h-148v-222h-160c-54 0 -100 -30 -100 -86c0 -48 33 -82 90 -82c59 0 94 36 94 89h194
c0 -161 -109 -265 -283 -265c-177 0 -299 102 -299 260v4h-303v-68c0 -19 9 -37 32 -37c22 0 30 17 30 35v13h196c1 -11 1 -20 1 -25z" />
    <glyph glyph-name="dvN_S_M_YA" horiz-adv-x="2359" 
d="M282 210c33 0 56 23 56 56c0 32 -23 56 -56 56c-34 0 -58 -24 -58 -56c0 -33 24 -56 58 -56zM1956 232c90 0 133 63 133 143v196h-111v-69c0 -85 -46 -164 -139 -187c5 -44 45 -83 117 -83zM1308 189c37 0 52 26 52 59v38h-38c-36 0 -62 -16 -62 -48c0 -33 21 -49 48 -49
zM965 520c0 -29 -3 -58 -11 -85h254c33 11 70 17 108 17h44v119h-395v-51zM1697 452c70 0 80 42 80 88v31h-227v-119h147zM1034 187c0 -119 -81 -196 -223 -196c-156 0 -238 99 -238 220v40c0 37 -25 71 -90 71c10 -23 16 -51 16 -85c0 -135 -104 -198 -220 -198
c-121 0 -238 79 -238 226c0 156 120 226 255 226h163c91 0 177 -20 233 -72c56 15 68 53 68 101v51h-771v169h2381v-169h-77v-571h-204v121c-41 -36 -100 -58 -178 -58c-155 0 -249 86 -270 223h-91v-28c0 -146 -80 -241 -238 -241c-145 0 -241 86 -241 220c0 11 1 22 2 32
h-297v-68c0 -19 8 -37 31 -37c22 0 31 17 31 35v13h195c1 -11 1 -20 1 -25z" />
    <glyph glyph-name="dvN_S_YA" horiz-adv-x="1796" 
d="M282 210c33 0 56 23 56 56c0 32 -23 56 -56 56c-34 0 -58 -24 -58 -56c0 -33 24 -56 58 -56zM1393 231c91 0 133 63 133 143v197h-110v-71c0 -85 -43 -165 -140 -186c5 -44 45 -83 117 -83zM1086 435c114 0 128 49 128 103v33h-250v-51c0 -29 -3 -58 -11 -85h133z
M1034 187c0 -119 -82 -196 -223 -196c-156 0 -238 99 -238 220v40c0 37 -25 71 -90 71c10 -23 16 -51 16 -85c0 -135 -104 -198 -220 -198c-121 0 -238 79 -238 226c0 156 120 226 255 226h163c91 0 177 -20 233 -72c56 15 68 53 68 101v51h-771v169h1818v-169h-76v-571
h-205v120c-41 -36 -100 -58 -178 -58c-149 0 -242 79 -267 207h-306v-68c0 -19 9 -37 32 -37c22 0 30 17 30 35v13h196c1 -11 1 -20 1 -25z" />
    <glyph glyph-name="dvN_HA" horiz-adv-x="1086" 
d="M282 210c33 0 56 23 56 56c0 32 -23 56 -56 56c-34 0 -58 -24 -58 -56c0 -33 24 -56 58 -56zM1052 86c-8 -130 -111 -203 -247 -203c-151 0 -255 89 -255 238c0 76 31 133 81 170c-13 9 -24 20 -32 31h-116c10 -23 16 -51 16 -85c0 -135 -104 -198 -220 -198
c-121 0 -238 79 -238 226c0 156 120 226 255 226h315c27 25 68 40 123 40h48v40h-793v169h1107v-169h-120v-183h-167c-19 0 -34 -8 -34 -28c0 -6 2 -12 6 -17c10 1 19 1 29 1c154 0 231 -81 242 -200h-195c-4 23 -24 40 -52 40c-25 0 -56 -19 -56 -66c0 -50 30 -68 56 -68
c25 0 46 14 52 36h195z" />
    <glyph glyph-name="dvP_TTA" horiz-adv-x="1001" 
d="M343 307c35 0 57 17 69 42c31 96 118 161 251 169v53h-402v-170c0 -52 25 -94 82 -94zM981 270c0 -161 -109 -265 -283 -265c-134 0 -237 59 -279 156c-31 -16 -68 -25 -110 -25c-166 0 -252 117 -252 265v170h-68v169h1022v-169h-148v-222h-160c-54 0 -100 -30 -100 -86
c0 -48 33 -82 90 -82c59 0 94 36 94 89h194z" />
    <glyph glyph-name="dvP_TTHA" horiz-adv-x="1030" 
d="M695 188c58 0 90 37 90 88s-32 87 -90 87c-56 0 -89 -36 -89 -87s33 -88 89 -88zM343 307c38 0 62 19 71 47c26 88 96 143 179 166v51h-332v-170c0 -52 25 -94 82 -94zM695 19c-122 0 -224 52 -269 146c-32 -19 -71 -29 -117 -29c-166 0 -252 117 -252 265v170h-68v169
h1051v-169h-246v-50c107 -29 194 -108 194 -245c0 -163 -129 -257 -293 -257z" />
    <glyph glyph-name="dvP_TA" horiz-adv-x="1053" 
d="M337 307c31 0 52 17 63 42v0c43 97 149 139 263 139h121v83h-523v-170c0 -52 23 -94 76 -94zM1065 571h-77v-571h-204v314h-111c-52 0 -88 -30 -88 -76c0 -44 26 -78 87 -78h16v-159h-49c-109 0 -211 43 -246 151c-27 -11 -57 -16 -91 -16c-161 0 -245 117 -245 265v170
h-68v169h1076v-169z" />
    <glyph glyph-name="dvP_T_YA" horiz-adv-x="1470" 
d="M335 307c33 0 56 19 65 45h1c43 95 147 137 260 137c80 0 141 -21 185 -56c37 23 43 64 43 107v31h-628v-180c0 -47 23 -84 74 -84zM1068 232c90 0 133 63 133 143v196h-111v-69c0 -89 -46 -172 -138 -195c8 -41 48 -75 116 -75zM1482 571h-77v-571h-204v121
c-41 -36 -100 -58 -178 -58c-141 0 -233 71 -264 188c-17 42 -43 64 -88 64c-51 0 -86 -30 -86 -76c0 -44 26 -78 87 -78h16v-159h-49c-109 0 -210 42 -246 150c-27 -10 -57 -16 -91 -16c-161 0 -245 117 -245 265v170h-68v169h1493v-169z" />
    <glyph glyph-name="dvP_NA" horiz-adv-x="1217" 
d="M637 210c33 0 56 23 56 56c0 32 -23 56 -56 56c-34 0 -58 -24 -58 -56c0 -33 24 -56 58 -56zM339 307c38 0 62 20 73 49v0c38 92 134 135 239 135h278v80h-668v-170c0 -52 24 -94 78 -94zM1210 571h-77v-571h-204v322h-91c10 -23 16 -51 16 -85
c0 -135 -104 -198 -220 -198c-87 0 -172 41 -213 118c-32 -14 -70 -22 -113 -22c-164 0 -251 110 -251 266v170h-68v169h1221v-169z" />
    <glyph glyph-name="dvP_PA" horiz-adv-x="1056" 
d="M340 307c56 0 82 42 82 95v169h-161v-170c0 -52 24 -94 79 -94zM705 307c56 0 82 42 82 93v171h-161v-170c0 -52 24 -94 79 -94zM1067 571h-76v-571h-204v181c-32 -28 -76 -45 -136 -45c-78 0 -136 31 -174 81c-35 -50 -94 -81 -185 -81c-155 0 -235 117 -235 265v170
h-68v169h1078v-169z" />
    <glyph glyph-name="dvP_PHA" horiz-adv-x="1349" 
d="M340 307c56 0 82 42 82 95v169h-161v-170c0 -52 24 -94 79 -94zM697 307c50 0 74 38 74 83v181h-145v-181c0 -46 22 -83 71 -83zM975 0h-204v179c-30 -27 -73 -43 -128 -43c-75 0 -131 30 -168 78c-35 -48 -94 -78 -183 -78c-155 0 -235 117 -235 265v170h-68v169h1371
v-169h-385v-109c31 32 77 51 136 51c130 0 198 -104 198 -225c0 -147 -85 -232 -205 -232c-26 0 -52 3 -79 12v155c8 -2 16 -3 23 -3c36 0 54 27 54 58s-17 62 -58 62c-44 0 -69 -33 -69 -95v-245z" />
    <glyph glyph-name="dvP_MA" horiz-adv-x="1222" 
d="M951 471v100h-94v-100h94zM615 208c37 0 52 26 52 58v39h-38c-36 0 -62 -16 -62 -49s21 -48 48 -48zM334 307c28 0 48 14 59 35c35 89 127 129 230 129h44v100h-406v-171c0 -51 22 -93 73 -93zM1233 571h-77v-571h-205v305h-94v-28c0 -146 -80 -241 -238 -241
c-109 0 -190 49 -224 129c-28 -18 -65 -29 -110 -29c-150 0 -228 117 -228 264v171h-68v169h1244v-169z" />
    <glyph glyph-name="dvP_YA" horiz-adv-x="1129" 
d="M335 307c43 0 64 30 72 67c1 13 2 26 4 40h8c114 0 128 60 128 126v31h-286v-170c0 -52 23 -94 74 -94zM726 232c90 0 133 63 133 143v196h-111v-69c0 -87 -31 -168 -138 -188c5 -44 45 -82 116 -82zM1140 571h-77v-571h-204v121c-41 -36 -100 -58 -178 -58
c-108 0 -187 42 -232 114c-37 -26 -83 -41 -139 -41c-166 0 -253 117 -253 265v170h-68v169h1151v-169z" />
    <glyph glyph-name="dvP_LA" horiz-adv-x="1266" 
d="M335 307c33 0 54 18 64 42c33 115 131 163 229 163c90 0 144 -37 176 -94h3c23 41 58 72 110 86v67h-656v-170c0 -52 23 -94 74 -94zM952 5c-7 0 -19 0 -35 1v177c9 -1 21 -2 26 -2c40 0 74 26 74 80c0 44 -23 72 -64 72c-49 0 -63 -42 -63 -77v-29h-168v29
c0 35 -14 77 -63 77c-41 0 -64 -28 -64 -72c0 -54 34 -80 74 -80c5 0 16 1 26 2v-177c-16 -1 -28 -1 -35 -1c-129 0 -215 58 -252 149c-28 -12 -61 -18 -98 -18c-166 0 -253 117 -253 265v170h-68v169h1288v-169h-160v-94c62 -37 107 -106 107 -213
c0 -151 -97 -259 -272 -259z" />
    <glyph glyph-name="dvP_VA" horiz-adv-x="1013" 
d="M672 203c46 0 77 33 77 77s-31 75 -77 75c-49 0 -79 -34 -79 -76s30 -76 79 -76zM335 307c36 0 56 20 66 48c24 94 96 162 213 162c55 0 102 -18 135 -52v106h-488v-170c0 -52 23 -94 74 -94zM1024 571h-76v-571h-199v95c-33 -36 -80 -54 -135 -54
c-95 0 -161 47 -195 118c-31 -15 -67 -23 -109 -23c-166 0 -253 117 -253 265v170h-68v169h1035v-169z" />
    <glyph glyph-name="dvP_SA" horiz-adv-x="1195" 
d="M872 187c0 -119 -82 -196 -223 -196c-133 0 -212 72 -233 168c-29 -15 -64 -23 -104 -23c-167 0 -255 117 -255 265v170h-68v169h1217v-169h-77v-571h-204v269h-312v-68c0 -19 9 -37 32 -37c22 0 30 17 30 35v13h196c1 -11 1 -20 1 -25zM336 307c52 0 75 42 75 92v14h63
c104 0 124 46 124 107v51h-337v-170c0 -52 23 -94 75 -94zM802 520c0 -29 -3 -58 -11 -85h134v136h-123v-51z" />
    <glyph glyph-name="dvPH_JA" horiz-adv-x="1558" 
d="M332 307c50 0 74 38 74 83v181h-145v-181c0 -46 22 -83 71 -83zM976 258c32 0 46 23 46 67v156h268v90h-680v-110c28 33 71 52 126 52c132 0 192 -98 192 -182v-6c0 -44 17 -67 48 -67zM610 267v-267h-204v179c-30 -27 -73 -43 -128 -43c-145 0 -221 112 -221 254v181
h-68v169h1580v-169h-75v-571h-204v308h-68c-5 -134 -98 -228 -246 -228c-168 0 -249 99 -249 203v1c0 30 -17 56 -58 56c-38 0 -59 -27 -59 -73z" />
    </font>
</defs>
</svg>
