<?xml version="1.0" standalone="no"?>
<!DOCTYPE svg PUBLIC "-//W3C//DTD SVG 1.1//EN" "http://www.w3.org/Graphics/SVG/1.1/DTD/svg11.dtd" >
<svg xmlns="http://www.w3.org/2000/svg" xmlns:xlink="http://www.w3.org/1999/xlink" version="1.1">
<metadata>
Created by FontForge 20170910 at Fri Dec 22 03:10:02 2017
 By Jimmy Wärting
Copyright 2014-2017 Indian Type Foundry (info@indiantypefoundry.com)
</metadata>
<defs>
<font id="Poppins-BlackItalic" horiz-adv-x="335" >
  <font-face 
    font-family="Poppins Black"
    font-weight="900"
    font-style="italic"
    font-stretch="normal"
    units-per-em="1000"
    panose-1="0 0 10 0 0 0 0 0 0 0"
    ascent="800"
    descent="-200"
    x-height="564"
    cap-height="708"
    bbox="-642 -627 2486 1135"
    underline-thickness="50"
    underline-position="-100"
    slope="-10"
    unicode-range="U+000D-FB02"
  />
<missing-glyph horiz-adv-x="500" 
d="M0 0v700h500v-700h-500zM250 395l170 255h-340zM280 350l170 -255v510zM80 50h340l-170 255zM50 605v-510l170 255z" />
    <glyph glyph-name=".notdef" horiz-adv-x="500" 
d="M0 0v700h500v-700h-500zM250 395l170 255h-340zM280 350l170 -255v510zM80 50h340l-170 255zM50 605v-510l170 255z" />
    <glyph glyph-name="NULL" horiz-adv-x="0" 
 />
    <glyph glyph-name="NULL" horiz-adv-x="0" 
 />
    <glyph glyph-name="CR" unicode="&#xd;" horiz-adv-x="170" 
 />
    <glyph glyph-name="space" unicode=" " horiz-adv-x="170" 
 />
    <glyph glyph-name="dvA" unicode="&#x905;" horiz-adv-x="845" 
d="M280 493c31 0 60 13 66 44c4 24 -7 40 -29 40c-23 0 -40 -17 -44 -38h-187c22 123 123 210 261 210c134 0 203 -73 183 -185c-12 -70 -57 -121 -120 -146l-1 -4c18 -6 32 -14 44 -25h127l61 351h280l-29 -169h-77l-101 -571h-203l39 222h-74c-33 -99 -123 -159 -236 -159
c-149 0 -229 87 -206 216h190c-4 -21 6 -42 34 -42c26 0 43 18 47 43c5 29 -12 50 -54 50h-49l29 163h49z" />
    <glyph glyph-name="dvAA" unicode="&#x906;" horiz-adv-x="1179" 
d="M280 493c31 0 60 13 66 44c4 24 -7 40 -29 40c-23 0 -40 -17 -44 -38h-187c22 123 123 210 261 210c134 0 203 -73 183 -185c-12 -70 -57 -121 -120 -146l-1 -4c18 -6 32 -14 44 -25h127l61 351h614l-30 -169h-76l-100 -571h-204l100 571h-130l-101 -571h-203l39 222h-74
c-33 -99 -123 -159 -236 -159c-149 0 -229 87 -206 216h190c-4 -21 6 -42 34 -42c26 0 43 18 47 43c5 29 -12 50 -54 50h-49l29 163h49z" />
    <glyph glyph-name="dvI" unicode="&#x907;" horiz-adv-x="586" 
d="M31 571l30 169h601l-30 -169h-117l-7 -43v0l-26 -144h-191c-18 0 -31 -8 -34 -23c-2 -14 6 -22 27 -22h43c103 0 199 -54 174 -195c-18 -103 -95 -167 -200 -165c-42 1 -75 13 -93 26l-16 -94h-193l45 258h183c-4 -29 13 -41 38 -41s41 13 45 33c4 23 -10 36 -48 36
c-21 0 -41 0 -68 2c-74 5 -160 55 -139 171c19 112 107 158 211 158h45l7 43h-287z" />
    <glyph glyph-name="dvII" unicode="&#x908;" horiz-adv-x="577" 
d="M208 5l-16 -94h-193l45 258h183c-4 -29 13 -41 38 -41s42 13 45 33c3 23 -10 36 -48 36c-21 0 -41 0 -68 2c-74 5 -159 55 -139 171c19 112 107 158 211 158h46l8 43h-287l30 169h290l10 58c19 103 82 232 260 232c146 0 206 -87 173 -228h-178c11 41 1 60 -21 60
c-27 0 -39 -20 -46 -61l-11 -61h124l-30 -169h-117l-15 -81h-1l-19 -106h-191c-18 0 -32 -8 -34 -23c-2 -14 6 -22 27 -22h43c103 0 199 -54 174 -195c-18 -103 -95 -167 -200 -165c-42 1 -75 13 -93 26z" />
    <glyph glyph-name="dvU" unicode="&#x909;" horiz-adv-x="559" 
d="M24 570l30 170h581l-30 -170h-66l-6 -32c-14 -82 -57 -132 -105 -145l-1 -3c54 -21 87 -83 73 -167c-23 -130 -125 -218 -273 -218c-153 0 -244 86 -216 240h194c-7 -35 10 -59 44 -59c32 0 56 21 62 54c5 32 -9 58 -50 58h-69l31 177h39c31 0 67 15 77 72l4 23h-319z
" />
    <glyph glyph-name="dvUU" unicode="&#x90a;" horiz-adv-x="843" 
d="M24 571l30 169h865l-30 -169h-350l-6 -33c-14 -82 -57 -132 -105 -145l-1 -3h160c144 0 224 -64 201 -196c-18 -99 -94 -180 -221 -180c-21 0 -42 2 -65 7l27 152h29c21 0 33 12 36 28s-6 29 -32 29h-64c-1 -6 -2 -13 -3 -19c-21 -117 -122 -206 -268 -206
c-153 0 -244 86 -216 240h194c-7 -35 10 -59 44 -59c32 0 56 21 62 54c5 32 -9 58 -50 58h-69l31 177h39c31 0 67 15 77 72l4 24h-319z" />
    <glyph glyph-name="dvvR" unicode="&#x90b;" horiz-adv-x="1071" 
d="M398 0l20 110l-152 -110h-261l1 8l437 287c-12 27 -39 44 -78 44c-73 0 -118 -48 -129 -112h-204c29 164 138 283 301 283c68 0 115 -21 145 -56l21 117h-474l29 169h1093l-29 -169h-432l-20 -112h124c29 0 52 12 57 40l4 24h174l-61 -347h-31c-45 0 -67 -21 -72 -49
c-6 -34 24 -47 66 -47c18 0 40 3 58 7l-28 -161c-26 -4 -60 -7 -86 -7c-142 0 -229 70 -208 189c15 85 71 141 145 169l6 33c-28 -8 -57 -11 -83 -11h-93l-53 -299h-187z" />
    <glyph glyph-name="dvvRR" unicode="&#x960;" horiz-adv-x="1074" 
d="M398 0l19 110l-151 -110h-261l1 8l436 288c-12 26 -38 43 -77 43c-73 0 -118 -48 -129 -112h-204c29 164 138 283 301 283c68 0 114 -20 145 -55l20 116h-474l30 169h1096l-30 -169h-435l-20 -112h125c29 0 52 12 57 40l4 24h174l-62 -352h-33c-32 0 -58 -6 -63 -33
c-5 -26 22 -32 51 -32h64l-26 -150h-52c-36 0 -70 -4 -76 -36c-6 -33 33 -36 64 -36c45 0 92 11 107 15l-26 -149c-38 -15 -96 -22 -140 -22c-114 0 -226 44 -204 170c11 63 63 113 128 128l1 4c-54 12 -97 45 -84 119s74 110 133 123l7 38c-29 -8 -57 -11 -84 -11h-93
l-52 -299h-187z" />
    <glyph glyph-name="dvvL" unicode="&#x90c;" horiz-adv-x="909" 
d="M16 571l30 169h931l-30 -169h-176l-13 -75c63 -34 104 -105 84 -225c-6 -37 -18 -70 -34 -100h-6c-72 0 -94 -20 -99 -51c-5 -29 27 -44 72 -44c18 0 38 1 59 6l-29 -161c-31 -4 -59 -6 -86 -6c-146 0 -233 69 -211 195c13 73 69 128 130 154c0 3 1 5 1 8
c8 42 -10 68 -46 68c-49 0 -69 -43 -76 -77l-7 -36h-168l7 36c7 34 -1 77 -50 77c-41 0 -68 -28 -76 -72c-11 -63 19 -80 59 -80c5 0 16 0 27 1l-31 -176c-17 -1 -29 -1 -36 -1c-175 0 -254 100 -226 259c31 176 165 248 284 248c88 0 136 -38 156 -95h4c24 34 59 62 102 78
l12 69h-558z" />
    <glyph glyph-name="dvvLL" unicode="&#x961;" horiz-adv-x="921" 
d="M15 571l30 169h943l-30 -169h-188l-13 -75c65 -33 108 -105 85 -225c-7 -37 -19 -70 -34 -100h-25c-32 0 -59 -6 -64 -33c-5 -26 23 -32 52 -32h64l-26 -150h-52c-37 0 -71 -4 -77 -36c-6 -33 34 -36 65 -36c45 0 92 11 107 15l-26 -149c-38 -15 -96 -22 -140 -22
c-114 0 -226 44 -204 170c11 63 63 113 128 128l1 4c-54 12 -97 45 -84 119c12 65 60 100 111 117c0 2 1 4 1 6c8 42 -10 68 -46 68c-49 0 -71 -43 -77 -77l-6 -36h-168l6 36c6 34 0 77 -49 77c-41 0 -69 -28 -77 -72c-11 -63 20 -80 60 -80c5 0 16 0 26 1l-31 -176
c-16 -1 -28 -1 -35 -1c-175 0 -254 100 -226 259c31 176 164 248 283 248c88 0 137 -38 157 -95h4c24 35 58 62 101 78l12 69h-558z" />
    <glyph glyph-name="dvE" unicode="&#x90f;" horiz-adv-x="652" 
d="M23 571l30 169h675l-30 -169h-71l-10 -56c-27 -153 -108 -245 -294 -217l32 182c37 -8 60 9 65 40l9 51h-122l-55 -313c-8 -48 17 -66 44 -66c30 0 56 19 62 51h199c-24 -144 -129 -224 -276 -224c-173 0 -256 102 -231 247l53 305h-80z" />
    <glyph glyph-name="dvAI" unicode="&#x910;" horiz-adv-x="653" 
d="M282 19c-173 0 -256 102 -231 247l53 305h-80l30 169h402c-45 91 -60 109 -142 109h-59l29 163h56c169 -1 221 -34 306 -272h83l-30 -169h-71l-10 -56c-27 -153 -108 -245 -294 -217l32 182c37 -8 60 9 65 40l9 51h-122l-55 -313c-8 -48 17 -66 44 -66c30 0 56 19 62 51
h199c-24 -144 -129 -224 -276 -224z" />
    <glyph glyph-name="dvO" unicode="&#x913;" horiz-adv-x="1179" 
d="M714 0h-203l39 222h-74c-33 -99 -123 -159 -236 -159c-149 0 -229 87 -206 216h190c-4 -21 6 -42 34 -42c26 0 43 18 47 43c5 29 -12 50 -54 50h-49l29 163h49c31 0 60 13 66 44c4 24 -7 40 -29 40c-23 0 -40 -17 -44 -38h-187c22 123 123 210 261 210
c134 0 203 -73 183 -185c-12 -70 -57 -121 -120 -146l-1 -4c18 -6 32 -14 44 -25h127l61 351h338c-45 91 -60 109 -142 109h-59l28 163h56c170 -1 221 -34 307 -272h86l-30 -169h-76l-100 -571h-204l100 571h-130z" />
    <glyph glyph-name="dvAU" unicode="&#x914;" horiz-adv-x="1179" 
d="M714 0h-203l39 222h-74c-33 -99 -123 -159 -236 -159c-149 0 -229 87 -206 216h190c-4 -21 6 -42 34 -42c26 0 43 18 47 43c5 29 -12 50 -54 50h-49l29 163h49c31 0 60 13 66 44c4 24 -7 40 -29 40c-23 0 -40 -17 -44 -38h-187c22 123 123 210 261 210
c134 0 203 -73 183 -185c-12 -70 -57 -121 -120 -146l-1 -4c18 -6 32 -14 44 -25h127l61 351h345c-90 51 -73 51 -179 51h-61l22 125h56c87 0 113 0 160 -39c-43 88 -84 88 -142 88h-65l22 126h60c167 0 189 -16 305 -351h91l-30 -169h-76l-100 -571h-204l100 571h-130z" />
    <glyph glyph-name="dvEcandra" unicode="&#x90d;" horiz-adv-x="653" 
d="M376 808c-182 0 -246 91 -221 233h174c-9 -50 10 -84 73 -84c62 0 94 34 103 84h174c-25 -142 -122 -233 -303 -233zM-4 571l30 169h675l-30 -169h-71l-10 -56c-27 -153 -108 -245 -294 -217l32 182c37 -8 60 9 65 40l9 51h-122l-55 -313c-8 -48 17 -66 44 -66
c30 0 56 19 62 51h199c-24 -144 -129 -224 -276 -224c-173 0 -256 102 -231 247l53 305h-80z" />
    <glyph glyph-name="dvAcandra" unicode="&#x972;" horiz-adv-x="845" 
d="M280 493c31 0 60 13 66 44c4 24 -7 40 -29 40c-23 0 -40 -17 -44 -38h-187c22 123 123 210 261 210c134 0 203 -73 183 -185c-12 -70 -57 -121 -120 -146l-1 -4c18 -6 32 -14 44 -25h127l61 351h280l-29 -169h-77l-101 -571h-203l39 222h-74c-33 -99 -123 -159 -236 -159
c-149 0 -229 87 -206 216h190c-4 -21 6 -42 34 -42c26 0 43 18 47 43c5 29 -12 50 -54 50h-49l29 163h49zM771 814c-182 0 -255 91 -229 233h174c-9 -50 10 -84 73 -84c62 0 94 34 103 84h174c-24 -142 -114 -233 -295 -233z" />
    <glyph glyph-name="dvOcandra" unicode="&#x911;" horiz-adv-x="1179" 
d="M280 493c31 0 60 13 66 44c4 24 -7 40 -29 40c-23 0 -40 -17 -44 -38h-187c22 123 123 210 261 210c134 0 203 -73 183 -185c-12 -70 -57 -121 -120 -146l-1 -4c18 -6 32 -14 44 -25h127l61 351h614l-30 -169h-76l-100 -571h-204l100 571h-130l-101 -571h-203l39 222h-74
c-33 -99 -123 -159 -236 -159c-149 0 -229 87 -206 216h190c-4 -21 6 -42 34 -42c26 0 43 18 47 43c5 29 -12 50 -54 50h-49l29 163h49zM934 808c-182 0 -255 91 -229 233h174c-9 -50 10 -84 73 -84c62 0 94 34 103 84h174c-24 -142 -114 -233 -295 -233z" />
    <glyph glyph-name="dvmAA" unicode="&#x93e;" 
d="M1 0l100 571h-77l30 169h357l-30 -169h-76l-100 -571h-204z" />
    <glyph glyph-name="dvmI" unicode="&#x93f;" 
d="M305 571l-101 -571h-204l101 571h-77l30 169h78c45 173 215 313 492 313c288 0 410 -155 379 -339l-3 -18h-204l2 14c16 113 -70 178 -203 178c-125 0 -233 -54 -261 -148h77l-30 -169h-76z" />
    <glyph glyph-name="dvmII" unicode="&#x940;" 
d="M-212 696l12 69c29 169 123 288 323 288c204 0 245 -125 217 -288l-4 -25h76l-30 -169h-76l-101 -571h-204l101 571h-77l30 169h83l6 35c7 39 15 107 -51 107c-70 0 -86 -68 -93 -107l-14 -79h-198z" />
    <glyph glyph-name="dvmU" unicode="&#x941;" horiz-adv-x="0" 
d="M-339 -365c-134 0 -278 61 -243 247h180c-13 -65 22 -89 76 -89c44 0 71 19 76 50s-13 52 -60 52h-43l28 157h43c143 0 223 -77 206 -211c-15 -127 -120 -206 -263 -206z" />
    <glyph glyph-name="dvmUU" unicode="&#x942;" horiz-adv-x="0" 
d="M-315 -346c-105 0 -209 62 -184 197c22 128 124 194 256 194c213 0 262 -165 238 -315c-4 -25 -10 -48 -15 -71h-165l14 77c16 88 -2 159 -90 159c-31 0 -70 -12 -77 -50c-6 -35 23 -47 52 -47h23l-25 -144h-27z" />
    <glyph glyph-name="dvmvR" unicode="&#x943;" horiz-adv-x="0" 
d="M-262 -352c-104 0 -230 62 -203 214c21 119 120 186 270 186c12 0 62 -1 73 -2l-24 -136h-55c-39 0 -61 -15 -67 -45c-8 -38 27 -56 68 -56c37 0 73 9 92 14l-28 -157c-44 -13 -86 -18 -126 -18z" />
    <glyph glyph-name="dvmvRR" unicode="&#x944;" horiz-adv-x="0" 
d="M-251 -503c-114 0 -228 43 -204 169c12 64 63 113 129 128v4c-53 13 -97 45 -84 119c18 101 125 131 194 131h94l-19 -108h-12c-32 0 -58 -6 -63 -33c-5 -26 22 -33 51 -33h64l-26 -149h-51c-37 0 -72 -4 -78 -37c-6 -32 34 -35 65 -35c45 0 92 11 107 15l-27 -150
c-37 -14 -96 -21 -140 -21z" />
    <glyph glyph-name="dvmvL" unicode="&#x962;" horiz-adv-x="0" 
d="M-49 -486c-111 0 -178 54 -161 151c10 56 53 98 99 118l1 4c6 32 -7 53 -34 53c-37 0 -53 -32 -58 -59l-5 -27h-130l5 27c5 27 0 59 -36 59c-32 0 -54 -21 -60 -55c-8 -48 16 -61 46 -61c3 0 12 0 20 2l-25 -137h-26c-134 0 -195 77 -174 198c23 135 127 190 218 190
c67 0 104 -29 119 -72h3c31 43 84 72 151 72c88 0 170 -55 146 -190c-5 -28 -14 -53 -25 -76h-6c-57 0 -74 -15 -78 -39c-4 -22 20 -34 53 -34c14 0 30 1 46 5l-22 -124c-23 -3 -46 -5 -67 -5z" />
    <glyph glyph-name="dvmvLL" unicode="&#x963;" horiz-adv-x="0" 
d="M33 -612c-28 -10 -71 -15 -107 -15c-87 0 -172 31 -155 128c9 51 48 88 98 99v2c-41 10 -72 37 -63 93c8 51 45 78 85 91v1c6 32 -8 53 -35 53c-37 0 -52 -32 -57 -59l-5 -27h-130l5 27c5 27 -1 59 -37 59c-32 0 -54 -21 -60 -55c-8 -48 17 -61 47 -61c3 0 12 0 19 2
l-24 -137h-26c-134 0 -196 77 -174 198c25 135 126 190 217 190c67 0 104 -29 120 -72h3c30 43 83 72 150 72c88 0 171 -55 147 -190c-5 -28 -15 -53 -26 -76h-23c-26 0 -46 -5 -49 -25c-3 -18 17 -24 42 -24h47l-21 -115h-39c-30 0 -55 -2 -60 -29c-4 -24 26 -26 51 -26
c34 0 69 8 81 11z" />
    <glyph glyph-name="dvmE" unicode="&#x947;" horiz-adv-x="0" 
d="M-193 735c-46 95 -61 114 -144 114h-59l28 163h56c170 -1 221 -34 309 -277h-190z" />
    <glyph glyph-name="dvmAI" unicode="&#x948;" horiz-adv-x="0" 
d="M-184 737c-96 54 -76 54 -184 54h-61l22 125h56c87 0 113 0 160 -39c-43 88 -84 88 -142 88h-65l22 126h60c167 0 189 -16 306 -354h-174z" />
    <glyph glyph-name="dvmO" unicode="&#x94b;" horiz-adv-x="336" 
d="M206 0h-204l100 571h-77l30 169h86c-44 91 -60 109 -142 109h-59l29 163h56c170 -1 221 -34 306 -272h81l-30 -169h-76z" />
    <glyph glyph-name="dvmAU" unicode="&#x94c;" 
d="M174 0h-204l100 571h-77l30 169h92c-90 51 -73 51 -179 51h-61l22 125h56c87 0 113 0 160 -39c-43 88 -84 88 -142 88h-65l22 126h60c167 0 189 -16 305 -351h87l-30 -169h-76z" />
    <glyph glyph-name="dvmEcandra" unicode="&#x945;" horiz-adv-x="0" 
d="M-83 807c-182 0 -255 91 -229 233h174c-9 -50 10 -84 73 -84c62 0 94 34 103 84h174c-24 -142 -114 -233 -295 -233z" />
    <glyph glyph-name="dvmOcandra" unicode="&#x949;" horiz-adv-x="337" 
d="M253 807c-182 0 -255 91 -229 233h174c-9 -50 10 -84 73 -84c62 0 94 34 103 84h174c-24 -142 -114 -233 -295 -233zM1 0l100 571h-77l30 169h357l-30 -169h-76l-100 -571h-204z" />
    <glyph glyph-name="dvKA" unicode="&#x915;" horiz-adv-x="946" 
d="M319 0l17 97c-34 -35 -82 -54 -140 -54c-119 0 -194 103 -169 240c24 137 114 230 250 230c59 0 100 -19 123 -51l19 109h-395l30 169h968l-30 -169h-377l-19 -107c32 31 76 49 127 49c130 0 188 -112 164 -240c-27 -144 -125 -217 -243 -217c-24 0 -44 2 -70 9l28 158
c3 -1 9 -2 15 -2c32 0 59 22 65 57c5 28 -7 62 -48 62c-39 0 -64 -28 -73 -75l-46 -265h-196zM291 214c40 1 70 28 76 60v2c7 39 -17 65 -55 65c-41 0 -73 -27 -79 -64c-7 -36 18 -64 58 -63z" />
    <glyph glyph-name="dvKHA" unicode="&#x916;" horiz-adv-x="978" 
d="M645 0l22 126c-26 -20 -59 -31 -103 -31c-10 0 -20 1 -29 3c-59 -62 -143 -107 -245 -107c-186 0 -283 108 -248 306l19 109h19c97 0 138 42 151 117l8 48h-214l30 169h999l-30 -169h-76l-100 -571h-203zM637 249c30 0 55 21 61 54c5 27 -9 53 -42 53
c-31 0 -57 -19 -63 -53c-6 -36 16 -54 44 -54zM326 166c50 0 81 19 98 40c-9 35 -11 75 -4 117c20 116 111 191 217 186c42 -2 72 -14 91 -33l17 95h-301l-13 -77c-22 -126 -96 -205 -192 -226c-9 -56 17 -102 87 -102z" />
    <glyph glyph-name="dvGA" unicode="&#x917;" horiz-adv-x="859" 
d="M524 0l100 571h-93l-34 -198c-23 -136 -106 -238 -266 -238c-138 0 -232 74 -204 228c2 11 4 22 7 33h197l-6 -32c-6 -34 -2 -56 24 -56c29 0 38 31 42 56l36 207h-303l30 169h881l-30 -169h-77l-100 -571h-204z" />
    <glyph glyph-name="dvGHA" unicode="&#x918;" horiz-adv-x="691" 
d="M296 252c59 0 112 38 123 101l38 218h-154l-3 -19c-6 -34 4 -58 50 -58h35l-29 -163h-51c-33 0 -53 -16 -57 -40c-5 -26 16 -39 48 -39zM24 571l30 169h713l-30 -169h-75l-100 -571h-205l25 143c-46 -38 -103 -56 -166 -56c-109 0 -199 67 -179 182c13 73 67 121 116 139
v4c-44 16 -72 55 -59 130l5 29h-75z" />
    <glyph glyph-name="dvNGA" unicode="&#x919;" horiz-adv-x="730" 
d="M603 253c-56 0 -93 45 -83 100c10 57 63 102 119 102c57 0 94 -45 84 -102c-10 -55 -63 -100 -120 -100zM27 571l29 169h750l-29 -169h-262l-9 -45h1l-25 -142h-190c-18 0 -33 -8 -35 -22c-3 -16 8 -23 26 -23h44c112 0 199 -58 176 -185c-20 -113 -108 -178 -258 -178
c-141 0 -256 64 -240 193h203c-3 -34 28 -41 48 -41c27 0 50 11 54 34c4 20 -7 35 -46 35h-32c-71 0 -203 30 -178 172c18 104 107 157 212 157h43l9 45h-291z" />
    <glyph glyph-name="dvCA" unicode="&#x91a;" horiz-adv-x="765" 
d="M24 571l30 169h787l-30 -169h-76l-101 -571h-204l24 134c-46 -41 -107 -62 -175 -62c-114 0 -188 68 -167 183c6 35 21 65 45 89h-111l28 159h374l-28 -159h-46c-28 0 -58 -16 -65 -51c-6 -36 22 -54 64 -53c65 2 106 49 122 129l36 202h-507z" />
    <glyph glyph-name="dvCHA" unicode="&#x91b;" horiz-adv-x="827" 
d="M23 571l30 169h850l-30 -169h-168l-10 -56c68 -32 99 -103 82 -200c-32 -179 -186 -299 -437 -299c-202 0 -338 90 -308 235c14 66 54 110 115 136v4c-43 15 -71 54 -58 130l9 50h-75zM373 189c140 0 211 43 228 136c5 29 1 58 -24 58s-40 -24 -46 -56
c-4 -22 -4 -46 -2 -67h-166c-2 19 -3 51 4 90c15 88 70 142 140 166l10 55h-215l-7 -41c-6 -33 1 -58 37 -58h19l-29 -162h-15c-38 0 -62 -23 -67 -51c-7 -40 19 -70 133 -70z" />
    <glyph glyph-name="dvJA" unicode="&#x91c;" horiz-adv-x="872" 
d="M24 571l30 169h894l-30 -169h-76l-100 -571h-204l54 308h-68c-28 -134 -131 -228 -279 -228c-153 0 -243 98 -216 246l28 155h205l-28 -156c-8 -44 4 -67 36 -67c31 0 50 23 58 67l28 156h266l16 90h-614z" />
    <glyph glyph-name="dvJHA" unicode="&#x91d;" horiz-adv-x="890" 
d="M284 339h334l41 232h-144l-7 -43v0l-26 -144h-191c-18 0 -31 -8 -34 -23c-2 -14 6 -22 27 -22zM559 0l33 187h-97c1 -17 0 -35 -3 -55c-16 -89 -87 -152 -186 -152c-44 0 -79 12 -98 25l-16 -94h-192l45 257h183c-5 -28 12 -40 37 -40s42 12 45 33s-11 36 -48 36
c-21 0 -41 0 -68 2c-75 5 -162 54 -141 177c18 108 108 152 213 152h45l7 43h-286l30 169h904l-30 -169h-77l-100 -571h-200z" />
    <glyph glyph-name="dvNYA" unicode="&#x91e;" horiz-adv-x="851" 
d="M24 571l30 169h873l-30 -169h-76l-100 -571h-204l34 196h-67c-47 -107 -147 -165 -260 -165c-130 0 -223 72 -205 209h192c4 -31 28 -38 45 -38c36 0 62 31 69 72c7 39 -7 71 -43 71c-17 0 -45 -7 -59 -37h-192c30 137 149 210 279 210c108 0 185 -53 200 -151h71l36 204
h-593z" />
    <glyph glyph-name="dvTTA" unicode="&#x91f;" horiz-adv-x="643" 
d="M24 571l30 169h665l-30 -169h-148l-39 -222h-160c-54 0 -105 -30 -115 -86c-9 -48 18 -82 75 -82c59 0 101 36 110 89h194c-28 -161 -151 -265 -325 -265s-284 104 -258 265c25 148 138 240 309 248l9 53h-317z" />
    <glyph glyph-name="dvTTHA" unicode="&#x920;" horiz-adv-x="667" 
d="M300 188c58 0 97 37 106 88s-17 87 -75 87c-56 0 -95 -36 -104 -87s17 -88 73 -88zM279 19c-158 0 -284 97 -254 265c23 138 121 213 232 239l9 48h-243l30 169h690l-30 -169h-246l-10 -53c102 -32 175 -116 151 -250c-28 -163 -167 -249 -329 -249z" />
    <glyph glyph-name="dvDDA" unicode="&#x921;" horiz-adv-x="562" 
d="M27 571l29 169h582l-29 -169h-95l-33 -187h-189c-18 0 -33 -8 -35 -22c-3 -16 8 -23 26 -23h44c112 0 199 -58 176 -185c-20 -113 -108 -178 -258 -178c-141 0 -256 64 -240 193h203c-3 -34 28 -41 48 -41c27 0 50 11 54 34c4 20 -7 35 -46 35h-32
c-71 0 -203 30 -178 172c18 104 107 157 212 157h43l9 45h-291z" />
    <glyph glyph-name="dvDDHA" unicode="&#x922;" horiz-adv-x="666" 
d="M26 571l30 169h686l-30 -169h-148l-31 -179h-130c-89 0 -167 -48 -182 -136c-13 -70 14 -130 119 -130c58 0 107 18 115 63c3 17 -7 28 -21 28s-24 -8 -28 -21c-2 -6 -2 -15 -2 -17h-142c0 15 1 31 3 43c15 90 96 138 203 138c110 0 177 -71 159 -177
c-24 -126 -130 -202 -307 -202c-193 0 -324 114 -293 294c30 164 168 255 333 255h6l7 41h-347z" />
    <glyph glyph-name="dvNNA" unicode="&#x923;" horiz-adv-x="921" 
d="M302 291c27 0 43 18 48 44l42 236h-82l-42 -236c-5 -26 9 -44 34 -44zM24 571l30 169h943l-30 -169h-76l-101 -571h-204l101 571h-95l-39 -217c-22 -131 -106 -234 -264 -234c-152 0 -242 94 -217 234l39 217h-87z" />
    <glyph glyph-name="dvTA" unicode="&#x924;" horiz-adv-x="717" 
d="M24 571l30 169h739l-30 -169h-77l-100 -571h-204l55 314h-111c-52 0 -93 -30 -101 -76c-8 -44 12 -78 73 -78h16l-28 -159h-29c-129 0 -265 72 -237 247c28 174 175 240 327 240h120l15 83h-458z" />
    <glyph glyph-name="dvTHA" unicode="&#x925;" horiz-adv-x="811" 
d="M476 0l29 165c-41 -50 -122 -93 -226 -93c-172 0 -273 109 -241 292c5 27 11 55 21 84h80c106 0 176 23 188 91c4 21 -6 37 -25 37c-33 0 -43 -39 -40 -70h-183c5 127 98 243 257 243c128 0 205 -81 181 -216c-21 -118 -110 -218 -288 -228c5 -29 31 -65 110 -65
c99 0 191 65 215 204l52 296h281l-29 -169h-77l-101 -571h-204z" />
    <glyph glyph-name="dvDA" unicode="&#x926;" horiz-adv-x="617" 
d="M28 571l30 169h635l-31 -169h-93l-42 -235h-198c-52 0 -85 -29 -92 -70c-7 -38 12 -62 49 -62c39 0 63 28 69 63h189l-55 -311h-199l22 123c-30 -23 -69 -35 -115 -35c-103 0 -195 77 -167 237c27 152 151 229 308 229h15l11 61h-336z" />
    <glyph glyph-name="dvDHA" unicode="&#x927;" horiz-adv-x="753" 
d="M237 65c-125 0 -219 63 -198 186c15 86 86 129 136 143l1 4c-56 21 -107 79 -90 174c19 116 105 177 216 177c137 0 202 -85 161 -221h-149c5 21 6 51 -24 51c-18 0 -31 -14 -36 -36c-11 -53 31 -62 68 -62h92l-29 -163h-52c-42 0 -77 -10 -83 -44c-5 -28 20 -43 70 -43
c91 0 155 61 170 148l34 192v0l29 169h276l-29 -169h-72l-101 -571h-204l24 137c-51 -47 -121 -72 -210 -72z" />
    <glyph glyph-name="dvNA" unicode="&#x928;" horiz-adv-x="844" 
d="M254 210c33 0 60 23 66 56c5 32 -13 56 -46 56c-34 0 -63 -24 -68 -56c-6 -33 14 -56 48 -56zM24 571l30 169h866l-30 -169h-76l-101 -571h-204l57 322h-92c6 -24 8 -51 2 -85c-23 -133 -136 -198 -244 -198c-138 0 -234 101 -210 239c28 152 149 213 288 213h286l14 80
h-586z" />
    <glyph glyph-name="dvPA" unicode="&#x92a;" horiz-adv-x="691" 
d="M336 307c50 0 79 35 90 85l31 179h-161l-30 -170c-10 -52 9 -94 70 -94zM24 571l30 169h713l-30 -169h-76l-100 -571h-204l31 177c-34 -26 -77 -41 -130 -41c-151 0 -224 117 -196 265l30 170h-68z" />
    <glyph glyph-name="dvPHA" unicode="&#x92b;" horiz-adv-x="984" 
d="M326 307c46 0 72 33 82 75l33 189h-145l-31 -181c-10 -46 8 -83 61 -83zM24 571l30 169h1006l-30 -169h-385l-19 -110c36 33 86 52 145 52c130 0 180 -104 159 -225c-26 -147 -126 -232 -246 -232c-26 0 -52 3 -77 12l27 155c8 -2 16 -3 23 -3c36 0 58 27 64 58
c5 31 -6 62 -47 62c-44 0 -75 -33 -85 -89l-44 -251h-204l31 175c-33 -25 -73 -39 -122 -39c-145 0 -217 112 -189 254l31 181h-68z" />
    <glyph glyph-name="dvBA" unicode="&#x92c;" horiz-adv-x="687" 
d="M361 0l15 85c-37 -31 -90 -46 -148 -46c-142 0 -223 114 -198 259c24 138 135 226 283 226c53 0 99 -11 134 -35l14 82h-437l30 169h709l-30 -169h-76l-100 -571h-196zM334 395c-23 0 -44 -6 -63 -17l147 -113c2 7 5 15 6 23c10 62 -27 107 -90 107zM297 182
c23 0 44 6 62 16l-147 114c-3 -8 -6 -16 -7 -24c-12 -65 32 -106 92 -106z" />
    <glyph glyph-name="dvBHA" unicode="&#x92d;" horiz-adv-x="889" 
d="M251 208c37 0 55 26 61 58l7 39h-37c-37 0 -66 -16 -72 -49s14 -48 41 -48zM224 36c-145 0 -227 86 -203 219c26 150 151 216 284 216h43l11 63c4 24 0 42 -23 42c-20 0 -34 -17 -38 -39c-2 -9 -3 -18 -2 -28h-204c-1 10 0 24 2 36c20 113 108 204 264 204
c175 0 209 -116 184 -253l-4 -25h98l47 269h282l-29 -169h-78l-101 -571h-204l54 305h-98l-5 -28c-26 -146 -122 -241 -280 -241z" />
    <glyph glyph-name="dvMA" unicode="&#x92e;" horiz-adv-x="879" 
d="M245 208c37 0 55 26 61 58l7 39h-38c-36 0 -65 -16 -71 -49s17 -48 41 -48zM626 471l18 100h-95l-17 -100h94zM24 571l30 169h901l-30 -169h-76l-101 -571h-205l54 305h-94l-5 -28c-26 -146 -123 -241 -281 -241c-145 0 -225 88 -202 219c26 150 151 216 283 216h44
l17 100h-335z" />
    <glyph glyph-name="dvYA" unicode="&#x92f;" horiz-adv-x="769" 
d="M342 232c90 0 144 63 158 143v0l35 196h-111l-13 -69c-15 -87 -60 -168 -171 -188c-3 -44 30 -82 102 -82zM24 571l30 169h791l-30 -169h-76l-101 -571h-204l21 120c-45 -36 -104 -57 -175 -57c-171 0 -268 114 -238 282c4 23 10 45 17 69h8c114 0 138 60 150 126l6 31
h-199z" />
    <glyph glyph-name="dvRA" unicode="&#x930;" horiz-adv-x="529" 
d="M25 571l30 169h550l-30 -169h-63l-4 -26c-25 -139 -90 -259 -272 -269l-13 -77c-4 -19 0 -35 20 -35c18 0 29 16 33 35l5 33h195c-1 -12 -2 -21 -3 -26c-22 -130 -107 -215 -246 -215c-153 0 -227 97 -205 218l41 229h98c103 0 132 46 143 107l4 26h-283z" />
    <glyph glyph-name="dvLA" unicode="&#x932;" horiz-adv-x="920" 
d="M858 251c-27 -151 -143 -251 -317 -246c-7 0 -25 1 -35 2l32 176c5 -1 17 -2 25 -2c40 0 79 26 88 80c8 44 -12 72 -51 72c-49 0 -70 -42 -77 -77l-5 -29h-168l5 29c7 35 0 77 -49 77c-41 0 -69 -28 -77 -72c-9 -52 17 -80 65 -80c7 0 14 1 22 2l-32 -177
c-14 -1 -23 -1 -30 -1c-177 0 -257 117 -229 268c30 176 160 239 276 239c89 0 142 -40 163 -94h3c29 41 71 72 127 86l12 67h-582l30 169h942l-30 -169h-160l-17 -98c55 -41 88 -115 69 -222z" />
    <glyph glyph-name="dvVA" unicode="&#x935;" horiz-adv-x="662" 
d="M292 203c46 0 82 33 90 77s-18 75 -64 75c-49 0 -85 -34 -92 -76s17 -76 66 -76zM708 571h-76l-100 -571h-199l16 93c-37 -35 -85 -52 -137 -52c-137 0 -210 103 -180 259c23 131 112 217 249 217c58 0 103 -20 133 -52l19 106h-409l30 169h684z" />
    <glyph glyph-name="dvSHA" unicode="&#x936;" horiz-adv-x="882" 
d="M252 -6c-158 0 -251 92 -224 240l36 203h135c77 0 162 14 176 93c4 23 -5 43 -27 43c-36 0 -50 -38 -50 -73h-203c15 160 124 249 276 249c135 0 236 -82 209 -232c-31 -176 -175 -250 -333 -250h-7l-8 -45c-5 -26 -2 -54 36 -54c33 0 46 24 54 65h198
c-18 -151 -107 -239 -268 -239zM544 0l131 740h283l-30 -169h-76l-101 -571h-207z" />
    <glyph glyph-name="dvSSA" unicode="&#x937;" horiz-adv-x="710" 
d="M329 291c45 0 78 21 99 51l-161 101l-9 -48c-10 -57 10 -104 71 -104zM460 463l19 108h-187zM24 571l30 169h732l-30 -169h-77l-100 -571h-200l30 170c-38 -31 -87 -50 -148 -50c-159 0 -227 124 -199 281l30 170h-68z" />
    <glyph glyph-name="dvSA" unicode="&#x938;" horiz-adv-x="835" 
d="M468 520c-5 -29 -13 -58 -26 -85h135l24 136h-124zM25 571l30 169h856l-30 -169h-76l-101 -571h-204l47 269h-312l-12 -68c-3 -19 2 -37 25 -37s34 18 40 48h195c-12 -140 -111 -221 -255 -221c-154 0 -225 104 -203 232l33 190h63c104 0 132 46 143 107l9 51h-248z" />
    <glyph glyph-name="dvHA" unicode="&#x939;" horiz-adv-x="594" 
d="M511 86c-27 -125 -135 -203 -271 -203c-150 0 -249 100 -222 249c13 74 52 127 106 162c-32 27 -44 64 -36 108c13 73 79 129 184 129h48l7 40h-292l30 169h606l-30 -169h-120l-7 -40l-26 -143h-167c-19 0 -35 -8 -38 -28c-1 -6 -1 -12 3 -17c8 1 16 1 24 1
c154 0 226 -101 211 -200h-195c1 23 -18 40 -46 40c-25 0 -58 -19 -66 -66c-9 -50 18 -68 44 -68c25 0 48 14 58 36h195z" />
    <glyph glyph-name="dvLLA" unicode="&#x933;" horiz-adv-x="936" 
d="M274 199c36 0 68 25 75 64c6 37 -17 64 -53 64c-39 0 -70 -27 -76 -65c-7 -39 16 -63 54 -63zM600 199c38 0 69 24 76 63c6 38 -15 65 -54 65c-37 0 -69 -27 -75 -64c-7 -39 16 -64 53 -64zM605 26c-78 0 -147 31 -178 101h-6c-51 -70 -128 -101 -206 -101
c-126 0 -220 88 -194 237c26 146 144 236 271 236c65 0 137 -17 178 -100h4c42 53 88 79 133 91l14 81h-599l30 169h960l-30 -169h-164l-19 -105c60 -38 93 -109 76 -203c-26 -149 -144 -237 -270 -237z" />
    <glyph glyph-name="dvK_SSA" horiz-adv-x="904" 
d="M293 528c-6 -32 15 -61 65 -59c23 15 39 33 43 56c4 24 -8 51 -46 51c-31 0 -57 -20 -62 -48zM289 -68l25 143c-32 -28 -78 -42 -127 -42c-111 0 -180 69 -161 177c17 94 84 144 158 180c-46 28 -81 82 -66 165c21 117 133 194 273 194c119 0 206 -64 184 -186
c-7 -39 -24 -70 -48 -96h133l48 273h272l-29 -169h-77l-101 -571h-195l56 321h-327c-35 -16 -57 -34 -63 -65c-6 -32 15 -55 48 -55c43 0 69 37 74 67h168l-59 -336h-186z" />
    <glyph glyph-name="dvJ_NYA" horiz-adv-x="869" 
d="M536 0l58 326h-100c19 -25 29 -60 23 -107c-14 -107 -100 -174 -207 -169c-50 3 -92 16 -118 42l-19 -110h-198l52 294h190c-2 -33 15 -60 56 -60c40 0 63 25 68 53c7 42 -25 57 -51 57h-52l28 162h356l15 83h-611l30 169h889l-30 -169h-77l-101 -571h-201z" />
    <glyph glyph-name="dvKxA" unicode="&#x958;" horiz-adv-x="946" 
d="M319 0l17 97c-34 -35 -82 -54 -140 -54c-119 0 -194 103 -169 240c24 137 114 230 250 230c59 0 100 -19 123 -51l19 109h-395l30 169h968l-30 -169h-377l-19 -107c32 31 76 49 127 49c130 0 188 -112 164 -240c-27 -144 -125 -217 -243 -217c-24 0 -44 2 -70 9l28 158
c3 -1 9 -2 15 -2c32 0 59 22 65 57c5 28 -7 62 -48 62c-39 0 -64 -28 -73 -75l-46 -265h-196zM291 214c40 1 70 28 76 60v2c7 39 -17 65 -55 65c-41 0 -73 -27 -79 -64c-7 -36 18 -64 58 -63zM112 -227c-63 0 -104 50 -93 112c11 64 70 115 133 115c64 0 105 -51 94 -115
c-11 -62 -70 -112 -134 -112z" />
    <glyph glyph-name="dvKHxA" unicode="&#x959;" horiz-adv-x="978" 
d="M645 0l22 126c-26 -20 -59 -31 -103 -31c-10 0 -20 1 -29 3c-59 -62 -143 -107 -245 -107c-186 0 -283 108 -248 306l19 109h19c97 0 138 42 151 117l8 48h-214l30 169h999l-30 -169h-76l-100 -571h-203zM216 -275c-63 0 -104 50 -93 112c11 64 70 115 133 115
c64 0 105 -51 94 -115c-11 -62 -70 -112 -134 -112zM637 249c30 0 55 21 61 54c5 27 -9 53 -42 53c-31 0 -57 -19 -63 -53c-6 -36 16 -54 44 -54zM326 166c50 0 81 19 98 40c-9 35 -11 75 -4 117c20 116 111 191 217 186c42 -2 72 -14 91 -33l17 95h-301l-13 -77
c-22 -126 -96 -205 -192 -226c-9 -56 17 -102 87 -102z" />
    <glyph glyph-name="dvGxA" unicode="&#x95a;" horiz-adv-x="859" 
d="M524 0l100 571h-93l-34 -198c-23 -136 -106 -238 -266 -238c-138 0 -232 74 -204 228c2 11 4 22 7 33h197l-6 -32c-6 -34 -2 -56 24 -56c29 0 38 31 42 56l36 207h-303l30 169h881l-30 -169h-77l-100 -571h-204zM176 -135c-63 0 -104 50 -93 112c11 64 70 115 133 115
c64 0 105 -51 94 -115c-11 -62 -70 -112 -134 -112z" />
    <glyph glyph-name="dvJxA" unicode="&#x95b;" horiz-adv-x="872" 
d="M24 571l30 169h894l-30 -169h-76l-100 -571h-204l54 308h-68c-28 -134 -131 -228 -279 -228c-153 0 -243 98 -216 246l28 155h205l-28 -156c-8 -44 4 -67 36 -67c31 0 50 23 58 67l28 156h266l16 90h-614zM191 -189c-63 0 -104 50 -93 112c11 64 70 115 133 115
c64 0 105 -51 94 -115c-11 -62 -70 -112 -134 -112z" />
    <glyph glyph-name="dvDDxA" unicode="&#x95c;" horiz-adv-x="562" 
d="M27 571l29 169h582l-29 -169h-95l-33 -187h-189c-18 0 -33 -8 -35 -22c-3 -16 8 -23 26 -23h44c112 0 199 -58 176 -185c-20 -113 -108 -178 -258 -178c-141 0 -256 64 -240 193h203c-3 -34 28 -41 48 -41c27 0 50 11 54 34c4 20 -7 35 -46 35h-32
c-71 0 -203 30 -178 172c18 104 107 157 212 157h43l9 45h-291zM188 -293c-63 0 -104 50 -93 112c11 64 70 115 133 115c64 0 105 -51 94 -115c-11 -62 -70 -112 -134 -112z" />
    <glyph glyph-name="dvDDHxA" unicode="&#x95d;" horiz-adv-x="666" 
d="M26 571l30 169h686l-30 -169h-148l-31 -179h-130c-89 0 -167 -48 -182 -136c-13 -70 14 -130 119 -130c58 0 107 18 115 63c3 17 -7 28 -21 28s-24 -8 -28 -21c-2 -6 -2 -15 -2 -17h-142c0 15 1 31 3 43c15 90 96 138 203 138c110 0 177 -71 159 -177
c-24 -126 -130 -202 -307 -202c-193 0 -324 114 -293 294c30 164 168 255 333 255h6l7 41h-347zM245 -287c-63 0 -104 50 -93 112c11 64 70 115 133 115c64 0 105 -51 94 -115c-11 -62 -70 -112 -134 -112z" />
    <glyph glyph-name="dvPHxA" unicode="&#x95e;" horiz-adv-x="984" 
d="M326 307c46 0 72 33 82 75l33 189h-145l-31 -181c-10 -46 8 -83 61 -83zM24 571l30 169h1006l-30 -169h-385l-19 -110c36 33 86 52 145 52c130 0 180 -104 159 -225c-26 -147 -126 -232 -246 -232c-26 0 -52 3 -77 12l27 155c8 -2 16 -3 23 -3c36 0 58 27 64 58
c5 31 -6 62 -47 62c-44 0 -75 -33 -85 -89l-44 -251h-204l31 175c-33 -25 -73 -39 -122 -39c-145 0 -217 112 -189 254l31 181h-68zM119 -127c-63 0 -104 50 -93 112c11 64 70 115 133 115c64 0 105 -51 94 -115c-11 -62 -70 -112 -134 -112z" />
    <glyph glyph-name="dvRxA" unicode="&#x931;" horiz-adv-x="529" 
d="M25 571l30 169h550l-30 -169h-63l-4 -26c-25 -139 -90 -259 -272 -269l-13 -77c-4 -19 0 -35 20 -35c18 0 29 16 33 35l5 33h195c-1 -12 -2 -21 -3 -26c-22 -130 -107 -215 -246 -215c-153 0 -227 97 -205 218l41 229h98c103 0 132 46 143 107l4 26h-283zM-4 -246
c-63 0 -104 50 -93 112c11 64 70 115 133 115c64 0 105 -51 94 -115c-11 -62 -70 -112 -134 -112z" />
    <glyph glyph-name="dvK" horiz-adv-x="679" 
d="M319 0l17 97c-34 -35 -82 -54 -140 -54c-119 0 -194 103 -169 240c24 137 114 230 250 230c59 0 100 -19 123 -51l19 109h-395l30 169h917l-30 -169h-326l-19 -107c32 31 76 49 127 49c130 0 188 -112 164 -235h-205c5 28 -7 62 -48 62c-39 0 -64 -28 -73 -75l-46 -265
h-196zM291 214c40 1 70 28 76 60v2c7 39 -17 65 -55 65c-41 0 -73 -27 -79 -64c-7 -36 18 -64 58 -63z" />
    <glyph glyph-name="dvKH" horiz-adv-x="667" 
d="M640 244c35 0 59 21 65 56c6 34 -11 55 -46 55s-61 -21 -67 -55c-6 -35 13 -56 48 -56zM25 571l30 169h905l-30 -169h-486l-13 -77c-22 -126 -96 -205 -192 -226c-9 -56 17 -102 87 -102c46 0 75 16 94 35c-11 28 -13 61 -7 99c23 130 138 206 273 206
c134 0 219 -76 196 -206c-23 -135 -141 -208 -269 -208c-22 0 -44 2 -64 7c-50 -61 -129 -108 -233 -108c-201 0 -307 118 -274 306l19 109h19c97 0 138 42 151 117l8 48h-214z" />
    <glyph glyph-name="dvG" horiz-adv-x="600" 
d="M24 571l30 169h611l-30 -169h-104l-34 -198c-23 -136 -106 -238 -266 -238c-138 0 -232 74 -204 228c2 11 4 22 7 33h197l-6 -32c-6 -34 -2 -56 24 -56c29 0 38 31 42 56l36 207h-303z" />
    <glyph glyph-name="dvGH" horiz-adv-x="367" 
d="M24 571l30 169h606l-30 -169h-328l-3 -19c-6 -34 4 -58 50 -58h35l-29 -163h-51c-33 0 -52 -16 -57 -40c-4 -26 17 -39 49 -39c78 0 113 47 123 102h173c-26 -143 -144 -267 -326 -267c-163 0 -248 79 -228 189c13 73 65 115 114 132l1 4c-44 16 -73 55 -59 130l5 29h-75
z" />
    <glyph glyph-name="dvNG" horiz-adv-x="728" 
d="M603 253c-56 0 -93 45 -83 100c10 57 63 102 119 102c57 0 94 -45 84 -102c-10 -55 -63 -100 -120 -100zM232 -305l-92 238h202l97 -238h-207zM26 571l30 169h750l-30 -169h-261l-9 -45h1l-25 -142h-190c-18 0 -33 -8 -35 -22c-3 -16 8 -23 26 -23h44
c112 0 199 -58 176 -185c-20 -113 -108 -178 -258 -178c-141 0 -256 64 -240 193h203c-3 -34 28 -41 48 -41c27 0 50 11 54 34c4 20 -7 35 -46 35h-32c-71 0 -203 30 -178 172c18 104 107 157 212 157h43l9 45h-292z" />
    <glyph glyph-name="dvC" horiz-adv-x="440" 
d="M46 344l28 159h374l-28 -159h-46c-28 0 -59 -16 -65 -51c-6 -36 22 -54 64 -53c68 2 108 53 123 139h177c-32 -192 -158 -309 -351 -309c-144 0 -232 60 -210 185c6 35 21 65 45 89h-111zM24 571l30 169h683l-30 -169h-683z" />
    <glyph glyph-name="dvCH" horiz-adv-x="828" 
d="M23 571l30 169h850l-30 -169h-571l-7 -41c-6 -33 1 -58 37 -58h19l-29 -162h-15c-38 0 -62 -23 -67 -51c-7 -40 19 -70 133 -70c140 0 211 43 228 136c5 29 1 58 -24 58s-40 -24 -46 -56c-4 -22 -4 -46 -2 -67h-166c-2 19 -3 51 4 90c22 125 123 182 238 182
c130 0 195 -85 172 -217c-32 -179 -186 -299 -437 -299c-202 0 -338 90 -308 235c14 66 54 110 115 136v4c-43 15 -71 54 -58 130l9 50h-75z" />
    <glyph glyph-name="dvJ" horiz-adv-x="562" 
d="M245 80c-153 0 -243 98 -216 246l28 155h205l-28 -156c-8 -44 4 -67 36 -67c31 0 50 23 58 67l28 156h378l-31 -173h-179c-28 -134 -131 -228 -279 -228zM26 571l30 169h723l-30 -169h-723z" />
    <glyph glyph-name="dvJH" horiz-adv-x="555" 
d="M32 571l30 169h708l-30 -169h-225l-7 -43v0l-26 -144h-191c-18 0 -31 -8 -34 -23c-2 -14 6 -22 27 -22h415l-26 -152h-178c1 -17 0 -35 -3 -55c-16 -89 -87 -152 -186 -152c-44 0 -79 12 -98 25l-16 -94h-192l45 257h183c-5 -28 12 -40 37 -40s42 12 45 33s-11 36 -48 36
c-21 0 -41 0 -68 2c-75 5 -162 54 -141 177c18 108 108 152 213 152h45l7 43h-286z" />
    <glyph glyph-name="dvNY" horiz-adv-x="527" 
d="M224 31c-130 0 -223 72 -205 209h192c4 -31 28 -38 45 -38c36 0 62 31 69 72c7 39 -7 71 -43 71c-17 0 -45 -7 -59 -37h-192c30 137 149 210 279 210c108 0 185 -53 200 -151h181l-30 -171h-177c-47 -107 -147 -165 -260 -165zM24 571l30 169h704l-30 -169h-704z" />
    <glyph glyph-name="dvTT" horiz-adv-x="643" 
d="M263 -275l-93 238h202l98 -238h-207zM24 571l30 169h665l-30 -169h-148l-39 -222h-160c-54 0 -105 -30 -115 -86c-9 -48 18 -82 75 -82c59 0 101 36 110 89h194c-28 -161 -151 -265 -325 -265s-284 104 -258 265c25 148 138 240 309 248l9 53h-317z" />
    <glyph glyph-name="dvTTH" horiz-adv-x="667" 
d="M263 -262l-92 238h202l97 -238h-207zM300 188c58 0 97 37 106 88s-17 87 -75 87c-56 0 -95 -36 -104 -87s17 -88 73 -88zM279 19c-158 0 -284 97 -254 265c23 138 121 213 232 239l9 48h-243l30 169h690l-30 -169h-246l-10 -53c102 -32 175 -116 151 -250
c-28 -163 -167 -249 -329 -249z" />
    <glyph glyph-name="dvDD" horiz-adv-x="562" 
d="M211 -305l-92 238h202l97 -238h-207zM27 571l29 169h582l-29 -169h-95l-33 -187h-189c-18 0 -33 -8 -35 -22c-3 -16 8 -23 26 -23h44c112 0 199 -58 176 -185c-20 -113 -108 -178 -258 -178c-141 0 -256 64 -240 193h203c-3 -34 28 -41 48 -41c27 0 50 11 54 34
c4 20 -7 35 -46 35h-32c-71 0 -203 30 -178 172c18 104 107 157 212 157h43l9 45h-291z" />
    <glyph glyph-name="dvDDH" horiz-adv-x="666" 
d="M264 -300l-92 238h202l97 -238h-207zM26 571l30 169h686l-30 -169h-148l-31 -179h-130c-89 0 -167 -48 -182 -136c-13 -70 14 -130 119 -130c58 0 107 18 115 63c3 17 -7 28 -21 28s-24 -8 -28 -21c-2 -6 -2 -15 -2 -17h-142c0 15 1 31 3 43c15 90 96 138 203 138
c110 0 177 -71 159 -177c-24 -126 -130 -202 -307 -202c-193 0 -324 114 -293 294c30 164 168 255 333 255h6l7 41h-347z" />
    <glyph glyph-name="dvNN" horiz-adv-x="597" 
d="M24 571l30 169h619l-30 -169h-51l-39 -217c-22 -131 -106 -234 -264 -234c-152 0 -242 94 -217 234l39 217h-87zM302 291c27 0 43 18 48 44l42 236h-82l-42 -236c-5 -26 9 -44 34 -44z" />
    <glyph glyph-name="dvT" horiz-adv-x="379" 
d="M257 1c-129 0 -265 72 -237 247c28 174 175 240 327 240h231l-31 -174h-221c-52 0 -93 -30 -101 -76c-8 -44 12 -78 73 -78h16l-28 -159h-29zM24 571l30 169h569l-30 -169h-569z" />
    <glyph glyph-name="dvTH" horiz-adv-x="477" 
d="M714 367c-32 -196 -207 -296 -376 -296c-244 0 -349 167 -279 377h80c108 0 178 23 188 92c3 20 -7 36 -24 36c-32 0 -44 -35 -41 -70h-183c6 136 108 243 257 243c128 0 205 -81 181 -216c-21 -118 -111 -218 -289 -228c9 -49 68 -65 123 -65c95 0 175 45 189 127h174z
" />
    <glyph glyph-name="dvD" horiz-adv-x="612" 
d="M373 -325l-92 238h202l97 -238h-207zM28 571l30 169h635l-31 -169h-93l-42 -235h-198c-52 0 -85 -29 -92 -70c-7 -38 12 -62 49 -62c39 0 63 28 69 63h189l-55 -311h-199l22 123c-30 -23 -69 -35 -115 -35c-103 0 -195 77 -167 237c27 152 151 229 308 229h15l11 61h-336
z" />
    <glyph glyph-name="dvDH" horiz-adv-x="426" 
d="M292 63c-155 0 -275 64 -251 196c15 86 84 122 134 135l1 4c-57 21 -107 79 -91 174c20 116 105 177 216 177c137 0 202 -85 161 -221h-149c5 21 6 51 -24 51c-18 0 -31 -14 -36 -36c-12 -53 31 -62 68 -62h92l-29 -163h-52c-42 0 -75 -10 -82 -44c-7 -36 39 -43 81 -43
c93 0 139 40 149 95h178c-27 -159 -145 -263 -366 -263z" />
    <glyph glyph-name="dvN" horiz-adv-x="517" 
d="M232 39c-138 0 -234 101 -210 239c28 152 149 213 288 213h406l-29 -169h-213c5 -24 7 -52 2 -85c-23 -133 -128 -198 -244 -198zM254 210c33 0 60 23 66 56c5 32 -13 56 -46 56c-34 0 -63 -24 -68 -56c-6 -33 14 -56 48 -56zM24 571l30 169h707l-30 -169h-707z" />
    <glyph glyph-name="dvP" horiz-adv-x="345" 
d="M24 571l30 169h600l-30 -169h-328l-30 -170c-10 -52 9 -94 70 -94c52 0 80 42 91 92l167 1c-21 -144 -103 -264 -283 -264c-181 0 -275 126 -245 287l26 148h-68z" />
    <glyph glyph-name="dvPH" horiz-adv-x="676" 
d="M326 307c46 0 72 33 82 75l33 189h-145l-31 -181c-10 -46 8 -83 61 -83zM24 571l30 169h955l-30 -169h-334l-19 -110c36 33 86 52 145 52c130 0 180 -103 157 -235h-207c5 31 -6 62 -47 62c-44 0 -75 -33 -85 -89l-44 -251h-204l31 175c-33 -25 -73 -39 -122 -39
c-145 0 -217 112 -189 254l31 181h-68z" />
    <glyph glyph-name="dvB" horiz-adv-x="369" 
d="M264 38c-169 0 -256 112 -237 250c18 130 128 238 307 238c176 0 257 -110 238 -238c-20 -137 -123 -250 -308 -250zM324 389c-23 0 -45 -6 -64 -17l147 -115c3 8 5 16 7 25c11 62 -26 107 -90 107zM24 571l30 169h603l-30 -169h-603zM286 176c23 0 44 6 62 16l-147 113
c-3 -7 -6 -15 -7 -23c-11 -65 33 -106 92 -106z" />
    <glyph glyph-name="dvBH" horiz-adv-x="559" 
d="M251 208c37 0 55 26 61 58l7 39h-37c-37 0 -66 -16 -72 -49s14 -48 41 -48zM224 36c-145 0 -227 86 -203 219c26 150 151 216 284 216h43l11 63c4 24 0 42 -23 42c-20 0 -34 -17 -38 -39c-2 -9 -3 -18 -2 -28h-204c-1 10 0 24 2 36c20 113 108 204 264 204
c175 0 209 -116 184 -253l-4 -25h206l-29 -166h-206l-5 -28c-26 -146 -122 -241 -280 -241z" />
    <glyph glyph-name="dvM" horiz-adv-x="551" 
d="M245 208c37 0 55 26 61 58l7 39h-38c-36 0 -65 -16 -71 -49s17 -48 41 -48zM24 571l30 169h732l-30 -169h-207l-17 -100h207l-29 -166h-207l-5 -28c-26 -146 -123 -241 -281 -241c-145 0 -225 88 -202 219c26 150 151 216 283 216h44l17 100h-335z" />
    <glyph glyph-name="dvY" horiz-adv-x="421" 
d="M25 571l30 169h697l-30 -169h-299l-12 -69c-15 -87 -60 -168 -171 -188c-2 -54 47 -82 109 -82c85 0 135 52 146 114h187c-24 -157 -144 -284 -351 -284c-194 0 -323 101 -289 283c4 23 10 45 17 69h8c114 0 140 60 151 126l5 31h-198z" />
    <glyph glyph-name="dvR" horiz-adv-x="528" 
d="M183 -291l-92 238h202l97 -238h-207zM25 571l30 169h550l-30 -169h-63l-4 -26c-25 -139 -90 -259 -272 -269l-13 -77c-4 -19 0 -35 20 -35c18 0 29 16 33 35l5 33h195c-1 -12 -2 -21 -3 -26c-22 -130 -107 -215 -246 -215c-153 0 -227 97 -205 218l41 229h98
c103 0 132 46 143 107l4 26h-283z" />
    <glyph glyph-name="dvL" horiz-adv-x="622" 
d="M254 5c-177 0 -257 117 -229 268c30 176 160 239 276 239c89 0 142 -40 163 -94h3c40 57 105 94 197 94c114 0 220 -81 196 -251h-209c8 44 -12 72 -51 72c-49 0 -70 -42 -77 -77l-5 -29h-168l5 29c7 35 0 77 -49 77c-41 0 -69 -28 -77 -72c-9 -52 17 -80 65 -80
c7 0 14 1 22 2l-32 -177c-14 -1 -23 -1 -30 -1zM24 571l30 169h889l-30 -169h-889z" />
    <glyph glyph-name="dvV" horiz-adv-x="337" 
d="M267 41c-180 0 -266 116 -241 251c22 130 125 225 305 225c186 0 269 -123 246 -252c-21 -128 -125 -224 -310 -224zM291 201c48 0 87 33 95 79s-20 78 -68 78c-51 0 -90 -35 -97 -79s19 -78 70 -78zM24 571l30 169h608l-30 -169h-608z" />
    <glyph glyph-name="dvSH" horiz-adv-x="562" 
d="M252 -6c-158 0 -251 92 -224 240l36 203h135c77 0 162 14 176 93c4 23 -5 43 -27 43c-36 0 -50 -38 -50 -73h-203c15 160 124 249 276 249c135 0 236 -82 209 -232c-31 -176 -175 -250 -333 -250h-7l-8 -45c-5 -26 -2 -54 36 -54c33 0 46 24 54 65h198
c-18 -151 -107 -239 -268 -239z" />
    <glyph glyph-name="dvSS" horiz-adv-x="381" 
d="M332 291c45 0 77 20 96 49l-161 103l-9 -48c-11 -62 10 -104 74 -104zM24 571l30 169h629l-30 -169h-364v-1l327 -209c-20 -118 -112 -241 -305 -241c-185 0 -279 124 -249 281l30 170h-68z" />
    <glyph glyph-name="dvS" horiz-adv-x="503" 
d="M25 571l30 169h637l-30 -169h-185l-9 -51c-5 -29 -13 -58 -26 -85h196l-29 -166h-374l-12 -68c-3 -19 2 -37 25 -37s34 18 40 48h195c-12 -140 -111 -221 -255 -221c-154 0 -225 104 -203 232l33 190h63c104 0 132 46 143 107l9 51h-248z" />
    <glyph glyph-name="dvH" horiz-adv-x="584" 
d="M213 -397l-92 238h202l97 -238h-207zM511 86c-27 -125 -135 -203 -271 -203c-150 0 -249 100 -222 249c13 74 52 127 106 162c-32 27 -44 64 -36 108c13 73 79 129 184 129h48l7 40h-292l30 169h606l-30 -169h-120l-7 -40l-26 -143h-167c-19 0 -35 -8 -38 -28
c-1 -6 -1 -12 3 -17c8 1 16 1 24 1c154 0 226 -101 211 -200h-195c1 23 -18 40 -46 40c-25 0 -58 -19 -66 -66c-9 -50 18 -68 44 -68c25 0 48 14 58 36h195z" />
    <glyph glyph-name="dvLL" horiz-adv-x="938" 
d="M215 26c-126 0 -220 88 -194 237c26 146 144 236 271 236c65 0 137 -17 178 -100h4c66 83 141 100 206 100c127 0 221 -90 195 -236c-26 -149 -144 -237 -270 -237c-78 0 -147 31 -178 101h-6c-51 -70 -128 -101 -206 -101zM274 199c36 0 68 25 75 64c6 37 -17 64 -53 64
c-39 0 -70 -27 -76 -65c-7 -39 16 -63 54 -63zM600 199c38 0 69 24 76 63c6 38 -15 65 -54 65c-37 0 -69 -27 -75 -64c-7 -39 16 -64 53 -64zM22 571l30 169h960l-30 -169h-960z" />
    <glyph glyph-name="dvK_SS" horiz-adv-x="578" 
d="M293 528c-6 -32 15 -61 65 -59c23 15 39 33 43 56c4 24 -8 51 -46 51c-31 0 -57 -20 -62 -48zM289 -68l25 143c-32 -28 -78 -42 -127 -42c-111 0 -180 69 -161 177c17 94 84 144 158 180c-46 28 -81 82 -66 165c21 117 133 194 273 194c119 0 206 -64 184 -186
c-7 -39 -24 -70 -48 -96h215l-25 -146h-410c-35 -16 -57 -34 -63 -65c-6 -32 15 -55 48 -55c43 0 69 37 74 67h168l-59 -336h-186z" />
    <glyph glyph-name="dvJ_NY" horiz-adv-x="552" 
d="M26 571l30 169h731l-30 -169h-731zM238 326l28 162h476l-28 -162h-220c19 -25 29 -60 23 -107c-14 -107 -100 -174 -207 -169c-50 3 -92 16 -118 42l-19 -110h-198l52 294h190c-2 -33 15 -60 56 -60c40 0 63 25 68 53c7 42 -25 57 -51 57h-52z" />
    <glyph glyph-name="dvKx" horiz-adv-x="679" 
d="M319 0l17 97c-34 -35 -82 -54 -140 -54c-119 0 -194 103 -169 240c24 137 114 230 250 230c59 0 100 -19 123 -51l19 109h-395l30 169h917l-30 -169h-326l-19 -107c32 31 76 49 127 49c130 0 188 -112 164 -235h-205c5 28 -7 62 -48 62c-39 0 -64 -28 -73 -75l-46 -265
h-196zM291 214c40 1 70 28 76 60v2c7 39 -17 65 -55 65c-41 0 -73 -27 -79 -64c-7 -36 18 -64 58 -63zM111 -227c-63 0 -104 50 -93 112c11 64 70 115 133 115c64 0 105 -51 94 -115c-11 -62 -70 -112 -134 -112z" />
    <glyph glyph-name="dvKHx" horiz-adv-x="667" 
d="M217 -275c-63 0 -104 50 -93 112c11 64 70 115 133 115c64 0 105 -51 94 -115c-11 -62 -70 -112 -134 -112zM640 244c35 0 59 21 65 56c6 34 -11 55 -46 55s-61 -21 -67 -55c-6 -35 13 -56 48 -56zM25 571l30 169h905l-30 -169h-486l-13 -77c-22 -126 -96 -205 -192 -226
c-9 -56 17 -102 87 -102c46 0 75 16 94 35c-11 28 -13 61 -7 99c23 130 138 206 273 206c134 0 219 -76 196 -206c-23 -135 -141 -208 -269 -208c-22 0 -44 2 -64 7c-50 -61 -129 -108 -233 -108c-201 0 -307 118 -274 306l19 109h19c97 0 138 42 151 117l8 48h-214z" />
    <glyph glyph-name="dvGx" horiz-adv-x="600" 
d="M24 571l30 169h611l-30 -169h-104l-34 -198c-23 -136 -106 -238 -266 -238c-138 0 -232 74 -204 228c2 11 4 22 7 33h197l-6 -32c-6 -34 -2 -56 24 -56c29 0 38 31 42 56l36 207h-303zM176 -135c-63 0 -104 50 -93 112c11 64 70 115 133 115c64 0 105 -51 94 -115
c-11 -62 -70 -112 -134 -112z" />
    <glyph glyph-name="dvJx" horiz-adv-x="562" 
d="M245 80c-153 0 -243 98 -216 246l28 155h205l-28 -156c-8 -44 4 -67 36 -67c31 0 50 23 58 67l28 156h378l-31 -173h-179c-28 -134 -131 -228 -279 -228zM26 571l30 169h723l-30 -169h-723zM191 -189c-63 0 -104 50 -93 112c11 64 70 115 133 115c64 0 105 -51 94 -115
c-11 -62 -70 -112 -134 -112z" />
    <glyph glyph-name="dvPHx" horiz-adv-x="676" 
d="M326 307c46 0 72 33 82 75l33 189h-145l-31 -181c-10 -46 8 -83 61 -83zM24 571l30 169h955l-30 -169h-334l-19 -110c36 33 86 52 145 52c130 0 180 -103 157 -235h-207c5 31 -6 62 -47 62c-44 0 -75 -33 -85 -89l-44 -251h-204l31 175c-33 -25 -73 -39 -122 -39
c-145 0 -217 112 -189 254l31 181h-68zM118 -127c-63 0 -104 50 -93 112c11 64 70 115 133 115c64 0 105 -51 94 -115c-11 -62 -70 -112 -134 -112z" />
    <glyph glyph-name="dvAnusvara" unicode="&#x902;" horiz-adv-x="0" 
d="M-97 799c-63 0 -104 51 -93 113c11 64 70 114 133 114c64 0 106 -50 95 -114c-11 -62 -71 -113 -135 -113z" />
    <glyph glyph-name="dvCandrabindu" unicode="&#x901;" horiz-adv-x="0" 
d="M-83 807c-151 0 -257 80 -229 233h161c-9 -52 22 -90 85 -90c62 0 106 38 115 90h163c-26 -153 -127 -233 -295 -233zM-61 989c-39 0 -66 32 -59 73c7 40 46 73 85 73c43 0 68 -33 61 -73c-7 -41 -44 -73 -87 -73z" />
    <glyph glyph-name="dvVisarga" unicode="&#x903;" horiz-adv-x="310" 
d="M160 340c-63 0 -105 51 -94 113c11 63 71 114 134 114s105 -51 94 -114c-11 -62 -71 -113 -134 -113zM110 59c-63 0 -105 50 -94 112c11 64 71 114 134 114s105 -50 94 -114c-11 -62 -71 -112 -134 -112z" />
    <glyph glyph-name="dvAvagraha" unicode="&#x93d;" horiz-adv-x="610" 
d="M-11 37l30 170h237c22 0 35 6 38 23c10 58 -187 104 -155 285c18 102 101 157 208 157h243l-30 -171h-191c-10 0 -25 -2 -27 -18c-10 -56 187 -100 155 -284c-19 -106 -112 -162 -217 -162h-291z" />
    <glyph glyph-name="dvVirama" unicode="&#x94d;" horiz-adv-x="0" 
d="M-247 -289l-92 238h202l97 -238h-207z" />
    <glyph glyph-name="dvNukta" unicode="&#x93c;" horiz-adv-x="0" 
d="M-255 -335c-63 0 -104 50 -93 112c11 64 70 115 133 115c64 0 105 -51 94 -115c-11 -62 -70 -112 -134 -112z" />
    <glyph glyph-name="dvZero" unicode="&#x966;" horiz-adv-x="662" 
d="M46 363c37 206 151 358 363 358c211 0 274 -152 237 -358c-36 -207 -152 -359 -363 -359c-212 0 -273 152 -237 359zM427 363c14 78 17 148 -55 148c-73 0 -94 -70 -108 -148c-14 -79 -17 -149 56 -149c72 0 93 70 107 149z" />
    <glyph glyph-name="dvOne" unicode="&#x967;" horiz-adv-x="399" 
d="M66 0l88 500h-106l37 208h339l-125 -708h-233z" />
    <glyph glyph-name="dvTwo" unicode="&#x968;" horiz-adv-x="566" 
d="M-20 10l29 167c160 106 324 224 340 314c7 39 -7 50 -26 50c-26 0 -40 -17 -52 -83h-215c41 194 180 269 317 269c182 0 224 -108 206 -214c-24 -135 -151 -251 -279 -324h229l-32 -179h-517z" />
    <glyph glyph-name="dvThree" unicode="&#x969;" horiz-adv-x="615" 
d="M84 502c32 159 138 245 301 245c162 0 232 -90 212 -204c-18 -104 -90 -149 -136 -163v-4c64 -26 106 -75 90 -167c-23 -129 -131 -216 -285 -216c-164 0 -264 72 -235 256h216c-11 -47 -1 -73 41 -73c24 0 46 19 51 49c6 36 -10 57 -71 57h-37l32 179h36
c17 -1 67 -2 77 54c6 36 -9 49 -28 49c-33 0 -43 -33 -48 -62h-216z" />
    <glyph glyph-name="dvFour" unicode="&#x96a;" horiz-adv-x="704" 
d="M315 0l20 110h-313l32 185l373 425h239l-73 -418h72l-34 -192h-72l-20 -110h-224zM279 302h108l29 165z" />
    <glyph glyph-name="dvFive" unicode="&#x96b;" horiz-adv-x="660" 
d="M173 731h490l-34 -195h-290l-15 -84c30 23 73 37 124 37c142 0 189 -111 167 -236c-29 -161 -141 -253 -298 -253c-176 0 -259 98 -232 234h216c-3 -16 1 -44 39 -44c35 0 54 28 61 67c7 40 -10 59 -42 59c-30 0 -46 -17 -49 -33h-216z" />
    <glyph glyph-name="dvSix" unicode="&#x96c;" horiz-adv-x="633" 
d="M612 509h-207c0 38 -10 58 -43 58c-54 0 -74 -61 -91 -158c31 36 82 60 140 60c124 0 197 -77 170 -230c-26 -151 -142 -246 -301 -246c-226 0 -251 161 -214 367c47 269 147 384 341 384c171 0 219 -117 205 -235zM326 299c-35 0 -63 -20 -69 -57c-7 -41 13 -59 49 -59
s62 18 69 59c6 37 -14 57 -49 57z" />
    <glyph glyph-name="dvSeven" unicode="&#x96d;" horiz-adv-x="512" 
d="M97 717h482l-29 -163l-342 -554h-228l339 527h-256z" />
    <glyph glyph-name="dvEight" unicode="&#x96e;" horiz-adv-x="657" 
d="M170 402c-46 29 -71 78 -58 151c17 95 118 203 300 203s245 -108 228 -203c-13 -73 -56 -122 -112 -151c60 -39 84 -97 70 -177c-28 -157 -174 -236 -322 -236s-266 79 -238 236c14 80 58 138 132 177zM380 576c-26 0 -50 -23 -57 -61c-7 -41 11 -59 36 -59s49 18 56 59
c7 38 -9 61 -35 61zM332 307c-40 0 -70 -29 -77 -69c-6 -38 11 -68 53 -68s71 30 77 68c7 40 -13 69 -53 69z" />
    <glyph glyph-name="dvNine" unicode="&#x96f;" horiz-adv-x="597" 
d="M37 228h207c1 -38 13 -58 46 -58c54 0 71 61 88 158c-30 -36 -81 -60 -139 -60c-124 0 -198 77 -171 230c27 151 142 246 301 246c226 0 253 -151 217 -357c-44 -249 -133 -394 -327 -394c-171 0 -235 117 -222 235zM324 438c35 0 62 20 69 57c7 41 -13 59 -49 59
s-62 -18 -69 -59c-7 -37 14 -57 49 -57z" />
    <glyph glyph-name="dvOm" unicode="&#x950;" horiz-adv-x="1082" 
d="M212 9c-151 0 -227 87 -204 215h190c-4 -20 6 -41 33 -41s44 18 48 43c5 30 -12 51 -54 51h-49l30 171h49c31 0 61 13 66 45c4 23 -7 39 -29 39c-23 0 -40 -16 -44 -38h-188c22 124 126 211 267 211c134 0 203 -73 183 -186c-13 -70 -58 -123 -122 -148l-1 -4
c1 0 2 -1 3 -1h55c65 0 89 15 102 85c26 147 99 229 267 229c165 0 218 -89 191 -247l-20 -112c-36 -203 -162 -311 -336 -311c-34 0 -65 3 -102 10l29 168c25 -3 46 -6 65 -6c97 0 132 60 147 146l24 133c4 27 -1 47 -28 47c-29 0 -42 -25 -48 -59
c-29 -169 -90 -238 -273 -241l-1 -3c-21 -121 -124 -196 -250 -196zM596 714c-168 0 -257 90 -231 233h161c-9 -52 24 -89 86 -89s106 37 115 89h163c-23 -153 -126 -233 -294 -233zM617 896c-39 0 -66 32 -59 73s46 74 85 74c42 0 67 -33 60 -74s-44 -73 -86 -73z" />
    <glyph glyph-name="dvAbbreviationsign" unicode="&#x970;" horiz-adv-x="465" 
d="M264 500c103 0 162 -71 144 -172c-18 -100 -101 -171 -204 -171c-104 0 -165 71 -147 171c18 101 103 172 207 172zM243 381c-32 0 -60 -22 -65 -53c-6 -31 15 -52 47 -52c30 0 55 21 61 52c5 31 -13 53 -43 53z" />
    <glyph glyph-name="danda" unicode="&#x964;" horiz-adv-x="383" 
d="M408 740l-130 -740h-202l130 740h202z" />
    <glyph glyph-name="doubledanda" unicode="&#x965;" horiz-adv-x="695" 
d="M408 740l-130 -740h-202l130 740h202zM720 740l-130 -740h-203l130 740h203z" />
    <glyph glyph-name="rupee" unicode="&#x20a8;" horiz-adv-x="1229" 
d="M456 462c6 36 -12 60 -54 60h-88l-21 -120h88c42 0 67 18 75 60zM125 708h330c178 0 251 -102 228 -232c-17 -93 -82 -172 -190 -205l107 -271h-244l-89 254l-45 -254h-222zM694 393c16 96 114 178 274 178c172 0 246 -88 249 -202h-217c-3 29 -32 38 -64 38
c-26 0 -45 -6 -48 -22c-11 -61 337 -9 301 -212c-18 -100 -115 -180 -268 -180c-165 0 -257 71 -256 202h217c-2 -31 32 -39 65 -39c30 0 40 9 43 22c11 67 -334 4 -296 215z" />
    <glyph glyph-name="indianrupee" unicode="&#x20b9;" horiz-adv-x="577" 
d="M80 563l25 145h517l-25 -145h-58l-6 -33h58l-22 -124h-63c-38 -99 -128 -183 -279 -183l-4 -19c-5 -29 -1 -49 26 -49c26 0 35 16 42 56h205c-30 -129 -117 -221 -266 -221c-157 0 -239 72 -207 252l22 123c175 0 230 3 253 41h-246l22 124h252l6 33h-252z" />
    <glyph glyph-name="zerowidthnonjoiner" unicode="&#x200c;" horiz-adv-x="0" 
d="M24 -230h-47v1041h47v-1041z" />
    <glyph glyph-name="zerowidthjoiner" unicode="&#x200d;" horiz-adv-x="0" 
d="M128 593l-33 -33l-72 75v-865h-47v865l-69 -73l-33 33l93 93l-95 95l33 33l95 -95l96 95l32 -32l-96 -96z" />
    <glyph glyph-name="dottedcircle" unicode="&#x25cc;" horiz-adv-x="651" 
d="M557 409c0 -25 -18 -42 -43 -42s-43 17 -43 42s18 42 43 42s43 -17 43 -42zM181 123c0 -25 -18 -42 -43 -42s-43 17 -43 42s18 42 43 42s43 -17 43 -42zM279 47c0 -25 -18 -42 -43 -42s-43 17 -43 42s18 42 43 42s43 -17 43 -42zM136 236c0 -25 -18 -42 -43 -42
s-43 17 -43 42s18 42 43 42s43 -17 43 -42zM403 33c0 -25 -18 -42 -43 -42s-43 17 -43 42s18 42 43 42s43 -17 43 -42zM151 357c0 -25 -18 -42 -43 -42s-43 17 -43 42s18 42 43 42s43 -17 43 -42zM518 79c0 -25 -18 -42 -43 -42s-43 17 -43 42s18 42 43 42s43 -17 43 -42z
M227 456c0 -25 -18 -42 -43 -42s-43 17 -43 42s18 42 43 42s43 -17 43 -42zM591 175c0 -25 -18 -42 -43 -42s-43 17 -43 42s18 42 43 42s43 -17 43 -42zM344 498c0 -25 -18 -42 -43 -42s-43 17 -43 42s18 42 43 42s43 -17 43 -42zM601 295c0 -25 -18 -42 -43 -42
s-43 17 -43 42s18 42 43 42s43 -17 43 -42zM465 483c0 -25 -18 -42 -43 -42s-43 17 -43 42s18 42 43 42s43 -17 43 -42z" />
    <glyph glyph-name="dvReph" horiz-adv-x="0" 
d="M-202 709l15 89c17 103 82 232 260 232c146 0 207 -87 174 -228h-178c10 41 1 60 -21 60c-27 0 -39 -20 -46 -61l-16 -92h-188z" />
    <glyph glyph-name="dvEyelash" horiz-adv-x="391" 
d="M458 319c-56 -36 -135 -61 -212 -61c-131 0 -242 61 -219 230h194c-6 -62 30 -85 79 -85c42 0 72 12 97 25zM2 571l29 169h502l-29 -169h-502z" />
    <glyph glyph-name="dvRashtrasign" horiz-adv-x="0" 
d="M-642 -97l165 179h271l102 -179h-194l-47 98l-82 -98h-215z" />
    <glyph glyph-name="dvK_RA" horiz-adv-x="946" 
d="M319 0l19 110l-140 -156h-218l126 126c-65 33 -96 107 -80 198c24 137 114 235 251 235c59 0 100 -19 123 -51l19 109h-395l30 169h968l-30 -169h-377l-19 -107c32 31 76 49 127 49c130 0 188 -112 164 -240c-27 -144 -125 -217 -243 -217c-24 0 -44 2 -70 9l28 158
c3 -1 9 -2 15 -2c32 0 59 22 65 57c5 28 -7 62 -48 62c-39 0 -64 -28 -73 -75l-46 -265h-196zM289 214c39 0 72 27 78 62l2 7c3 34 -19 58 -57 58c-41 0 -72 -27 -79 -64c-7 -36 14 -63 56 -63z" />
    <glyph glyph-name="dvKH_RA" horiz-adv-x="978" 
d="M645 0l22 126c-26 -20 -59 -31 -103 -31c-10 0 -20 1 -30 3l-203 -228h-217l2 10l121 125c-150 19 -226 121 -195 292l19 109h19c97 0 138 42 151 117l8 48h-214l30 169h999l-30 -169h-76l-100 -571h-203zM637 249c30 0 55 21 61 54c5 27 -9 53 -42 53
c-31 0 -57 -19 -63 -53c-6 -36 16 -54 44 -54zM326 166c50 0 81 19 98 40c-9 35 -11 75 -4 117c20 116 111 191 217 186c42 -2 72 -14 91 -33l17 95h-301l-13 -77c-22 -126 -96 -205 -192 -226c-9 -56 17 -102 87 -102z" />
    <glyph glyph-name="dvG_RA" horiz-adv-x="859" 
d="M530 0l25 142l-189 -162h-234l453 365l40 226h-94l-20 -120c-23 -136 -106 -238 -266 -238c-138 0 -232 74 -204 228c2 11 4 22 7 33h197l-6 -32c-6 -34 -2 -56 24 -56c29 0 38 31 42 56l23 129h-303l30 169h880l-30 -169h-76l-100 -571h-199z" />
    <glyph glyph-name="dvGH_RA" horiz-adv-x="691" 
d="M296 252c59 0 112 38 123 101l38 218h-154l-3 -19c-6 -34 4 -58 50 -58h35l-29 -163h-51c-33 0 -53 -16 -57 -40c-5 -26 16 -39 48 -39zM24 571l30 169h713l-30 -169h-75l-100 -571h-205l24 138l-165 -184h-218l145 144c-73 24 -121 83 -106 171c13 73 67 121 116 139v4
c-44 16 -72 55 -59 130l5 29h-75z" />
    <glyph glyph-name="dvNG_RA" horiz-adv-x="730" 
d="M603 253c-56 0 -93 45 -83 100c10 57 63 102 119 102c57 0 94 -45 84 -102c-10 -55 -63 -100 -120 -100zM27 571l29 169h750l-29 -169h-262l-9 -45h1l-25 -142h-190c-18 0 -33 -8 -35 -22c-3 -16 8 -23 26 -23h44c112 0 199 -58 176 -185c-12 -66 -46 -116 -103 -145
l81 -143h-194l-47 98l-82 -98h-215l137 149c-53 32 -84 83 -75 154h203c-3 -34 28 -41 48 -41c27 0 50 11 54 34c4 20 -7 35 -46 35h-32c-71 0 -203 30 -178 172c18 104 107 157 212 157h43l9 45h-291z" />
    <glyph glyph-name="dvC_RA" horiz-adv-x="765" 
d="M24 571l30 169h787l-30 -169h-76l-101 -571h-204l25 141c-2 -2 -4 -4 -6 -5l-162 -182h-218l138 138c-70 23 -109 80 -95 163c6 35 21 65 45 89h-111l29 159h374l-29 -159h-46c-28 0 -59 -16 -65 -51c-6 -36 22 -54 64 -53c68 2 108 53 123 135l35 196h-507z" />
    <glyph glyph-name="dvCH_RA" horiz-adv-x="827" 
d="M373 189c140 0 211 43 228 136c5 29 1 58 -24 58s-40 -24 -46 -56c-4 -22 -4 -46 -2 -67h-166c-2 19 -3 51 4 90c15 88 70 142 140 166l10 55h-215l-7 -41c-6 -33 1 -58 37 -58h19l-29 -162h-15c-38 0 -62 -23 -67 -51c-7 -40 19 -70 133 -70zM23 571l30 169h850
l-30 -169h-168l-10 -56c68 -32 99 -103 82 -200c-24 -132 -114 -232 -260 -275l77 -135h-205l-47 98l-82 -98h-204l124 134c-108 36 -169 110 -148 212c14 66 54 110 115 136v4c-43 15 -71 54 -58 130l9 50h-75z" />
    <glyph glyph-name="dvJ_RA" horiz-adv-x="872" 
d="M25 571l29 169h894l-29 -169h-77l-100 -571h-190l18 106l-165 -164h-222l419 373l2 9h-92c-38 -105 -123 -175 -251 -175c-169 0 -247 99 -221 239l18 100h205l-17 -94c-8 -44 4 -67 36 -67c31 0 50 23 58 67l17 94h276l14 83h-622z" />
    <glyph glyph-name="dvJH_RA" horiz-adv-x="991" 
d="M284 339h435l41 232h-245l-7 -43v0l-26 -144h-191c-18 0 -31 -8 -34 -23c-2 -14 6 -22 27 -22zM860 0h-173l-131 -119h-203l343 297l1 9h-202c1 -17 0 -35 -3 -55c-16 -89 -87 -152 -186 -152c-44 0 -79 12 -98 25l-16 -94h-192l45 257h183c-5 -28 12 -40 37 -40
s42 12 45 33s-11 36 -48 36c-21 0 -41 0 -68 2c-75 5 -162 54 -141 177c18 108 108 152 213 152h45l7 43h-286l30 169h1005l-30 -169h-77z" />
    <glyph glyph-name="dvNY_RA" horiz-adv-x="893" 
d="M25 571l30 169h914l-30 -169h-77l-101 -571h-180l-92 -96h-205l314 296l3 16h-108c-43 -113 -139 -174 -256 -174c-130 0 -235 72 -216 209h192c4 -31 29 -38 46 -38c36 0 62 29 68 67c6 36 -9 65 -45 65c-17 0 -44 -7 -58 -37h-192c29 137 139 210 269 210
c101 0 182 -46 207 -131h117l33 184h-633z" />
    <glyph glyph-name="dvTT_RA" horiz-adv-x="643" 
d="M24 571l30 169h665l-30 -169h-148l-39 -222h-160c-54 0 -105 -30 -115 -86c-9 -48 18 -82 75 -82c59 0 101 36 110 89h194c-18 -102 -73 -181 -156 -225l78 -137h-194l-46 97h-2l-81 -97h-215l127 138c-73 44 -110 123 -94 224c25 148 138 240 309 248l9 53h-317z" />
    <glyph glyph-name="dvTTH_RA" horiz-adv-x="672" 
d="M310 188c58 0 97 37 106 88s-17 87 -75 87c-56 0 -95 -36 -104 -87s17 -88 73 -88zM340 -97l-47 98l-82 -98h-215l141 153c-77 42 -121 120 -102 228c23 138 121 213 232 239l9 48h-243l30 169h690l-30 -169h-246l-10 -53c102 -32 175 -116 151 -250
c-18 -105 -82 -178 -169 -217l85 -148h-194z" />
    <glyph glyph-name="dvDD_RA" horiz-adv-x="562" 
d="M27 571l29 169h582l-29 -169h-95l-33 -187h-189c-18 0 -33 -8 -35 -22c-3 -16 8 -23 26 -23h44c112 0 199 -58 176 -185c-12 -67 -47 -116 -105 -146l81 -142h-194l-47 98l-82 -98h-215l138 150c-52 31 -83 83 -74 153h203c-3 -34 28 -41 48 -41c27 0 50 11 54 34
c4 20 -7 35 -46 35h-32c-71 0 -203 30 -178 172c18 104 107 157 212 157h43l9 45h-291z" />
    <glyph glyph-name="dvDDH_RA" horiz-adv-x="666" 
d="M26 571l30 169h686l-30 -169h-148l-31 -179h-130c-89 0 -167 -48 -182 -136c-13 -70 14 -130 119 -130c58 0 107 18 115 63c3 17 -7 28 -21 28s-24 -8 -28 -21c-2 -6 -2 -15 -2 -17h-142c0 15 1 31 3 43c15 90 96 138 203 138c110 0 177 -71 159 -177
c-17 -89 -74 -153 -169 -183l74 -129h-194l-47 98l-82 -98h-215l142 154c-84 49 -129 137 -109 250c30 164 168 255 333 255h6l7 41h-347z" />
    <glyph glyph-name="dvNN_RA" horiz-adv-x="921" 
d="M323 380c27 0 43 18 47 44l26 147h-82l-26 -147c-4 -26 10 -44 35 -44zM29 571l30 169h938l-30 -169h-77l-100 -571h-191l25 139l-202 -194h-230l462 416l37 210h-95l-22 -128c-23 -133 -106 -234 -268 -234c-158 0 -238 106 -213 234l22 128h-86z" />
    <glyph glyph-name="dvT_RA" horiz-adv-x="720" 
d="M24 571l30 169h742l-30 -169h-76l-100 -571h-197l22 126l-153 -125h-267l1 8l431 317c-19 15 -45 24 -73 24c-62 0 -115 -35 -127 -104h-204c23 155 138 264 306 264c61 0 110 -17 143 -44l18 105h-466z" />
    <glyph glyph-name="dvTH_RA" horiz-adv-x="811" 
d="M505 165c-11 -13 -24 -25 -39 -37l-238 -193h-251l2 11l194 143c-105 37 -160 134 -135 275c5 27 11 55 21 84h80c106 0 176 23 188 91c4 21 -6 37 -25 37c-33 0 -43 -39 -40 -70h-183c5 127 98 243 257 243c128 0 205 -81 181 -216c-21 -118 -110 -218 -288 -228
c5 -29 31 -65 110 -65c99 0 191 65 215 204l52 296h281l-29 -169h-77l-101 -571h-204z" />
    <glyph glyph-name="dvD_RA" horiz-adv-x="617" 
d="M28 571l30 169h635l-31 -169h-93l-42 -235h-198c-52 0 -85 -29 -92 -70c-7 -38 12 -62 49 -62c39 0 63 28 69 63h189l-55 -311h-199l22 123v0l-148 -163h-217l155 154c-56 35 -91 104 -72 211c27 152 151 229 308 229h15l11 61h-336z" />
    <glyph glyph-name="dvDH_RA" horiz-adv-x="753" 
d="M423 0l24 136l-189 -211h-218l151 150c-101 13 -170 73 -152 176c15 86 86 129 136 143l1 4c-56 21 -107 79 -90 174c19 116 105 177 216 177c137 0 202 -85 161 -221h-149c5 21 6 51 -24 51c-18 0 -31 -14 -36 -36c-11 -53 31 -62 68 -62h92l-29 -163h-52
c-42 0 -77 -10 -83 -44c-5 -28 20 -43 70 -43c91 0 155 61 170 148l34 192v0l29 169h276l-29 -169h-72l-101 -571h-204z" />
    <glyph glyph-name="dvN_RA" horiz-adv-x="896" 
d="M254 210c33 0 60 23 66 56c5 32 -13 56 -46 56c-34 0 -63 -24 -68 -56c-6 -33 14 -56 48 -56zM24 571l30 169h918l-30 -169h-76l-101 -571h-183l10 54l-145 -152h-220l389 357l11 63h-153c6 -24 8 -51 2 -85c-23 -133 -136 -198 -244 -198c-138 0 -234 101 -210 239
c28 152 149 213 288 213h347l14 80h-647z" />
    <glyph glyph-name="dvP_RA" horiz-adv-x="691" 
d="M329 307c54 0 86 38 97 85l31 179h-160l-30 -170c-9 -52 7 -94 62 -94zM25 571l29 169h713l-29 -169h-77l-100 -571h-204l32 182l-191 -217h-218l190 193c-93 32 -127 128 -107 243l30 170h-68z" />
    <glyph glyph-name="dvPH_RA" horiz-adv-x="984" 
d="M326 307c46 0 72 33 82 75l33 189h-145l-31 -181c-10 -46 8 -83 61 -83zM24 571l30 169h1006l-30 -169h-385l-19 -110c36 33 86 52 145 52c130 0 180 -104 159 -225c-26 -147 -126 -232 -246 -232c-26 0 -52 3 -77 12l27 155c8 -2 16 -3 23 -3c36 0 58 27 64 58
c5 31 -6 62 -47 62c-44 0 -75 -33 -85 -89l-44 -251h-204l31 175l-175 -210h-218l184 197c-85 35 -124 123 -102 228l31 181h-68z" />
    <glyph glyph-name="dvB_RA" horiz-adv-x="686" 
d="M361 0l15 85l-138 -153h-212l129 128c-97 31 -145 124 -125 238c24 138 141 226 283 226c53 0 99 -11 134 -35l14 82h-437l30 169h708l-30 -169h-75l-100 -571h-196zM334 395c-23 0 -44 -6 -63 -17l147 -113c3 7 5 15 6 23c10 62 -27 107 -90 107zM297 182
c23 0 44 6 63 15l-148 114c-3 -7 -6 -15 -7 -23c-12 -65 32 -106 92 -106z" />
    <glyph glyph-name="dvBH_RA" horiz-adv-x="909" 
d="M253 225c40 0 59 27 65 60l6 32h-45c-34 0 -63 -17 -69 -48c-5 -28 14 -44 43 -44zM227 59c-143 0 -226 82 -204 209c25 147 150 211 283 211h46l10 55c4 25 -3 43 -30 43c-23 0 -36 -18 -40 -38c-2 -9 -2 -16 -2 -26h-198c0 11 1 25 3 37c18 110 107 199 263 199
c172 0 204 -116 180 -253l-3 -17h132l46 261h272l-30 -169h-78l-100 -571h-183l12 69l-197 -168h-220l437 346l13 70h-132l-4 -21c-24 -137 -123 -237 -276 -237z" />
    <glyph glyph-name="dvM_RA" horiz-adv-x="879" 
d="M255 225c41 0 60 28 66 61l6 32h-46c-34 0 -62 -17 -68 -48c-5 -28 13 -45 42 -45zM647 480l16 91h-109l-16 -91h109zM33 571l30 169h901l-30 -169h-77l-101 -571h-183l12 68l-196 -167h-220l437 345l12 72h-108l-4 -22c-24 -137 -123 -237 -277 -237
c-143 0 -225 83 -203 210c25 147 150 211 282 211h47l16 91h-338z" />
    <glyph glyph-name="dvY_RA" horiz-adv-x="770" 
d="M342 232c83 0 136 54 155 126l38 213h-111l-12 -64c-16 -89 -61 -173 -171 -193c-4 -44 29 -82 101 -82zM25 571l30 169h791l-30 -169h-77l-101 -571h-204l20 116c0 -1 -1 -1 -2 -2l-219 -178h-247l2 11l188 138c-104 37 -156 131 -134 260c4 23 10 45 17 69h8
c114 0 139 62 151 130l5 27h-198z" />
    <glyph glyph-name="dvL_RA" horiz-adv-x="920" 
d="M858 251c-27 -151 -143 -251 -317 -246c-7 0 -25 1 -35 2l32 176c5 -1 17 -2 25 -2c40 0 79 26 88 80c8 44 -12 72 -51 72c-49 0 -70 -42 -77 -77l-5 -29h-168l5 29c7 35 0 77 -49 77c-41 0 -69 -28 -77 -72c-9 -52 17 -80 65 -80c7 0 14 1 22 2l-32 -177
c-14 -1 -23 -1 -30 -1c-177 0 -257 117 -229 268c30 176 160 239 276 239c89 0 142 -40 163 -94h3c29 41 71 72 127 86l12 67h-582l30 169h942l-30 -169h-160l-17 -98c55 -41 88 -115 69 -222zM334 -214l165 179h271l102 -179h-194l-47 98l-82 -98h-215z" />
    <glyph glyph-name="dvV_RA" horiz-adv-x="662" 
d="M292 203c46 0 82 33 90 77s-18 75 -64 75c-49 0 -85 -34 -92 -76s17 -76 66 -76zM708 571h-76l-100 -571h-199l18 101l-137 -147h-217l122 119c-75 35 -109 117 -87 227c24 131 116 217 257 217c55 0 99 -18 125 -52l19 106h-409l30 169h684z" />
    <glyph glyph-name="dvSH_RA" horiz-adv-x="897" 
d="M347 454l1 -1c27 19 53 43 58 74c5 28 -9 54 -43 54c-32 0 -54 -23 -59 -51c-6 -35 15 -61 43 -76zM566 0l23 131l-37 20l-200 -166h-239l3 18l293 224l-76 40l-133 -94h-231l4 24l225 154c-62 53 -94 117 -80 199c21 124 125 199 271 199c139 0 224 -89 205 -200
c-12 -66 -38 -113 -105 -170l132 -69l76 430h276l-30 -169h-76l-101 -571h-200z" />
    <glyph glyph-name="dvSS_RA" horiz-adv-x="713" 
d="M329 291c45 0 78 21 99 51l-161 101l-9 -48c-10 -57 10 -104 71 -104zM460 463l19 108h-187zM24 571l30 169h732l-30 -169h-77l-100 -571h-200l30 170c0 -1 -1 -1 -1 -1l-210 -204h-218l193 171c-95 37 -133 141 -111 265l30 170h-68z" />
    <glyph glyph-name="dvS_RA" horiz-adv-x="941" 
d="M468 520c-5 -29 -13 -58 -25 -85h250l24 136h-240zM25 571l29 169h963l-29 -169h-77l-101 -571h-175l16 92l-150 -161h-192l356 348h-438l-14 -79c-3 -18 2 -36 24 -36c27 0 36 23 41 48h173c-11 -131 -99 -221 -234 -221c-148 0 -217 98 -195 219l36 203h63
c104 0 133 46 143 107l9 51h-248z" />
    <glyph glyph-name="dvH_RA" horiz-adv-x="584" 
d="M502 42c-27 -123 -126 -193 -266 -193c-151 0 -255 105 -225 262c15 82 57 142 115 180c-34 27 -47 66 -39 111c13 73 79 129 184 129h48l7 40h-292l30 169h606l-30 -169h-120l-7 -40l-26 -143h-167c-19 0 -33 -8 -38 -28c-2 -6 -1 -13 4 -18c9 1 18 1 28 1
c127 0 216 -70 209 -173l-75 -80h-179l77 79c-8 10 -23 22 -52 22c-46 0 -82 -35 -94 -97c-11 -59 22 -87 60 -87c29 0 53 16 64 35h178z" />
    <glyph glyph-name="dvLL_RA" horiz-adv-x="936" 
d="M274 199c36 0 68 25 75 64c6 37 -17 64 -53 64c-39 0 -70 -27 -76 -65c-7 -39 16 -63 54 -63zM600 199c38 0 69 24 76 63c6 38 -15 65 -54 65c-37 0 -69 -27 -75 -64c-7 -39 16 -64 53 -64zM662 -84l-47 98l-82 -98h-215l146 159c-15 14 -28 31 -37 52h-6
c-51 -70 -128 -101 -206 -101c-126 0 -220 88 -194 237c26 146 144 236 271 236c65 0 137 -17 178 -100h4c42 53 88 79 133 91l14 81h-599l30 169h960l-30 -169h-164l-19 -105c60 -38 93 -109 76 -203c-14 -81 -56 -145 -111 -185l92 -162h-194z" />
    <glyph glyph-name="dvKx_RA" horiz-adv-x="1043" 
d="M419 0l19 110l-140 -156h-218l126 126c-65 33 -96 107 -80 198c24 137 114 235 251 235c59 0 100 -19 123 -51l19 109h-491l30 169h1064l-30 -169h-377l-19 -107c32 31 76 49 127 49c130 0 188 -112 164 -240c-27 -144 -125 -217 -243 -217c-24 0 -44 2 -70 9l28 158
c3 -1 9 -2 15 -2c32 0 59 22 65 57c5 28 -7 62 -48 62c-39 0 -64 -28 -73 -75l-46 -265h-196zM389 214c39 0 72 27 78 62l2 7c3 34 -19 58 -57 58c-41 0 -72 -27 -79 -64c-7 -36 14 -63 56 -63zM2 -26c-52 0 -85 41 -76 92c9 53 57 95 109 95c53 0 86 -42 77 -95
c-9 -51 -57 -92 -110 -92z" />
    <glyph glyph-name="dvKHx_RA" horiz-adv-x="978" 
d="M645 0l22 126c-26 -20 -59 -31 -103 -31c-10 0 -20 1 -30 3l-203 -228h-217l2 10l121 125c-150 19 -226 121 -195 292l19 109h19c97 0 138 42 151 117l8 48h-214l30 169h999l-30 -169h-76l-100 -571h-203zM-15 -158c-52 0 -85 41 -76 92c9 53 57 95 109 95
c53 0 86 -42 77 -95c-9 -51 -57 -92 -110 -92zM637 249c30 0 55 21 61 54c5 27 -9 53 -42 53c-31 0 -57 -19 -63 -53c-6 -36 16 -54 44 -54zM326 166c50 0 81 19 98 40c-9 35 -11 75 -4 117c20 116 111 191 217 186c42 -2 72 -14 91 -33l17 95h-301l-13 -77
c-22 -126 -96 -205 -192 -226c-9 -56 17 -102 87 -102z" />
    <glyph glyph-name="dvGx_RA" horiz-adv-x="859" 
d="M530 0l25 142l-189 -162h-234l453 365l40 226h-94l-20 -120c-23 -136 -106 -238 -266 -238c-138 0 -232 74 -204 228c2 11 4 22 7 33h197l-6 -32c-6 -34 -2 -56 24 -56c29 0 38 31 42 56l23 129h-303l30 169h880l-30 -169h-76l-100 -571h-199zM37 -2c-52 0 -85 41 -76 92
c9 53 57 95 109 95c53 0 86 -42 77 -95c-9 -51 -57 -92 -110 -92z" />
    <glyph glyph-name="dvJx_RA" horiz-adv-x="872" 
d="M25 571l29 169h894l-29 -169h-77l-100 -571h-190l18 106l-165 -164h-222l419 373l2 9h-92c-38 -105 -123 -175 -251 -175c-169 0 -247 99 -221 239l18 100h205l-17 -94c-8 -44 4 -67 36 -67c31 0 50 23 58 67l17 94h276l14 83h-622zM66 -57c-52 0 -85 41 -76 92
c9 53 57 95 109 95c53 0 86 -42 77 -95c-9 -51 -57 -92 -110 -92z" />
    <glyph glyph-name="dvPHx_RA" horiz-adv-x="1085" 
d="M427 307c46 0 72 33 82 75l33 189h-145l-31 -181c-10 -46 8 -83 61 -83zM27 571l30 169h1104l-30 -169h-385l-19 -110c36 33 86 52 145 52c130 0 180 -104 159 -225c-26 -147 -126 -232 -246 -232c-26 0 -52 3 -77 12l27 155c8 -2 16 -3 23 -3c36 0 58 27 64 58
c5 31 -6 62 -47 62c-44 0 -75 -33 -85 -89l-44 -251h-204l31 175l-175 -210h-218l184 197c-85 35 -124 123 -102 228l31 181h-166zM34 31c-52 0 -85 41 -76 92c9 53 57 95 109 95c53 0 86 -42 77 -95c-9 -51 -57 -92 -110 -92z" />
    <glyph glyph-name="dvK_R" horiz-adv-x="679" 
d="M319 0l19 110l-140 -156h-218l126 126c-65 33 -96 107 -80 198c24 137 114 235 251 235c59 0 100 -19 123 -51l19 109h-395l30 169h917l-30 -169h-326l-19 -107c32 31 76 49 127 49c130 0 188 -112 164 -235h-205c5 28 -7 62 -48 62c-39 0 -64 -28 -73 -75l-46 -265h-196
zM289 214c39 0 72 27 78 62l2 7c3 34 -19 58 -57 58c-41 0 -72 -27 -79 -64c-7 -36 14 -63 56 -63z" />
    <glyph glyph-name="dvKH_R" horiz-adv-x="667" 
d="M640 244c35 0 59 21 65 56c6 34 -11 55 -46 55s-61 -21 -67 -55c-6 -35 13 -56 48 -56zM25 571l30 169h905l-30 -169h-486l-13 -77c-22 -126 -96 -205 -192 -226c-9 -56 17 -102 87 -102c46 0 75 16 94 35c-11 28 -13 61 -7 99c23 130 138 206 273 206
c134 0 219 -76 196 -206c-23 -135 -141 -208 -269 -208c-22 0 -44 2 -64 7c-19 -23 -41 -44 -68 -61l-150 -168h-217l2 10l116 119c-146 29 -218 138 -190 298l19 109h19c97 0 138 42 151 117l8 48h-214z" />
    <glyph glyph-name="dvG_R" horiz-adv-x="588" 
d="M132 -20l505 407l-36 -207l-235 -200h-234zM25 571l30 169h645l-30 -169h-139l-20 -120c-23 -136 -106 -238 -266 -238c-138 0 -232 74 -204 228c2 11 4 22 7 33h197l-6 -32c-6 -34 -2 -56 24 -56c29 0 38 31 42 56l23 129h-303z" />
    <glyph glyph-name="dvGH_R" horiz-adv-x="367" 
d="M24 571l30 169h606l-30 -169h-328l-3 -19c-6 -34 4 -58 50 -58h35l-29 -163h-51c-33 0 -52 -16 -57 -40c-4 -26 17 -39 49 -39c78 0 113 47 123 102h173c-12 -66 -44 -128 -92 -176l-202 -224h-217l136 136c-131 14 -197 88 -179 186c13 73 65 115 114 132l1 4
c-44 16 -73 55 -59 130l5 29h-75z" />
    <glyph glyph-name="dvNG_R" horiz-adv-x="730" 
d="M196 -411l-93 238h202l98 -238h-207zM603 253c-56 0 -93 45 -83 100c10 57 63 102 119 102c57 0 94 -45 84 -102c-10 -55 -63 -100 -120 -100zM27 571l29 169h750l-29 -169h-262l-9 -45h1l-25 -142h-190c-18 0 -33 -8 -35 -22c-3 -16 8 -23 26 -23h44
c112 0 199 -58 176 -185c-12 -66 -46 -116 -103 -145l81 -143h-194l-47 98l-82 -98h-215l137 149c-53 32 -84 83 -75 154h203c-3 -34 28 -41 48 -41c27 0 50 11 54 34c4 20 -7 35 -46 35h-32c-71 0 -203 30 -178 172c18 104 107 157 212 157h43l9 45h-291z" />
    <glyph glyph-name="dvC_R" horiz-adv-x="440" 
d="M24 571l30 169h683l-30 -169h-683zM46 344l28 159h374l-28 -159h-46c-28 0 -59 -16 -65 -51c-6 -36 22 -54 64 -53c68 2 108 53 123 139h177c-15 -88 -49 -160 -101 -213l-189 -212h-218l118 118c-121 10 -191 70 -171 183c6 35 21 65 45 89h-111z" />
    <glyph glyph-name="dvCH_R" horiz-adv-x="827" 
d="M23 571l30 169h850l-30 -169h-571l-7 -41c-6 -33 1 -58 37 -58h19l-29 -162h-15c-38 0 -62 -23 -67 -51c-7 -40 19 -70 133 -70c140 0 211 43 228 136c5 29 1 58 -24 58s-40 -24 -46 -56c-4 -22 -4 -46 -2 -67h-166c-2 19 -3 51 4 90c22 125 123 182 238 182
c130 0 195 -85 172 -217c-24 -132 -114 -232 -260 -275l77 -135h-205l-47 98l-82 -98h-204l124 134c-108 36 -169 110 -148 212c14 66 54 110 115 136v4c-43 15 -71 54 -58 130l9 50h-75z" />
    <glyph glyph-name="dvJ_R" horiz-adv-x="553" 
d="M26 571l29 169h723l-29 -169h-723zM686 219l-280 -277h-222l429 382h-101c-38 -105 -123 -175 -251 -175c-169 0 -247 99 -221 239l18 100h205l-17 -94c-8 -44 4 -67 36 -67c31 0 50 23 58 67l17 94h377l-29 -164v0z" />
    <glyph glyph-name="dvJH_R" horiz-adv-x="555" 
d="M32 571l30 169h785l-30 -169h-302l-7 -43v0l-26 -144h-191c-18 0 -31 -8 -34 -23c-2 -14 6 -22 27 -22h491l-26 -152v0l-26 -152l-170 -154h-203l353 306h-208c1 -17 0 -35 -3 -55c-16 -89 -87 -152 -186 -152c-44 0 -79 12 -98 25l-16 -94h-192l45 257h183
c-5 -28 12 -40 37 -40s42 12 45 33s-11 36 -48 36c-21 0 -41 0 -68 2c-75 5 -162 54 -141 177c18 108 108 152 213 152h45l7 43h-286z" />
    <glyph glyph-name="dvNY_R" horiz-adv-x="527" 
d="M237 42c-130 0 -235 72 -216 209h192c4 -31 29 -38 46 -38c36 0 62 29 68 67c6 36 -9 65 -45 65c-17 0 -44 -7 -58 -37h-192c29 137 139 210 269 210c101 0 182 -46 207 -131h215l-14 -80v0l-37 -212l-183 -191h-205l329 312h-120c-43 -113 -139 -174 -256 -174zM25 571
l30 169h731l-30 -169h-731z" />
    <glyph glyph-name="dvTT_R" horiz-adv-x="643" 
d="M249 -368l-92 238h202l97 -238h-207zM24 571l30 169h665l-30 -169h-148l-39 -222h-160c-54 0 -105 -30 -115 -86c-9 -48 18 -82 75 -82c59 0 101 36 110 89h194c-18 -102 -73 -181 -156 -225l78 -137h-194l-46 97h-2l-81 -97h-215l127 138c-73 44 -110 123 -94 224
c25 148 138 240 309 248l9 53h-317z" />
    <glyph glyph-name="dvTTH_R" horiz-adv-x="672" 
d="M252 -374l-92 238h202l97 -238h-207zM310 188c58 0 97 37 106 88s-17 87 -75 87c-56 0 -95 -36 -104 -87s17 -88 73 -88zM340 -97l-47 98l-82 -98h-215l141 153c-77 42 -121 120 -102 228c23 138 121 213 232 239l9 48h-243l30 169h690l-30 -169h-246l-10 -53
c102 -32 175 -116 151 -250c-18 -105 -82 -178 -169 -217l85 -148h-194z" />
    <glyph glyph-name="dvDD_R" horiz-adv-x="562" 
d="M195 -411l-93 238h202l98 -238h-207zM27 571l29 169h582l-29 -169h-95l-33 -187h-189c-18 0 -33 -8 -35 -22c-3 -16 8 -23 26 -23h44c112 0 199 -58 176 -185c-12 -67 -47 -116 -105 -146l81 -142h-194l-47 98l-82 -98h-215l138 150c-52 31 -83 83 -74 153h203
c-3 -34 28 -41 48 -41c27 0 50 11 54 34c4 20 -7 35 -46 35h-32c-71 0 -203 30 -178 172c18 104 107 157 212 157h43l9 45h-291z" />
    <glyph glyph-name="dvDDH_R" horiz-adv-x="666" 
d="M253 -406l-92 238h202l97 -238h-207zM26 571l30 169h686l-30 -169h-148l-31 -179h-130c-89 0 -167 -48 -182 -136c-13 -70 14 -130 119 -130c58 0 107 18 115 63c3 17 -7 28 -21 28s-24 -8 -28 -21c-2 -6 -2 -15 -2 -17h-142c0 15 1 31 3 43c15 90 96 138 203 138
c110 0 177 -71 159 -177c-17 -89 -74 -153 -169 -183l74 -129h-194l-47 98l-82 -98h-215l142 154c-84 49 -129 137 -109 250c30 164 168 255 333 255h6l7 41h-347z" />
    <glyph glyph-name="dvNN_R" horiz-adv-x="597" 
d="M192 -55l505 453l-40 -226l-235 -227h-230zM29 571l30 169h698l-30 -169h-131l-22 -128c-23 -133 -106 -234 -268 -234c-158 0 -238 106 -213 234l22 128h-86zM323 380c27 0 43 18 47 44l26 147h-82l-26 -147c-4 -26 10 -44 35 -44z" />
    <glyph glyph-name="dvT_R" horiz-adv-x="403" 
d="M23 246c25 144 152 266 347 266c133 0 247 -70 262 -207l-370 -304h-267l1 8l430 318c-18 14 -43 23 -72 23c-62 0 -115 -35 -127 -104h-204zM24 571l30 169h655l-30 -169h-655z" />
    <glyph glyph-name="dvTH_R" horiz-adv-x="477" 
d="M714 367c-15 -92 -61 -163 -124 -212v0l-295 -237h-251l2 11l204 150c-180 36 -252 186 -191 369h80c108 0 178 23 188 92c3 20 -7 36 -24 36c-32 0 -44 -35 -41 -70h-183c6 136 108 243 257 243c128 0 205 -81 181 -216c-21 -118 -111 -218 -289 -228
c9 -49 68 -65 123 -65c95 0 175 45 189 127h174z" />
    <glyph glyph-name="dvD_R" horiz-adv-x="617" 
d="M374 -325l-92 238h202l97 -238h-207zM28 571l30 169h635l-31 -169h-93l-42 -235h-198c-52 0 -85 -29 -92 -70c-7 -38 12 -62 49 -62c39 0 63 28 69 63h189l-55 -311h-199l22 123v0l-148 -163h-217l155 154c-56 35 -91 104 -72 211c27 152 151 229 308 229h15l11 61h-336z
" />
    <glyph glyph-name="dvDH_R" horiz-adv-x="426" 
d="M658 326c-11 -63 -36 -118 -76 -160l-215 -241h-218l139 138c-153 1 -271 65 -247 196c15 86 84 122 134 135l1 4c-57 21 -107 79 -91 174c20 116 105 177 216 177c137 0 202 -85 161 -221h-149c5 21 6 51 -24 51c-18 0 -31 -14 -36 -36c-12 -53 31 -62 68 -62h92
l-29 -163h-52c-42 0 -75 -10 -82 -44c-7 -36 39 -43 81 -43c93 0 139 40 149 95h178z" />
    <glyph glyph-name="dvN_R" horiz-adv-x="517" 
d="M232 39c-138 0 -235 101 -210 239c28 152 149 213 288 213h407l-29 -169h-213c5 -23 7 -51 1 -85c-24 -133 -136 -198 -244 -198zM254 210c33 0 61 23 66 56c5 32 -13 56 -46 56c-34 0 -62 -24 -68 -56c-6 -33 14 -56 48 -56zM228 -98l460 420l-36 -206l-204 -214h-220z
M24 571l30 169h708l-30 -169h-708z" />
    <glyph glyph-name="dvP_R" horiz-adv-x="345" 
d="M25 571l29 169h600l-29 -169h-329l-30 -170c-10 -52 9 -94 68 -94c56 0 84 44 93 93h167c-11 -70 -35 -132 -75 -178v0l-226 -257h-217l173 176c-140 24 -209 143 -184 275l27 155h-67z" />
    <glyph glyph-name="dvPH_R" horiz-adv-x="676" 
d="M326 307c46 0 72 33 82 75l33 189h-145l-31 -181c-10 -46 8 -83 61 -83zM24 571l30 169h956l-30 -169h-335l-19 -110c36 33 86 52 145 52c130 0 180 -104 159 -235h-209c5 31 -6 62 -47 62c-44 0 -75 -33 -85 -89l-44 -251h-204l31 175l-175 -210h-218l184 197
c-85 35 -124 123 -102 228l31 181h-68z" />
    <glyph glyph-name="dvB_R" horiz-adv-x="369" 
d="M24 571l30 169h603l-30 -169h-603zM321 -68h-202l108 108c-145 15 -218 120 -200 248c18 130 128 238 307 238c176 0 257 -110 238 -238c-9 -61 -35 -118 -77 -162zM324 389c-23 0 -45 -6 -64 -17l147 -115c3 8 5 16 7 25c11 62 -26 107 -90 107zM286 176
c23 0 44 6 62 16l-147 113c-3 -7 -6 -15 -7 -23c-11 -65 33 -106 92 -106z" />
    <glyph glyph-name="dvBH_R" horiz-adv-x="559" 
d="M253 225c40 0 59 27 65 60l6 32h-45c-34 0 -63 -17 -69 -48c-5 -28 14 -44 43 -44zM227 59c-143 0 -226 82 -204 209c25 147 150 211 283 211h46l10 55c4 25 -3 43 -30 43c-23 0 -36 -18 -40 -38c-2 -9 -2 -16 -2 -26h-198c0 11 1 25 3 37c18 110 107 199 263 199
c172 0 204 -116 180 -253l-3 -17h210l-28 -162v0l-32 -180l-276 -236h-220l525 416h-207l-4 -21c-24 -137 -123 -237 -276 -237z" />
    <glyph glyph-name="dvM_R" horiz-adv-x="551" 
d="M255 225c41 0 60 28 66 61l6 32h-46c-34 0 -62 -17 -68 -48c-5 -28 13 -45 42 -45zM33 571l30 169h732l-30 -169h-211l-16 -91h208l-25 -142h1l-33 -180l-300 -257h-220l528 417h-187l-4 -22c-24 -137 -123 -237 -277 -237c-143 0 -225 83 -203 210
c25 147 150 211 282 211h47l16 91h-338z" />
    <glyph glyph-name="dvY_R" horiz-adv-x="421" 
d="M25 571l30 169h697l-30 -169h-299l-12 -69c-15 -87 -60 -168 -171 -188c-2 -54 47 -82 109 -82c85 0 135 52 146 114h187c-13 -84 -53 -160 -120 -212l-244 -198h-247l2 11l169 123c-143 27 -228 123 -200 275c4 23 10 45 17 69h8c114 0 140 60 151 126l5 31h-198z" />
    <glyph glyph-name="dvL_R" horiz-adv-x="920" 
d="M586 -490l-92 238h202l97 -238h-207zM858 251c-27 -151 -143 -251 -317 -246c-7 0 -25 1 -35 2l32 176c5 -1 17 -2 25 -2c40 0 79 26 88 80c8 44 -12 72 -51 72c-49 0 -70 -42 -77 -77l-5 -29h-168l5 29c7 35 0 77 -49 77c-41 0 -69 -28 -77 -72c-9 -52 17 -80 65 -80
c7 0 14 1 22 2l-32 -177c-14 -1 -23 -1 -30 -1c-177 0 -257 117 -229 268c30 176 160 239 276 239c89 0 142 -40 163 -94h3c29 41 71 72 127 86l12 67h-582l30 169h942l-30 -169h-160l-17 -98c55 -41 88 -115 69 -222zM334 -214l165 179h271l102 -179h-194l-47 98l-82 -98
h-215z" />
    <glyph glyph-name="dvV_R" horiz-adv-x="337" 
d="M24 571l30 169h608l-30 -169h-608zM291 201c48 0 87 33 95 79s-20 78 -68 78c-51 0 -90 -35 -97 -79s19 -78 70 -78zM334 -68h-212l111 110c-157 14 -230 124 -207 250c22 130 125 225 305 225c186 0 269 -123 246 -252c-9 -52 -31 -99 -67 -137z" />
    <glyph glyph-name="dvSH_R" horiz-adv-x="537" 
d="M347 454l1 -1c27 19 53 43 58 74c5 28 -9 54 -43 54c-32 0 -54 -23 -59 -51c-6 -35 15 -61 43 -76zM551 152l-199 -167h-239l3 18l293 224l-76 40l-133 -94h-231l4 24l225 154c-62 53 -94 117 -80 199c21 124 125 199 271 199c139 0 218 -89 205 -200
c-8 -66 -36 -113 -104 -169l93 -49z" />
    <glyph glyph-name="dvSS_R" horiz-adv-x="381" 
d="M333 291c46 0 77 20 95 49l-161 104l-9 -49c-11 -62 11 -104 75 -104zM25 571l29 169h629l-29 -169h-365v0l327 -210c-10 -60 -39 -121 -90 -167l-233 -229h-217l179 159c-148 22 -218 136 -193 277l30 170h-67z" />
    <glyph glyph-name="dvS_R" horiz-adv-x="503" 
d="M309 -69l336 328l-36 -213l-108 -115h-192zM25 571l29 169h676l-29 -169h-224l-9 -51c-5 -29 -13 -58 -25 -85h234l-28 -156h-422l-14 -79c-3 -18 2 -36 24 -36c27 0 36 23 41 48h173c-11 -131 -99 -221 -234 -221c-148 0 -217 98 -195 219l36 203h63
c104 0 133 46 143 107l9 51h-248z" />
    <glyph glyph-name="dvH_R" horiz-adv-x="584" 
d="M202 -429l-92 238h202l97 -238h-207zM502 42c-27 -123 -126 -193 -266 -193c-151 0 -255 105 -225 262c15 82 57 142 115 180c-34 27 -47 66 -39 111c13 73 79 129 184 129h48l7 40h-292l30 169h606l-30 -169h-120l-7 -40l-26 -143h-167c-19 0 -33 -8 -38 -28
c-2 -6 -1 -13 4 -18c9 1 18 1 28 1c127 0 216 -70 209 -173l-75 -80h-179l77 79c-8 10 -23 22 -52 22c-46 0 -82 -35 -94 -97c-11 -59 22 -87 60 -87c29 0 53 16 64 35h178z" />
    <glyph glyph-name="dvLL_R" horiz-adv-x="936" 
d="M215 26c-126 0 -220 88 -194 237c26 146 144 236 271 236c65 0 137 -17 178 -100h4c66 83 141 100 206 100c127 0 221 -90 195 -236c-14 -81 -56 -145 -111 -185l92 -162h-194l-47 98l-82 -98h-215l146 159c-15 14 -28 31 -37 52h-6c-51 -70 -128 -101 -206 -101z
M274 199c36 0 68 25 75 64c6 37 -17 64 -53 64c-39 0 -70 -27 -76 -65c-7 -39 16 -63 54 -63zM600 199c38 0 69 24 76 63c6 38 -15 65 -54 65c-37 0 -69 -27 -75 -64c-7 -39 16 -64 53 -64zM22 571l30 169h960l-30 -169h-960z" />
    <glyph glyph-name="dvKx_R" horiz-adv-x="779" 
d="M419 0l19 110l-140 -156h-218l126 126c-65 33 -96 107 -80 198c24 137 114 235 251 235c59 0 100 -19 123 -51l19 109h-491l30 169h1013l-30 -169h-326l-19 -107c32 31 76 49 127 49c130 0 188 -112 164 -235h-205c5 28 -7 62 -48 62c-39 0 -64 -28 -73 -75l-46 -265
h-196zM389 214c39 0 72 27 78 62l2 7c3 34 -19 58 -57 58c-41 0 -72 -27 -79 -64c-7 -36 14 -63 56 -63zM2 -26c-52 0 -85 41 -76 92c9 53 57 95 109 95c53 0 86 -42 77 -95c-9 -51 -57 -92 -110 -92z" />
    <glyph glyph-name="dvKHx_R" horiz-adv-x="667" 
d="M-15 -158c-52 0 -85 41 -76 92c9 53 57 95 109 95c53 0 86 -42 77 -95c-9 -51 -57 -92 -110 -92zM640 244c35 0 59 21 65 56c6 34 -11 55 -46 55s-61 -21 -67 -55c-6 -35 13 -56 48 -56zM25 571l30 169h905l-30 -169h-486l-13 -77c-22 -126 -96 -205 -192 -226
c-9 -56 17 -102 87 -102c46 0 75 16 94 35c-11 28 -13 61 -7 99c23 130 138 206 273 206c134 0 219 -76 196 -206c-23 -135 -141 -208 -269 -208c-22 0 -44 2 -64 7c-19 -23 -41 -44 -68 -61l-150 -168h-217l2 10l116 119c-146 29 -218 138 -190 298l19 109h19
c97 0 138 42 151 117l8 48h-214z" />
    <glyph glyph-name="dvGx_R" horiz-adv-x="588" 
d="M132 -20l505 407l-36 -207l-235 -200h-234zM25 571l30 169h645l-30 -169h-139l-20 -120c-23 -136 -106 -238 -266 -238c-138 0 -232 74 -204 228c2 11 4 22 7 33h197l-6 -32c-6 -34 -2 -56 24 -56c29 0 38 31 42 56l23 129h-303zM37 -2c-52 0 -85 41 -76 92
c9 53 57 95 109 95c53 0 86 -42 77 -95c-9 -51 -57 -92 -110 -92z" />
    <glyph glyph-name="dvJx_R" horiz-adv-x="553" 
d="M26 571l29 169h723l-29 -169h-723zM686 219l-280 -277h-222l429 382h-101c-38 -105 -123 -175 -251 -175c-169 0 -247 99 -221 239l18 100h205l-17 -94c-8 -44 4 -67 36 -67c31 0 50 23 58 67l17 94h377l-29 -164v0zM66 -57c-52 0 -85 41 -76 92c9 53 57 95 109 95
c53 0 86 -42 77 -95c-9 -51 -57 -92 -110 -92z" />
    <glyph glyph-name="dvPHx_R" horiz-adv-x="777" 
d="M427 307c46 0 72 33 82 75l33 189h-145l-31 -181c-10 -46 8 -83 61 -83zM27 571l30 169h1054l-30 -169h-335l-19 -110c36 33 86 52 145 52c130 0 180 -104 159 -235h-209c5 31 -6 62 -47 62c-44 0 -75 -33 -85 -89l-44 -251h-204l31 175l-175 -210h-218l184 197
c-85 35 -124 123 -102 228l31 181h-166zM34 31c-52 0 -85 41 -76 92c9 53 57 95 109 95c53 0 86 -42 77 -95c-9 -51 -57 -92 -110 -92z" />
    <glyph glyph-name="dvK_KA" horiz-adv-x="1602" 
d="M291 214c40 1 70 28 76 60v2c7 39 -17 65 -55 65c-41 0 -73 -27 -79 -64c-7 -36 18 -64 58 -63zM1075 571h-460l-19 -107c32 31 76 49 127 49c38 0 70 -10 95 -26c34 17 72 26 115 26c59 0 100 -19 123 -51zM975 0l17 97c-34 -35 -82 -54 -140 -54
c-119 0 -194 103 -170 235v0c5 28 -7 62 -48 62c-39 0 -64 -28 -73 -75l-46 -265h-196l17 97c-34 -35 -82 -54 -140 -54c-119 0 -194 103 -169 240c24 137 114 230 250 230c59 0 100 -19 123 -51l19 109h-395l30 169h1624l-30 -169h-377l-19 -107c32 31 76 49 127 49
c130 0 188 -112 164 -240c-27 -144 -125 -217 -243 -217c-24 0 -44 2 -70 9l28 158c3 -1 9 -2 15 -2c32 0 59 22 65 57c5 28 -7 62 -48 62c-39 0 -64 -28 -73 -75l-46 -265h-196zM947 214c40 1 70 28 76 60v2c7 39 -17 65 -55 65c-41 0 -73 -27 -79 -64
c-7 -36 18 -64 58 -63z" />
    <glyph glyph-name="dvKx_KxA" horiz-adv-x="1602" 
d="M291 214c40 1 70 28 76 60v2c7 39 -17 65 -55 65c-41 0 -72 -27 -79 -64c-7 -36 18 -64 58 -63zM112 -227c-63 0 -104 50 -93 112c11 64 70 115 133 115c64 0 105 -51 94 -115c-11 -62 -70 -112 -134 -112zM767 -227c-63 0 -104 50 -93 112c11 64 70 115 133 115
c64 0 105 -51 94 -115c-11 -62 -70 -112 -134 -112zM1075 571h-460l-19 -107c32 31 76 49 127 49c38 0 70 -10 95 -26c34 17 72 26 115 26c59 0 100 -19 123 -51zM975 0l17 97c-34 -35 -82 -54 -140 -54c-119 0 -194 103 -170 235v0c5 28 -7 62 -48 62
c-39 0 -64 -28 -73 -75l-46 -265h-196l17 97c-34 -35 -82 -54 -140 -54c-119 0 -193 103 -169 240s114 230 250 230c59 0 100 -19 123 -51l19 109h-395l30 169h1624l-30 -169h-377l-19 -107c32 31 76 49 127 49c130 0 188 -112 164 -240c-27 -144 -125 -217 -243 -217
c-24 0 -44 2 -70 9l28 158c3 -1 9 -2 15 -2c32 0 59 22 65 57c5 28 -7 62 -48 62c-39 0 -64 -28 -73 -75l-46 -265h-196zM947 214c40 1 70 28 76 60v2c7 39 -17 65 -55 65c-41 0 -73 -27 -79 -64c-7 -36 18 -64 58 -63z" />
    <glyph glyph-name="dvK_KHA" horiz-adv-x="1621" 
d="M723 503c59 0 98 -20 122 -52c15 19 24 43 29 72l8 48h-267l-20 -115c32 30 76 47 128 47zM291 214c40 1 70 28 76 60v2c7 39 -17 65 -55 65c-41 0 -73 -27 -79 -64c-7 -36 18 -64 58 -63zM1288 0l22 126c-26 -20 -59 -31 -103 -31c-10 0 -20 1 -29 3
c-59 -62 -143 -107 -245 -107c-180 0 -277 101 -251 287v0v0v2c5 27 -8 60 -48 60c-39 0 -64 -28 -73 -75l-46 -265h-196l17 97c-34 -35 -82 -54 -140 -54c-119 0 -194 103 -169 240c24 137 114 230 250 230c59 0 100 -19 123 -51l19 109h-395l30 169h1643l-30 -169h-76
l-100 -571h-203zM1280 249c30 0 55 21 61 54c5 27 -9 53 -42 53c-31 0 -57 -19 -63 -53c-6 -36 16 -54 44 -54zM969 166c50 0 81 19 98 40c-9 35 -11 75 -4 117c20 116 111 191 217 186c42 -2 72 -14 91 -33l17 95h-301l-13 -77c-22 -126 -96 -205 -192 -226
c-9 -56 17 -102 87 -102z" />
    <glyph glyph-name="dvK_CA" horiz-adv-x="1310" 
d="M918 240c65 2 106 49 122 129l36 202h-461l-20 -115c34 31 82 46 140 47h258l-28 -159h-46c-28 0 -58 -16 -65 -51c-6 -36 22 -54 64 -53zM291 214c40 1 70 28 76 60v2c7 39 -17 65 -55 65c-41 0 -73 -27 -79 -64c-7 -36 18 -64 58 -63zM515 0h-196l17 97
c-34 -35 -82 -54 -140 -54c-119 0 -194 103 -169 240c24 137 114 230 250 230c59 0 100 -19 123 -51l19 109h-395l30 169h1332l-30 -169h-76l-101 -571h-204l24 134c-46 -41 -107 -62 -175 -62c-114 0 -188 68 -167 183c6 35 21 65 45 89h-60c-40 0 -70 -26 -80 -73z" />
    <glyph glyph-name="dvK_JA" horiz-adv-x="1528" 
d="M291 214c40 1 70 28 76 60v2c7 39 -17 65 -55 65c-41 0 -73 -27 -79 -64c-7 -36 18 -64 58 -63zM926 258c31 0 50 23 58 67l28 156h266l16 90h-679l-19 -110c33 33 79 52 134 52c133 0 176 -98 161 -182l-1 -6c-8 -44 4 -67 36 -67zM562 267v1l-47 -268h-196l17 97
c-34 -35 -82 -54 -140 -54c-119 0 -194 103 -169 240c24 137 114 230 250 230c59 0 100 -19 123 -51l19 109h-395l30 169h1550l-30 -169h-76l-100 -571h-204l54 308h-68c-29 -134 -137 -228 -285 -228c-168 0 -233 99 -214 203c5 30 -6 57 -47 57c-38 0 -64 -27 -72 -73z
" />
    <glyph glyph-name="dvK_TTA" horiz-adv-x="1298" 
d="M615 571l-19 -107c32 31 76 49 127 49c47 0 82 -12 108 -33c44 22 96 35 156 38l9 53h-381zM291 214c40 1 70 28 76 60v2c7 39 -17 65 -55 65c-41 0 -73 -27 -79 -64c-7 -36 18 -64 58 -63zM634 340c-39 0 -64 -28 -73 -75l-46 -265h-196l17 97c-34 -35 -82 -54 -140 -54
c-119 0 -194 103 -169 240c24 137 114 230 250 230c59 0 100 -19 123 -51l19 109h-395l30 169h1320l-30 -169h-148l-39 -222h-160c-54 0 -105 -30 -115 -86c-9 -48 18 -82 75 -82c59 0 101 36 110 89h194c-28 -161 -151 -265 -325 -265s-284 104 -258 265c1 3 1 7 2 10
c4 28 -8 60 -46 60z" />
    <glyph glyph-name="dvK_NNA" horiz-adv-x="1533" 
d="M615 571l-21 -122c29 26 68 42 114 45l14 77h-107zM291 214c40 1 70 28 76 60v2c7 39 -17 65 -55 65c-41 0 -73 -27 -79 -64c-7 -36 18 -64 58 -63zM913 291c27 0 43 18 48 44l42 236h-82l-42 -236c-5 -26 9 -44 34 -44zM562 267v1l-47 -268h-196l17 97
c-34 -35 -82 -54 -140 -54c-119 0 -194 103 -169 240c24 137 114 230 250 230c59 0 100 -19 123 -51l19 109h-395l30 169h1554l-30 -169h-76l-101 -571h-204l101 571h-95l-39 -217c-22 -131 -106 -234 -264 -234c-129 0 -214 68 -221 175c-3 22 -13 45 -45 45
c-38 0 -64 -27 -72 -73z" />
    <glyph glyph-name="dvK_TA" horiz-adv-x="1085" 
d="M24 571l30 169h1107l-30 -169h-379l-22 -124c32 31 76 49 127 49c130 0 188 -112 164 -240c-27 -144 -125 -217 -243 -217c-24 0 -44 2 -70 9l28 158c3 -1 9 -2 15 -2c32 0 59 22 65 57c5 28 -7 62 -48 62c-39 0 -64 -28 -72 -74l-44 -249h-197l55 313h-93
c-53 0 -94 -29 -102 -76c-8 -43 13 -77 74 -77h15l-28 -159h-49c-134 0 -244 76 -219 216c7 39 21 72 40 99h-117l31 171h478l15 84h-531z" />
    <glyph glyph-name="dvKx_TA" horiz-adv-x="1367" 
d="M615 571l-20 -113c32 29 76 45 128 45s91 -16 116 -43c49 19 103 28 158 28h120l15 83h-517zM291 214c40 1 70 28 76 60v2c7 39 -17 65 -55 65c-41 0 -73 -27 -79 -64c-7 -36 18 -64 58 -63zM111 -227c-63 0 -104 50 -93 112c11 64 70 115 133 115c64 0 105 -51 94 -115
c-11 -62 -70 -112 -134 -112zM562 267v1l-47 -268h-196l17 97c-34 -35 -82 -54 -140 -54c-119 0 -194 103 -169 240c24 137 114 230 250 230c59 0 100 -19 123 -51l19 109h-395l30 169h1389l-30 -169h-77l-100 -571h-204l55 314h-111c-52 0 -93 -30 -101 -76
c-8 -44 12 -78 73 -78h16l-28 -159h-29c-129 0 -265 72 -237 247c1 7 3 14 4 21c6 44 -12 70 -44 70c-36 0 -60 -26 -68 -72z" />
    <glyph glyph-name="dvK_T_YA" horiz-adv-x="1783" 
d="M983 489c80 0 139 -23 179 -60c46 22 61 65 69 111l6 31h-622l-20 -113c32 29 76 45 128 45c50 0 88 -15 113 -40c45 18 95 26 147 26zM291 214c40 1 70 28 76 60v2c7 39 -17 65 -55 65c-41 0 -73 -27 -79 -64c-7 -36 18 -64 58 -63zM1356 232c90 0 144 63 158 143v0
l35 196h-111l-13 -69c-15 -87 -60 -168 -171 -188c-3 -44 30 -82 102 -82zM562 267v1l-47 -268h-196l17 97c-34 -35 -82 -54 -140 -54c-119 0 -194 103 -169 240c24 137 114 230 250 230c59 0 100 -19 123 -51l19 109h-395l30 169h1805l-30 -169h-76l-101 -571h-204l21 120
c-45 -36 -104 -57 -175 -57c-131 0 -219 67 -239 175c-11 49 -35 77 -86 77s-86 -30 -94 -76c-8 -44 12 -78 73 -78h16l-28 -159h-45c-136 0 -251 80 -221 249c1 4 2 9 3 13c7 47 -11 75 -43 75c-36 0 -60 -26 -68 -72z" />
    <glyph glyph-name="dvK_T_RA" horiz-adv-x="1372" 
d="M615 571l-19 -109c32 32 77 51 129 51c43 0 76 -15 100 -41c44 25 97 38 156 38c61 0 110 -17 143 -44l18 105h-527zM291 214c40 1 70 28 76 60v2c7 39 -17 65 -55 65c-41 0 -73 -27 -79 -64c-7 -36 18 -64 58 -63zM630 340c-37 0 -60 -26 -67 -66l-48 -274h-196l17 97
c-34 -35 -82 -54 -140 -54c-119 0 -194 103 -169 240c24 137 114 230 250 230c59 0 100 -19 123 -51l19 109h-395l30 169h1394l-30 -169h-76l-100 -571h-197l22 126l-153 -125h-267l1 8l431 317c-19 15 -45 24 -73 24c-62 0 -115 -35 -127 -104h-204c9 60 -4 94 -45 94z" />
    <glyph glyph-name="dvK_T_VA" horiz-adv-x="1690" 
d="M615 571l-20 -113c32 29 76 45 128 45s91 -16 116 -43c49 19 103 28 158 28h188c35 19 77 29 124 29c58 0 103 -20 133 -52l19 106h-846zM291 214c40 1 70 28 76 60v2c7 39 -17 65 -55 65c-41 0 -73 -27 -79 -64c-7 -36 18 -64 58 -63zM1320 203c46 0 82 33 90 77
s-18 75 -64 75c-49 0 -85 -34 -92 -76s17 -76 66 -76zM1736 571h-76l-100 -571h-199l16 93c-37 -35 -85 -52 -137 -52c-137 0 -210 103 -180 259c1 5 2 9 3 14h-87c-52 0 -93 -30 -101 -76c-8 -44 12 -78 73 -78h16l-28 -159h-29c-129 0 -265 72 -237 247c1 7 3 14 4 21
c6 44 -12 70 -44 70c-36 0 -60 -26 -68 -72v1l-47 -268h-196l17 97c-34 -35 -82 -54 -140 -54c-119 0 -194 103 -169 240c24 137 114 230 250 230c59 0 100 -19 123 -51l19 109h-395l30 169h1712z" />
    <glyph glyph-name="dvK_THA" horiz-adv-x="1460" 
d="M291 214c40 1 70 28 76 60v2c7 39 -17 65 -55 65c-41 0 -73 -27 -79 -64c-7 -36 18 -64 58 -63zM728 503c57 0 95 -20 118 -52c73 8 120 33 130 88c4 21 -6 37 -25 37c-7 0 -13 -2 -18 -5h-318l-21 -117c34 30 80 49 134 49zM1125 0l29 165c-41 -50 -122 -93 -226 -93
c-142 0 -236 75 -246 204v0c-3 40 -17 64 -51 64c-36 0 -60 -25 -69 -70l-47 -270h-196l17 97c-34 -35 -82 -54 -140 -54c-119 0 -194 103 -169 240c24 137 114 230 250 230c59 0 100 -19 123 -51l19 109h-395l30 169h858c22 6 47 9 73 9c128 0 205 -81 181 -216
c-21 -118 -110 -218 -288 -228c5 -29 31 -65 110 -65c99 0 191 65 215 204l52 296h281l-29 -169h-77l-101 -571h-204z" />
    <glyph glyph-name="dvK_DA" horiz-adv-x="1267" 
d="M615 571l-19 -107c32 31 76 49 127 49c43 0 78 -13 104 -36c47 22 101 33 161 33h15l11 61h-399zM291 214c40 1 70 28 76 60v2c7 39 -17 65 -55 65c-41 0 -73 -27 -79 -64c-7 -36 18 -64 58 -63zM1139 -44h-199l22 123c-30 -23 -69 -35 -115 -35c-103 0 -195 77 -167 237
c0 2 1 3 1 5c2 25 -11 54 -47 54c-39 0 -64 -28 -73 -75l-46 -265h-196l17 97c-34 -35 -82 -54 -140 -54c-119 0 -194 103 -169 240c24 137 114 230 250 230c59 0 100 -19 123 -51l19 109h-395l30 169h1289l-31 -169h-93l-42 -235h-198c-52 0 -85 -29 -92 -70
c-7 -38 12 -62 49 -62c39 0 63 28 69 63h189z" />
    <glyph glyph-name="dvK_NA" horiz-adv-x="1500" 
d="M615 571l-19 -110c33 33 79 52 134 52c54 0 89 -15 110 -42c39 14 81 20 126 20h286l14 80h-651zM291 214c40 1 70 28 76 60v2c7 39 -17 65 -55 65c-41 0 -73 -27 -79 -64c-7 -36 18 -64 58 -63zM910 210c33 0 60 23 66 56c5 32 -13 56 -46 56c-34 0 -63 -24 -68 -56
c-6 -33 14 -56 48 -56zM634 340c-38 0 -64 -26 -71 -67l-48 -273h-196l17 97c-34 -35 -82 -54 -140 -54c-119 0 -194 103 -169 240c24 137 114 230 250 230c59 0 100 -19 123 -51l19 109h-395l30 169h1522l-30 -169h-76l-101 -571h-204l57 322h-92c6 -24 8 -51 2 -85
c-23 -133 -136 -198 -244 -198c-138 0 -234 101 -210 239c5 31 -5 62 -44 62z" />
    <glyph glyph-name="dvK_PA" horiz-adv-x="1312" 
d="M615 571l-20 -114c27 25 63 40 106 45l12 69h-98zM291 214c40 1 70 28 76 60v2c7 39 -17 65 -55 65c-41 0 -73 -27 -79 -64c-7 -36 18 -64 58 -63zM957 307c50 0 79 35 90 85l31 179h-161l-30 -170c-10 -52 9 -94 70 -94zM562 267v1l-47 -268h-196l17 97
c-34 -35 -82 -54 -140 -54c-119 0 -194 103 -169 240c24 137 114 230 250 230c59 0 100 -19 123 -51l19 109h-395l30 169h1334l-30 -169h-76l-100 -571h-204l31 177c-34 -26 -77 -41 -130 -41c-116 0 -186 69 -199 168c-5 20 -17 36 -46 36c-38 0 -64 -27 -72 -73z" />
    <glyph glyph-name="dvK_P_RA" horiz-adv-x="1312" 
d="M615 571l-20 -114c27 25 64 40 107 45l12 69h-99zM291 214c40 1 70 28 76 60v2c7 39 -17 65 -55 65c-41 0 -73 -27 -79 -64c-7 -36 18 -64 58 -63zM950 307c54 0 86 38 97 85l31 179h-160l-30 -170c-9 -52 7 -94 62 -94zM978 0l32 182l-191 -217h-218l190 193
c-65 22 -101 76 -110 144h-1c-4 21 -16 38 -46 38c-38 0 -64 -27 -72 -73v1l-47 -268h-196l17 97c-34 -35 -82 -54 -140 -54c-119 0 -194 103 -169 240c24 137 114 230 250 230c59 0 100 -19 123 -51l19 109h-395l30 169h1334l-29 -169h-77l-100 -571h-204z" />
    <glyph glyph-name="dvK_PHA" horiz-adv-x="1608" 
d="M615 571l-20 -114c28 26 65 41 109 45l12 69h-101zM291 214c40 1 70 28 76 60v2c7 39 -17 65 -55 65c-41 0 -73 -27 -79 -64c-7 -36 18 -64 58 -63zM950 307c46 0 72 33 82 75l33 189h-145l-31 -181c-10 -46 8 -83 61 -83zM634 340c-37 0 -63 -25 -72 -70l-47 -270h-196
l17 97c-34 -35 -82 -54 -140 -54c-119 0 -194 103 -169 240c24 137 114 230 250 230c59 0 100 -19 123 -51l19 109h-395l30 169h1630l-30 -169h-385l-19 -110c36 33 86 52 145 52c130 0 180 -104 159 -225c-26 -147 -126 -232 -246 -232c-26 0 -52 3 -77 12l27 155
c8 -2 16 -3 23 -3c36 0 58 27 64 58c5 31 -6 62 -47 62c-44 0 -75 -33 -85 -89l-44 -251h-204l31 175c-33 -25 -73 -39 -122 -39c-113 0 -181 68 -193 165c-3 21 -17 39 -47 39z" />
    <glyph glyph-name="dvKx_PHA" horiz-adv-x="1608" 
d="M615 571l-20 -114c28 26 65 41 109 45l12 69h-101zM291 214c40 1 70 28 76 60v2c7 39 -17 65 -55 65c-41 0 -73 -27 -79 -64c-7 -36 18 -64 58 -63zM950 307c46 0 72 33 82 75l33 189h-145l-31 -181c-10 -46 8 -83 61 -83zM634 340c-37 0 -63 -25 -72 -70l-47 -270h-196
l17 97c-34 -35 -82 -54 -140 -54c-119 0 -194 103 -169 240c24 137 114 230 250 230c59 0 100 -19 123 -51l19 109h-395l30 169h1630l-30 -169h-385l-19 -110c36 33 86 52 145 52c130 0 180 -104 159 -225c-26 -147 -126 -232 -246 -232c-26 0 -52 3 -77 12l27 155
c8 -2 16 -3 23 -3c36 0 58 27 64 58c5 31 -6 62 -47 62c-44 0 -75 -33 -85 -89l-44 -251h-204l31 175c-33 -25 -73 -39 -122 -39c-113 0 -181 68 -193 165c-3 21 -17 39 -47 39zM111 -227c-63 0 -104 50 -93 112c11 64 70 115 133 115c64 0 105 -51 94 -115
c-11 -62 -70 -112 -134 -112z" />
    <glyph glyph-name="dvKx_PHxA" horiz-adv-x="1608" 
d="M111 -227c-63 0 -104 50 -93 112c11 64 70 115 133 115c64 0 105 -51 94 -115c-11 -62 -70 -112 -134 -112zM743 -127c-63 0 -104 50 -93 112c11 64 70 115 133 115c64 0 105 -51 94 -115c-11 -62 -70 -112 -134 -112zM615 571l-20 -114c28 26 65 41 109 45l12 69h-101z
M291 214c40 1 70 28 76 60v2c7 39 -17 65 -55 65c-41 0 -73 -27 -79 -64c-7 -36 18 -64 58 -63zM950 307c46 0 72 33 82 75l33 189h-145l-31 -181c-10 -46 8 -83 61 -83zM634 340c-37 0 -63 -25 -72 -70l-47 -270h-196l17 97c-34 -35 -82 -54 -140 -54
c-119 0 -194 103 -169 240c24 137 114 230 250 230c59 0 100 -19 123 -51l19 109h-395l30 169h1630l-30 -169h-385l-19 -110c36 33 86 52 145 52c130 0 180 -104 159 -225c-26 -147 -126 -232 -246 -232c-26 0 -52 3 -77 12l27 155c8 -2 16 -3 23 -3c36 0 58 27 64 58
c5 31 -6 62 -47 62c-44 0 -75 -33 -85 -89l-44 -251h-204l31 175c-33 -25 -73 -39 -122 -39c-113 0 -181 68 -193 165c-3 21 -17 39 -47 39z" />
    <glyph glyph-name="dvKx_BA" horiz-adv-x="1341" 
d="M615 571l-19 -110c33 33 79 52 134 52c36 0 64 -10 84 -27c44 25 95 38 153 38c53 0 99 -11 134 -35l14 82h-500zM291 214c40 1 70 28 76 60v2c7 39 -17 65 -55 65c-41 0 -73 -27 -79 -64c-7 -36 18 -64 58 -63zM112 -227c-63 0 -104 50 -93 112c11 64 70 115 133 115
c64 0 105 -51 94 -115c-11 -62 -70 -112 -134 -112zM1015 0l15 85c-37 -31 -90 -46 -148 -46c-135 0 -215 104 -201 239h-1c5 31 -5 62 -46 62c-37 0 -63 -25 -72 -70l-47 -270h-196l17 97c-34 -35 -82 -54 -140 -54c-119 0 -194 103 -169 240c24 137 114 230 250 230
c59 0 100 -19 123 -51l19 109h-395l30 169h1363l-30 -169h-76l-100 -571h-196zM988 395c-23 0 -44 -6 -63 -17l147 -113c2 7 5 15 6 23c10 62 -27 107 -90 107zM951 182c23 0 44 6 62 16l-147 114c-3 -8 -6 -16 -7 -24c-12 -65 32 -106 92 -106z" />
    <glyph glyph-name="dvK_MA" horiz-adv-x="1539" 
d="M728 503c57 0 95 -19 117 -50c36 12 74 18 113 18h44l17 100h-404l-20 -116c33 31 79 48 133 48zM291 214c40 1 70 28 76 60v2c7 39 -17 65 -55 65c-41 0 -73 -27 -79 -64c-7 -36 18 -64 58 -63zM905 208c37 0 55 26 61 58l7 39h-38c-36 0 -65 -16 -71 -49s17 -48 41 -48
zM1286 471l18 100h-95l-17 -100h94zM562 267v1l-47 -268h-196l17 97c-34 -35 -82 -54 -140 -54c-119 0 -194 103 -169 240c24 137 114 230 250 230c59 0 100 -19 123 -51l19 109h-395l30 169h1561l-30 -169h-76l-101 -571h-205l54 305h-94l-5 -28
c-26 -146 -123 -241 -281 -241c-145 0 -225 88 -202 219c1 8 3 16 5 24c5 30 -5 61 -46 61c-38 0 -64 -27 -72 -73z" />
    <glyph glyph-name="dvKx_MA" horiz-adv-x="1539" 
d="M728 503c57 0 95 -19 117 -50c36 12 74 18 113 18h44l17 100h-404l-20 -116c33 31 79 48 133 48zM291 214c40 1 70 28 76 60v2c7 39 -17 65 -55 65c-41 0 -73 -27 -79 -64c-7 -36 18 -64 58 -63zM905 208c37 0 55 26 61 58l7 39h-38c-36 0 -65 -16 -71 -49s17 -48 41 -48
zM1286 471l18 100h-95l-17 -100h94zM562 267v1l-47 -268h-196l17 97c-34 -35 -82 -54 -140 -54c-119 0 -194 103 -169 240c24 137 114 230 250 230c59 0 100 -19 123 -51l19 109h-395l30 169h1561l-30 -169h-76l-101 -571h-205l54 305h-94l-5 -28
c-26 -146 -123 -241 -281 -241c-145 0 -225 88 -202 219c1 8 3 16 5 24c5 30 -5 61 -46 61c-38 0 -64 -27 -72 -73zM111 -227c-63 0 -104 50 -93 112c11 64 70 115 133 115c64 0 105 -51 94 -115c-11 -62 -70 -112 -134 -112z" />
    <glyph glyph-name="dvK_YA" horiz-adv-x="1414" 
d="M615 571l-21 -118c34 31 80 50 134 50c47 0 82 -15 105 -41c16 22 24 49 29 78l6 31h-253zM291 214c40 1 70 28 76 60v2c7 39 -17 65 -55 65c-41 0 -73 -27 -79 -64c-7 -36 18 -64 58 -63zM987 232c90 0 144 63 158 143v0l35 196h-111l-13 -69
c-15 -87 -60 -168 -171 -188c-3 -44 30 -82 102 -82zM634 340c-37 -1 -63 -26 -72 -70l-47 -270h-196l17 97c-34 -35 -82 -54 -140 -54c-119 0 -194 103 -169 240c24 137 114 230 250 230c59 0 100 -19 123 -51l19 109h-395l30 169h1436l-30 -169h-76l-101 -571h-204l21 120
c-45 -36 -104 -57 -175 -57c-152 0 -246 90 -243 228c-2 22 -10 49 -48 49z" />
    <glyph glyph-name="dvK_LA" horiz-adv-x="1574" 
d="M1121 418c29 41 71 72 127 86l12 67h-645l-20 -116c33 31 79 48 133 48c35 0 63 -10 84 -27c45 25 95 36 143 36c89 0 142 -40 163 -94h3zM291 214c40 1 70 28 76 60v2c7 39 -17 65 -55 65c-41 0 -73 -27 -79 -64c-7 -36 18 -64 58 -63zM634 340c-38 0 -65 -31 -72 -74
l-47 -266h-196l17 97c-34 -35 -82 -54 -140 -54c-119 0 -194 103 -169 240c24 137 114 230 250 230c59 0 100 -19 123 -51l19 109h-395l30 169h1596l-30 -169h-160l-17 -98c55 -41 88 -115 69 -222c-27 -151 -143 -251 -317 -246c-7 0 -25 1 -35 2l32 176c5 -1 17 -2 25 -2
c40 0 79 26 88 80c8 44 -12 72 -51 72c-49 0 -70 -42 -77 -77l-5 -29h-168l5 29c7 35 0 77 -49 77c-41 0 -69 -28 -77 -72c-9 -52 17 -80 65 -80c7 0 14 1 22 2l-32 -177c-14 -1 -23 -1 -30 -1c-177 0 -257 117 -229 268c0 2 1 5 1 7c5 30 -6 60 -46 60z" />
    <glyph glyph-name="dvK_VA" horiz-adv-x="1314" 
d="M615 571l-20 -116c33 31 79 48 133 48c29 0 54 -7 73 -19c37 21 81 33 132 33c58 0 103 -20 133 -52l19 106h-470zM291 214c40 1 70 28 76 60v2c7 39 -17 65 -55 65c-41 0 -73 -27 -79 -64c-7 -36 18 -64 58 -63zM944 203c46 0 82 33 90 77s-18 75 -64 75
c-49 0 -85 -34 -92 -76s17 -76 66 -76zM1360 571h-76l-100 -571h-199l16 93c-37 -35 -85 -52 -137 -52c-132 0 -205 96 -183 243c3 26 -7 56 -47 56c-38 0 -65 -31 -72 -74l-47 -266h-196l17 97c-34 -35 -82 -54 -140 -54c-119 0 -194 103 -169 240c24 137 114 230 250 230
c59 0 100 -19 123 -51l19 109h-395l30 169h1336z" />
    <glyph glyph-name="dvK_V_YA" horiz-adv-x="1768" 
d="M986 517c86 0 143 -32 174 -81c36 24 48 63 56 104l6 31h-607l-20 -116c33 31 79 48 133 48c36 0 64 -10 85 -28c47 27 105 42 173 42zM291 214c40 1 70 28 76 60v2c7 39 -17 65 -55 65c-41 0 -73 -27 -79 -64c-7 -36 18 -64 58 -63zM944 203c44 0 82 28 91 80
c0 1 0 4 1 4v15c-3 31 -29 53 -66 53c-49 0 -85 -34 -92 -76s17 -76 66 -76zM1341 232c90 0 144 63 158 143v0l35 196h-111l-13 -69c-15 -93 -60 -179 -171 -201c4 -38 38 -69 102 -69zM634 340c-38 0 -65 -31 -72 -74l-47 -266h-196l17 97c-34 -35 -82 -54 -140 -54
c-119 0 -194 103 -169 240c24 137 114 230 250 230c59 0 100 -19 123 -51l19 109h-395l30 169h1790l-30 -169h-76l-101 -571h-204l21 120c-45 -36 -104 -57 -175 -57c-72 0 -132 20 -173 57c-48 -48 -114 -79 -196 -79c-180 0 -255 108 -231 243c1 4 2 9 3 13
c-2 23 -15 43 -48 43z" />
    <glyph glyph-name="dvK_SHA" horiz-adv-x="1526" 
d="M291 214c40 1 70 28 76 60v2c7 39 -17 65 -55 65c-41 0 -73 -27 -79 -64c-7 -36 18 -64 58 -63zM728 503c56 0 94 -25 116 -66c76 0 161 14 175 93c4 23 -5 43 -27 43c-5 0 -9 -1 -13 -2h-364l-20 -116c33 31 79 48 133 48zM896 -6c-158 0 -251 92 -224 240l9 48
c3 30 -8 58 -47 58c-38 0 -65 -31 -72 -74l-47 -266h-196l17 97c-34 -35 -82 -54 -140 -54c-119 0 -194 103 -169 240c24 137 114 230 250 230c59 0 100 -19 123 -51l19 109h-395l30 169h881c25 6 52 9 80 9c135 0 236 -82 209 -232c-31 -176 -175 -250 -333 -250h-7l-8 -45
c-5 -26 -2 -54 36 -54c33 0 46 24 54 65h198c-18 -151 -107 -239 -268 -239zM1188 0l131 740h283l-30 -169h-76l-101 -571h-207z" />
    <glyph glyph-name="dvK_SS_MA" horiz-adv-x="1470" 
d="M835 204c37 0 55 26 61 58l7 39h-38c-36 0 -65 -16 -71 -49s17 -48 41 -48zM1216 467l19 104h-95l-18 -104h94zM293 528c-6 -32 15 -61 65 -59c23 15 39 33 43 56c4 24 -8 51 -46 51c-31 0 -57 -20 -62 -48zM289 -68l25 143c-32 -28 -78 -42 -127 -42
c-111 0 -180 69 -161 177c17 94 84 144 158 180c-46 28 -81 82 -66 165c21 117 133 194 273 194c119 0 206 -64 184 -186c-7 -39 -24 -70 -48 -96h405l18 104h-288l30 169h854l-30 -169h-76l-101 -571h-205l53 301h-94l-5 -28c-26 -146 -123 -241 -281 -241
c-145 0 -225 88 -202 219c4 26 12 49 22 70h-320c-35 -16 -57 -34 -63 -65c-6 -32 15 -55 48 -55c43 0 69 37 74 67h168l-59 -336h-186z" />
    <glyph glyph-name="dvK_SS_M_YA" horiz-adv-x="1913" 
d="M293 528c-6 -32 15 -61 65 -59c23 15 39 33 43 56c4 24 -8 51 -46 51c-31 0 -57 -20 -62 -48zM289 -68l25 143c-32 -28 -78 -42 -127 -42c-111 0 -180 69 -161 177c17 94 84 144 158 180c-46 28 -81 82 -66 165c21 117 133 194 273 194c119 0 206 -64 184 -186
c-8 -44 -29 -78 -56 -105h411l20 113h-291l30 169h1300l-30 -169h-76l-101 -571h-204l22 127c-45 -36 -105 -58 -179 -58c-145 0 -238 85 -239 223h-92l-5 -28c-26 -146 -123 -241 -281 -241c-145 0 -225 88 -202 219c5 30 14 56 26 79h-321c-35 -16 -57 -34 -63 -65
c-6 -32 15 -55 48 -55c43 0 69 37 74 67h168l-59 -336h-186zM832 195c37 0 55 26 61 58l7 39h-38c-36 0 -65 -16 -71 -49s17 -48 41 -48zM1265 458c70 0 88 36 96 82l6 31h-227l-20 -113h145zM1486 238c90 0 144 63 158 143l1 -2l34 192h-111l-13 -69
c-19 -104 -76 -166 -171 -183c-4 -43 31 -81 102 -81z" />
    <glyph glyph-name="dvK_SS_YA" horiz-adv-x="1345" 
d="M918 232c91 0 144 63 158 143v0l35 196h-110l-6 -32c-15 -89 -66 -178 -176 -207c-5 -53 27 -100 99 -100zM293 528c-6 -32 15 -61 65 -59c23 15 39 33 43 56c4 24 -8 51 -46 51c-31 0 -57 -20 -62 -48zM289 -68l25 143c-32 -28 -78 -42 -127 -42
c-111 0 -180 69 -161 177c17 94 84 144 158 180c-46 28 -81 82 -66 165c21 117 133 194 273 194c119 0 206 -64 184 -186c-8 -44 -29 -78 -56 -105h161c63 0 105 37 113 81l6 32h-145l29 169h738l-29 -169h-76l-101 -571h-205l21 118c-45 -35 -103 -55 -174 -55
c-163 0 -260 101 -241 258h-309c-35 -16 -57 -34 -63 -65c-6 -32 15 -55 48 -55c43 0 69 37 74 67h168l-59 -336h-186z" />
    <glyph glyph-name="dvK_SS_VA" horiz-adv-x="1244" 
d="M293 528c-6 -32 15 -61 65 -59c23 15 39 33 43 56c4 24 -8 51 -46 51c-31 0 -57 -20 -62 -48zM289 -68l25 143c-32 -28 -78 -42 -127 -42c-111 0 -180 69 -161 177c17 94 84 144 158 180c-46 28 -81 82 -66 165c21 117 133 194 273 194c119 0 206 -64 184 -186
c-7 -39 -24 -70 -48 -96h183c42 32 97 50 161 50c55 0 99 -18 125 -52l19 106h-371l30 169h646l-30 -169h-76l-100 -571h-199l16 93c-37 -35 -85 -52 -137 -52c-137 0 -210 103 -180 259c1 7 3 14 5 21h-312c-35 -16 -57 -34 -63 -65c-6 -32 15 -55 48 -55c43 0 69 37 74 67
h168l-59 -336h-186zM874 203c46 0 82 33 90 77s-18 75 -64 75c-49 0 -85 -34 -92 -76s17 -76 66 -76z" />
    <glyph glyph-name="dvK_SA" horiz-adv-x="1481" 
d="M728 494c63 0 102 -26 123 -65c37 18 52 51 59 91l9 51h-304l-22 -125c33 30 80 48 135 48zM291 214c40 1 70 28 76 60v2c7 39 -17 65 -55 65c-41 0 -73 -27 -79 -64c-7 -36 18 -64 58 -63zM1114 520c-5 -29 -13 -58 -26 -85h135l24 136h-124zM1129 212
c-12 -140 -111 -221 -255 -221c-154 0 -225 104 -203 232l10 60c4 29 -6 57 -46 57c-38 0 -66 -31 -73 -74l-47 -266h-196l17 97c-34 -35 -82 -54 -140 -54c-119 0 -194 103 -169 240c24 137 114 230 250 230c59 0 100 -19 123 -51l19 109h-395l30 169h1503l-30 -169h-76
l-101 -571h-204l47 269h-312l-12 -68c-3 -19 2 -37 25 -37s34 18 40 48h195z" />
    <glyph glyph-name="dvK_S_TTA" horiz-adv-x="1803" 
d="M728 494c63 0 102 -26 123 -65c37 18 52 51 59 91l9 51h-304l-22 -125c33 30 80 48 135 48zM291 214c40 1 70 28 76 60v2c7 39 -17 65 -55 65c-41 0 -73 -27 -79 -64c-7 -36 18 -64 58 -63zM1114 520c-5 -29 -13 -58 -26 -85h181c54 49 130 79 223 83l9 53h-378z
M1129 212c-12 -140 -111 -221 -255 -221c-154 0 -225 104 -203 232l10 60c4 29 -6 57 -46 57c-38 0 -66 -31 -73 -74l-47 -266h-196l17 97c-34 -35 -82 -54 -140 -54c-119 0 -194 103 -169 240c24 137 114 230 250 230c59 0 100 -19 123 -51l19 109h-395l30 169h1825
l-30 -169h-148l-39 -222h-160c-54 0 -105 -30 -115 -86c-9 -48 18 -82 75 -82c59 0 101 36 110 89h194c-28 -161 -151 -265 -325 -265s-284 104 -258 264h-302l-12 -68c-3 -19 2 -37 25 -37s34 18 40 48h195z" />
    <glyph glyph-name="dvK_S_DDA" horiz-adv-x="1728" 
d="M728 494c63 0 102 -26 123 -65c37 18 52 51 59 91l9 51h-304l-22 -125c33 30 80 48 135 48zM291 214c40 1 70 28 76 60v2c7 39 -17 65 -55 65c-41 0 -73 -27 -79 -64c-7 -36 18 -64 58 -63zM1114 520c-5 -29 -13 -58 -26 -85h156c38 60 108 91 188 91h43l9 45h-361z
M1669 154c-20 -113 -108 -178 -258 -178c-141 0 -256 64 -240 193h203c-3 -34 28 -41 48 -41c27 0 50 11 54 34c4 20 -7 35 -46 35h-32c-50 0 -129 15 -164 72h-353l-12 -68c-3 -19 2 -37 25 -37s34 18 40 48h195c-12 -140 -111 -221 -255 -221c-154 0 -225 104 -203 232
l10 60c4 29 -6 57 -46 57c-38 0 -66 -31 -73 -74l-47 -266h-196l17 97c-34 -35 -82 -54 -140 -54c-119 0 -194 103 -169 240c24 137 114 230 250 230c59 0 100 -19 123 -51l19 109h-395l30 169h1750l-29 -169h-95l-33 -187h-189c-18 0 -33 -8 -35 -22c-3 -16 8 -23 26 -23
h44c112 0 199 -58 176 -185z" />
    <glyph glyph-name="dvK_S_TA" horiz-adv-x="1876" 
d="M728 494c63 0 102 -26 123 -65c37 18 52 51 59 91l9 51h-304l-22 -125c33 30 80 48 135 48zM291 214c40 1 70 28 76 60v2c7 39 -17 65 -55 65c-41 0 -73 -27 -79 -64c-7 -36 18 -64 58 -63zM1114 520c-5 -29 -13 -58 -26 -85h211c59 37 132 53 207 53h120l15 83h-518z
M1129 212c-12 -140 -111 -221 -255 -221c-154 0 -225 104 -203 232l10 60c4 29 -6 57 -46 57c-38 0 -66 -31 -73 -74l-47 -266h-196l17 97c-34 -35 -82 -54 -140 -54c-119 0 -194 103 -169 240c24 137 114 230 250 230c59 0 100 -19 123 -51l19 109h-395l30 169h1898
l-30 -169h-77l-100 -571h-204l55 314h-111c-52 0 -93 -30 -101 -76c-8 -44 12 -78 73 -78h16l-28 -159h-29c-129 0 -265 72 -237 247c1 7 3 14 4 21h-302l-12 -68c-3 -19 2 -37 25 -37s34 18 40 48h195z" />
    <glyph glyph-name="dvK_S_P_RA" horiz-adv-x="1835" 
d="M728 494c63 0 102 -26 123 -65c37 18 52 51 59 91l9 51h-304l-22 -125c33 30 80 48 135 48zM291 214c40 1 70 28 76 60v2c7 39 -17 65 -55 65c-41 0 -73 -27 -79 -64c-7 -36 18 -64 58 -63zM1114 520c-5 -29 -13 -58 -26 -85h125l24 136h-114zM1473 307c54 0 86 38 97 85
l31 179h-160l-30 -170c-9 -52 7 -94 62 -94zM1501 0l32 182l-191 -217h-218l190 193c-54 19 -88 59 -103 111h-330l-12 -68c-3 -19 2 -37 25 -37s34 18 40 48h195c-12 -140 -111 -221 -255 -221c-154 0 -225 104 -203 232l10 60c4 29 -6 57 -46 57c-38 0 -66 -31 -73 -74
l-47 -266h-196l17 97c-34 -35 -82 -54 -140 -54c-119 0 -194 103 -169 240c24 137 114 230 250 230c59 0 100 -19 123 -51l19 109h-395l30 169h1857l-29 -169h-77l-100 -571h-204z" />
    <glyph glyph-name="dvK_S_P_LA" horiz-adv-x="2410" 
d="M728 494c63 0 102 -26 123 -65c37 18 52 51 59 91l9 51h-304l-22 -125c33 30 80 48 135 48zM291 214c40 1 70 28 76 60v2c7 39 -17 65 -55 65c-41 0 -73 -27 -79 -64c-7 -36 18 -64 58 -63zM1114 520c-5 -29 -13 -58 -26 -85h124l24 136h-113zM1470 307c32 0 57 23 71 52
v0c51 111 155 153 250 153c89 0 142 -40 163 -94h3c29 41 71 72 127 86l12 67h-656l-30 -170c-9 -52 5 -94 60 -94zM1129 212c-12 -140 -111 -221 -255 -221c-154 0 -225 104 -203 232l10 60c4 29 -6 57 -46 57c-38 0 -66 -31 -73 -74l-47 -266h-196l17 97
c-34 -35 -82 -54 -140 -54c-119 0 -194 103 -169 240c24 137 114 230 250 230c59 0 100 -19 123 -51l19 109h-395l30 169h2432l-30 -169h-160l-17 -98c55 -41 88 -115 69 -222c-27 -151 -143 -251 -317 -246c-7 0 -25 1 -35 2l32 176c5 -1 17 -2 25 -2c40 0 79 26 88 80
c8 44 -12 72 -51 72c-49 0 -70 -42 -77 -77l-5 -29h-168l5 29c7 35 0 77 -49 77c-41 0 -69 -28 -77 -72c-9 -52 17 -80 65 -80c7 0 14 1 22 2l-32 -177c-14 -1 -23 -1 -30 -1c-126 0 -203 59 -226 148c-28 -11 -59 -17 -93 -17c-112 0 -185 53 -212 133h-332l-12 -68
c-3 -19 2 -37 25 -37s34 18 40 48h195z" />
    <glyph glyph-name="dvKH_KHA" horiz-adv-x="1641" 
d="M1308 0l22 126c-26 -20 -59 -31 -103 -31c-10 0 -20 1 -29 3c-59 -62 -143 -107 -245 -107c-116 0 -197 42 -234 121c-33 -13 -69 -20 -106 -20c-22 0 -44 2 -64 7c-50 -61 -129 -108 -233 -108c-201 0 -307 118 -274 306l19 109h19c97 0 138 42 151 117l8 48h-214
l30 169h1662l-30 -169h-76l-100 -571h-203zM640 244c35 0 59 21 65 56c6 34 -11 55 -46 55s-61 -21 -67 -55c-6 -35 13 -56 48 -56zM1300 249c30 0 55 21 61 54c5 27 -9 53 -42 53c-31 0 -57 -19 -63 -53c-6 -36 16 -54 44 -54zM326 166c46 0 75 16 94 35
c-11 28 -13 61 -7 99c23 130 138 206 273 206c77 0 136 -29 165 -82c24 22 37 55 43 99l8 48h-458l-13 -77c-22 -126 -96 -205 -192 -226c-9 -56 17 -102 87 -102zM989 166c50 0 81 19 98 40c-9 35 -11 75 -4 117c20 116 111 191 217 186c42 -2 72 -14 91 -33l17 95h-301
l-13 -77c-22 -126 -96 -205 -192 -226c-9 -56 17 -102 87 -102z" />
    <glyph glyph-name="dvKH_TA" horiz-adv-x="1370" 
d="M640 244c35 0 59 21 65 56c6 34 -11 55 -46 55s-61 -21 -67 -55c-6 -35 13 -56 48 -56zM326 166c45 0 74 16 93 34c-10 28 -13 62 -6 100c23 130 129 206 263 206c72 0 126 -20 158 -58c49 28 107 40 166 40h120l15 83h-691l-13 -77c-22 -126 -96 -205 -192 -226
c-9 -56 17 -102 87 -102zM606 92c-20 0 -40 2 -58 5c-50 -60 -128 -106 -232 -106c-201 0 -307 118 -274 306l19 109h19c97 0 138 42 151 117l8 48h-214l30 169h1391l-30 -169h-77l-100 -571h-204l55 314h-111c-52 0 -93 -30 -101 -76c-8 -44 12 -78 73 -78h16l-28 -159h-29
c-92 0 -169 33 -199 108c-32 -12 -67 -17 -105 -17z" />
    <glyph glyph-name="dvKHx_TA" horiz-adv-x="1370" 
d="M254 -282c-63 0 -104 50 -93 112c11 64 70 115 133 115c64 0 105 -51 94 -115c-11 -62 -70 -112 -134 -112zM640 244c35 0 59 21 65 56c6 34 -11 55 -46 55s-61 -21 -67 -55c-6 -35 13 -56 48 -56zM326 166c45 0 74 16 93 34c-10 28 -13 62 -6 100
c23 130 129 206 263 206c72 0 126 -20 158 -58c49 28 107 40 166 40h120l15 83h-691l-13 -77c-22 -126 -96 -205 -192 -226c-9 -56 17 -102 87 -102zM606 92c-20 0 -40 2 -58 5c-50 -60 -128 -106 -232 -106c-201 0 -307 118 -274 306l19 109h19c97 0 138 42 151 117l8 48
h-214l30 169h1391l-30 -169h-77l-100 -571h-204l55 314h-111c-52 0 -93 -30 -101 -76c-8 -44 12 -78 73 -78h16l-28 -159h-29c-92 0 -169 33 -199 108c-32 -12 -67 -17 -105 -17z" />
    <glyph glyph-name="dvKH_NA" horiz-adv-x="1520" 
d="M931 210c33 0 61 23 66 56c6 32 -14 56 -47 56c-34 0 -61 -24 -67 -56c-5 -33 14 -56 48 -56zM640 244c35 0 59 21 65 56c6 34 -11 55 -46 55s-61 -21 -67 -55c-6 -35 13 -56 48 -56zM326 166c46 0 75 16 94 35c-11 28 -13 61 -7 99c23 130 129 206 263 206
c70 0 123 -21 155 -59c46 30 102 44 163 44h278l14 80h-842l-13 -77c-22 -126 -96 -205 -192 -226c-9 -56 17 -102 87 -102zM613 92c-22 0 -44 2 -64 7c-50 -61 -129 -108 -233 -108c-201 0 -307 118 -274 306l19 109h19c97 0 138 42 151 117l8 48h-214l30 169h1542
l-30 -169h-77l-100 -571h-204l56 322h-91c6 -23 7 -51 1 -85c-23 -135 -134 -198 -246 -198c-73 0 -135 28 -167 82c-36 -19 -79 -29 -126 -29z" />
    <glyph glyph-name="dvKH_MA" horiz-adv-x="1557" 
d="M921 208c37 0 56 24 62 58l7 39h-38c-36 0 -65 -16 -71 -49s17 -48 40 -48zM640 244c35 0 59 21 65 56c6 34 -11 55 -46 55s-61 -21 -67 -55c-6 -35 13 -56 48 -56zM1304 471l18 100h-95l-18 -100h95zM326 166c46 0 75 16 94 35c-11 28 -13 61 -7 99
c23 130 129 206 263 206c74 0 130 -23 160 -66c41 21 88 31 140 31h43l18 100h-593l-13 -77c-22 -126 -96 -205 -192 -226c-9 -56 17 -102 87 -102zM613 92c-22 0 -44 2 -64 7c-50 -61 -129 -108 -233 -108c-201 0 -307 118 -274 306l19 109h19c97 0 138 42 151 117l8 48
h-214l30 169h1578l-30 -169h-76l-101 -571h-205l54 305h-95l-5 -28c-24 -150 -115 -241 -260 -241c-85 0 -150 30 -183 82c-35 -17 -75 -26 -119 -26z" />
    <glyph glyph-name="dvKHx_MA" horiz-adv-x="1557" 
d="M217 -275c-63 0 -104 50 -93 112c11 64 70 115 133 115c64 0 105 -51 94 -115c-11 -62 -70 -112 -134 -112zM640 244c35 0 59 21 65 56c6 34 -11 55 -46 55s-61 -21 -67 -55c-6 -35 13 -56 48 -56zM921 208c37 0 56 24 62 58l7 39h-38c-36 0 -65 -16 -71 -49
s17 -48 40 -48zM1304 471l18 100h-95l-18 -100h95zM326 166c46 0 75 16 94 35c-11 28 -13 61 -7 99c23 130 129 206 263 206c74 0 130 -23 160 -66c41 21 88 31 140 31h43l18 100h-593l-13 -77c-22 -126 -96 -205 -192 -226c-9 -56 17 -102 87 -102zM613 92
c-22 0 -44 2 -64 7c-50 -61 -129 -108 -233 -108c-201 0 -307 118 -274 306l19 109h19c97 0 138 42 151 117l8 48h-214l30 169h1578l-30 -169h-76l-101 -571h-205l54 305h-95l-5 -28c-24 -150 -115 -241 -260 -241c-85 0 -150 30 -183 82c-35 -17 -75 -26 -119 -26z" />
    <glyph glyph-name="dvKH_YA" horiz-adv-x="1430" 
d="M640 244c35 0 59 21 65 56c6 34 -11 55 -46 55s-61 -21 -67 -55c-6 -35 13 -56 48 -56zM326 166c46 0 75 16 94 35c-11 28 -13 61 -7 99c23 130 138 206 273 206c68 0 122 -22 154 -63c24 23 32 59 38 97l6 31h-440l-13 -77c-22 -126 -96 -205 -192 -226
c-9 -56 17 -102 87 -102zM1003 232c90 0 144 63 158 143v0l35 196h-111l-13 -69c-15 -87 -60 -168 -171 -188c-3 -44 30 -82 102 -82zM613 92c-22 0 -44 2 -64 7c-50 -61 -129 -108 -233 -108c-201 0 -307 118 -274 306l19 109h19c97 0 138 42 151 117l8 48h-214l30 169
h1451l-30 -169h-76l-101 -571h-204l21 120c-45 -36 -104 -57 -175 -57c-83 0 -141 27 -175 73c-44 -29 -98 -44 -153 -44z" />
    <glyph glyph-name="dvKHx_YA" horiz-adv-x="1430" 
d="M252 -282c-63 0 -104 50 -93 112c11 64 70 115 133 115c64 0 105 -51 94 -115c-11 -62 -70 -112 -134 -112zM640 244c35 0 59 21 65 56c6 34 -11 55 -46 55s-61 -21 -67 -55c-6 -35 13 -56 48 -56zM326 166c46 0 75 16 94 35c-11 28 -13 61 -7 99c23 130 138 206 273 206
c68 0 122 -22 154 -63c24 23 32 59 38 97l6 31h-440l-13 -77c-22 -126 -96 -205 -192 -226c-9 -56 17 -102 87 -102zM1003 232c90 0 144 63 158 143v0l35 196h-111l-13 -69c-15 -87 -60 -168 -171 -188c-3 -44 30 -82 102 -82zM613 92c-22 0 -44 2 -64 7
c-50 -61 -129 -108 -233 -108c-201 0 -307 118 -274 306l19 109h19c97 0 138 42 151 117l8 48h-214l30 169h1451l-30 -169h-76l-101 -571h-204l21 120c-45 -36 -104 -57 -175 -57c-83 0 -141 27 -175 73c-44 -29 -98 -44 -153 -44z" />
    <glyph glyph-name="dvKH_VA" horiz-adv-x="1320" 
d="M992 0l16 93c-37 -35 -85 -52 -137 -52c-69 0 -121 28 -149 76c-36 -17 -76 -25 -121 -25c-19 0 -37 2 -53 5c-51 -60 -129 -106 -232 -106c-201 0 -307 118 -274 306l19 109h19c97 0 138 42 151 117l8 48h-214l30 169h1342l-30 -169h-76l-100 -571h-199zM640 244
c35 0 59 21 65 56c6 34 -11 55 -46 55s-61 -21 -67 -55c-6 -35 13 -56 48 -56zM951 203c46 0 82 33 90 77s-18 75 -64 75c-49 0 -85 -34 -92 -76s17 -76 66 -76zM326 166c45 0 73 15 92 33c-10 29 -12 62 -5 101c23 130 127 206 258 206c53 0 98 -13 130 -37
c37 31 84 48 139 48c58 0 103 -20 133 -52l19 106h-648l-13 -77c-21 -126 -95 -205 -192 -226c-8 -56 17 -102 87 -102z" />
    <glyph glyph-name="dvKHx_VA" horiz-adv-x="1320" 
d="M252 -282c-63 0 -104 50 -93 112c11 64 70 115 133 115c64 0 105 -51 94 -115c-11 -62 -70 -112 -134 -112zM640 244c35 0 59 21 65 56c6 34 -11 55 -46 55s-61 -21 -67 -55c-6 -35 13 -56 48 -56zM951 203c46 0 82 33 90 77s-18 75 -64 75c-49 0 -85 -34 -92 -76
s17 -76 66 -76zM992 0l16 93c-37 -35 -85 -52 -137 -52c-69 0 -121 28 -149 76c-36 -17 -76 -25 -121 -25c-19 0 -37 2 -53 5c-51 -60 -129 -106 -232 -106c-201 0 -307 118 -274 306l19 109h19c97 0 138 42 151 117l8 48h-214l30 169h1342l-30 -169h-76l-100 -571h-199z
M326 166c45 0 73 15 92 33c-10 29 -12 62 -5 101c23 130 127 206 258 206c53 0 98 -13 130 -37c37 31 84 48 139 48c58 0 103 -20 133 -52l19 106h-648l-13 -77c-21 -126 -95 -205 -192 -226c-8 -56 17 -102 87 -102z" />
    <glyph glyph-name="dvKH_SHA" horiz-adv-x="1525" 
d="M326 166c45 0 74 15 92 33c-10 29 -12 62 -5 101c23 130 128 206 262 206c78 0 136 -24 167 -69c77 0 162 14 176 93c4 23 -3 43 -31 43c-5 0 -9 0 -18 -2h-525l-13 -77c-22 -126 -96 -205 -192 -226c-9 -56 17 -102 87 -102zM900 -6c-99 0 -183 36 -216 107
c-24 -6 -51 -9 -79 -9c-20 0 -39 2 -57 5c-50 -60 -128 -106 -232 -106c-201 0 -307 118 -274 306l19 109h19c97 0 138 42 151 117l8 48h-215l30 169h885c21 5 44 8 69 8c146 3 243 -82 215 -231c-31 -176 -175 -250 -333 -250h-7l-8 -45c-5 -26 -2 -54 36 -54
c28 0 46 21 51 48l3 17h198c-1 -11 -2 -18 -3 -20c-23 -140 -116 -219 -260 -219zM639 244c35 0 59 21 66 56c6 34 -12 55 -47 55s-60 -21 -66 -55c-7 -35 12 -56 47 -56zM1188 0l130 740h283l-30 -169h-76l-100 -571h-207z" />
    <glyph glyph-name="dvKHx_SHA" horiz-adv-x="1525" 
d="M252 -282c-63 0 -104 50 -93 112c11 64 70 115 133 115c64 0 105 -51 94 -115c-11 -62 -70 -112 -134 -112zM639 244c35 0 59 21 66 56c6 34 -12 55 -47 55s-60 -21 -66 -55c-7 -35 12 -56 47 -56zM326 166c45 0 74 15 92 33c-10 29 -12 62 -5 101
c23 130 128 206 262 206c78 0 136 -24 167 -69c77 0 162 14 176 93c4 23 -3 43 -31 43c-5 0 -9 0 -18 -2h-525l-13 -77c-22 -126 -96 -205 -192 -226c-9 -56 17 -102 87 -102zM900 -6c-99 0 -183 36 -216 107c-24 -6 -51 -9 -79 -9c-20 0 -39 2 -57 5
c-50 -60 -128 -106 -232 -106c-201 0 -307 118 -274 306l19 109h19c97 0 138 42 151 117l8 48h-215l30 169h885c21 5 44 8 69 8c146 3 243 -82 215 -231c-31 -176 -175 -250 -333 -250h-7l-8 -45c-5 -26 -2 -54 36 -54c28 0 46 21 51 48l3 17h198c-1 -11 -2 -18 -3 -20
c-23 -140 -116 -219 -260 -219zM1188 0l130 740h283l-30 -169h-76l-100 -571h-207z" />
    <glyph glyph-name="dvKHx_SA" horiz-adv-x="1507" 
d="M252 -282c-63 0 -104 50 -93 112c11 64 70 115 133 115c64 0 105 -51 94 -115c-11 -62 -70 -112 -134 -112zM640 244c35 0 59 21 65 56c6 34 -11 55 -46 55s-61 -21 -67 -55c-6 -35 13 -56 48 -56zM326 166c46 0 75 16 94 35c-11 28 -13 61 -7 99c23 130 138 206 273 206
c83 0 147 -29 179 -83c47 17 63 53 71 97l9 51h-501l-13 -77c-22 -126 -96 -205 -192 -226c-9 -56 17 -102 87 -102zM1140 520c-5 -29 -13 -58 -26 -85h135l24 136h-124zM1155 212c-12 -140 -111 -221 -255 -221c-102 0 -168 46 -194 115c-30 -9 -61 -14 -93 -14
c-22 0 -44 2 -64 7c-50 -61 -129 -108 -233 -108c-201 0 -307 118 -274 306l19 109h19c97 0 138 42 151 117l8 48h-214l30 169h1528l-30 -169h-76l-101 -571h-204l47 269h-312l-12 -68c-3 -19 2 -37 25 -37s34 18 40 48h195z" />
    <glyph glyph-name="dvG_GA" horiz-adv-x="1392" 
d="M1057 0l100 571h-93l-34 -198c-23 -136 -106 -238 -266 -238c-138 0 -232 74 -204 228c2 11 4 22 7 33h197l-6 -32c-6 -34 -2 -56 24 -56c29 0 38 31 42 56l36 207h-329l-34 -198c-23 -136 -106 -238 -266 -238c-138 0 -232 74 -204 228c2 11 4 22 7 33h197l-6 -32
c-6 -34 -2 -56 24 -56c29 0 38 31 42 56l36 207h-303l30 169h1414l-30 -169h-77l-100 -571h-204z" />
    <glyph glyph-name="dvG_GHA" horiz-adv-x="1219" 
d="M824 252c59 0 112 38 123 101l38 218h-154l-3 -19c-6 -34 4 -58 50 -58h35l-29 -163h-51c-33 0 -53 -16 -57 -40c-5 -26 16 -39 48 -39zM1090 0h-205l25 143c-46 -38 -103 -56 -166 -56c-109 0 -199 67 -179 182c13 73 67 121 116 139v4c-44 16 -72 55 -59 130l5 29h-96
l-34 -198c-23 -136 -106 -238 -266 -238c-138 0 -232 74 -204 228c2 11 4 22 7 33h197l-6 -32c-6 -34 -2 -56 24 -56c29 0 38 31 42 56l36 207h-303l30 169h1241l-30 -169h-75z" />
    <glyph glyph-name="dvG_JA" horiz-adv-x="1409" 
d="M1279 0h-204l54 308h-68c-28 -134 -131 -228 -279 -228c-153 0 -243 98 -216 246l28 155h205l-28 -156c-8 -44 4 -67 36 -67c31 0 50 23 58 67l28 156h266l16 90h-644l-34 -198c-23 -136 -106 -238 -266 -238c-138 0 -232 74 -204 228c2 11 4 22 7 33h197l-6 -32
c-6 -34 -2 -56 24 -56c29 0 38 31 42 56l36 207h-303l30 169h1431l-30 -169h-76z" />
    <glyph glyph-name="dvG_NNA" horiz-adv-x="1436" 
d="M817 291c27 0 43 18 48 44l42 236h-82l-42 -236c-5 -26 9 -44 34 -44zM1305 0h-204l101 571h-95l-39 -217c-22 -131 -106 -234 -264 -234c-152 0 -242 94 -217 234l39 217h-95l-34 -198c-23 -136 -106 -238 -266 -238c-138 0 -232 74 -204 228c2 11 4 22 7 33h197l-6 -32
c-6 -34 -2 -56 24 -56c29 0 38 31 42 56l36 207h-303l30 169h1458l-30 -169h-76z" />
    <glyph glyph-name="dvG_DA" horiz-adv-x="1147" 
d="M1019 -44h-199l22 123c-30 -23 -69 -35 -115 -35c-103 0 -195 77 -167 237c27 152 151 229 308 229h15l11 61h-363l-34 -198c-23 -136 -106 -238 -266 -238c-138 0 -232 74 -204 228c2 11 4 22 7 33h197l-6 -32c-6 -34 -2 -56 24 -56c29 0 38 31 42 56l36 207h-303
l30 169h1169l-31 -169h-93l-42 -235h-198c-52 0 -85 -29 -92 -70c-7 -38 12 -62 49 -62c39 0 63 28 69 63h189z" />
    <glyph glyph-name="dvG_DHA" horiz-adv-x="1268" 
d="M752 65c-125 0 -219 63 -198 186c15 86 86 129 136 143l1 4c-56 21 -107 79 -90 173h-70l-34 -198c-23 -136 -106 -238 -266 -238c-138 0 -232 74 -204 228c2 11 4 22 7 33h197l-6 -32c-6 -34 -2 -56 24 -56c29 0 38 31 42 56l36 207h-303l30 169h693c22 6 45 9 70 9
c137 0 202 -85 161 -221h-149c5 21 6 51 -24 51c-18 0 -31 -14 -36 -36c-11 -53 31 -62 68 -62h92l-29 -163h-52c-42 0 -77 -10 -83 -44c-5 -28 20 -43 70 -43c91 0 155 61 170 148l34 192v0l29 169h276l-29 -169h-72l-101 -571h-204l24 137c-51 -47 -121 -72 -210 -72z" />
    <glyph glyph-name="dvG_DH_YA" horiz-adv-x="1725" 
d="M1298 232c90 0 144 63 158 143v0l35 196h-111l-13 -69c-15 -87 -60 -168 -171 -188c-3 -44 30 -82 102 -82zM808 63c-155 0 -275 64 -251 196c15 86 84 122 134 135l1 4c-57 21 -107 79 -91 173h-70l-34 -198c-23 -136 -106 -238 -266 -238c-138 0 -232 74 -204 228
c2 11 4 22 7 33h197l-6 -32c-6 -34 -2 -56 24 -56c29 0 38 31 42 56l36 207h-303l30 169h693c22 6 45 9 70 9c137 0 202 -85 161 -221h-149c5 21 6 51 -24 51c-18 0 -31 -14 -36 -36c-12 -53 31 -62 68 -62h92l-29 -163h-52c-42 0 -78 -10 -82 -44c-4 -36 39 -43 81 -43
c82 0 138 40 151 114c4 23 10 45 17 69h8c114 0 138 60 150 126l6 31h-113l30 169h705l-30 -169h-76l-101 -571h-204l21 120c-45 -36 -104 -57 -175 -57c-88 0 -156 30 -198 82c-52 -52 -128 -82 -230 -82z" />
    <glyph glyph-name="dvG_DH_VA" horiz-adv-x="1621" 
d="M806 63c-155 0 -275 64 -251 196c15 86 84 122 134 135l1 4c-57 21 -107 79 -91 173h-68l-34 -198c-23 -136 -106 -238 -266 -238c-138 0 -232 74 -204 228c2 11 4 22 7 33h197l-6 -32c-6 -34 -2 -56 24 -56c29 0 38 31 42 56l36 207h-303l30 169h691c22 6 45 9 70 9
c137 0 202 -85 161 -221h-149c5 21 6 51 -24 51c-18 0 -31 -14 -36 -36c-12 -53 31 -62 68 -62h92l-29 -163h-52c-42 0 -75 -10 -82 -44c-7 -36 39 -43 81 -43c92 0 131 31 152 97c32 115 121 189 251 189c55 0 99 -18 125 -52l19 106h-328l30 169h603l-30 -169h-76
l-100 -571h-199l16 93c-37 -35 -85 -52 -137 -52c-74 0 -130 30 -160 83c-51 -39 -119 -61 -205 -61zM1251 203c46 0 82 33 90 77s-18 75 -64 75c-49 0 -85 -34 -92 -76s17 -76 66 -76z" />
    <glyph glyph-name="dvG_NA" horiz-adv-x="1378" 
d="M788 210c33 0 60 23 66 56c5 32 -13 56 -46 56c-34 0 -63 -24 -68 -56c-6 -33 14 -56 48 -56zM1247 0h-204l57 322h-92c6 -24 8 -51 2 -85c-23 -133 -136 -198 -244 -198c-138 0 -234 101 -210 239c28 152 149 213 288 213h286l14 80h-613l-34 -198
c-23 -136 -106 -238 -266 -238c-138 0 -232 74 -204 228c2 11 4 22 7 33h197l-6 -32c-6 -34 -2 -56 24 -56c29 0 38 31 42 56l36 207h-303l30 169h1400l-30 -169h-76z" />
    <glyph glyph-name="dvG_N_YA" horiz-adv-x="1822" 
d="M781 177c33 0 60 23 66 56c5 32 -13 56 -46 56c-34 0 -63 -24 -68 -56c-6 -33 14 -56 48 -56zM1395 232c90 0 144 63 158 143v0l35 196h-111l-13 -69c-14 -81 -69 -158 -169 -186c8 -48 40 -84 100 -84zM1691 0h-204l20 111c-42 -30 -97 -48 -168 -48
c-147 0 -238 86 -245 226h-93c5 -24 7 -52 2 -85c-23 -133 -128 -198 -244 -198c-138 0 -234 101 -210 239c28 152 149 213 288 213h289c114 0 136 39 144 82l6 31h-745l-34 -198c-23 -136 -106 -238 -266 -238c-138 0 -232 74 -204 228c2 11 4 22 7 33h197l-6 -32
c-6 -34 -2 -56 24 -56c29 0 38 31 42 56l36 207h-303l30 169h1844l-30 -169h-76z" />
    <glyph glyph-name="dvG_BA" horiz-adv-x="1218" 
d="M892 0l15 85c-37 -31 -90 -46 -148 -46c-142 0 -223 114 -198 259c24 138 135 226 283 226c53 0 99 -11 134 -35l14 82h-461l-34 -198c-23 -136 -106 -238 -266 -238c-138 0 -232 74 -204 228c2 11 4 22 7 33h197l-6 -32c-6 -34 -2 -56 24 -56c29 0 38 31 42 56l36 207
h-303l30 169h1240l-30 -169h-76l-100 -571h-196zM828 182c23 0 44 6 62 16l-147 114c-3 -8 -6 -16 -7 -24c-12 -65 32 -106 92 -106zM865 395c-23 0 -44 -6 -63 -17l147 -113c2 7 5 15 6 23c10 62 -27 107 -90 107z" />
    <glyph glyph-name="dvG_BHA" horiz-adv-x="1422" 
d="M783 208c37 0 55 26 61 58l7 39h-37c-37 0 -66 -16 -72 -49s14 -48 41 -48zM756 36c-145 0 -227 86 -203 219c26 150 151 216 284 216h43l11 63c4 24 0 42 -23 42c-7 0 -13 -2 -18 -5h-319l-34 -198c-23 -136 -106 -238 -266 -238c-138 0 -232 74 -204 228
c2 11 4 22 7 33h197l-6 -32c-6 -34 -2 -56 24 -56c29 0 38 31 42 56l36 207h-303l30 169h756c24 6 51 9 80 9c175 0 209 -116 184 -253l-4 -25h98l47 269h282l-29 -169h-78l-101 -571h-204l54 305h-98l-5 -28c-26 -146 -122 -241 -280 -241z" />
    <glyph glyph-name="dvG_BH_YA" horiz-adv-x="1840" 
d="M1413 232c90 0 144 63 158 143v0l35 196h-111l-13 -69c-15 -87 -59 -164 -172 -182c-5 -46 27 -88 103 -88zM783 208c37 0 55 26 61 58l7 39h-37c-37 0 -66 -16 -72 -49s14 -48 41 -48zM756 36c-145 0 -227 86 -203 219c26 150 151 216 284 216h43l11 63
c4 24 0 42 -23 42c-20 0 -34 -17 -38 -39c-2 -9 -3 -18 -2 -28h-204c-1 10 0 24 2 36c2 9 4 18 6 26h-101l-34 -198c-23 -136 -106 -238 -266 -238c-138 0 -232 74 -204 228c2 11 4 22 7 33h197l-6 -32c-6 -34 -2 -56 24 -56c29 0 38 31 42 56l36 207h-303l30 169h756
c24 6 51 9 80 9c175 0 209 -116 184 -253l-4 -25h125c66 0 83 12 93 69l6 31h-128l29 169h721l-29 -169h-77l-101 -571h-204l21 117c-44 -34 -102 -54 -172 -54c-161 0 -257 94 -246 242h-67l-5 -28c-26 -146 -122 -241 -280 -241z" />
    <glyph glyph-name="dvG_MA" horiz-adv-x="1418" 
d="M1165 471l18 100h-95l-17 -100h94zM784 208c37 0 55 26 61 58l7 39h-38c-36 0 -65 -16 -71 -49s17 -48 41 -48zM1287 0h-205l54 305h-94l-5 -28c-26 -146 -123 -241 -281 -241c-145 0 -225 88 -202 219c26 150 151 216 283 216h44l17 100h-367l-34 -198
c-23 -136 -106 -238 -266 -238c-138 0 -232 74 -204 228c2 11 4 22 7 33h197l-6 -32c-6 -34 -2 -56 24 -56c29 0 38 31 42 56l36 207h-303l30 169h1440l-30 -169h-76z" />
    <glyph glyph-name="dvG_YA" horiz-adv-x="1297" 
d="M870 232c90 0 144 63 158 143v0l35 196h-111l-13 -69c-15 -87 -60 -168 -171 -188c-3 -44 30 -82 102 -82zM1166 0h-204l21 120c-45 -36 -104 -57 -175 -57c-171 0 -268 114 -238 282c4 23 10 45 17 69h8c114 0 138 60 150 126l6 31h-220l-34 -198
c-23 -136 -106 -238 -266 -238c-138 0 -232 74 -204 228c2 11 4 22 7 33h197l-6 -32c-6 -34 -2 -56 24 -56c29 0 38 31 42 56l36 207h-303l30 169h1319l-30 -169h-76z" />
    <glyph glyph-name="dvG_R_YA" horiz-adv-x="1299" 
d="M872 232c90 0 144 63 158 143v0l35 196h-111l-13 -69c-15 -87 -60 -168 -171 -188c-3 -44 30 -82 102 -82zM810 63c-103 0 -179 41 -217 111l-227 -194h-234l438 353c1 4 1 8 2 12c4 23 10 45 17 69h8c114 0 138 60 150 126l6 31h-222l-20 -120
c-23 -136 -106 -238 -266 -238c-138 0 -232 74 -204 228c2 11 4 22 7 33h197l-6 -32c-6 -34 -2 -56 24 -56c29 0 38 31 42 56l23 129h-303l30 169h1320l-30 -169h-76l-101 -571h-204l21 120c-45 -36 -104 -57 -175 -57z" />
    <glyph glyph-name="dvG_LA" horiz-adv-x="1452" 
d="M1390 251c-27 -151 -143 -251 -317 -246c-7 0 -25 1 -35 2l32 176c5 -1 17 -2 25 -2c40 0 79 26 88 80c8 44 -12 72 -51 72c-49 0 -70 -42 -77 -77l-5 -29h-168l5 29c7 35 0 77 -49 77c-41 0 -69 -28 -77 -72c-9 -52 17 -80 65 -80c7 0 14 1 22 2l-32 -177
c-14 -1 -23 -1 -30 -1c-177 0 -257 117 -229 268c30 176 160 239 276 239c89 0 142 -40 163 -94h3c29 41 71 72 127 86l12 67h-607l-34 -198c-23 -136 -106 -238 -266 -238c-138 0 -232 74 -204 228c2 11 4 22 7 33h197l-6 -32c-6 -34 -2 -56 24 -56c29 0 38 31 42 56
l36 207h-303l30 169h1474l-30 -169h-160l-17 -98c55 -41 88 -115 69 -222z" />
    <glyph glyph-name="dvG_VA" horiz-adv-x="1192" 
d="M822 203c46 0 82 33 90 77s-18 75 -64 75c-49 0 -85 -34 -92 -76s17 -76 66 -76zM1238 571h-76l-100 -571h-199l16 93c-37 -35 -85 -52 -137 -52c-137 0 -210 103 -180 259c23 131 112 217 249 217c58 0 103 -20 133 -52l19 106h-432l-34 -198
c-23 -136 -106 -238 -266 -238c-138 0 -232 74 -204 228c2 11 4 22 7 33h197l-6 -32c-6 -34 -2 -56 24 -56c29 0 38 31 42 56l36 207h-303l30 169h1214z" />
    <glyph glyph-name="dvG_SA" horiz-adv-x="1368" 
d="M1001 520c-5 -29 -13 -58 -26 -85h135l24 136h-124zM1016 212c-12 -140 -111 -221 -255 -221c-154 0 -225 104 -203 232l33 190h63c104 0 132 46 143 107l9 51h-275l-34 -198c-23 -136 -106 -238 -266 -238c-138 0 -232 74 -204 228c2 11 4 22 7 33h197l-6 -32
c-6 -34 -2 -56 24 -56c29 0 38 31 42 56l36 207h-303l30 169h1390l-30 -169h-76l-101 -571h-204l47 269h-312l-12 -68c-3 -19 2 -37 25 -37s34 18 40 48h195z" />
    <glyph glyph-name="dvGH_NA" horiz-adv-x="1220" 
d="M630 210c33 0 60 23 66 56c5 32 -13 56 -46 56c-34 0 -63 -24 -68 -56c-6 -33 14 -56 48 -56zM296 252c39 0 80 7 110 67l10 21c46 107 152 151 270 151h286l14 80h-683l-3 -19c-6 -34 4 -58 50 -58h35l-29 -163h-51c-33 0 -53 -14 -57 -38c-5 -27 19 -41 48 -41z
M1266 571h-76l-101 -571h-204l57 322h-92c6 -24 8 -51 2 -85c-23 -133 -136 -198 -244 -198c-87 0 -157 40 -191 103c-46 -39 -108 -55 -174 -55c-133 0 -229 67 -206 188c13 73 67 116 116 133v4c-44 16 -72 55 -59 130l5 29h-75l30 169h1242z" />
    <glyph glyph-name="dvGH_MA" horiz-adv-x="1251" 
d="M998 471l18 100h-95l-17 -100h94zM617 208c37 0 55 26 61 58l7 39h-38c-36 0 -65 -16 -71 -49s17 -48 41 -48zM296 252c39 0 77 9 109 67l7 13c49 96 151 139 258 139h44l17 100h-428l-3 -19c-6 -34 4 -58 50 -58h35l-29 -163h-51c-33 0 -53 -14 -57 -38
c-5 -27 19 -41 48 -41zM1297 571h-76l-101 -571h-205l54 305h-94l-5 -28c-26 -146 -123 -241 -281 -241c-92 0 -157 35 -188 94c-43 -30 -99 -43 -158 -43c-133 0 -229 67 -206 188c13 73 67 116 116 133v4c-44 16 -72 55 -59 130l5 29h-75l30 169h1273z" />
    <glyph glyph-name="dvGH_YA" horiz-adv-x="1145" 
d="M296 252c78 0 109 43 123 97c4 22 9 42 16 65h8c114 0 138 60 150 126l6 31h-297l-3 -19c-6 -34 4 -58 50 -58h35l-29 -163h-51c-33 0 -52 -16 -57 -40c-4 -26 17 -39 49 -39zM718 232c90 0 144 63 158 143v0l35 196h-111l-13 -69c-15 -87 -60 -168 -171 -188
c-3 -44 30 -82 102 -82zM1191 571h-76l-101 -571h-204l21 120c-45 -36 -104 -57 -175 -57c-87 0 -156 30 -197 81c-52 -35 -117 -57 -193 -57c-163 0 -248 79 -228 189c13 73 65 115 114 132l1 4c-44 16 -73 55 -59 130l5 29h-75l30 169h1167z" />
    <glyph glyph-name="dvC_CA" horiz-adv-x="1108" 
d="M369 240c50 0 80 28 103 66c8 14 17 27 28 38h-126c-28 0 -58 -16 -65 -51c-6 -36 20 -53 60 -53zM1154 571h-76l-101 -571h-204l24 134c-46 -41 -107 -62 -175 -62c-66 0 -119 23 -148 65c-49 -43 -108 -67 -181 -67c-117 0 -202 71 -181 185c6 35 22 65 45 89h-111
l28 159h717l-28 -159h-46c-28 0 -58 -16 -65 -51c-6 -36 22 -54 64 -53c66 2 106 50 123 132l35 199h-850l30 169h1130z" />
    <glyph glyph-name="dvC_CHA" horiz-adv-x="1247" 
d="M793 189c140 0 211 43 228 136c5 29 1 58 -24 58s-40 -24 -46 -56c-4 -22 -4 -46 -2 -67h-166c-2 19 -3 51 4 90c15 88 70 142 140 166l10 55h-215l-7 -41c-6 -33 1 -58 37 -58h19l-29 -162h-15c-38 0 -62 -23 -67 -51c-7 -40 19 -70 133 -70zM1197 315
c-32 -179 -186 -299 -437 -299c-130 0 -232 37 -281 102c-45 -31 -99 -48 -158 -48c-125 0 -231 63 -209 185c6 35 21 65 45 89h-111l28 159h374l-28 -159h-46c-28 0 -58 -16 -65 -51c-6 -36 22 -53 63 -52c45 1 79 31 101 67c21 35 53 61 94 79v4c-43 15 -71 54 -58 130
l9 50h-494l30 169h1269l-30 -169h-168l-10 -56c68 -32 99 -103 82 -200z" />
    <glyph glyph-name="dvC_CH_VA" horiz-adv-x="1247" 
d="M737 -137c43 0 78 30 84 66l16 91c-22 -2 -46 -4 -70 -4v0c-51 0 -83 -36 -91 -77c-8 -42 14 -76 61 -76zM793 189c140 0 211 43 228 136c5 29 1 58 -24 58s-40 -24 -46 -56c-4 -22 -4 -46 -2 -67h-166c-2 19 -3 51 4 90c15 88 70 142 140 166l10 55h-215l-7 -41
c-6 -33 1 -58 37 -58h19l-29 -162h-15c-38 0 -62 -23 -67 -51c-7 -40 19 -70 133 -70zM1197 315c-18 -102 -76 -184 -168 -237l-74 -417h-181l16 91c-35 -31 -80 -46 -134 -44c-128 5 -189 107 -171 212c10 58 36 104 74 135c-34 16 -61 38 -80 63c-45 -31 -99 -48 -158 -48
c-125 0 -231 63 -209 185c6 35 21 65 45 89h-111l28 159h374l-28 -159h-46c-28 0 -58 -16 -65 -51c-6 -36 22 -53 63 -52c45 1 79 31 101 67c21 35 53 61 94 79v4c-43 15 -71 54 -58 130l9 50h-494l30 169h1269l-30 -169h-168l-10 -56c68 -32 99 -103 82 -200z" />
    <glyph glyph-name="dvC_NA" horiz-adv-x="1289" 
d="M699 210c33 0 60 23 66 56c5 32 -13 56 -46 56c-34 0 -63 -24 -68 -56c-6 -33 14 -56 48 -56zM1335 571h-76l-101 -571h-204l57 322h-92c6 -24 8 -51 2 -85c-23 -133 -136 -198 -244 -198c-81 0 -147 34 -183 90c-48 -38 -108 -59 -173 -59c-122 0 -231 63 -209 185
c6 35 21 65 45 89h-111l28 159h374l-28 -159h-46c-28 0 -58 -16 -65 -51c-6 -36 22 -53 63 -52c51 1 86 29 105 77c41 123 152 173 278 173h286l14 80h-1031l30 169h1311z" />
    <glyph glyph-name="dvC_MA" horiz-adv-x="1324" 
d="M1071 471l18 100h-95l-17 -100h94zM690 208c37 0 55 26 61 58l7 39h-38c-36 0 -65 -16 -71 -49s17 -48 41 -48zM1370 571h-76l-101 -571h-205l54 305h-94l-5 -28c-26 -146 -123 -241 -281 -241c-87 0 -151 32 -183 86c-47 -34 -103 -52 -169 -52c-124 0 -220 64 -198 185
c6 35 21 65 45 89h-111l28 159h374l-28 -159h-46c-28 0 -58 -16 -65 -51c-6 -35 20 -53 59 -53c49 0 86 27 108 71c44 111 153 160 267 160h44l17 100h-780l30 169h1346z" />
    <glyph glyph-name="dvC_YA" horiz-adv-x="1217" 
d="M790 232c90 0 144 63 158 143v0l35 196h-111l-13 -69c-15 -87 -60 -168 -171 -188c-3 -44 30 -82 102 -82zM1263 571h-76l-101 -571h-204l21 120c-45 -36 -104 -57 -175 -57c-90 0 -160 32 -201 86c-53 -51 -122 -79 -206 -79c-124 0 -231 60 -209 185c6 35 21 65 45 89
h-111l28 159h374l-28 -159h-46c-28 0 -58 -16 -65 -51c-6 -36 22 -54 63 -53c62 2 101 45 121 122c4 17 9 34 14 52h8c114 0 138 60 150 126l6 31h-647l30 169h1239z" />
    <glyph glyph-name="dvCH_YA" horiz-adv-x="1332" 
d="M373 189c140 0 211 43 228 136c5 29 1 58 -24 58s-40 -24 -46 -56c-4 -22 -4 -46 -2 -67h-166c-2 19 -3 51 4 90c22 125 123 182 238 182c64 0 112 -20 142 -57c24 13 32 34 36 57l7 39h-488l-7 -41c-6 -33 1 -58 37 -58h19l-29 -162h-15c-38 0 -62 -23 -67 -51
c-7 -40 19 -70 133 -70zM905 232c83 0 143 61 158 143v0l35 196h-111l-13 -69c-15 -88 -85 -171 -186 -189c13 -50 46 -81 117 -81zM1378 571h-75l-101 -571h-205l20 114c-41 -32 -94 -51 -158 -51c-81 0 -142 24 -181 66c-75 -71 -190 -113 -338 -113
c-202 0 -338 90 -308 235c14 66 54 110 115 136v4c-43 15 -71 54 -58 130l9 50h-75l30 169h1355z" />
    <glyph glyph-name="dvCH_R_YA" horiz-adv-x="1332" 
d="M373 189c140 0 211 43 228 136c5 29 1 58 -24 58s-40 -24 -46 -56c-4 -22 -4 -46 -2 -67h-166c-2 19 -3 51 4 90c22 125 123 182 238 182c64 0 112 -20 142 -57c24 13 32 34 36 57l7 39h-488l-7 -41c-6 -33 1 -58 37 -58h19l-29 -162h-15c-38 0 -62 -23 -67 -51
c-7 -40 19 -70 133 -70zM905 232c83 0 143 61 158 143v0l35 196h-111l-13 -69c-15 -88 -85 -171 -186 -189c13 -50 46 -81 117 -81zM390 -95l-47 98l-82 -98h-204l123 134c-108 35 -169 110 -148 212c14 66 54 110 115 136v4c-43 15 -71 54 -58 130l9 50h-75l30 169h1355
l-30 -169h-75l-101 -571h-205l20 114c-41 -32 -94 -51 -158 -51c-81 0 -142 24 -181 66c-41 -39 -95 -70 -160 -89l77 -135h-205z" />
    <glyph glyph-name="dvJ_KA" horiz-adv-x="1506" 
d="M879 0l17 97c-34 -35 -82 -54 -140 -54c-119 0 -194 103 -169 240c1 9 3 17 5 25h-68c-28 -134 -131 -228 -279 -228c-153 0 -243 98 -216 246l28 155h205l-28 -156c-8 -44 4 -67 36 -67c31 0 50 23 58 67l28 156h356c36 21 77 32 125 32c59 0 100 -19 123 -51l19 109
h-953l30 169h1526l-30 -169h-377l-19 -107c32 31 76 49 127 49c130 0 188 -112 164 -240c-27 -144 -125 -217 -243 -217c-24 0 -44 2 -70 9l28 158c3 -1 9 -2 15 -2c32 0 59 22 65 57c5 28 -7 62 -48 62c-39 0 -64 -28 -73 -75l-46 -265h-196zM851 214c40 1 70 28 76 60v2
c7 39 -17 65 -55 65c-41 0 -73 -27 -79 -64c-7 -36 18 -64 58 -63z" />
    <glyph glyph-name="dvJ_JA" horiz-adv-x="1436" 
d="M1306 0h-204l54 308h-68c-28 -134 -131 -228 -279 -228c-147 0 -235 90 -219 228h-66c-28 -134 -131 -228 -279 -228c-153 0 -243 98 -216 246l28 155h205l-28 -156c-8 -44 4 -67 36 -67c31 0 50 23 58 67l28 156h470l-28 -156c-8 -44 4 -67 36 -67c31 0 50 23 58 67
l28 156h266l16 90h-1176l30 169h1456l-30 -169h-76z" />
    <glyph glyph-name="dvJx_JxA" horiz-adv-x="1436" 
d="M1306 0h-204l54 308h-68c-28 -134 -131 -228 -279 -228c-147 0 -235 90 -219 228h-66c-28 -134 -131 -228 -279 -228c-153 0 -243 98 -216 246l28 155h205l-28 -156c-8 -44 4 -67 36 -67c31 0 50 23 58 67l28 156h470l-28 -156c-8 -44 4 -67 36 -67c31 0 50 23 58 67
l28 156h266l16 90h-1176l30 169h1456l-30 -169h-76zM190 -189c-63 0 -104 50 -93 112c11 64 70 115 133 115c64 0 105 -51 94 -115c-11 -62 -70 -112 -134 -112zM754 -189c-63 0 -104 50 -93 112c11 64 70 115 133 115c64 0 105 -51 94 -115c-11 -62 -70 -112 -134 -112z
" />
    <glyph glyph-name="dvJ_J_NYA" horiz-adv-x="1417" 
d="M1084 0l56 318h-106c23 -26 34 -63 28 -113c-14 -107 -100 -175 -207 -169c-50 3 -92 16 -118 42l-19 -110h-198l52 294h190c-2 -33 15 -60 56 -60c40 0 63 25 68 53c7 39 -18 63 -51 63h-309c-25 -139 -129 -238 -281 -238c-153 0 -243 98 -216 246l28 155h205l-28 -156
c-8 -44 4 -67 36 -67c31 0 50 23 58 67l28 156h813l16 90h-1159l30 169h1437l-30 -169h-77l-101 -571h-201z" />
    <glyph glyph-name="dvJ_J_YA" horiz-adv-x="1889" 
d="M1462 232c91 0 144 63 158 143v0l35 196h-110l-13 -69c-15 -85 -72 -165 -172 -192c-1 -42 32 -78 102 -78zM1759 0h-205l21 119c-46 -35 -106 -56 -180 -56c-141 0 -230 80 -237 210c-23 -1 -49 -1 -80 -1c-38 -115 -135 -192 -270 -192c-128 0 -215 69 -218 188h-77
c-39 -112 -135 -188 -268 -188c-153 0 -243 97 -216 246l21 115h205l-21 -116c-8 -44 4 -67 36 -67c31 0 50 23 58 67l21 116h470l-21 -116c-8 -44 4 -67 36 -67c31 0 50 23 58 67l21 116h279c114 0 136 48 145 99l6 31h-1317l30 169h1909l-30 -169h-75z" />
    <glyph glyph-name="dvJ_J_VA" horiz-adv-x="1786" 
d="M1416 203c46 0 82 33 90 77s-18 75 -64 75c-49 0 -85 -34 -92 -76s17 -76 66 -76zM1832 571h-76l-100 -571h-199l16 93c-37 -35 -85 -52 -137 -52c-137 0 -210 103 -180 259c0 3 1 5 2 8h-70c-28 -134 -131 -228 -279 -228c-147 0 -235 90 -219 228h-66
c-28 -134 -131 -228 -279 -228c-153 0 -243 98 -216 246l28 155h205l-28 -156c-8 -44 4 -67 36 -67c31 0 50 23 58 67l28 156h470l-28 -156c-8 -44 4 -67 36 -67c31 0 50 23 58 67l28 156h349c38 23 83 36 136 36c58 0 103 -20 133 -52l19 106h-1531l30 169h1806z" />
    <glyph glyph-name="dvJ_JHA" horiz-adv-x="1433" 
d="M827 339h334l41 232h-144l-7 -43v0l-26 -144h-191c-18 0 -31 -8 -34 -23c-2 -14 6 -22 27 -22zM1102 0l33 187h-97c1 -17 0 -35 -3 -55c-16 -89 -87 -152 -186 -152c-44 0 -79 12 -98 25l-16 -94h-192l45 257h183c-5 -28 12 -40 37 -40s42 12 45 33s-11 36 -48 36
c-21 0 -41 0 -68 2c-59 4 -126 35 -141 109h-72c-28 -134 -131 -228 -279 -228c-153 0 -243 98 -216 246l28 155h205l-28 -156c-8 -44 4 -67 36 -67c31 0 50 23 58 67l28 156h298c40 33 95 47 155 47h45l7 43h-835l30 169h1453l-30 -169h-77l-100 -571h-200z" />
    <glyph glyph-name="dvJ_NY_YA" horiz-adv-x="1331" 
d="M904 232c90 0 144 63 158 143v0l35 196h-111l-13 -69c-15 -87 -60 -168 -171 -188c-3 -44 30 -82 102 -82zM310 50c-50 3 -92 16 -118 42l-19 -110h-198l52 294h190c-2 -33 15 -60 56 -60c40 0 63 25 68 53c7 42 -25 57 -51 57h-52l28 162h293c78 0 133 -17 168 -49
c33 23 45 61 52 101l6 31h-759l30 169h1351l-30 -169h-76l-101 -571h-204l21 120c-45 -36 -104 -57 -175 -57c-146 0 -238 83 -243 212c-4 40 -31 51 -71 51h-34c19 -25 29 -60 23 -107c-14 -107 -100 -174 -207 -169z" />
    <glyph glyph-name="dvJ_TTA" horiz-adv-x="1199" 
d="M837 5c-174 0 -284 104 -258 265c2 13 5 26 9 38h-64c-28 -134 -131 -228 -279 -228c-153 0 -243 98 -216 246l28 155h205l-28 -156c-8 -44 4 -67 36 -67c31 0 50 23 58 67l28 156h377c44 22 96 34 155 37l9 53h-871l30 169h1219l-30 -169h-148l-39 -222h-160
c-54 0 -105 -30 -115 -86c-9 -48 18 -82 75 -82c59 0 101 36 110 89h194c-28 -161 -151 -265 -325 -265z" />
    <glyph glyph-name="dvJ_DDA" horiz-adv-x="1096" 
d="M779 -24c-141 0 -256 64 -240 193h203c-3 -34 28 -41 48 -41c27 0 50 11 54 34c4 20 -7 35 -46 35h-32c-59 0 -161 21 -179 111h-63c-28 -134 -131 -228 -279 -228c-153 0 -243 98 -216 246l28 155h205l-28 -156c-8 -44 4 -67 36 -67c31 0 50 23 58 67l28 156h298
c38 30 90 45 146 45h43l9 45h-826l30 169h1116l-29 -169h-95l-33 -187h-189c-18 0 -33 -8 -35 -22c-3 -16 8 -23 26 -23h44c112 0 199 -58 176 -185c-20 -113 -108 -178 -258 -178z" />
    <glyph glyph-name="dvJ_TA" horiz-adv-x="1277" 
d="M1146 0h-204l55 314h-111c-52 0 -93 -30 -101 -76c-8 -44 12 -78 73 -78h16l-28 -159h-29c-129 0 -265 72 -237 247c4 24 10 47 19 67h-74c-26 -138 -129 -235 -280 -235c-153 0 -242 98 -216 246l29 162h205l-29 -163c-8 -44 4 -67 36 -67c31 0 50 23 58 67l29 163h670
l15 83h-1016l30 169h1297l-30 -169h-77z" />
    <glyph glyph-name="dvJ_DA" horiz-adv-x="1168" 
d="M1040 -44h-199l22 123c-30 -23 -69 -35 -115 -35c-103 0 -195 77 -167 237l6 27h-63c-28 -134 -131 -228 -279 -228c-153 0 -243 98 -216 246l28 155h205l-28 -156c-8 -44 4 -67 36 -67c31 0 50 23 58 67l28 156h378v-2c45 21 98 31 155 31h15l11 61h-889l30 169h1188
l-31 -169h-93l-42 -235h-198c-52 0 -85 -29 -92 -70c-7 -38 12 -62 49 -62c39 0 63 28 69 63h189z" />
    <glyph glyph-name="dvJ_NA" horiz-adv-x="1404" 
d="M814 200c33 0 61 23 66 56c5 32 -13 56 -46 56c-34 0 -62 -24 -68 -56c-6 -33 14 -56 48 -56zM1273 0h-204l55 312h-89c5 -23 7 -51 1 -85c-24 -133 -136 -198 -244 -198c-138 0 -235 101 -210 239c3 14 6 27 10 40h-68c-28 -134 -131 -228 -279 -228
c-153 0 -243 98 -216 246l28 155h205l-28 -156c-8 -44 4 -67 36 -67c31 0 50 23 58 67l28 156h798l16 90h-1144l30 169h1424l-30 -169h-76z" />
    <glyph glyph-name="dvJ_BA" horiz-adv-x="1239" 
d="M849 182c23 0 44 6 62 16l-147 114c-3 -8 -6 -16 -7 -24c-12 -65 32 -106 92 -106zM913 0l15 85c-37 -31 -90 -46 -148 -46c-142 0 -223 114 -198 259c1 3 1 7 2 10h-60c-28 -134 -131 -228 -279 -228c-153 0 -243 98 -216 246l28 155h205l-28 -156c-8 -44 4 -67 36 -67
c31 0 50 23 58 67l28 156h347c45 28 100 43 162 43c53 0 99 -11 134 -35l14 82h-987l30 169h1259l-30 -169h-76l-100 -571h-196zM886 395c-23 0 -44 -6 -63 -17l147 -113c2 7 5 15 6 23c10 62 -27 107 -90 107z" />
    <glyph glyph-name="dvJ_MA" horiz-adv-x="1443" 
d="M810 208c37 0 55 28 60 59l7 38h-38c-36 0 -65 -16 -71 -48c-6 -33 15 -49 42 -49zM1190 473l18 98h-95l-17 -98h94zM1312 0h-205l54 305h-94l-5 -27c-26 -146 -120 -242 -281 -242c-137 0 -224 83 -202 208c4 25 11 47 21 67h-75c-27 -136 -131 -231 -278 -231
c-165 0 -243 105 -217 247l25 146h205l-26 -148c-8 -44 4 -67 36 -67c31 0 50 23 58 67l26 148h552l17 98h-899l30 169h1465l-30 -169h-76z" />
    <glyph glyph-name="dvJ_YA" horiz-adv-x="1325" 
d="M898 232c91 0 144 63 158 143v0l35 196h-110l-13 -69c-15 -85 -72 -165 -172 -192c-1 -42 32 -78 102 -78zM1195 0h-205l21 119c-46 -35 -106 -56 -180 -56c-141 0 -230 80 -237 210c-23 -1 -49 -1 -80 -1c-38 -115 -135 -192 -270 -192c-150 0 -243 94 -213 253l19 108
h205l-21 -116c-8 -44 4 -67 36 -67c31 0 50 23 58 67l21 116h279c114 0 136 48 145 99l6 31h-755l30 169h1347l-30 -169h-75z" />
    <glyph glyph-name="dvJx_YA" horiz-adv-x="1325" 
d="M898 232c91 0 144 63 158 143v0l35 196h-110l-13 -69c-15 -85 -72 -165 -172 -192c-1 -42 32 -78 102 -78zM1195 0h-205l21 119c-46 -35 -106 -56 -180 -56c-141 0 -230 80 -237 210c-23 -1 -49 -1 -80 -1c-38 -115 -135 -192 -270 -192c-150 0 -243 94 -213 253l19 108
h205l-21 -116c-8 -44 4 -67 36 -67c31 0 50 23 58 67l21 116h279c114 0 136 48 145 99l6 31h-755l30 169h1347l-30 -169h-75zM190 -189c-63 0 -104 50 -93 112c11 64 70 115 133 115c64 0 105 -51 94 -115c-11 -62 -70 -112 -134 -112z" />
    <glyph glyph-name="dvJ_VA" horiz-adv-x="1222" 
d="M852 203c46 0 82 33 90 77s-18 75 -64 75c-49 0 -85 -34 -92 -76s17 -76 66 -76zM1268 571h-76l-100 -571h-199l16 93c-37 -35 -85 -52 -137 -52c-137 0 -210 103 -180 259c0 3 1 5 2 8h-70c-28 -134 -131 -228 -279 -228c-153 0 -243 98 -216 246l28 155h205l-28 -156
c-8 -44 4 -67 36 -67c31 0 50 23 58 67l28 156h349c38 23 83 36 136 36c58 0 103 -20 133 -52l19 106h-967l30 169h1242z" />
    <glyph glyph-name="dvJH_NA" horiz-adv-x="1389" 
d="M284 339h301c46 108 151 152 270 152h286l14 80h-640l-7 -43v0l-26 -144h-191c-18 0 -31 -8 -34 -23c-2 -14 6 -22 27 -22zM799 210c33 0 60 23 66 56c5 32 -13 56 -46 56c-34 0 -63 -24 -68 -56c-6 -33 14 -56 48 -56zM208 5l-16 -94h-192l45 257h183
c-5 -28 12 -40 37 -40s42 12 45 33s-11 36 -48 36c-21 0 -41 0 -68 2c-75 5 -162 54 -141 177c18 108 108 152 213 152h45l7 43h-286l30 169h1403l-30 -169h-76l-101 -571h-204l57 322h-92c6 -24 8 -51 2 -85c-23 -133 -136 -198 -244 -198c-105 0 -186 59 -208 148h-74
c1 -17 0 -35 -3 -55c-16 -89 -87 -152 -186 -152c-44 0 -79 12 -98 25z" />
    <glyph glyph-name="dvJH_MA" horiz-adv-x="1429" 
d="M1176 471l18 100h-95l-17 -100h94zM795 208c37 0 55 26 61 58l7 39h-38c-36 0 -65 -16 -71 -49s17 -48 41 -48zM284 339h310c50 91 150 132 254 132h44l17 100h-394l-7 -43v0l-26 -144h-191c-18 0 -31 -8 -34 -23c-2 -14 6 -22 27 -22zM208 5l-16 -94h-192l45 257h183
c-5 -28 12 -40 37 -40s42 12 45 33s-11 36 -48 36c-21 0 -41 0 -68 2c-75 5 -162 54 -141 177c18 108 108 152 213 152h45l7 43h-286l30 169h1443l-30 -169h-76l-101 -571h-205l54 305h-94l-5 -28c-26 -146 -123 -241 -281 -241c-118 0 -193 58 -204 151h-68
c1 -17 0 -35 -3 -55c-16 -89 -87 -152 -186 -152c-44 0 -79 12 -98 25z" />
    <glyph glyph-name="dvJH_YA" horiz-adv-x="1303" 
d="M284 339h291l1 6c4 23 10 45 17 69h8c114 0 138 60 150 126l6 31h-242l-7 -43v0l-26 -144h-191c-18 0 -31 -8 -34 -23c-2 -14 6 -22 27 -22zM876 232c90 0 144 63 158 143v0l35 196h-111l-13 -69c-15 -87 -60 -168 -171 -188c-3 -44 30 -82 102 -82zM208 5l-16 -94h-192
l45 257h183c-5 -28 12 -40 37 -40s42 12 45 33s-11 36 -48 36c-21 0 -41 0 -68 2c-75 5 -162 54 -141 177c18 108 108 152 213 152h45l7 43h-286l30 169h1317l-30 -169h-76l-101 -571h-204l21 120c-45 -36 -104 -57 -175 -57c-109 0 -188 47 -223 124h-96
c1 -17 0 -35 -3 -55c-16 -89 -87 -152 -186 -152c-44 0 -79 12 -98 25z" />
    <glyph glyph-name="dvNY_CA" horiz-adv-x="1273" 
d="M1142 0h-204l24 134c-46 -41 -107 -62 -175 -62c-71 0 -126 26 -153 74h-178c-53 -75 -138 -115 -232 -115c-130 0 -223 72 -205 209h192c4 -31 28 -38 45 -38c36 0 62 31 69 72c7 39 -7 71 -43 71c-17 0 -45 -7 -59 -37h-192c30 137 149 210 279 210
c129 0 215 -76 202 -215h124c7 15 17 29 29 41h-111l28 159h374l-28 -159h-46c-28 0 -58 -16 -65 -51c-6 -36 22 -54 64 -53c65 2 106 49 122 129l36 202h-1015l30 169h1295l-30 -169h-76z" />
    <glyph glyph-name="dvNY_CHA" horiz-adv-x="1347" 
d="M892 189c140 0 211 43 228 136c5 29 1 58 -24 58s-40 -24 -46 -56c-4 -22 -4 -46 -2 -67h-166c-2 19 -3 51 4 90c15 88 70 142 140 166l10 55h-215l-7 -41c-6 -33 1 -58 37 -58h19l-29 -162h-15c-38 0 -62 -23 -67 -51c-7 -40 19 -70 133 -70zM859 16
c-175 0 -300 68 -311 180h-64c-47 -107 -147 -165 -260 -165c-130 0 -223 72 -205 209h192c4 -31 28 -38 45 -38c36 0 62 31 69 72c7 39 -7 71 -43 71c-17 0 -45 -7 -59 -37h-192c30 137 149 210 279 210c108 0 185 -53 200 -151h119c11 8 23 14 37 20v4
c-43 15 -71 54 -58 130l9 50h-593l30 169h1368l-30 -169h-168l-10 -56c68 -32 99 -103 82 -200c-32 -179 -186 -299 -437 -299z" />
    <glyph glyph-name="dvNY_JA" horiz-adv-x="1409" 
d="M1279 0h-204l54 308h-68c-28 -134 -131 -228 -279 -228c-102 0 -176 43 -206 116h-92c-47 -107 -147 -165 -260 -165c-130 0 -223 72 -205 209h192c4 -31 28 -38 45 -38c36 0 62 31 69 72c7 39 -7 71 -43 71c-17 0 -45 -7 -59 -37h-192c30 137 149 210 279 210
c108 0 185 -53 200 -151h63l21 114h205l-28 -156c-8 -44 4 -67 36 -67c31 0 50 23 58 67l28 156h266l16 90h-1151l30 169h1431l-30 -169h-76z" />
    <glyph glyph-name="dvNY_SHA" horiz-adv-x="1413" 
d="M783 -6c-144 0 -234 77 -228 202h-71c-47 -107 -147 -165 -260 -165c-130 0 -223 72 -205 209h192c3 -31 28 -38 45 -38c36 0 62 31 69 72c7 39 -8 71 -44 71c-17 0 -44 -7 -58 -37h-192c30 137 149 210 279 210c108 0 184 -53 200 -151h73l12 70h135c77 0 162 14 176 93
c4 23 -5 43 -27 43c-36 0 -50 -38 -50 -73h-203c2 26 7 49 14 71h-616l30 169h769c24 6 51 9 79 9c135 0 236 -82 209 -232c-31 -176 -175 -250 -333 -250h-7l-8 -45c-5 -26 -2 -54 36 -54c33 0 46 24 54 65h198c-18 -151 -107 -239 -268 -239zM1075 0l131 740h283l-30 -169
h-76l-101 -571h-207z" />
    <glyph glyph-name="dvTT_TTA" horiz-adv-x="659" 
d="M24 571l30 169h681l-30 -169h-158l-39 -222h-163c-52 0 -100 -28 -111 -82c-9 -46 17 -80 74 -80c61 0 101 36 110 87h194c-28 -159 -148 -255 -329 -262c-53 -2 -99 -28 -109 -83c-8 -46 18 -80 75 -80c61 0 100 36 109 88h194c-28 -160 -154 -263 -329 -263
c-177 0 -282 99 -255 251c13 71 54 131 115 171c-46 41 -67 103 -53 180c24 134 136 234 307 243l9 52h-322z" />
    <glyph glyph-name="dvTT_TTHA" horiz-adv-x="659" 
d="M24 571l30 169h681l-30 -169h-158l-39 -222h-163c-52 0 -103 -28 -112 -82c-8 -46 18 -80 75 -80c60 0 101 36 110 87h194c-13 -75 -53 -136 -113 -176c45 -39 68 -97 54 -176c-28 -156 -175 -246 -336 -246c-162 0 -275 90 -248 246c14 79 57 137 115 175
c-52 44 -65 110 -53 179c24 134 135 234 306 243l9 52h-322zM247 -154c57 0 95 35 104 85s-17 85 -74 85s-95 -35 -104 -85s17 -85 74 -85z" />
    <glyph glyph-name="dvTT_YA" horiz-adv-x="1330" 
d="M1000 0l15 84c-38 -34 -89 -56 -159 -56c-113 0 -219 64 -187 244c1 6 2 12 3 19h69c24 0 42 9 45 28c4 22 -13 30 -35 30h-409c-54 0 -105 -30 -115 -86c-9 -48 18 -82 75 -82c59 0 101 36 110 89h194c-28 -161 -151 -265 -325 -265s-284 104 -258 265
c25 148 138 240 309 248l9 53h-317l30 169h1352l-30 -169h-77l-100 -571h-199zM925 180c51 0 108 31 125 106l50 285h-559l-11 -62h255c161 0 219 -70 202 -167c-10 -56 -55 -107 -128 -125c6 -20 26 -37 66 -37z" />
    <glyph glyph-name="dvTT_VA" horiz-adv-x="660" 
d="M237 -129c40 0 72 25 83 63l15 82c-22 -3 -45 -4 -69 -4c-51 0 -83 -33 -90 -71c-7 -39 15 -70 61 -70zM24 571l30 169h682l-30 -169h-155l-39 -222h-168c-55 0 -107 -28 -116 -82c-8 -46 20 -80 82 -80c66 0 110 36 119 87h193c-12 -68 -41 -124 -84 -166l-78 -440h-187
l17 97c-38 -33 -87 -50 -141 -50c-134 0 -189 100 -169 212c11 64 47 122 100 161c-49 43 -68 108 -54 186c24 138 141 240 316 246l9 51h-327z" />
    <glyph glyph-name="dvTTH_TTHA" horiz-adv-x="677" 
d="M246 -156c58 0 97 36 106 87s-18 87 -76 87c-57 0 -96 -36 -105 -87s18 -87 75 -87zM306 185c58 0 97 36 106 88c9 50 -17 86 -75 86c-57 0 -97 -36 -106 -86c-9 -52 18 -88 75 -88zM216 -324c-161 0 -275 90 -248 246c13 75 52 130 106 169c-41 43 -59 105 -45 182
c24 134 122 212 233 242l10 56h-248l30 169h699l-30 -169h-250l-10 -56c102 -29 173 -107 150 -242c-13 -77 -53 -139 -108 -182c40 -38 60 -94 47 -169c-28 -156 -175 -246 -336 -246z" />
    <glyph glyph-name="dvTTH_YA" horiz-adv-x="1339" 
d="M301 188c58 0 97 37 106 88s-17 87 -75 87c-56 0 -95 -36 -104 -87s17 -88 73 -88zM937 196c50 0 106 31 124 103l48 272h-641l-9 -50h337c161 0 220 -68 203 -163c-10 -57 -56 -108 -130 -126c7 -19 28 -36 68 -36zM1009 0l18 101c-38 -34 -89 -56 -159 -56
c-112 0 -217 63 -187 243l3 18h69c24 0 41 10 45 29c4 21 -13 29 -34 29h-171c10 -29 12 -63 5 -102c-27 -159 -163 -243 -318 -243c-158 0 -284 97 -254 265c23 138 121 213 232 239l9 48h-243l30 169h1361l-30 -169h-77l-100 -571h-199z" />
    <glyph glyph-name="dvTTH_VA" horiz-adv-x="679" 
d="M313 193c58 0 97 36 106 87s-17 87 -75 87c-57 0 -98 -36 -107 -87s18 -87 76 -87zM246 -116c41 0 75 27 85 63l14 83c-23 -3 -46 -5 -70 -5c-47 0 -81 -30 -89 -72c-7 -39 14 -69 60 -69zM474 -318h-190l17 98c-37 -34 -84 -51 -136 -51c-137 0 -193 95 -172 216
c11 62 43 118 93 155c-43 43 -63 105 -49 184c24 132 121 209 232 238l8 49h-253l30 169h701l-30 -169h-247l-8 -49c101 -28 172 -106 149 -242c-9 -54 -32 -101 -65 -139z" />
    <glyph glyph-name="dvDD_DDA" horiz-adv-x="571" 
d="M24 571l30 169h593l-30 -169h-100l-14 -80v0l-17 -95h-191c-21 0 -34 -5 -37 -20c-3 -17 13 -21 51 -21c140 0 224 -36 203 -158c-19 -108 -125 -167 -289 -167c-25 0 -39 -6 -41 -20c-3 -20 19 -21 55 -21c145 0 234 -34 211 -158c-20 -109 -120 -168 -271 -168
c-140 0 -241 58 -228 172h193c-2 -29 25 -42 56 -42c33 0 54 13 58 36c6 36 -32 36 -63 36c-136 0 -219 37 -200 140c7 41 31 71 66 92c-34 24 -53 60 -45 105h193c1 -24 25 -39 56 -39c33 0 54 14 58 35c6 33 -34 34 -64 34c-137 0 -216 41 -197 150c17 96 103 145 208 145
h52l8 44h-304z" />
    <glyph glyph-name="dvDD_DDHA" horiz-adv-x="579" 
d="M34 571l30 169h591l-30 -169h-99l-14 -80v0l-17 -95h-191c-21 0 -34 -5 -37 -20c-3 -17 13 -21 51 -21c140 0 225 -36 203 -158c-18 -101 -104 -148 -257 -168c-77 -10 -139 -50 -153 -124c-11 -58 13 -109 109 -109c58 0 106 15 114 55c3 15 -4 26 -22 26
c-15 0 -25 -10 -28 -22c-1 -4 -1 -8 1 -12h-130c-1 14 0 29 2 39c16 82 86 126 185 126c112 0 169 -64 154 -155c-19 -118 -121 -189 -293 -189c-166 0 -290 82 -261 247c15 85 63 147 131 182c-38 24 -59 61 -51 109h194c1 -24 25 -39 56 -39c33 0 54 14 58 35
c6 33 -34 34 -64 34c-137 0 -216 41 -197 150c17 96 103 145 208 145h52l8 44h-303z" />
    <glyph glyph-name="dvDD_YA" horiz-adv-x="1233" 
d="M903 0l18 101c-38 -34 -89 -56 -158 -56c-113 0 -220 63 -188 243c1 6 2 12 3 19h62c25 0 50 12 55 38c5 28 -19 39 -40 39h-363c-18 0 -33 -8 -35 -22c-3 -16 8 -23 26 -23h44c112 0 199 -58 176 -185c-20 -113 -108 -178 -258 -178c-141 0 -256 64 -240 193h203
c-3 -34 28 -41 48 -41c27 0 50 11 54 34c4 20 -7 35 -46 35h-32c-71 0 -203 30 -178 172c18 104 107 157 212 157h43l9 45h-291l29 169h1253l-29 -169h-76l-101 -571h-200zM832 196c52 0 111 34 126 115v0l46 260h-490l-8 -50h185c169 0 219 -67 202 -161
c-10 -59 -54 -110 -128 -128c7 -19 26 -36 67 -36z" />
    <glyph glyph-name="dvDD_VA" horiz-adv-x="581" 
d="M390 -348h-170l18 103c-33 -25 -75 -38 -122 -38c-115 0 -177 79 -157 189c12 65 49 121 105 153c-42 31 -63 75 -54 123h194c0 -23 25 -38 56 -38c33 0 55 13 59 38c6 38 -32 40 -78 40c-73 0 -206 17 -181 160c17 96 103 145 208 145h52l8 44h-304l30 169h603l-30 -169
h-110l-14 -80v0l-17 -95h-191c-18 0 -34 -6 -38 -25c-7 -31 30 -23 82 -26c120 -7 189 -53 170 -164c-6 -35 -20 -65 -42 -90zM190 -142c37 0 67 22 76 52l18 103c-15 -1 -30 -2 -45 -2c-54 0 -93 -29 -103 -83c-8 -43 17 -70 54 -70z" />
    <glyph glyph-name="dvDDH_DDHA" horiz-adv-x="679" 
d="M24 571l30 169h701l-30 -169h-185l-29 -162h-119c-81 0 -150 -43 -164 -123c-11 -62 12 -116 108 -116c59 0 110 15 115 54c2 16 -5 27 -22 27c-18 0 -30 -11 -30 -22c0 -4 0 -8 1 -12h-130c0 14 0 28 2 39c15 83 88 126 187 126c117 0 170 -64 154 -155
c-21 -120 -139 -189 -286 -189v0c-81 0 -151 -43 -165 -123c-11 -62 13 -116 109 -116c59 0 106 15 114 55c3 15 -4 26 -22 26c-16 0 -26 -11 -29 -22c-1 -4 0 -8 1 -12h-130c-1 14 0 28 2 39c15 82 87 126 185 126c113 0 172 -64 156 -155c-21 -120 -126 -189 -305 -189
c-170 0 -294 86 -265 247c15 84 63 148 132 187c-54 43 -80 108 -65 194c27 151 155 239 308 239h7l7 37h-343z" />
    <glyph glyph-name="dvDDH_YA" horiz-adv-x="1358" 
d="M1027 0l18 100c-38 -33 -89 -55 -158 -55c-113 0 -220 63 -188 243c1 6 3 13 4 19h56c29 0 56 13 61 40c5 33 -20 45 -46 45h-371c-89 0 -167 -48 -182 -136c-13 -70 14 -130 119 -130c58 0 107 18 115 63c3 17 -7 28 -21 28s-24 -8 -28 -21c-2 -6 -2 -15 -2 -17h-142
c0 15 1 31 3 43c15 90 96 138 203 138c110 0 177 -71 159 -177c-24 -126 -130 -202 -307 -202c-193 0 -324 114 -293 294c30 164 168 255 333 255h6l7 41h-347l30 169h1378l-30 -169h-76l-101 -571h-200zM957 196c50 0 107 32 123 106l48 269h-564l-8 -47h260
c169 0 219 -65 202 -163c-13 -71 -63 -112 -129 -128c8 -20 27 -37 68 -37z" />
    <glyph glyph-name="dvDDH_VA" horiz-adv-x="669" 
d="M24 571l30 169h691l-30 -169h-175l-28 -162h-119c-81 0 -151 -43 -165 -123c-11 -62 12 -116 108 -116c58 0 107 15 114 54c3 16 -4 27 -21 27s-26 -11 -29 -22c-1 -4 -1 -8 1 -12h-130c-1 14 0 28 2 39c15 83 88 126 187 126c116 0 168 -64 152 -155
c-9 -50 -34 -91 -73 -122l-80 -453h-170l24 135c-37 -33 -84 -51 -136 -51c-139 0 -198 91 -178 203c11 64 49 120 104 155c-50 43 -74 111 -58 201c27 151 156 239 309 239h7l6 37h-343zM256 -109c47 0 81 33 88 74v0l14 75c-17 -1 -34 -2 -51 -2c-50 0 -103 -19 -113 -76
c-7 -39 15 -71 62 -71z" />
    <glyph glyph-name="dvNN_TTA" horiz-adv-x="1221" 
d="M302 291c27 0 43 18 48 44l42 236h-82l-42 -236c-5 -26 9 -44 34 -44zM1184 270c-28 -161 -151 -265 -325 -265s-284 104 -258 265c25 148 138 240 309 248l9 53h-327l-39 -217c-22 -131 -106 -234 -264 -234c-152 0 -242 94 -217 234l39 217h-87l30 169h1243l-30 -169
h-148l-39 -222h-160c-54 0 -105 -30 -115 -86c-9 -48 18 -82 75 -82c59 0 101 36 110 89h194z" />
    <glyph glyph-name="dvNN_TTHA" horiz-adv-x="1252" 
d="M885 188c58 0 97 37 106 88s-17 87 -75 87c-56 0 -95 -36 -104 -87s17 -88 73 -88zM302 291c27 0 43 18 48 44l42 236h-82l-42 -236c-5 -26 9 -44 34 -44zM864 19c-158 0 -284 97 -254 265c23 138 121 213 232 239l9 48h-259l-39 -217c-22 -131 -106 -234 -264 -234
c-152 0 -242 94 -217 234l39 217h-87l30 169h1274l-30 -169h-246l-10 -53c102 -32 175 -116 151 -250c-28 -163 -167 -249 -329 -249z" />
    <glyph glyph-name="dvNN_DDA" horiz-adv-x="1146" 
d="M302 291c27 0 43 18 48 44l42 236h-82l-42 -236c-5 -26 9 -44 34 -44zM1087 154c-20 -113 -108 -178 -258 -178c-141 0 -256 64 -240 193h203c-3 -34 28 -41 48 -41c27 0 50 11 54 34c4 20 -7 35 -46 35h-32c-71 0 -203 30 -178 172c18 104 107 157 212 157h43l9 45h-310
l-39 -217c-22 -131 -106 -234 -264 -234c-152 0 -242 94 -217 234l39 217h-87l30 169h1168l-29 -169h-95l-33 -187h-189c-18 0 -33 -8 -35 -22c-3 -16 8 -23 26 -23h44c112 0 199 -58 176 -185z" />
    <glyph glyph-name="dvNN_DDHA" horiz-adv-x="1246" 
d="M302 291c27 0 43 18 48 44l42 236h-82l-42 -236c-5 -26 9 -44 34 -44zM1207 183c-24 -126 -130 -202 -307 -202c-193 0 -324 114 -293 294c30 164 168 255 333 255h6l7 41h-361l-39 -217c-22 -131 -106 -234 -264 -234c-152 0 -242 94 -217 234l39 217h-87l30 169h1268
l-30 -169h-148l-31 -179h-130c-89 0 -167 -48 -182 -136c-13 -70 14 -130 119 -130c58 0 107 18 115 63c3 17 -7 28 -21 28s-24 -8 -28 -21c-2 -6 -2 -15 -2 -17h-142c0 15 1 31 3 43c15 90 96 138 203 138c110 0 177 -71 159 -177z" />
    <glyph glyph-name="dvNN_NNA" horiz-adv-x="1479" 
d="M302 291c27 0 43 18 48 44l42 236h-82l-42 -236c-5 -26 9 -44 34 -44zM860 291c27 0 43 18 48 44l42 236h-82l-42 -236c-5 -26 9 -44 34 -44zM1525 571h-76l-101 -571h-204l101 571h-95l-39 -217c-22 -131 -106 -234 -264 -234c-152 0 -242 94 -217 234l39 217h-77
l-39 -217c-22 -131 -106 -234 -264 -234c-152 0 -242 94 -217 234l39 217h-87l30 169h1501z" />
    <glyph glyph-name="dvNN_MA" horiz-adv-x="1460" 
d="M1207 471l18 100h-95l-17 -100h94zM826 208c37 0 55 26 61 58l7 39h-38c-36 0 -65 -16 -71 -49s17 -48 41 -48zM302 291c27 0 43 18 48 44l42 236h-82l-42 -236c-5 -26 9 -44 34 -44zM1506 571h-76l-101 -571h-205l54 305h-94l-5 -28c-26 -146 -123 -241 -281 -241
c-145 0 -225 88 -202 219c26 150 151 216 283 216h44l17 100h-348l-39 -217c-22 -131 -106 -234 -264 -234c-152 0 -242 94 -217 234l39 217h-87l30 169h1482z" />
    <glyph glyph-name="dvNN_YA" horiz-adv-x="1345" 
d="M1391 571h-76l-101 -571h-204l21 120c-45 -36 -104 -57 -175 -57c-171 0 -268 114 -238 282c4 23 10 45 17 69h8c114 0 138 60 150 126l6 31h-207l-39 -217c-22 -131 -106 -234 -264 -234c-152 0 -242 94 -217 234l39 217h-87l30 169h1367zM302 291c27 0 43 18 48 44
l42 236h-82l-42 -236c-5 -26 9 -44 34 -44zM918 232c90 0 144 63 158 143v0l35 196h-111l-13 -69c-15 -87 -60 -168 -171 -188c-3 -44 30 -82 102 -82z" />
    <glyph glyph-name="dvNN_VA" horiz-adv-x="1249" 
d="M879 203c46 0 82 33 90 77s-18 75 -64 75c-49 0 -85 -34 -92 -76s17 -76 66 -76zM302 291c27 0 43 18 48 44l42 236h-82l-42 -236c-5 -26 9 -44 34 -44zM1295 571h-76l-100 -571h-199l16 93c-37 -35 -85 -52 -137 -52c-137 0 -210 103 -180 259c23 131 112 217 249 217
c58 0 103 -20 133 -52l19 106h-428l-39 -217c-22 -131 -106 -234 -264 -234c-152 0 -242 94 -217 234l39 217h-87l30 169h1271z" />
    <glyph glyph-name="dvT_KA" horiz-adv-x="1324" 
d="M697 0l17 97c-34 -35 -82 -54 -140 -54c-119 0 -194 103 -169 240c2 11 4 21 7 31h-86c-52 0 -93 -30 -101 -76c-8 -44 12 -78 73 -78h16l-28 -159h-29c-129 0 -265 72 -237 247c28 174 175 240 327 240h196c33 16 70 25 112 25c59 0 100 -19 123 -51l19 109h-773l30 169
h1346l-30 -169h-377l-19 -107c32 31 76 49 127 49c130 0 188 -112 164 -240c-27 -144 -125 -217 -243 -217c-24 0 -44 2 -70 9l28 158c3 -1 9 -2 15 -2c32 0 59 22 65 57c5 28 -7 62 -48 62c-39 0 -64 -28 -73 -75l-46 -265h-196zM669 214c40 1 70 28 76 60v2
c7 39 -17 65 -55 65c-41 0 -73 -27 -79 -64c-7 -36 18 -64 58 -63z" />
    <glyph glyph-name="dvT_K_YA" horiz-adv-x="1792" 
d="M993 571l-21 -118c34 31 80 50 134 50c47 0 82 -15 105 -41c16 22 24 49 29 78l6 31h-253zM669 214c40 1 70 28 76 60v2c7 39 -17 65 -55 65c-41 0 -73 -27 -79 -64c-7 -36 18 -64 58 -63zM1365 232c90 0 144 63 158 143v0l35 196h-111l-13 -69
c-15 -87 -60 -168 -171 -188c-3 -44 30 -82 102 -82zM1012 340c-37 -1 -63 -26 -72 -70l-47 -270h-196l17 97c-34 -35 -82 -54 -140 -54c-119 0 -194 103 -169 240c2 11 4 21 7 31h-86c-52 0 -93 -30 -101 -76c-8 -44 12 -78 73 -78h16l-28 -159h-29
c-129 0 -265 72 -237 247c28 174 175 240 327 240h196c33 16 70 25 112 25c59 0 100 -19 123 -51l19 109h-773l30 169h1814l-30 -169h-76l-101 -571h-204l21 120c-45 -36 -104 -57 -175 -57c-152 0 -246 90 -243 228c-2 22 -10 49 -48 49z" />
    <glyph glyph-name="dvT_K_RA" horiz-adv-x="1324" 
d="M697 0l19 110l-140 -156h-218l126 126c-65 33 -96 107 -80 198c2 12 5 24 8 36h-86c-52 0 -93 -30 -101 -76c-8 -44 12 -78 73 -78h16l-28 -159h-29c-129 0 -265 72 -237 247c28 174 175 240 327 240h198c32 16 69 25 110 25c59 0 100 -19 123 -51l19 109h-773l30 169
h1346l-30 -169h-377l-19 -107c32 31 76 49 127 49c130 0 188 -112 164 -240c-27 -144 -125 -217 -243 -217c-24 0 -44 2 -70 9l28 158c3 -1 9 -2 15 -2c32 0 59 22 65 57c5 28 -7 62 -48 62c-39 0 -64 -28 -73 -75l-46 -265h-196zM667 214c39 0 72 27 78 62l2 7
c3 34 -19 58 -57 58c-41 0 -72 -27 -79 -64c-7 -36 14 -63 56 -63z" />
    <glyph glyph-name="dvT_K_VA" horiz-adv-x="1693" 
d="M994 571l-20 -116c33 31 79 48 133 48c29 0 54 -7 73 -19c37 21 81 33 132 33c58 0 103 -20 133 -52l19 106h-470zM670 214c40 1 70 28 76 60v2c7 39 -17 65 -55 65c-41 0 -73 -27 -79 -64c-7 -36 18 -64 58 -63zM1323 203c46 0 82 33 90 77s-18 75 -64 75
c-49 0 -85 -34 -92 -76s17 -76 66 -76zM1739 571h-76l-100 -571h-199l16 93c-37 -35 -85 -52 -137 -52c-132 0 -205 96 -183 243c3 26 -7 56 -47 56c-38 0 -65 -31 -72 -74l-47 -266h-196l17 97c-34 -35 -82 -54 -140 -54c-119 0 -194 103 -169 240c2 11 4 21 7 31h-87
c-52 0 -93 -30 -101 -76c-8 -44 12 -78 73 -78h16l-28 -159h-29c-129 0 -265 72 -237 247c28 174 175 240 327 240h197c33 16 70 25 112 25c59 0 100 -19 123 -51l19 109h-774l30 169h1715z" />
    <glyph glyph-name="dvT_K_SSA" horiz-adv-x="1290" 
d="M679 528c-6 -32 15 -61 65 -59c23 15 39 33 43 56c4 24 -8 51 -46 51c-31 0 -57 -20 -62 -48zM675 -68l25 143c-32 -28 -78 -42 -127 -42c-111 0 -180 69 -161 177l2 13c9 60 -32 91 -82 91c-53 0 -94 -30 -102 -76c-8 -44 12 -78 73 -78h16l-28 -159h-39
c-127 0 -256 70 -224 257c28 163 148 230 282 230c109 0 178 -53 206 -128c17 11 35 21 54 30c-46 28 -81 82 -66 165c1 5 2 11 4 16h-478l29 169h638c25 6 52 9 80 9c119 0 206 -64 184 -186c-7 -39 -24 -70 -48 -96h133l48 273h272l-29 -169h-77l-101 -571h-195l56 321
h-327c-35 -16 -57 -34 -63 -65c-6 -32 15 -55 48 -55c43 0 69 37 74 67h168l-59 -336h-186z" />
    <glyph glyph-name="dvT_KHA" horiz-adv-x="1369" 
d="M1036 0l22 126c-26 -20 -59 -31 -103 -31c-10 0 -20 1 -29 3c-59 -62 -143 -107 -245 -107c-164 0 -259 84 -255 240v0c0 35 -5 83 -87 83c-65 0 -105 -30 -113 -76c-8 -44 12 -78 73 -78h16l-28 -159h-49c-136 0 -249 66 -218 242c30 168 182 249 338 249
c98 0 165 -24 205 -66c34 19 51 52 59 97l8 48h-605l30 169h1390l-30 -169h-76l-100 -571h-203zM717 166c50 0 81 19 98 40c-9 35 -11 75 -4 117c20 116 111 191 217 186c42 -2 72 -14 91 -33l17 95h-301l-13 -77c-22 -126 -96 -205 -192 -226c-9 -56 17 -102 87 -102z
M1028 249c30 0 55 21 61 54c5 27 -9 53 -42 53c-31 0 -57 -19 -63 -53c-6 -36 16 -54 44 -54z" />
    <glyph glyph-name="dvT_KH_RA" horiz-adv-x="1369" 
d="M1036 0l22 126c-26 -20 -59 -31 -103 -31c-10 0 -20 1 -30 3l-203 -228h-217l2 10l121 125c-129 17 -204 95 -202 226v0c0 35 -5 83 -87 83c-65 0 -105 -30 -113 -76c-8 -44 12 -78 73 -78h16l-28 -159h-49c-136 0 -249 66 -218 242c30 168 182 249 338 249
c98 0 165 -24 205 -66c34 19 51 52 59 97l8 48h-605l30 169h1390l-30 -169h-76l-100 -571h-203zM717 166c50 0 81 19 98 40c-9 35 -11 75 -4 117c20 116 111 191 217 186c42 -2 72 -14 91 -33l17 95h-301l-13 -77c-22 -126 -96 -205 -192 -226c-9 -56 17 -102 87 -102z
M1028 249c30 0 55 21 61 54c5 27 -9 53 -42 53c-31 0 -57 -19 -63 -53c-6 -36 16 -54 44 -54z" />
    <glyph glyph-name="dvT_TA" horiz-adv-x="785" 
d="M24 571l30 169h807l-30 -169h-77l-100 -571h-204l55 314h-110c-53 0 -94 -30 -102 -77c-8 -43 13 -77 74 -77h15l-28 -159h-43c-140 0 -250 89 -224 229c6 35 18 64 33 87h-110l30 171h495l15 83h-526z" />
    <glyph glyph-name="dvT_T_YA" horiz-adv-x="1203" 
d="M775 232c90 0 144 63 158 143v0l35 196h-111l-13 -69c-15 -87 -60 -168 -171 -188c-3 -44 30 -82 102 -82zM1071 0h-204l21 120c-45 -36 -104 -57 -175 -57c-131 0 -218 67 -239 173c-12 50 -35 79 -88 79c-52 0 -87 -29 -94 -76c-8 -43 13 -77 74 -77h15l-28 -159h-49
c-134 0 -243 75 -219 216c7 39 21 72 40 99h-116l30 171h335c103 0 171 -22 214 -56c41 22 54 63 62 107l6 31h-633l30 169h1225l-30 -169h-76z" />
    <glyph glyph-name="dvT_T_VA" horiz-adv-x="1107" 
d="M737 203c46 0 82 33 90 77s-18 75 -64 75c-49 0 -85 -34 -92 -76s17 -76 66 -76zM1153 571h-76l-100 -571h-199l16 93c-37 -35 -85 -52 -137 -52c-137 0 -210 103 -180 259c1 5 2 9 3 14h-85c-53 0 -94 -30 -102 -77c-8 -43 13 -77 74 -77h15l-28 -159h-43
c-140 0 -250 89 -224 229c6 35 18 64 33 87h-110l30 171h562c35 19 77 29 124 29c58 0 103 -20 133 -52l19 106h-854l30 169h1129z" />
    <glyph glyph-name="dvT_THA" horiz-adv-x="1203" 
d="M868 0l29 165c-41 -50 -122 -93 -226 -93c-145 0 -239 77 -246 211h-116c-51 0 -81 -24 -88 -62c-6 -34 12 -61 62 -61h30l-28 -159h-55c-133 0 -243 70 -214 234c27 156 163 213 311 213h204c106 0 176 23 188 91c4 21 -6 37 -25 37c-33 0 -43 -39 -40 -70h-183
c1 22 4 44 11 65h-458l29 169h602c22 6 47 9 73 9c128 0 205 -81 181 -216c-21 -118 -110 -218 -288 -228c5 -29 31 -65 110 -65c99 0 191 65 215 204l52 296h281l-29 -169h-77l-101 -571h-204z" />
    <glyph glyph-name="dvT_NA" horiz-adv-x="1224" 
d="M634 210c33 0 60 23 66 56c5 32 -13 56 -46 56c-34 0 -63 -24 -68 -56c-6 -33 14 -56 48 -56zM1093 0h-204l57 322h-92c6 -24 8 -51 2 -85c-23 -133 -136 -198 -244 -198c-138 0 -234 101 -210 239c3 14 6 27 10 39h-86c-52 0 -93 -32 -101 -79c-8 -44 12 -78 73 -78h16
l-28 -159h-29c-129 0 -265 72 -237 247s175 243 327 243h629l14 80h-966l30 169h1246l-30 -169h-76z" />
    <glyph glyph-name="dvT_N_YA" horiz-adv-x="1668" 
d="M627 177c33 0 60 23 66 56c5 32 -13 56 -46 56c-34 0 -63 -24 -68 -56c-6 -33 14 -56 48 -56zM1241 232c90 0 144 63 158 143v0l35 196h-111l-13 -69c-14 -81 -69 -158 -169 -186c8 -48 40 -84 100 -84zM1537 0h-204l20 111c-42 -30 -97 -48 -168 -48
c-147 0 -238 86 -245 226h-93c5 -24 7 -52 2 -85c-23 -133 -128 -198 -244 -198c-138 0 -234 101 -210 239c2 13 6 26 10 38h-103c-40 0 -71 -21 -77 -52c-8 -40 12 -71 73 -71h16l-28 -159h-29c-129 0 -265 70 -237 240c26 157 162 216 303 216h330c10 1 20 1 30 1h289
c114 0 136 39 144 82l6 31h-1098l30 169h1690l-30 -169h-76z" />
    <glyph glyph-name="dvT_PA" horiz-adv-x="1041" 
d="M686 307c50 0 79 35 90 85l31 179h-161l-30 -170c-10 -52 9 -94 70 -94zM911 0h-204l31 177c-34 -26 -77 -41 -130 -41c-120 0 -191 74 -201 178h-81c-52 0 -93 -30 -101 -76c-8 -44 12 -78 73 -78h16l-28 -159h-29c-129 0 -265 72 -237 247c28 174 175 240 327 240h80
l15 83h-418l30 169h1063l-30 -169h-76z" />
    <glyph glyph-name="dvT_P_RA" horiz-adv-x="1041" 
d="M678 307c54 0 86 38 97 85l31 179h-160l-30 -170c-9 -52 7 -94 62 -94zM706 0l32 182l-191 -217h-218l190 193c-68 24 -105 82 -111 156h-82c-52 0 -93 -30 -101 -76c-8 -44 12 -78 73 -78h16l-28 -159h-29c-129 0 -265 72 -237 247c28 174 175 240 327 240h80l15 83
h-418l30 169h1062l-29 -169h-77l-100 -571h-204z" />
    <glyph glyph-name="dvT_P_LA" horiz-adv-x="1616" 
d="M676 307c32 0 57 23 71 52v0c51 111 155 153 250 153c89 0 142 -40 163 -94h3c29 41 71 72 127 86l12 67h-656l-30 -170c-9 -52 5 -94 60 -94zM286 1h-29c-129 0 -265 72 -237 247c28 174 175 240 327 240h80l15 83h-418l30 169h1638l-30 -169h-160l-17 -98
c55 -41 88 -115 69 -222c-27 -151 -143 -251 -317 -246c-7 0 -25 1 -35 2l32 176c5 -1 17 -2 25 -2c40 0 79 26 88 80c8 44 -12 72 -51 72c-49 0 -70 -42 -77 -77l-5 -29h-168l5 29c7 35 0 77 -49 77c-41 0 -69 -28 -77 -72c-9 -52 17 -80 65 -80c7 0 14 1 22 2l-32 -177
c-14 -1 -23 -1 -30 -1c-126 0 -203 59 -226 148c-28 -11 -59 -17 -93 -17c-132 0 -210 74 -223 178h-82c-52 0 -93 -30 -101 -76c-8 -44 12 -78 73 -78h16z" />
    <glyph glyph-name="dvT_PHA" horiz-adv-x="1334" 
d="M676 307c46 0 72 33 82 75l33 189h-145l-31 -181c-10 -46 8 -83 61 -83zM895 0h-204l31 175c-33 -25 -73 -39 -122 -39c-118 0 -187 74 -194 178h-80c-52 0 -93 -30 -101 -76c-8 -44 12 -78 73 -78h16l-28 -159h-29c-129 0 -265 72 -237 247c28 174 175 240 327 240h81
l14 83h-418l30 169h1356l-30 -169h-385l-19 -110c36 33 86 52 145 52c130 0 180 -104 159 -225c-26 -147 -126 -232 -246 -232c-26 0 -52 3 -77 12l27 155c8 -2 16 -3 23 -3c36 0 58 27 64 58c5 31 -6 62 -47 62c-44 0 -75 -33 -85 -89z" />
    <glyph glyph-name="dvT_MA" horiz-adv-x="1258" 
d="M624 208c37 0 55 26 61 58l7 39h-38c-36 0 -65 -16 -71 -49s17 -48 41 -48zM1005 471l18 100h-95l-17 -100h94zM1127 0h-205l54 305h-94l-5 -28c-26 -146 -123 -241 -281 -241c-145 0 -225 88 -202 219c3 15 6 29 11 42h-79c-52 0 -93 -26 -101 -66s12 -71 73 -71h16
l-28 -159h-29c-129 0 -265 70 -237 240c28 167 175 230 327 230h374l17 100h-714l30 169h1280l-30 -169h-76z" />
    <glyph glyph-name="dvT_M_YA" horiz-adv-x="1702" 
d="M621 189c37 0 55 26 61 58l7 39h-38c-36 0 -65 -16 -71 -49s17 -48 41 -48zM1054 452c70 0 88 42 96 88l6 31h-227l-21 -119h146zM1275 232c90 0 144 63 158 143v0l35 196h-111l-13 -69c-19 -104 -76 -170 -171 -188c-3 -44 30 -82 102 -82zM1571 0h-204l21 120
c-45 -36 -104 -57 -178 -57c-146 0 -241 86 -240 223h-91l-5 -28c-26 -146 -123 -241 -281 -241c-145 0 -225 88 -202 219c3 15 6 30 11 43h-100c-40 0 -71 -19 -77 -48c-8 -40 12 -71 73 -71h16l-28 -159h-29c-129 0 -265 70 -237 240c26 154 162 212 303 212h395l21 118
h-715l30 169h1724l-30 -169h-76z" />
    <glyph glyph-name="dvT_YA" horiz-adv-x="1133" 
d="M706 232c90 0 144 63 158 143v0l35 196h-111l-13 -69c-15 -87 -60 -168 -171 -188c-3 -44 30 -82 102 -82zM1002 0h-204l21 120c-45 -36 -104 -57 -175 -57c-131 0 -219 67 -239 175c-11 49 -35 77 -86 77s-86 -30 -94 -76c-8 -44 12 -78 73 -78h16l-28 -159h-45
c-136 0 -251 80 -221 249c30 172 164 238 313 238c80 0 139 -23 179 -60c46 22 61 65 69 111l6 31h-563l30 169h1155l-30 -169h-76z" />
    <glyph glyph-name="dvT_R_YA" horiz-adv-x="1163" 
d="M735 229c88 0 141 58 157 133l37 209h-111l-13 -73c-16 -86 -61 -168 -173 -188v-3v-2v0c1 -42 34 -76 103 -76zM1032 0h-204l19 110c-40 -31 -93 -49 -157 -49c-104 0 -185 38 -228 104l-200 -164h-267l1 8l430 318c-18 14 -43 23 -72 23c-62 0 -115 -35 -127 -104h-204
c25 144 152 266 347 266c77 0 147 -23 196 -70c27 24 38 59 44 95l6 34h-592l30 169h1185l-30 -169h-76z" />
    <glyph glyph-name="dvT_LA" horiz-adv-x="1300" 
d="M286 1h-29c-129 0 -265 72 -237 247c28 174 175 240 327 240h215c38 17 79 24 119 24c89 0 142 -40 163 -94h3c29 41 71 72 127 86l12 67h-962l30 169h1322l-30 -169h-160l-17 -98c55 -41 88 -115 69 -222c-27 -151 -143 -251 -317 -246c-7 0 -25 1 -35 2l32 176
c5 -1 17 -2 25 -2c40 0 79 26 88 80c8 44 -12 72 -51 72c-49 0 -70 -42 -77 -77l-5 -29h-168l5 29c7 35 0 77 -49 77c-41 0 -69 -28 -77 -72c-9 -52 17 -80 65 -80c7 0 14 1 22 2l-32 -177c-14 -1 -23 -1 -30 -1c-177 0 -257 117 -229 268c2 14 6 28 9 41h-88
c-52 0 -93 -30 -101 -76c-8 -44 12 -78 73 -78h16z" />
    <glyph glyph-name="dvT_VA" horiz-adv-x="1040" 
d="M670 203c46 0 82 33 90 77s-18 75 -64 75c-49 0 -85 -34 -92 -76s17 -76 66 -76zM1086 571h-76l-100 -571h-199l16 93c-37 -35 -85 -52 -137 -52c-137 0 -210 103 -180 259c1 5 2 9 3 14h-87c-52 0 -93 -30 -101 -76c-8 -44 12 -78 73 -78h16l-28 -159h-29
c-129 0 -265 72 -237 247c28 174 175 240 327 240h188c35 19 77 29 124 29c58 0 103 -20 133 -52l19 106h-787l30 169h1062z" />
    <glyph glyph-name="dvT_SA" horiz-adv-x="1236" 
d="M869 520c-5 -29 -13 -58 -26 -85h135l24 136h-124zM884 212c-12 -140 -111 -221 -255 -221c-154 0 -225 104 -203 232l2 10c4 34 -10 81 -89 81c-65 0 -105 -30 -113 -76c-8 -44 12 -78 73 -78h16l-28 -159h-39c-135 0 -259 80 -227 256c29 168 171 235 327 235
c105 0 177 -27 218 -76c69 12 90 53 99 104l9 51h-649l30 169h1257l-30 -169h-76l-101 -571h-204l47 269h-312l-12 -68c-3 -19 2 -37 25 -37s34 18 40 48h195z" />
    <glyph glyph-name="dvT_S_NA" horiz-adv-x="1759" 
d="M869 520c-5 -29 -13 -58 -26 -85h187c53 39 121 56 195 56h286l14 80h-647zM1169 210c33 0 60 23 66 56c5 32 -13 56 -46 56c-34 0 -63 -24 -68 -56c-6 -33 14 -56 48 -56zM884 212c-12 -140 -111 -221 -255 -221c-154 0 -225 104 -203 232l2 10c4 34 -10 81 -89 81
c-65 0 -105 -30 -113 -76c-8 -44 12 -78 73 -78h16l-28 -159h-39c-135 0 -259 80 -227 256c29 168 171 235 327 235c105 0 177 -27 218 -76c69 12 90 53 99 104l9 51h-649l30 169h1780l-30 -169h-76l-101 -571h-204l57 322h-92c6 -24 8 -51 2 -85
c-23 -133 -136 -198 -244 -198c-135 0 -230 97 -211 230h-300l-12 -68c-3 -19 2 -37 25 -37s34 18 40 48h195z" />
    <glyph glyph-name="dvT_S_YA" horiz-adv-x="1675" 
d="M975 435c112 0 138 50 148 105l6 31h-252l-9 -51c-5 -29 -13 -58 -26 -85h133zM1248 232c90 0 144 63 158 143v0l35 196h-111l-13 -69c-16 -87 -61 -168 -171 -188c-4 -44 30 -82 102 -82zM883 212c-12 -140 -111 -221 -255 -221c-154 0 -225 104 -203 232l2 10
c4 34 -10 81 -88 81c-65 0 -105 -30 -113 -76c-8 -44 12 -78 73 -78h16l-28 -159h-39c-135 0 -257 80 -227 256c29 168 171 235 327 235c105 0 176 -27 217 -76c69 12 90 53 99 104l9 51h-648l30 169h1696l-30 -169h-76l-101 -571h-204l21 120c-45 -36 -104 -57 -175 -57
c-144 0 -230 80 -241 206h-310l-12 -68c-3 -19 2 -37 25 -37s34 18 40 48h195z" />
    <glyph glyph-name="dvT_S_VA" horiz-adv-x="1577" 
d="M869 520c-5 -29 -13 -58 -26 -85h164c44 52 108 82 189 82c58 0 103 -20 133 -52l19 106h-470zM1207 203c46 0 82 33 90 77s-18 75 -64 75c-49 0 -85 -34 -92 -76s17 -76 66 -76zM1623 571h-76l-100 -571h-199l16 93c-37 -35 -85 -52 -137 -52c-128 0 -200 90 -185 228
h-306l-12 -68c-3 -19 2 -37 25 -37s34 18 40 48h195c-12 -140 -111 -221 -255 -221c-154 0 -225 104 -203 232l2 10c4 34 -10 81 -89 81c-65 0 -105 -30 -113 -76c-8 -44 12 -78 73 -78h16l-28 -159h-39c-135 0 -259 80 -227 256c29 168 171 235 327 235
c105 0 177 -27 218 -76c69 12 90 53 99 104l9 51h-649l30 169h1598z" />
    <glyph glyph-name="dvTH_NA" horiz-adv-x="1332" 
d="M338 71c-244 0 -349 167 -279 377h80c108 0 178 23 188 92c3 20 -7 36 -24 36c-32 0 -44 -35 -41 -70h-183c6 136 108 243 257 243c128 0 205 -81 181 -216c-21 -118 -111 -218 -289 -228c9 -49 68 -65 123 -65c77 0 149 31 173 89v0c43 115 152 162 274 162h286l14 80
h-516l30 169h796l-30 -169h-76l-101 -571h-204l57 322h-91c5 -23 7 -51 1 -85c-24 -133 -136 -198 -244 -198c-82 0 -149 36 -185 93c-59 -40 -129 -61 -197 -61zM742 210c33 0 61 23 66 56c5 32 -13 56 -46 56c-34 0 -62 -24 -68 -56c-6 -33 14 -56 48 -56z" />
    <glyph glyph-name="dvTH_YA" horiz-adv-x="1263" 
d="M1132 0h-204l21 120c-45 -36 -104 -57 -175 -57c-95 0 -167 35 -207 95c-64 -58 -147 -87 -229 -87c-244 0 -349 167 -279 377h80c108 0 178 23 188 92c3 20 -7 36 -24 36c-32 0 -44 -35 -41 -70h-183c6 136 108 243 257 243c128 0 205 -81 181 -216
c-21 -118 -111 -218 -289 -228c9 -49 68 -65 123 -65c84 0 172 48 192 140c2 11 4 23 6 34h12c114 0 138 60 150 126l6 31h-135l30 169h727l-30 -169h-76zM836 232c90 0 144 63 158 143v0l35 196h-111l-13 -69c-15 -87 -60 -168 -171 -188c-3 -44 30 -82 102 -82z" />
    <glyph glyph-name="dvTH_VA" horiz-adv-x="1149" 
d="M338 71c-244 0 -349 167 -279 377h80c108 0 178 23 188 92c3 20 -7 36 -24 36c-32 0 -44 -35 -41 -70h-183c6 136 108 243 257 243c128 0 205 -81 181 -216c-21 -118 -111 -218 -289 -228c9 -49 68 -65 123 -65c81 0 148 44 186 121v0c41 98 131 161 239 156
c56 -2 99 -21 125 -56l19 110h-356l30 169h631l-30 -169h-76l-100 -571h-199l16 93c-37 -35 -85 -52 -137 -52c-79 0 -137 34 -166 93c-57 -42 -126 -63 -195 -63zM779 203c46 0 82 33 90 77s-18 75 -64 75c-49 0 -85 -34 -92 -76s17 -76 66 -76z" />
    <glyph glyph-name="dvD_GA" horiz-adv-x="698" 
d="M50 571l30 169h720l-30 -169h-83l-41 -230h-201c-55 0 -89 -27 -96 -70c-7 -39 12 -67 51 -67c41 0 68 30 74 66h176l-99 -565h-187l67 382c-18 -14 -41 -26 -66 -32l-9 -52c-21 -126 -93 -218 -239 -218c-120 0 -203 63 -180 190c2 10 4 20 7 30h171l-4 -23
c-4 -20 0 -39 24 -39c28 0 36 29 40 52l18 99c-42 40 -58 104 -45 179c28 161 152 237 308 237h16l11 61h-433z" />
    <glyph glyph-name="dvD_G_RA" horiz-adv-x="698" 
d="M24 571l30 169h720l-30 -169h-84l-41 -230h-201c-55 0 -88 -27 -96 -70c-7 -39 12 -67 51 -67c41 0 68 30 75 66h176l-100 -565h-175l13 75l-149 -136h-196l363 305l24 138c-18 -15 -40 -26 -65 -32v-1c-21 -126 -104 -218 -250 -218c-126 0 -182 62 -169 190
c1 10 3 20 6 30h171l-4 -23c-3 -20 0 -39 24 -39c28 0 36 29 40 52l9 48c-42 41 -58 105 -45 179c28 161 152 237 308 237h16l11 61h-432z" />
    <glyph glyph-name="dvD_GHA" horiz-adv-x="937" 
d="M257 5c53 0 94 43 117 112c-25 39 -36 93 -24 164c2 14 6 27 10 39c-17 5 -32 8 -47 8c-31 0 -60 -11 -65 -40s21 -40 48 -40h13l-28 -158h-11c-26 0 -54 -14 -59 -42s14 -43 46 -43zM28 571l30 169h955l-31 -169h-93l-42 -235h-198c-52 0 -84 -29 -92 -70
c-7 -38 12 -62 49 -62c39 0 63 28 69 63h189l-55 -311h-199l22 123c-30 -23 -69 -35 -115 -35c-6 0 -12 0 -18 1c-42 -126 -152 -206 -301 -206c-123 0 -217 68 -196 189c15 87 81 127 135 139l1 5c-50 18 -101 62 -85 152c18 99 100 172 256 172c56 0 111 -16 153 -39
c53 35 121 53 196 53h15l11 61h-656z" />
    <glyph glyph-name="dvD_DA" horiz-adv-x="588" 
d="M272 -108l20 112c-27 -22 -67 -39 -124 -39c-79 0 -170 42 -151 153c11 61 57 111 124 127l1 4c-56 14 -92 60 -81 125c19 106 118 141 221 141h22l10 56h-281l30 169h611l-30 -169h-130l-34 -190h-161c-29 0 -52 -6 -56 -30c-4 -21 15 -30 45 -30h35l-25 -143h-39
c-30 0 -43 -12 -46 -29c-3 -16 7 -34 47 -34c45 0 65 24 69 48h169l-48 -271h-198z" />
    <glyph glyph-name="dvD_DHA" horiz-adv-x="938" 
d="M39 571l29 169h946l-31 -169h-93l-42 -235h-199c-51 0 -85 -29 -92 -70c-7 -38 13 -62 50 -62c38 0 63 28 69 63h189l-55 -311h-199l22 122c-30 -22 -69 -34 -114 -34c-7 0 -14 0 -20 1c-44 -126 -161 -206 -301 -206c-123 0 -218 62 -196 183c15 87 81 132 135 145l1 5
c-50 18 -101 62 -85 152c19 107 115 183 299 170l-29 -166c-41 0 -70 -11 -75 -40s21 -40 48 -40h13l-28 -158h-11c-26 0 -54 -14 -59 -42s12 -43 46 -43c53 0 95 43 117 113c-24 38 -35 92 -23 164c27 145 142 228 307 228h16l11 61h-646z" />
    <glyph glyph-name="dvD_NA" horiz-adv-x="1431" 
d="M372 -325l-92 238h202l97 -238h-207zM841 210c33 0 60 23 66 56c5 32 -13 56 -46 56c-34 0 -63 -24 -68 -56c-6 -33 14 -56 48 -56zM489 -44h-199l22 123c-30 -23 -69 -35 -115 -35c-103 0 -195 77 -167 237c27 152 151 229 308 229h15l11 61h-336l30 169h1449l-30 -169
h-76l-101 -571h-204l57 322h-92c6 -24 8 -51 2 -85c-23 -133 -136 -198 -244 -198c-138 0 -234 101 -210 239c28 152 149 213 288 213h286l14 80h-628l-42 -235h-198c-52 0 -85 -29 -92 -70c-7 -38 12 -62 49 -62c39 0 63 28 69 63h189z" />
    <glyph glyph-name="dvD_BA" horiz-adv-x="631" 
d="M24 571l30 169h653l-30 -169h-90l-40 -230h-201c-55 0 -90 -27 -98 -70c-7 -39 14 -67 52 -67c42 0 68 30 74 66h176l-103 -585h-178l22 122c-40 -44 -93 -65 -151 -65c-141 0 -200 101 -180 215c13 75 59 140 128 178c-32 33 -48 84 -36 156c24 139 147 219 304 219h16
l11 61h-359zM216 -121c21 0 41 8 58 21l-127 96c-6 -10 -10 -21 -12 -33c-9 -50 23 -85 81 -84zM247 49c-15 -1 -28 -4 -41 -8l109 -82c3 7 5 14 6 22v0l20 109c-24 -23 -56 -37 -94 -41z" />
    <glyph glyph-name="dvD_B_RA" horiz-adv-x="631" 
d="M24 571l30 169h653l-30 -169h-90l-41 -230h-201c-55 0 -89 -27 -97 -70c-7 -39 13 -67 51 -67c42 0 68 30 75 66h176l-103 -585h-178l21 122c-2 -2 -4 -5 -6 -7l-144 -157h-208l119 116c-76 33 -106 112 -91 198c13 75 59 140 128 178c-32 33 -48 84 -36 156
c24 139 147 219 304 219h16l11 61h-359zM216 -121c21 0 41 8 58 22l-127 95c-6 -10 -10 -21 -12 -33c-9 -50 23 -85 81 -84zM247 49c-15 -1 -28 -4 -41 -8l109 -82c3 7 5 14 5 16l20 115c-24 -23 -56 -37 -93 -41z" />
    <glyph glyph-name="dvD_BHA" horiz-adv-x="1495" 
d="M372 -325l-92 238h202l97 -238h-207zM28 571l30 169h635l-31 -169h-93l-42 -235h-198c-52 0 -85 -29 -92 -70c-7 -38 12 -62 49 -62c39 0 63 28 69 63h189l-55 -311h-199l22 123c-30 -23 -69 -35 -115 -35c-103 0 -195 77 -167 237c27 152 151 229 308 229h15l11 61h-336
zM857 208c37 0 55 26 61 58l7 39h-37c-37 0 -66 -16 -72 -49s14 -48 41 -48zM830 36c-145 0 -227 86 -203 219c26 150 151 216 284 216h43l11 63c4 24 0 42 -23 42c-20 0 -34 -17 -38 -39c-2 -9 -3 -18 -2 -28h-204c-1 10 0 24 2 36c20 113 108 204 264 204
c175 0 209 -116 184 -253l-4 -25h98l47 269h282l-29 -169h-78l-101 -571h-204l54 305h-98l-5 -28c-26 -146 -122 -241 -280 -241z" />
    <glyph glyph-name="dvD_MA" horiz-adv-x="898" 
d="M180 -211c35 0 54 26 61 65l6 35h-37c-29 0 -66 -9 -74 -52c-5 -27 11 -48 44 -48zM462 54h105l91 517h-130l-41 -234h-198c-28 0 -48 -15 -52 -37s11 -36 39 -36h224zM24 571l30 169h920l-30 -169h-83l-170 -963h-203l50 281h-104l-3 -16c-27 -153 -107 -251 -263 -251
c-136 0 -234 86 -208 225c29 166 165 208 295 208h23l8 47h-59c-124 0 -214 78 -190 212c26 148 131 196 258 196h23l11 61h-305z" />
    <glyph glyph-name="dvD_YA" horiz-adv-x="720" 
d="M287 174c64 0 134 33 154 122l48 275h-99l-21 -119h-53c-24 0 -41 -10 -45 -28c-4 -19 9 -31 35 -31h52l-27 -153h-52c-26 0 -42 -13 -45 -31c-4 -23 12 -35 53 -35zM25 571l30 169h741l-30 -169h-77l-100 -571h-200l16 91c-45 -42 -108 -67 -193 -67
c-122 0 -206 59 -187 163c11 65 55 106 116 123l1 6c-58 13 -88 50 -78 104c12 74 79 100 124 102l8 49h-171z" />
    <glyph glyph-name="dvD_VA" horiz-adv-x="617" 
d="M24 571l30 169h639l-30 -169h-88l-41 -230h-202c-55 0 -88 -27 -96 -70c-7 -39 12 -67 51 -67c41 0 68 30 74 66h176l-99 -565h-187l18 105c-37 -33 -86 -49 -138 -49c-129 0 -181 97 -162 206c12 68 51 127 109 164c-34 33 -52 86 -39 160c25 139 148 219 304 219h16
l11 61h-346zM215 -89c44 1 78 30 85 71l17 100c-22 -18 -51 -29 -83 -33c-45 -5 -73 -34 -80 -71s15 -68 61 -67z" />
    <glyph glyph-name="dvDH_NA" horiz-adv-x="1285" 
d="M292 63c-155 0 -275 64 -251 196c15 86 84 122 134 135l1 4c-57 21 -107 79 -91 174c20 116 105 177 216 177c137 0 202 -85 161 -221h-149c5 21 6 51 -24 51c-18 0 -31 -14 -36 -36c-12 -53 31 -62 68 -62h92l-29 -163h-52c-42 0 -75 -10 -82 -44c-7 -36 39 -43 81 -43
c85 0 120 28 143 88c40 122 151 172 277 172h286l14 80h-502l30 169h782l-30 -169h-76l-101 -571h-204l57 322h-92c6 -24 8 -51 2 -85c-23 -133 -136 -198 -244 -198c-80 0 -146 34 -182 89c-49 -42 -114 -65 -199 -65zM695 210c33 0 60 23 66 56c5 32 -13 56 -46 56
c-34 0 -63 -24 -68 -56c-6 -33 14 -56 48 -56z" />
    <glyph glyph-name="dvDH_N_YA" horiz-adv-x="1725" 
d="M292 63c-155 0 -274 64 -251 196c15 86 84 122 134 135l1 4c-57 21 -107 79 -91 174c20 116 105 177 216 177c137 0 202 -85 161 -221h-149c5 21 6 51 -24 51c-18 0 -31 -14 -36 -36c-12 -53 31 -62 68 -62h92l-29 -163h-52c-42 0 -75 -10 -82 -44c-7 -36 39 -43 81 -43
c82 0 118 33 139 76l6 12v0c49 98 150 139 264 139h289c114 0 136 39 144 82l6 31h-630l30 169h1222l-30 -169h-76l-101 -571h-204l20 111c-42 -30 -97 -48 -168 -48c-147 0 -237 86 -244 226h-94c6 -24 8 -52 2 -85c-24 -133 -128 -198 -244 -198c-88 0 -159 41 -193 107
c-46 -32 -104 -50 -177 -50zM684 177c33 0 61 23 66 56c5 32 -13 56 -46 56c-34 0 -62 -24 -68 -56c-6 -33 14 -56 48 -56zM1298 232c90 0 144 63 158 143v0l35 196h-111l-13 -69c-15 -81 -69 -157 -168 -186c7 -48 39 -84 99 -84z" />
    <glyph glyph-name="dvDH_MA" horiz-adv-x="1324" 
d="M690 208c37 0 55 26 61 58l7 39h-38c-36 0 -65 -16 -71 -49s17 -48 41 -48zM292 63c-155 0 -275 64 -251 196c15 86 84 122 134 135l1 4c-57 21 -107 79 -91 174c20 116 105 177 216 177c137 0 202 -85 161 -221h-149c5 21 6 51 -24 51c-18 0 -31 -14 -36 -36
c-12 -53 31 -62 68 -62h92l-29 -163h-52c-42 0 -75 -10 -82 -44c-7 -36 39 -43 81 -43c82 0 118 26 148 88c46 105 153 152 264 152h44l17 100h-254l30 169h820l-30 -169h-76l-101 -571h-205l54 305h-94l-5 -28c-26 -146 -123 -241 -281 -241c-83 0 -145 29 -178 78
c-49 -33 -113 -51 -192 -51zM1071 471l18 100h-95l-17 -100h94z" />
    <glyph glyph-name="dvDH_YA" horiz-adv-x="1209" 
d="M292 63c-155 0 -275 64 -251 196c15 86 84 122 134 135l1 4c-57 21 -107 79 -91 174c20 116 105 177 216 177c137 0 202 -85 161 -221h-149c5 21 6 51 -24 51c-18 0 -31 -14 -36 -36c-12 -53 31 -62 68 -62h92l-29 -163h-52c-42 0 -78 -10 -82 -44c-4 -36 39 -43 81 -43
c82 0 138 40 151 114c4 23 10 45 17 69h8c114 0 138 60 150 126l6 31h-113l30 169h705l-30 -169h-76l-101 -571h-204l21 120c-45 -36 -104 -57 -175 -57c-88 0 -156 30 -198 82c-52 -52 -128 -82 -230 -82zM782 232c90 0 144 63 158 143v0l35 196h-111l-13 -69
c-15 -87 -60 -168 -171 -188c-3 -44 30 -82 102 -82z" />
    <glyph glyph-name="dvDH_VA" horiz-adv-x="1107" 
d="M292 63c-155 0 -275 64 -251 196c15 86 84 122 134 135l1 4c-57 21 -107 79 -91 174c20 116 105 177 216 177c137 0 202 -85 161 -221h-149c5 21 6 51 -24 51c-18 0 -31 -14 -36 -36c-12 -53 31 -62 68 -62h92l-29 -163h-52c-42 0 -75 -10 -82 -44c-7 -36 39 -43 81 -43
c92 0 131 31 152 97c32 115 121 189 251 189c55 0 99 -18 125 -52l19 106h-328l30 169h603l-30 -169h-76l-100 -571h-199l16 93c-37 -35 -85 -52 -137 -52c-74 0 -130 30 -160 83c-51 -39 -119 -61 -205 -61zM737 203c46 0 82 33 90 77s-18 75 -64 75c-49 0 -85 -34 -92 -76
s17 -76 66 -76z" />
    <glyph glyph-name="dvN_KA" horiz-adv-x="1467" 
d="M254 210c33 0 60 23 66 56c5 32 -13 56 -46 56c-34 0 -63 -24 -68 -56c-6 -33 14 -56 48 -56zM840 0l17 97c-34 -35 -82 -54 -140 -54c-119 0 -194 103 -169 240c2 13 5 26 9 39h-83c5 -24 7 -52 2 -85c-23 -133 -128 -198 -244 -198c-138 0 -234 101 -210 239
c28 152 149 213 288 213h382c31 14 67 22 106 22c59 0 100 -19 123 -51l19 109h-916l30 169h1489l-30 -169h-377l-19 -107c32 31 76 49 127 49c130 0 188 -112 164 -240c-27 -144 -125 -217 -243 -217c-24 0 -44 2 -70 9l28 158c3 -1 9 -2 15 -2c32 0 59 22 65 57
c5 28 -7 62 -48 62c-39 0 -64 -28 -73 -75l-46 -265h-196zM812 214c40 1 70 28 76 60v2c7 39 -17 65 -55 65c-41 0 -73 -27 -79 -64c-7 -36 18 -64 58 -63z" />
    <glyph glyph-name="dvN_K_SA" horiz-adv-x="2002" 
d="M254 210c33 0 60 23 66 56c5 32 -13 56 -46 56c-34 0 -63 -24 -68 -56c-6 -33 14 -56 48 -56zM1249 494c63 0 102 -26 123 -65c37 18 52 51 59 91l9 51h-304l-22 -125c33 30 80 48 135 48zM812 214c40 1 70 28 76 60v2c7 39 -17 65 -55 65c-41 0 -73 -27 -79 -64
c-7 -36 18 -64 58 -63zM1635 520c-5 -29 -13 -58 -26 -85h135l24 136h-124zM1650 212c-12 -140 -111 -221 -255 -221c-154 0 -225 104 -203 232l10 60c4 29 -6 57 -46 57c-38 0 -66 -31 -73 -74l-47 -266h-196l17 97c-34 -35 -82 -54 -140 -54c-119 0 -194 103 -169 240
c2 13 5 26 9 39h-83c5 -24 7 -52 2 -85c-23 -133 -128 -198 -244 -198c-138 0 -234 101 -210 239c28 152 149 213 288 213h382c31 14 67 22 106 22c59 0 100 -19 123 -51l19 109h-916l30 169h2024l-30 -169h-76l-101 -571h-204l47 269h-312l-12 -68c-3 -19 2 -37 25 -37
s34 18 40 48h195z" />
    <glyph glyph-name="dvN_CA" horiz-adv-x="1206" 
d="M1252 571h-76l-101 -571h-204l24 135c-46 -42 -107 -63 -175 -63c-124 0 -189 66 -169 177c5 27 17 52 34 73h-111c5 -24 7 -52 2 -85c-23 -133 -128 -198 -244 -198c-138 0 -234 101 -210 239c28 152 149 213 288 213h577l-28 -159h-46c-35 0 -59 -17 -64 -45
c-5 -32 21 -47 60 -47c75 0 111 50 127 131l36 200h-948l30 169h1228zM254 210c33 0 60 23 66 56c5 32 -13 56 -46 56c-34 0 -63 -24 -68 -56c-6 -33 14 -56 48 -56z" />
    <glyph glyph-name="dvN_CHA" horiz-adv-x="1369" 
d="M254 210c33 0 60 23 66 56c6 32 -13 56 -46 56c-34 0 -62 -24 -68 -56c-6 -33 14 -56 48 -56zM915 189c140 0 211 43 228 136c5 29 1 58 -24 58s-40 -24 -46 -56c-4 -22 -4 -46 -2 -67h-166c-2 19 -3 51 4 90c15 88 70 142 140 166l10 55h-215l-7 -41
c-6 -33 1 -58 37 -58h19l-29 -162h-15c-38 0 -62 -23 -67 -51c-7 -40 19 -70 133 -70zM882 16c-160 0 -278 56 -306 151c-18 51 -36 127 -103 149c6 -23 7 -49 2 -81c-23 -134 -129 -196 -245 -196c-130 0 -231 95 -207 240c26 155 155 212 290 212h50
c148 0 244 -44 292 -122c10 7 22 13 34 18v4c-43 15 -71 54 -58 130l9 50h-615l30 169h1390l-30 -169h-168l-10 -56c68 -32 99 -103 82 -200c-32 -179 -186 -299 -437 -299z" />
    <glyph glyph-name="dvN_TTA" horiz-adv-x="1161" 
d="M254 210c33 0 60 23 66 56c5 32 -13 56 -46 56c-34 0 -63 -24 -68 -56c-6 -33 14 -56 48 -56zM799 5c-174 0 -284 104 -258 265c3 18 7 36 13 52h-80c5 -24 7 -52 2 -85c-23 -133 -128 -198 -244 -198c-138 0 -234 101 -210 239c28 152 149 213 288 213h406v-1
c39 16 84 26 134 28l9 53h-835l30 169h1183l-30 -169h-148l-39 -222h-160c-54 0 -105 -30 -115 -86c-9 -48 18 -82 75 -82c59 0 101 36 110 89h194c-28 -161 -151 -265 -325 -265z" />
    <glyph glyph-name="dvN_DDA" horiz-adv-x="1074" 
d="M254 210c33 0 60 23 66 56c5 32 -13 56 -46 56c-34 0 -63 -24 -68 -56c-6 -33 14 -56 48 -56zM1015 154c-20 -113 -108 -178 -258 -178c-141 0 -256 64 -240 193h203c-3 -34 28 -41 48 -41c27 0 50 11 54 34c4 20 -7 35 -46 35h-32c-62 0 -172 23 -181 125h-89
c5 -24 7 -52 2 -85c-23 -133 -128 -198 -244 -198c-138 0 -234 101 -210 239c28 152 149 213 288 213h336c37 23 83 35 132 35h43l9 45h-806l30 169h1096l-29 -169h-95l-33 -187h-189c-18 0 -33 -8 -35 -22c-3 -16 8 -23 26 -23h44c112 0 199 -58 176 -185z" />
    <glyph glyph-name="dvN_TA" horiz-adv-x="1239" 
d="M254 210c33 0 60 23 66 56c5 32 -13 56 -46 56c-34 0 -63 -24 -68 -56c-6 -33 14 -56 48 -56zM1108 0h-204l55 314h-111c-52 0 -93 -30 -101 -76c-8 -44 12 -78 73 -78h16l-28 -159h-29c-129 0 -265 72 -237 247c4 27 12 52 21 74h-89c5 -24 7 -52 2 -85
c-23 -133 -128 -198 -244 -198c-138 0 -234 101 -210 239c28 150 149 210 288 210h679l15 83h-980l30 169h1261l-30 -169h-77z" />
    <glyph glyph-name="dvN_T_YA" horiz-adv-x="1657" 
d="M254 211c33 0 61 23 66 56c5 32 -13 56 -46 56c-34 0 -62 -24 -68 -56c-6 -33 14 -56 48 -56zM1230 232c90 0 144 63 158 143v0l35 196h-111l-13 -69c-15 -87 -60 -168 -171 -188c-3 -44 30 -82 102 -82zM1526 0h-204l21 120c-45 -36 -104 -57 -175 -57
c-131 0 -219 67 -239 175c-11 49 -35 77 -86 77s-86 -30 -94 -76c-8 -44 12 -78 73 -78h16l-28 -159h-45c-136 0 -251 80 -221 249c5 26 12 50 21 72h-91c6 -24 8 -52 2 -85c-24 -133 -128 -198 -244 -198c-138 0 -236 101 -210 239c28 150 149 210 288 210h540v0h7
c80 0 139 -23 179 -60c46 22 61 65 69 111l6 31h-1087l30 169h1679l-30 -169h-76z" />
    <glyph glyph-name="dvN_T_RA" horiz-adv-x="1214" 
d="M245 162c33 0 60 23 66 56c6 32 -13 56 -46 56c-34 0 -62 -24 -68 -56c-6 -33 14 -56 48 -56zM467 189c-22 -122 -127 -198 -253 -198c-128 0 -222 98 -198 233c27 153 158 215 292 215h318c51 44 118 71 196 71c61 0 110 -17 144 -44l18 105h-960l30 169h1236l-30 -169
h-76l-100 -571h-197l22 126l-153 -125h-267l1 8l430 318c-18 14 -44 23 -72 23c-52 0 -97 -24 -120 -76h-262c5 -24 7 -52 1 -85z" />
    <glyph glyph-name="dvN_T_SA" horiz-adv-x="1758" 
d="M254 210c33 0 60 23 66 56c5 32 -13 56 -46 56c-34 0 -63 -24 -68 -56c-6 -33 14 -56 48 -56zM1391 520c-5 -29 -13 -58 -26 -85h135l24 136h-124zM1406 212c-12 -140 -111 -221 -255 -221c-154 0 -225 104 -203 232l2 10c4 34 -10 81 -89 81c-65 0 -105 -30 -113 -76
c-8 -44 12 -78 73 -78h16l-28 -159h-39c-135 0 -259 80 -227 256c4 25 11 48 20 69h-90c6 -25 9 -54 3 -89c-23 -133 -128 -198 -244 -198c-138 0 -234 101 -210 239c28 153 149 214 288 214h565v0c103 -1 173 -28 213 -76c69 12 90 53 99 104l9 51h-1172l30 169h1780
l-30 -169h-76l-101 -571h-204l47 269h-312l-12 -68c-3 -19 2 -37 25 -37s34 18 40 48h195z" />
    <glyph glyph-name="dvN_THA" horiz-adv-x="1335" 
d="M246 168c33 0 60 24 66 56s-13 56 -46 56c-34 0 -62 -24 -68 -56s14 -56 48 -56zM1000 0l29 165c-41 -50 -122 -93 -226 -93c-144 0 -238 76 -246 209h-91c6 -24 8 -53 2 -87c-24 -135 -130 -197 -250 -197c-124 0 -230 94 -203 241c27 156 159 210 294 210h354
c106 0 176 23 188 91c4 21 -6 37 -25 37c-33 0 -43 -39 -40 -70h-183c1 22 4 44 11 65h-590l30 169h733c22 6 47 9 73 9c128 0 205 -81 181 -216c-21 -118 -110 -218 -288 -228c5 -29 31 -65 110 -65c99 0 191 65 215 204l52 296h281l-29 -169h-77l-101 -571h-204z" />
    <glyph glyph-name="dvN_TH_YA" horiz-adv-x="1787" 
d="M246 168c33 0 60 24 66 56s-13 56 -46 56c-34 0 -62 -24 -68 -56s14 -56 48 -56zM1360 232c90 0 144 63 158 143v0l35 196h-111l-13 -69c-15 -87 -60 -168 -171 -188c-3 -44 30 -82 102 -82zM468 194c-24 -135 -130 -197 -250 -197c-124 0 -230 94 -203 241
c27 155 159 210 294 210h354c108 0 178 23 188 92c3 20 -7 36 -24 36c-32 0 -44 -35 -41 -70h-183c1 23 5 44 11 65h-590l30 169h734c22 6 47 9 72 9c128 0 205 -81 181 -216c-21 -118 -111 -218 -289 -228c9 -49 68 -65 123 -65c84 0 172 48 192 140c2 11 4 23 6 34h12
c114 0 138 60 150 126l6 31h-135l30 169h727l-30 -169h-76l-101 -571h-204l21 120c-45 -36 -104 -57 -175 -57c-95 0 -167 35 -207 95c-64 -58 -147 -87 -229 -87c-174 0 -277 85 -297 210h-99c6 -24 8 -53 2 -87z" />
    <glyph glyph-name="dvN_TH_VA" horiz-adv-x="1673" 
d="M246 168c33 0 60 24 66 56s-13 56 -46 56c-34 0 -62 -24 -68 -56s14 -56 48 -56zM1303 203c46 0 82 33 90 77s-18 75 -64 75c-49 0 -85 -34 -92 -76s17 -76 66 -76zM862 71c-174 0 -277 85 -297 210h-99c6 -24 8 -53 2 -87c-24 -135 -130 -197 -250 -197
c-124 0 -230 94 -203 241c27 155 159 210 294 210h354c108 0 178 23 188 92c3 20 -7 36 -24 36c-32 0 -44 -35 -41 -70h-183c1 23 5 44 11 65h-590l30 169h734c22 6 47 9 72 9c128 0 205 -81 181 -216c-21 -118 -111 -218 -289 -228c9 -49 68 -65 123 -65
c81 0 148 44 186 121v0c41 98 131 161 239 156c56 -2 99 -21 125 -56l19 110h-356l30 169h631l-30 -169h-76l-100 -571h-199l16 93c-37 -35 -85 -52 -137 -52c-79 0 -137 34 -166 93c-57 -42 -126 -63 -195 -63z" />
    <glyph glyph-name="dvN_DA" horiz-adv-x="1131" 
d="M254 210c33 0 60 23 66 56c5 32 -13 56 -46 56c-34 0 -63 -24 -68 -56c-6 -33 14 -56 48 -56zM1008 -44h-199l22 123c-30 -23 -69 -35 -115 -35c-103 0 -195 77 -167 237c3 14 6 28 10 41h-85c5 -24 7 -52 2 -85c-23 -133 -128 -198 -244 -198c-138 0 -234 101 -210 239
c28 152 149 213 288 213h421c39 13 81 19 126 19h15l11 61h-859l30 169h1158l-31 -169h-93l-42 -235h-198c-52 0 -85 -29 -92 -70c-7 -38 12 -62 49 -62c39 0 63 28 69 63h189z" />
    <glyph glyph-name="dvN_D_RA" horiz-adv-x="1139" 
d="M254 210c33 0 60 23 66 56c5 32 -13 56 -46 56c-34 0 -63 -24 -68 -56c-6 -33 14 -56 48 -56zM812 -44l22 123v0l-148 -163h-217l155 154c-56 35 -91 104 -72 211c3 14 6 28 10 41h-88c5 -24 7 -52 2 -85c-23 -133 -128 -198 -244 -198c-138 0 -234 101 -210 239
c28 152 149 213 288 213h424c39 13 81 19 126 19h15l11 61h-862l30 169h1161l-31 -169h-93l-42 -235h-198c-52 0 -85 -29 -92 -70c-7 -38 12 -62 49 -62c39 0 63 28 69 63h189l-55 -311h-199z" />
    <glyph glyph-name="dvN_D_VA" horiz-adv-x="1125" 
d="M254 210c33 0 61 23 66 56c5 32 -13 56 -46 56c-34 0 -62 -24 -68 -56c-6 -33 14 -56 48 -56zM723 -89c44 1 78 30 85 71l17 100c-22 -18 -51 -29 -83 -33c-45 -5 -73 -34 -80 -71s15 -68 61 -67zM946 -295h-187l18 105c-37 -33 -86 -49 -138 -49
c-129 0 -181 97 -162 206c12 68 51 127 109 164c-34 33 -52 86 -39 160c2 11 4 21 7 31h-79c5 -23 7 -51 1 -85c-24 -135 -139 -198 -255 -198c-121 0 -225 79 -199 226c28 156 160 226 295 226h410c38 13 80 19 124 19h16l11 61h-854l30 169h1147l-30 -169h-88l-41 -230
h-202c-55 0 -88 -27 -96 -70c-7 -39 12 -67 51 -67c41 0 68 30 74 66h176z" />
    <glyph glyph-name="dvN_DHA" horiz-adv-x="1276" 
d="M254 210c33 0 60 23 66 56c6 32 -13 56 -46 56c-34 0 -62 -24 -68 -56c-6 -33 14 -56 48 -56zM760 65c-94 0 -171 36 -194 107c-18 46 -33 116 -94 141c7 -24 10 -54 3 -88c-23 -127 -129 -186 -245 -186c-130 0 -232 95 -207 240c26 155 155 212 290 212h41
c147 0 243 -44 291 -121c18 12 37 19 53 24l1 4c-56 21 -107 79 -90 173h-585l29 169h702c22 6 45 9 70 9c137 0 202 -85 161 -221h-149c5 21 6 51 -24 51c-18 0 -31 -14 -36 -36c-11 -53 31 -62 68 -62h92l-29 -163h-52c-42 0 -77 -10 -83 -44c-5 -28 20 -43 70 -43
c91 0 155 61 170 148l34 192v0l29 169h276l-29 -169h-72l-101 -571h-204l24 137c-51 -47 -121 -72 -210 -72z" />
    <glyph glyph-name="dvN_DH_YA" horiz-adv-x="1727" 
d="M254 210c33 0 60 23 66 56c6 32 -13 56 -46 56c-34 0 -62 -24 -68 -56c-6 -33 14 -56 48 -56zM1300 232c90 0 144 63 158 143v0l35 196h-111l-13 -69c-15 -87 -60 -168 -171 -188c-3 -44 30 -82 102 -82zM810 63c-124 0 -226 41 -249 125c-10 31 -32 98 -88 124
c6 -24 8 -53 2 -87c-23 -127 -129 -186 -245 -186c-130 0 -232 95 -207 240c26 155 155 212 290 212h41c145 0 240 -42 288 -117c18 10 35 16 51 20l1 4c-57 21 -107 79 -91 173h-579l29 169h696c22 6 45 9 70 9c137 0 202 -85 161 -221h-149c5 21 6 51 -24 51
c-18 0 -31 -14 -36 -36c-12 -53 31 -62 68 -62h92l-29 -163h-52c-42 0 -78 -10 -82 -44c-4 -36 39 -43 81 -43c82 0 138 40 151 114c4 23 10 45 17 69h8c114 0 138 60 150 126l6 31h-113l30 169h705l-30 -169h-76l-101 -571h-204l21 120c-45 -36 -104 -57 -175 -57
c-88 0 -156 30 -198 82c-52 -52 -128 -82 -230 -82z" />
    <glyph glyph-name="dvN_DH_RA" horiz-adv-x="1278" 
d="M255 210c33 0 59 23 65 56c6 32 -13 56 -46 56c-34 0 -63 -24 -68 -56c-5 -33 15 -56 49 -56zM948 0l24 136l-189 -211h-218l151 150c-79 10 -138 49 -152 114v0c-10 53 -32 100 -87 121c3 -21 4 -45 -1 -73c-22 -134 -129 -198 -245 -198c-118 0 -235 86 -208 238
c25 149 147 214 282 214h58c147 0 241 -43 289 -118c16 10 33 17 48 21l1 4c-56 21 -107 79 -90 173h-586l30 169h702c22 6 45 9 70 9c137 0 202 -85 161 -221h-149c5 21 6 51 -24 51c-18 0 -31 -14 -36 -36c-11 -53 31 -62 68 -62h92l-29 -163h-52c-42 0 -77 -10 -83 -44
c-5 -28 20 -43 70 -43c91 0 155 61 170 148l34 192v0l29 169h276l-29 -169h-72l-101 -571h-204z" />
    <glyph glyph-name="dvN_DH_VA" horiz-adv-x="1630" 
d="M254 210c33 0 60 23 66 56c6 32 -13 56 -46 56c-34 0 -62 -24 -68 -56c-6 -33 14 -56 48 -56zM1260 203c46 0 82 33 90 77s-18 75 -64 75c-49 0 -85 -34 -92 -76s17 -76 66 -76zM815 63c-122 0 -223 40 -248 122c-16 44 -33 108 -95 129c7 -24 9 -54 3 -89
c-23 -127 -129 -186 -245 -186c-130 0 -231 95 -207 240c26 155 155 212 290 212h41c146 0 241 -43 290 -119c18 11 37 18 54 22l1 4c-57 21 -107 79 -91 173h-584l29 169h701c22 6 45 9 70 9c137 0 202 -85 161 -221h-149c5 21 6 51 -24 51c-18 0 -31 -14 -36 -36
c-12 -53 31 -62 68 -62h92l-29 -163h-52c-42 0 -75 -10 -82 -44c-7 -36 39 -43 81 -43c92 0 131 31 152 97c32 115 121 189 251 189c55 0 99 -18 125 -52l19 106h-328l30 169h603l-30 -169h-76l-100 -571h-199l16 93c-37 -35 -85 -52 -137 -52c-74 0 -130 30 -160 83
c-51 -39 -119 -61 -205 -61z" />
    <glyph glyph-name="dvN_NA" horiz-adv-x="1365" 
d="M254 210c33 0 60 23 66 56c5 32 -13 56 -46 56c-34 0 -63 -24 -68 -56c-6 -33 14 -56 48 -56zM775 210c33 0 60 23 66 56c5 32 -13 56 -46 56c-34 0 -63 -24 -68 -56c-6 -33 14 -56 48 -56zM1234 0h-204l57 322h-92c6 -24 8 -51 2 -85c-23 -133 -136 -198 -244 -198
c-138 0 -234 101 -210 239c3 16 7 30 12 44h-81c5 -24 7 -52 2 -85c-23 -133 -128 -198 -244 -198c-138 0 -234 101 -210 239c28 152 149 213 288 213h807l14 80h-1107l30 169h1387l-30 -169h-76z" />
    <glyph glyph-name="dvN_N_YA" horiz-adv-x="1813" 
d="M254 177c33 0 61 23 66 56c5 32 -13 56 -46 56c-34 0 -62 -24 -68 -56c-6 -33 14 -56 48 -56zM775 177c33 0 61 23 66 56c5 32 -13 56 -46 56c-34 0 -62 -24 -68 -56c-6 -33 14 -56 48 -56zM1386 232c90 0 144 63 158 143v0l35 196h-111l-13 -69
c-16 -81 -67 -157 -171 -185c-5 -45 29 -85 102 -85zM1682 0h-204l21 120c-45 -36 -104 -57 -175 -57c-146 0 -236 79 -240 226h-88c5 -23 7 -51 1 -85c-24 -133 -136 -198 -244 -198c-138 0 -235 101 -210 239c3 16 7 30 12 44h-81c6 -24 8 -52 2 -85
c-24 -133 -128 -198 -244 -198c-138 0 -235 101 -210 239c28 152 149 213 288 213h808c114 0 132 39 143 82l6 31h-1243l30 169h1835l-30 -169h-76z" />
    <glyph glyph-name="dvN_PA" horiz-adv-x="1195" 
d="M254 210c33 0 60 23 66 56c5 32 -13 56 -46 56c-34 0 -63 -24 -68 -56c-6 -33 14 -56 48 -56zM840 307c50 0 79 35 90 85l31 179h-161l-30 -170c-10 -52 9 -94 70 -94zM1065 0h-204l31 177c-34 -26 -77 -41 -130 -41c-123 0 -194 77 -201 186h-87c5 -24 7 -52 2 -85
c-23 -133 -128 -198 -244 -198c-138 0 -234 101 -210 239c28 152 149 213 288 213h272l14 80h-572l30 169h1217l-30 -169h-76z" />
    <glyph glyph-name="dvN_P_RA" horiz-adv-x="1197" 
d="M254 210c33 0 60 23 66 56c5 32 -13 56 -46 56c-34 0 -63 -24 -68 -56c-6 -33 14 -56 48 -56zM835 307c54 0 86 38 97 85l31 179h-160l-30 -170c-9 -52 7 -94 62 -94zM863 0l32 182l-191 -217h-218l190 193c-71 25 -107 86 -112 164h-90c5 -24 7 -52 2 -85
c-23 -133 -128 -198 -244 -198c-138 0 -234 101 -210 239c28 152 149 213 288 213h275l14 80h-575l30 169h1219l-29 -169h-77l-100 -571h-204z" />
    <glyph glyph-name="dvN_PHA" horiz-adv-x="1488" 
d="M254 210c33 0 60 23 66 56c5 32 -13 56 -46 56c-34 0 -63 -24 -68 -56c-6 -33 14 -56 48 -56zM830 307c46 0 72 33 82 75l33 189h-145l-31 -181c-10 -46 8 -83 61 -83zM1049 0h-204l31 175c-33 -25 -73 -39 -122 -39c-121 0 -191 78 -195 186h-85c5 -24 7 -52 2 -85
c-23 -133 -128 -198 -244 -198c-138 0 -234 101 -210 239c28 152 149 213 288 213h273l13 80h-572l30 169h1510l-30 -169h-385l-19 -110c36 33 86 52 145 52c130 0 180 -104 159 -225c-26 -147 -126 -232 -246 -232c-26 0 -52 3 -77 12l27 155c8 -2 16 -3 23 -3
c36 0 58 27 64 58c5 31 -6 62 -47 62c-44 0 -75 -33 -85 -89z" />
    <glyph glyph-name="dvN_PH_RA" horiz-adv-x="1490" 
d="M254 210c33 0 60 23 66 56c5 32 -13 56 -46 56c-34 0 -63 -24 -68 -56c-6 -33 14 -56 48 -56zM832 307c46 0 72 33 82 75l33 189h-145l-31 -181c-10 -46 8 -83 61 -83zM847 0l31 175l-175 -210h-218l184 197c-66 27 -104 86 -108 160h-87c5 -24 7 -52 2 -85
c-23 -133 -128 -198 -244 -198c-138 0 -234 101 -210 239c28 152 149 213 288 213h275l13 80h-574l30 169h1512l-30 -169h-385l-19 -110c36 33 86 52 145 52c130 0 180 -104 159 -225c-26 -147 -126 -232 -246 -232c-26 0 -52 3 -77 12l27 155c8 -2 16 -3 23 -3
c36 0 58 27 64 58c5 31 -6 62 -47 62c-44 0 -75 -33 -85 -89l-44 -251h-204z" />
    <glyph glyph-name="dvN_BHA" horiz-adv-x="1414" 
d="M776 208c37 0 55 26 61 58l7 39h-37c-37 0 -66 -16 -72 -49s14 -48 41 -48zM749 36c-145 0 -227 86 -203 219c3 17 7 33 13 48h-85c6 -24 8 -52 2 -85c-24 -133 -128 -198 -244 -198c-138 0 -235 101 -210 239c28 152 149 213 288 213h563l11 62c4 24 0 42 -23 42
c-20 0 -34 -17 -38 -39c-2 -9 -3 -18 -2 -28h-204c-1 10 0 24 2 36c2 9 4 18 6 26h-601l29 169h750c24 6 51 9 80 9c175 0 209 -116 184 -253l-4 -25h98l47 269h282l-29 -169h-78l-101 -571h-204l54 305h-98l-5 -28c-26 -146 -122 -241 -280 -241zM254 191c33 0 61 23 66 56
c5 32 -13 56 -46 56c-34 0 -62 -24 -68 -56c-6 -33 14 -56 48 -56z" />
    <glyph glyph-name="dvN_BH_YA" horiz-adv-x="1833" 
d="M254 191c33 0 61 23 66 56c5 32 -13 56 -46 56c-34 0 -62 -24 -68 -56c-6 -33 14 -56 48 -56zM1406 232c90 0 144 63 158 143v0l35 196h-111l-13 -69c-15 -87 -59 -164 -172 -182c-5 -46 27 -88 103 -88zM776 208c37 0 55 26 61 58l7 39h-37c-37 0 -66 -16 -72 -49
s14 -48 41 -48zM749 36c-145 0 -227 86 -203 219c3 17 7 33 13 48h-85c6 -24 8 -52 2 -85c-24 -133 -128 -198 -244 -198c-138 0 -235 101 -210 239c28 152 149 213 288 213h563l11 62c4 24 0 42 -23 42c-20 0 -34 -17 -38 -39c-2 -9 -3 -18 -2 -28h-204c-1 10 0 24 2 36
c2 9 4 18 6 26h-601l29 169h750c24 6 51 9 80 9c175 0 209 -116 184 -253l-4 -25h125c66 0 83 12 93 69l6 31h-128l29 169h721l-29 -169h-77l-101 -571h-204l21 117c-44 -34 -102 -54 -172 -54c-161 0 -257 94 -246 242h-67l-5 -28c-26 -146 -122 -241 -280 -241z" />
    <glyph glyph-name="dvN_BH_VA" horiz-adv-x="1742" 
d="M254 191c33 0 61 23 66 56c5 32 -13 56 -46 56c-34 0 -62 -24 -68 -56c-6 -33 14 -56 48 -56zM1372 203c46 0 82 33 90 77s-18 75 -64 75c-49 0 -85 -34 -92 -76s17 -76 66 -76zM778 208c37 0 55 26 61 58l7 39h-37c-37 0 -66 -16 -72 -49s14 -48 41 -48zM751 36
c-145 0 -227 86 -203 219c3 17 7 33 13 48h-87c6 -24 8 -52 2 -85c-24 -133 -128 -198 -244 -198c-138 0 -235 101 -210 239c28 152 149 213 288 213h565l11 62c4 24 0 42 -23 42c-20 0 -34 -17 -38 -39c-2 -9 -3 -18 -2 -28h-204c-1 10 0 24 2 36c2 9 4 18 6 26h-603
l29 169h752c24 6 51 9 80 9c175 0 209 -116 184 -253l-4 -25h149c41 30 93 46 155 46c55 0 99 -18 125 -52l19 106h-353l30 169h628l-30 -169h-76l-100 -571h-199l16 93c-37 -35 -85 -52 -137 -52c-137 0 -210 103 -180 259c0 2 1 3 1 5h-77l-5 -28
c-26 -146 -122 -241 -280 -241z" />
    <glyph glyph-name="dvN_MA" horiz-adv-x="1409" 
d="M775 208c37 0 55 26 61 58l7 39h-38c-36 0 -65 -16 -71 -49s17 -48 41 -48zM254 191c33 0 61 23 66 56c5 32 -13 56 -46 56c-34 0 -62 -24 -68 -56c-6 -33 14 -56 48 -56zM1156 471l18 100h-95l-17 -100h94zM1278 0h-205l54 305h-94l-5 -28c-26 -146 -123 -241 -281 -241
c-145 0 -225 88 -202 219c3 17 7 33 13 48h-84c6 -24 8 -52 2 -85c-24 -133 -128 -198 -244 -198c-138 0 -235 101 -210 239c28 152 149 213 288 213h562l17 99h-865l29 169h1432l-30 -169h-76z" />
    </font>
</defs>
</svg>
