<?xml version="1.0" standalone="no"?>
<!DOCTYPE svg PUBLIC "-//W3C//DTD SVG 1.1//EN" "http://www.w3.org/Graphics/SVG/1.1/DTD/svg11.dtd" >
<svg xmlns="http://www.w3.org/2000/svg" xmlns:xlink="http://www.w3.org/1999/xlink" version="1.1">
<metadata>
Created by FontForge 20170910 at Fri Dec 22 02:46:51 2017
 By Jimmy Wärting
Copyright 2014-2017 Indian Type Foundry (info@indiantypefoundry.com)
</metadata>
<defs>
<font id="Poppins-Bold" horiz-adv-x="319" >
  <font-face 
    font-family="Poppins"
    font-weight="700"
    font-stretch="normal"
    units-per-em="1000"
    panose-1="0 0 8 0 0 0 0 0 0 0"
    ascent="800"
    descent="-200"
    x-height="558"
    cap-height="702"
    bbox="-562 -606 2477 1108"
    underline-thickness="50"
    underline-position="-100"
    unicode-range="U+000D-FB02"
  />
<missing-glyph horiz-adv-x="500" 
d="M0 0v700h500v-700h-500zM250 395l170 255h-340zM280 350l170 -255v510zM80 50h340l-170 255zM50 605v-510l170 255z" />
    <glyph glyph-name=".notdef" horiz-adv-x="500" 
d="M0 0v700h500v-700h-500zM250 395l170 255h-340zM280 350l170 -255v510zM80 50h340l-170 255zM50 605v-510l170 255z" />
    <glyph glyph-name="NULL" horiz-adv-x="0" 
 />
    <glyph glyph-name="NULL" horiz-adv-x="0" 
 />
    <glyph glyph-name="CR" unicode="&#xd;" horiz-adv-x="212" 
 />
    <glyph glyph-name="space" unicode=" " horiz-adv-x="212" 
 />
    <glyph glyph-name="dvA" unicode="&#x905;" horiz-adv-x="839" 
d="M268 476c53 0 85 30 85 70c0 43 -30 70 -69 70c-42 0 -73 -27 -73 -68h-145c0 120 87 201 218 201c127 0 209 -72 209 -182c0 -72 -38 -126 -106 -149v-4c19 -5 36 -12 50 -22h164v348h255v-131h-99v-609h-156v263h-98v-9c0 -119 -83 -195 -208 -195
c-141 0 -235 85 -235 211h147c0 -42 30 -76 78 -76s76 31 76 76c0 41 -28 79 -93 79h-45v127h45z" />
    <glyph glyph-name="dvAA" unicode="&#x906;" horiz-adv-x="1155" 
d="M268 476c53 0 85 30 85 70c0 43 -30 70 -69 70c-42 0 -73 -27 -73 -68h-145c0 120 87 201 218 201c127 0 209 -72 209 -182c0 -72 -38 -126 -106 -149v-4c19 -5 36 -12 50 -22h164v348h574v-131h-98v-609h-157v609h-163v-609h-156v263h-98v-9c0 -119 -83 -195 -208 -195
c-141 0 -235 85 -235 211h147c0 -42 30 -76 78 -76s76 31 76 76c0 41 -28 79 -93 79h-45v127h45z" />
    <glyph glyph-name="dvI" unicode="&#x907;" horiz-adv-x="578" 
d="M-21 609v131h621v-131h-131v-184h-185c-33 0 -66 -11 -66 -47c0 -32 26 -45 61 -45h44c102 0 206 -42 206 -179c0 -99 -63 -172 -174 -172c-67 0 -108 32 -125 52v-118h-149v257h141c3 -47 36 -75 87 -75c47 0 71 26 71 60c0 47 -37 64 -87 64c-20 0 -40 0 -63 2
c-81 4 -170 46 -170 156s84 156 184 156h73v73h-338z" />
    <glyph glyph-name="dvII" unicode="&#x908;" horiz-adv-x="578" 
d="M230 34v-118h-149v257h141c3 -47 36 -75 87 -75c47 0 71 26 71 60c0 47 -37 64 -87 64c-20 0 -40 0 -63 2c-81 4 -170 46 -170 156s84 156 184 156h73v73h-338v131h340v64c0 106 44 217 199 217c130 0 199 -80 193 -205h-137c2 48 -19 75 -53 75c-40 0 -56 -29 -56 -85
v-66h135v-131h-131v-184h-185c-33 0 -66 -11 -66 -47c0 -32 26 -45 61 -45h44c102 0 206 -42 206 -179c0 -99 -63 -172 -174 -172c-67 0 -108 32 -125 52z" />
    <glyph glyph-name="dvU" unicode="&#x909;" horiz-adv-x="565" 
d="M-17 609v131h599v-131h-87v-60c0 -83 -39 -135 -92 -148v-3c69 -20 117 -89 117 -177c0 -128 -84 -217 -228 -217c-148 0 -252 88 -252 234h150c0 -54 39 -94 94 -94c54 0 88 37 88 90c0 46 -28 93 -96 93h-60v137h38c53 0 89 30 89 92v53h-360z" />
    <glyph glyph-name="dvUU" unicode="&#x90a;" horiz-adv-x="853" 
d="M-17 609v131h885v-131h-373v-60c0 -83 -39 -135 -92 -148v-3h178c138 0 234 -60 234 -196c0 -110 -71 -183 -191 -183c-19 0 -38 2 -59 6v118c10 -1 21 -1 31 -1c40 0 68 20 68 66c0 45 -34 66 -81 66h-73c5 -19 8 -40 8 -62c0 -118 -84 -208 -226 -208
c-148 0 -252 88 -252 234h150c0 -54 39 -94 94 -94c54 0 88 37 88 90c0 46 -28 93 -96 93h-60v137h38c53 0 89 30 89 92v53h-360z" />
    <glyph glyph-name="dvvR" unicode="&#x90b;" horiz-adv-x="1052" 
d="M477 0v171l-187 -171h-200v7l384 315c-17 46 -59 77 -117 77c-86 0 -137 -57 -137 -141h-157c0 161 91 274 247 274c76 0 130 -26 167 -70v147h-494v131h1086v-131h-448v-158h145c42 0 64 19 64 54v37h135v-350h-27c-57 0 -84 -31 -84 -71c0 -50 41 -68 91 -68
c19 0 41 3 57 7v-125c-21 -4 -53 -7 -78 -7c-127 0 -220 63 -220 179c0 86 50 144 126 168v66c-27 -9 -57 -14 -87 -14h-122v-327h-144z" />
    <glyph glyph-name="dvvRR" unicode="&#x960;" horiz-adv-x="1036" 
d="M477 0v171l-187 -171h-200v7l384 315c-17 46 -59 77 -117 77c-86 0 -137 -57 -137 -141h-157c0 161 91 274 247 274c76 0 130 -26 167 -70v147h-494v131h1088v-131h-450v-158h145c42 0 64 19 64 54v37h135v-354h-36c-38 0 -71 -10 -71 -49c0 -36 34 -47 73 -47h57v-117
h-50c-41 0 -81 -9 -81 -51s43 -51 83 -51c43 0 86 11 102 16v-116c-31 -13 -83 -21 -126 -21c-104 0 -210 42 -210 155c0 63 42 109 100 122v4c-54 12 -99 45 -99 115c0 79 63 114 123 123v70c-27 -9 -57 -14 -87 -14h-122v-327h-144z" />
    <glyph glyph-name="dvvL" unicode="&#x90c;" horiz-adv-x="906" 
d="M-17 609v131h939v-131h-205v-94c78 -29 136 -104 136 -227c0 -36 -5 -70 -16 -100h-6c-77 0 -104 -30 -104 -72c0 -46 42 -66 94 -66c20 0 40 2 58 7v-125c-26 -5 -52 -7 -78 -7c-130 0 -224 63 -224 184c0 78 53 136 119 158c1 7 1 14 1 22c0 59 -30 102 -85 102
c-65 0 -90 -55 -90 -118v-29h-130v29c0 62 -25 118 -88 118c-60 0 -92 -43 -92 -105c0 -78 43 -115 107 -115c6 0 17 0 27 1v-136c-14 -1 -26 -1 -34 -1c-168 0 -259 101 -259 253c0 164 107 241 228 241c94 0 147 -52 172 -114h4c18 45 53 85 108 103v91h-582z" />
    <glyph glyph-name="dvvLL" unicode="&#x961;" horiz-adv-x="916" 
d="M-17 609v131h949v-131h-215v-94c78 -29 136 -104 136 -227c0 -36 -5 -70 -16 -100h-29c-38 0 -72 -10 -72 -49c0 -36 35 -47 74 -47h57v-117h-50c-42 0 -82 -9 -82 -51s44 -51 84 -51c43 0 86 11 102 16v-116c-31 -13 -83 -21 -126 -21c-104 0 -210 42 -210 156
c0 62 42 108 100 121v4c-54 12 -99 45 -99 115c0 73 54 108 110 120c1 7 1 14 1 21c0 59 -30 102 -85 102c-65 0 -90 -55 -90 -118v-29h-130v29c0 62 -25 118 -88 118c-60 0 -92 -43 -92 -105c0 -78 43 -115 107 -115c6 0 17 0 27 1v-136c-14 -1 -26 -1 -34 -1
c-168 0 -259 101 -259 253c0 164 107 241 228 241c94 0 147 -52 172 -114h4c18 45 53 85 108 103v91h-582z" />
    <glyph glyph-name="dvE" unicode="&#x90f;" horiz-adv-x="653" 
d="M-17 609v131h687v-131h-87v-79c0 -151 -62 -234 -237 -211v141c58 -8 84 17 84 74v75h-191v-346c0 -73 38 -110 95 -110c55 0 90 34 90 92h154c0 -144 -96 -226 -241 -226c-170 0 -254 102 -254 250l-1 340h-99z" />
    <glyph glyph-name="dvAI" unicode="&#x910;" horiz-adv-x="653" 
d="M337 19c-170 0 -254 102 -254 250l-1 340h-99v131h443c-76 117 -100 134 -188 134h-52v126h49c156 -1 210 -28 338 -260h97v-131h-87v-79c0 -151 -62 -234 -237 -211v141c58 -8 84 17 84 74v75h-191v-346c0 -73 38 -110 95 -110c55 0 90 34 90 92h154
c0 -144 -96 -226 -241 -226z" />
    <glyph glyph-name="dvO" unicode="&#x913;" horiz-adv-x="1158" 
d="M757 0h-156v263h-98v-9c0 -119 -83 -195 -208 -195c-141 0 -235 85 -235 211h147c0 -42 30 -76 78 -76s76 31 76 76c0 41 -28 79 -93 79h-45v127h45c53 0 85 30 85 70c0 43 -30 70 -69 70c-42 0 -73 -27 -73 -68h-145c0 120 87 201 218 201c127 0 209 -72 209 -182
c0 -72 -38 -126 -106 -149v-4c19 -5 36 -12 50 -22h164v348h320c-76 117 -100 134 -188 134h-52v126h49c156 -1 210 -28 338 -260h107v-131h-98v-609h-157v609h-163v-609z" />
    <glyph glyph-name="dvAU" unicode="&#x914;" horiz-adv-x="1158" 
d="M757 0h-156v263h-98v-9c0 -119 -83 -195 -208 -195c-141 0 -235 85 -235 211h147c0 -42 30 -76 78 -76s76 31 76 76c0 41 -28 79 -93 79h-45v127h45c53 0 85 30 85 70c0 43 -30 70 -69 70c-42 0 -73 -27 -73 -68h-145c0 120 87 201 218 201c127 0 209 -72 209 -182
c0 -72 -38 -126 -106 -149v-4c19 -5 36 -12 50 -22h164v348h328c-105 66 -103 68 -209 68h-54v98h51c94 0 119 -1 192 -57c-73 122 -116 124 -186 124h-57v99h54c153 0 183 -15 347 -332h108v-131h-98v-609h-157v609h-163v-609z" />
    <glyph glyph-name="dvEcandra" unicode="&#x90d;" horiz-adv-x="653" 
d="M-17 609v131h687v-131h-87v-79c0 -151 -62 -234 -237 -211v141c58 -8 84 17 84 74v75h-191v-346c0 -73 38 -110 95 -110c55 0 90 34 90 92h154c0 -144 -96 -226 -241 -226c-170 0 -254 102 -254 250l-1 340h-99zM327 819c-166 0 -239 89 -239 211h135
c0 -52 30 -95 104 -95s105 43 105 95h135c0 -122 -74 -211 -240 -211z" />
    <glyph glyph-name="dvAcandra" unicode="&#x972;" horiz-adv-x="843" 
d="M268 476c53 0 85 30 85 70c0 43 -30 70 -69 70c-42 0 -73 -27 -73 -68h-145c0 120 87 201 218 201c127 0 209 -72 209 -182c0 -72 -38 -126 -106 -149v-4c19 -5 36 -12 50 -22h164v348h255v-131h-99v-609h-156v263h-98v-9c0 -119 -83 -195 -208 -195
c-141 0 -235 85 -235 211h147c0 -42 30 -76 78 -76s76 31 76 76c0 41 -28 79 -93 79h-45v127h45zM687 824c-166 0 -239 89 -239 211h135c0 -52 30 -95 104 -95s105 43 105 95h135c0 -122 -74 -211 -240 -211z" />
    <glyph glyph-name="dvOcandra" unicode="&#x911;" horiz-adv-x="1158" 
d="M268 476c53 0 85 30 85 70c0 43 -30 70 -69 70c-42 0 -73 -27 -73 -68h-145c0 120 87 201 218 201c127 0 209 -72 209 -182c0 -72 -38 -126 -106 -149v-4c19 -5 36 -12 50 -22h164v348h574v-131h-98v-609h-157v609h-163v-609h-156v263h-98v-9c0 -119 -83 -195 -208 -195
c-141 0 -235 85 -235 211h147c0 -42 30 -76 78 -76s76 31 76 76c0 41 -28 79 -93 79h-45v127h45zM842 819c-166 0 -239 89 -239 211h135c0 -52 30 -95 104 -95s105 43 105 95h135c0 -122 -74 -211 -240 -211z" />
    <glyph glyph-name="dvmAA" unicode="&#x93e;" 
d="M81 0v609h-98v131h353v-131h-98v-609h-157z" />
    <glyph glyph-name="dvmI" unicode="&#x93f;" 
d="M238 609v-609h-157v609h-98v131h98c10 177 169 291 417 291c254 0 418 -127 418 -308v-18h-157v15c0 125 -127 183 -261 183c-130 0 -251 -48 -260 -163h98v-131h-98z" />
    <glyph glyph-name="dvmII" unicode="&#x940;" 
d="M-238 705v65c0 151 63 261 240 261c179 0 236 -114 236 -261v-30h98v-131h-98v-609h-157v609h-98v131h103v38c0 51 -11 121 -84 121c-77 0 -88 -70 -88 -121v-73h-152z" />
    <glyph glyph-name="dvmU" unicode="&#x941;" horiz-adv-x="0" 
d="M-211 -340c-130 0 -261 61 -259 233h139c-2 -79 49 -110 116 -110c57 0 91 26 91 71c0 37 -26 67 -79 67h-35v122h35c141 0 212 -74 212 -191c0 -119 -85 -192 -220 -192z" />
    <glyph glyph-name="dvmUU" unicode="&#x942;" horiz-adv-x="0" 
d="M-191 -325c-103 0 -191 58 -191 178c0 117 91 185 217 185c208 0 267 -150 267 -301c0 -20 -1 -38 -2 -56h-127v63c0 114 -46 177 -140 177c-48 0 -89 -22 -89 -69c0 -44 36 -65 76 -65c8 0 17 1 27 1v-112c-13 -1 -25 -1 -38 -1z" />
    <glyph glyph-name="dvmvR" unicode="&#x943;" horiz-adv-x="0" 
d="M-136 -336c-107 0 -221 50 -221 190c0 110 79 186 218 186c10 0 48 -1 58 -2v-105h-45c-52 0 -79 -32 -79 -73c0 -53 44 -71 94 -71c34 0 66 8 83 13v-122c-35 -11 -73 -16 -108 -16z" />
    <glyph glyph-name="dvmvRR" unicode="&#x944;" horiz-adv-x="0" 
d="M-114 -481c-104 0 -210 40 -210 154c0 64 42 109 100 122v4c-54 12 -99 45 -99 115c0 96 92 126 160 126h82v-85h-20c-39 0 -72 -11 -72 -49c0 -36 35 -49 73 -49h58v-115h-49c-43 0 -82 -9 -82 -52c0 -41 43 -50 83 -50c43 0 86 10 102 15v-117
c-31 -12 -83 -19 -126 -19z" />
    <glyph glyph-name="dvmvL" unicode="&#x962;" horiz-adv-x="0" 
d="M102 -477c-99 0 -171 48 -171 140c0 59 40 103 90 119v14c0 44 -21 75 -62 75c-47 0 -65 -40 -65 -86v-22h-101v22c0 46 -18 86 -64 86c-44 0 -67 -31 -67 -77c0 -57 32 -83 78 -83c4 0 13 0 20 2v-107h-26c-126 0 -195 76 -195 190c0 124 81 182 171 182
c71 0 111 -39 130 -85h2c20 46 64 85 136 85c87 0 167 -59 167 -182c0 -27 -5 -52 -12 -75h-6c-59 0 -79 -22 -79 -52c0 -34 32 -49 69 -49c15 0 31 1 44 5v-97c-19 -3 -39 -5 -59 -5z" />
    <glyph glyph-name="dvmvLL" unicode="&#x963;" horiz-adv-x="0" 
d="M192 -592c-23 -9 -62 -14 -95 -14c-79 0 -157 29 -157 116c0 49 31 83 74 92v2c-41 10 -74 37 -74 89c0 55 39 82 81 91v12c0 44 -21 75 -62 75c-47 0 -65 -40 -65 -86v-22h-101v22c0 46 -18 86 -64 86c-44 0 -67 -31 -67 -77c0 -57 32 -83 78 -83c4 0 13 0 20 2v-107
h-26c-126 0 -195 76 -195 190c0 124 81 182 171 182c71 0 111 -39 130 -85h2c20 46 64 85 136 85c87 0 167 -59 167 -182c0 -27 -5 -52 -12 -75h-25c-29 0 -53 -7 -53 -35c0 -26 25 -35 55 -35h42v-90h-36c-33 0 -62 -5 -62 -38c0 -30 32 -36 62 -36c32 0 64 7 76 11v-90z
" />
    <glyph glyph-name="dvmE" unicode="&#x947;" horiz-adv-x="0" 
d="M-230 735c-78 122 -102 139 -191 139h-52v126h49c156 -1 210 -28 341 -265h-147z" />
    <glyph glyph-name="dvmAI" unicode="&#x948;" horiz-adv-x="0" 
d="M-218 737c-110 69 -106 71 -214 71h-54v98h51c94 0 119 -1 192 -57c-73 122 -116 124 -186 124h-57v99h54c153 0 183 -15 349 -335h-135z" />
    <glyph glyph-name="dvmO" unicode="&#x94b;" horiz-adv-x="320" 
d="M238 0h-157v609h-98v131h104c-76 117 -100 134 -188 134h-52v126h49c156 -1 210 -28 338 -260h102v-131h-98v-609z" />
    <glyph glyph-name="dvmAU" unicode="&#x94c;" 
d="M238 0h-157v609h-98v131h108c-105 66 -103 68 -209 68h-54v98h51c94 0 119 -1 192 -57c-73 122 -116 124 -186 124h-57v99h54c153 0 183 -15 347 -332h107v-131h-98v-609z" />
    <glyph glyph-name="dvmEcandra" unicode="&#x945;" horiz-adv-x="0" 
d="M-168 811c-166 0 -239 89 -239 211h135c0 -52 30 -95 104 -95s105 43 105 95h135c0 -122 -74 -211 -240 -211z" />
    <glyph glyph-name="dvmOcandra" unicode="&#x949;" horiz-adv-x="320" 
d="M82 0v609h-98v131h353v-131h-98v-609h-157zM160 811c-166 0 -239 89 -239 211h135c0 -52 30 -95 104 -95s105 43 105 95h135c0 -122 -74 -211 -240 -211z" />
    <glyph glyph-name="dvKA" unicode="&#x915;" horiz-adv-x="965" 
d="M415 0v139c-30 -46 -83 -75 -156 -75c-127 0 -206 97 -206 234c0 138 79 233 212 233c71 0 121 -27 150 -70v148h-432v131h999v-131h-416v-148c29 43 77 70 144 70c128 0 202 -102 202 -229c0 -145 -87 -228 -206 -228c-24 0 -44 2 -68 8v123c7 -2 16 -3 25 -3
c52 0 90 35 90 96c0 56 -36 99 -93 99c-65 0 -94 -50 -94 -109v-288h-151zM313 196c66 0 102 51 102 102c0 52 -35 100 -101 100c-58 0 -102 -40 -102 -101s41 -101 101 -101z" />
    <glyph glyph-name="dvKHA" unicode="&#x916;" horiz-adv-x="960" 
d="M640 231c55 0 83 41 83 87c-1 43 -26 86 -83 86c-48 0 -87 -31 -87 -85c0 -58 38 -88 87 -88zM605 111c-11 0 -21 1 -31 2c-45 -68 -121 -120 -227 -120c-172 0 -282 102 -282 283v127h26c90 0 135 38 135 130v76h-243v131h994v-131h-98v-609h-156v158
c-25 -28 -63 -47 -118 -47zM351 129c55 0 89 22 108 49c-29 37 -46 85 -46 141c0 118 80 204 192 204c55 0 93 -19 118 -48v134h-340v-98c0 -134 -66 -205 -162 -217v-37c0 -73 45 -128 130 -128z" />
    <glyph glyph-name="dvGA" unicode="&#x917;" horiz-adv-x="815" 
d="M577 0v609h-126v-226c0 -120 -61 -214 -205 -214c-133 0 -210 73 -210 206c0 11 0 22 1 32h152v-31c0 -40 12 -73 53 -73c43 0 51 39 51 74v232h-310v131h849v-131h-98v-609h-157z" />
    <glyph glyph-name="dvGHA" unicode="&#x918;" horiz-adv-x="699" 
d="M320 222c79 0 141 52 141 134v253h-226v-40c0 -50 23 -82 90 -82h39v-126h-52c-60 0 -87 -29 -87 -68c0 -48 41 -71 95 -71zM-17 609v131h733v-131h-97v-609h-158v171c-41 -50 -104 -77 -179 -77c-119 0 -216 62 -216 183c0 78 52 128 107 144v3c-54 14 -95 54 -95 138
v47h-95z" />
    <glyph glyph-name="dvNGA" unicode="&#x919;" horiz-adv-x="702" 
d="M609 287c-46 0 -82 37 -82 82c0 46 36 82 82 82s82 -36 82 -82c0 -45 -36 -82 -82 -82zM-17 609v131h736v-131h-246v-184h-185c-32 0 -65 -11 -65 -46c0 -34 27 -46 59 -46h45c102 0 206 -44 206 -175c0 -108 -80 -178 -225 -178s-252 69 -257 193h156
c2 -50 44 -75 96 -75s82 24 82 61c0 45 -36 63 -87 63h-36c-76 0 -197 25 -197 162c0 105 83 151 183 151h74v74h-339z" />
    <glyph glyph-name="dvCA" unicode="&#x91a;" horiz-adv-x="753" 
d="M-17 609v131h787v-131h-98v-609h-157v160c-38 -50 -101 -77 -175 -77c-114 0 -204 70 -204 189c0 48 17 88 49 117h-134v123h369v-123h-41c-55 0 -96 -34 -96 -88c0 -58 47 -89 105 -88c81 1 127 63 127 155v241h-532z" />
    <glyph glyph-name="dvCHA" unicode="&#x91b;" horiz-adv-x="824" 
d="M-17 609v131h858v-131h-188v-81c78 -26 128 -97 128 -203c0 -185 -139 -305 -379 -305c-200 0 -340 72 -340 222c0 81 43 132 109 154v4c-53 13 -94 54 -94 138v71h-94zM403 154c154 0 240 62 240 179c0 54 -26 91 -63 91c-35 0 -63 -27 -63 -80c0 -24 5 -51 13 -76h-129
c-8 24 -14 57 -14 94c0 94 51 147 121 167v80h-274v-64c0 -50 21 -82 80 -82h20v-126h-17c-66 0 -96 -36 -96 -80c0 -64 55 -103 182 -103z" />
    <glyph glyph-name="dvJA" unicode="&#x91c;" horiz-adv-x="860" 
d="M-17 609v131h894v-131h-98v-609h-157v354h-115v-30c0 -131 -86 -224 -226 -224c-151 0 -229 93 -229 224v164h158v-160c0 -56 25 -91 72 -91c46 0 71 35 71 91v160h269v121h-639z" />
    <glyph glyph-name="dvJHA" unicode="&#x91d;" horiz-adv-x="869" 
d="M279 333h355v276h-165v-184h-185c-33 0 -66 -11 -66 -47c0 -32 26 -45 61 -45zM634 0v215h-126c11 -21 17 -47 17 -78c0 -87 -59 -152 -165 -152c-69 0 -110 31 -128 48v-117h-148v253h141c3 -41 34 -69 85 -69c48 0 70 26 70 58c0 39 -27 64 -87 64c-20 0 -40 0 -63 2
c-81 4 -170 46 -170 156s84 156 184 156h73v73h-334v131h903v-131h-98v-609h-154z" />
    <glyph glyph-name="dvNYA" unicode="&#x91e;" horiz-adv-x="835" 
d="M-17 609v131h869v-131h-98v-609h-157v234h-81c-22 -112 -108 -180 -230 -180c-131 0 -224 75 -233 195h148c11 -39 44 -63 87 -63c61 0 93 48 93 108c0 57 -32 107 -93 107c-44 0 -77 -25 -87 -63h-148c8 120 102 196 233 196c117 0 201 -64 228 -168h83v243h-614z" />
    <glyph glyph-name="dvTTA" unicode="&#x91f;" horiz-adv-x="646" 
d="M-17 609v131h680v-131h-173v-208h-137c-79 0 -143 -42 -143 -126c0 -70 50 -119 127 -119c79 0 130 52 130 127h149c0 -159 -107 -263 -275 -263c-169 0 -288 102 -288 256s107 254 283 257v76h-353z" />
    <glyph glyph-name="dvTTHA" unicode="&#x920;" horiz-adv-x="671" 
d="M335 161c78 0 128 52 128 124s-50 123 -128 123c-75 0 -126 -51 -126 -123s51 -124 126 -124zM335 30c-159 0 -282 96 -282 255c0 138 91 221 204 246v78h-274v131h705v-131h-276v-77c115 -25 207 -108 207 -247c0 -159 -124 -255 -284 -255z" />
    <glyph glyph-name="dvDDA" unicode="&#x921;" horiz-adv-x="566" 
d="M-17 609v131h599v-131h-111v-184h-183c-32 0 -65 -11 -65 -46c0 -34 27 -46 59 -46h45c102 0 206 -44 206 -175c0 -108 -80 -178 -225 -178s-252 69 -257 193h156c2 -50 44 -75 96 -75s82 24 82 61c0 45 -36 63 -87 63h-36c-76 0 -197 25 -197 162c0 105 83 151 183 151
h71v74h-336z" />
    <glyph glyph-name="dvDDHA" unicode="&#x922;" horiz-adv-x="655" 
d="M-17 609v131h689v-131h-162v-176h-116c-107 0 -189 -56 -189 -167c0 -91 56 -162 173 -162c72 0 128 32 128 91c0 33 -22 56 -55 56c-28 0 -50 -20 -50 -48c0 -6 1 -12 3 -16h-112c-2 13 -4 27 -4 38c0 89 71 138 170 138c115 0 182 -69 182 -168
c0 -127 -95 -204 -265 -204c-182 0 -322 102 -322 281c0 174 124 269 290 269h19v68h-379z" />
    <glyph glyph-name="dvNNA" unicode="&#x923;" horiz-adv-x="896" 
d="M303 277c43 0 66 30 66 74v258h-134v-258c0 -44 26 -74 68 -74zM-17 609v131h930v-131h-99v-609h-157v609h-134v-244c0 -126 -73 -220 -221 -220c-149 0 -221 98 -221 220v244h-98z" />
    <glyph glyph-name="dvTA" unicode="&#x924;" horiz-adv-x="708" 
d="M-17 609v131h742v-131h-98v-609h-157v357h-125c-80 0 -133 -40 -133 -115c0 -71 41 -117 125 -117h19v-124h-43c-143 0 -260 73 -260 244c0 173 129 247 284 247h133v117h-487z" />
    <glyph glyph-name="dvTHA" unicode="&#x925;" horiz-adv-x="794" 
d="M556 0v190c-30 -56 -105 -108 -217 -108c-171 0 -284 108 -284 285c0 23 1 47 5 72h87c104 0 185 24 185 110c0 37 -22 66 -60 66c-39 0 -63 -26 -63 -69c0 -13 2 -24 4 -35h-142c-2 13 -4 28 -4 39c0 132 95 199 207 199c122 0 206 -80 206 -204
c0 -130 -91 -218 -270 -218h-2c7 -59 50 -114 155 -114c106 0 193 69 193 206v321h255v-131h-98v-609h-157z" />
    <glyph glyph-name="dvDA" unicode="&#x926;" horiz-adv-x="612" 
d="M-17 609v131h646l-1 -131h-114v-214h-178c-73 0 -122 -39 -122 -107c0 -60 37 -99 97 -99c50 0 91 33 91 92h146v-314h-154v147c-28 -31 -73 -49 -128 -49c-112 0 -213 73 -213 227s113 237 266 237h38v80h-374z" />
    <glyph glyph-name="dvDHA" unicode="&#x927;" horiz-adv-x="732" 
d="M297 78c-123 0 -226 61 -226 181c0 87 63 132 116 144v3c-62 19 -124 71 -124 167c0 109 80 176 187 176c116 0 180 -71 180 -169c0 -12 -1 -30 -2 -41h-116c1 11 1 16 1 21c0 34 -22 58 -57 58c-37 0 -59 -27 -59 -62c0 -63 64 -85 126 -85h60v-127h-53
c-61 0 -99 -23 -99 -68c0 -47 42 -70 106 -70c101 0 167 70 167 174v360h252v-131h-95v-609h-157v166c-42 -56 -113 -88 -207 -88z" />
    <glyph glyph-name="dvNA" unicode="&#x928;" horiz-adv-x="823" 
d="M276 202c49 0 83 33 83 81s-34 82 -83 82c-50 0 -85 -34 -85 -82s35 -81 85 -81zM-17 609v131h857v-131h-98v-609h-158v365h-126c15 -27 26 -61 26 -103c0 -127 -97 -193 -210 -193c-119 0 -225 78 -225 213c0 144 109 214 238 214h297v113h-601z" />
    <glyph glyph-name="dvPA" unicode="&#x92a;" horiz-adv-x="677" 
d="M332 292c71 0 107 53 107 117v200h-214v-191c0 -74 33 -126 107 -126zM-17 609v131h711v-131h-98v-609h-157v218c-33 -36 -82 -58 -148 -58c-148 0 -223 110 -223 258v191h-85z" />
    <glyph glyph-name="dvPHA" unicode="&#x92b;" horiz-adv-x="984" 
d="M323 292c66 0 99 50 99 109v208h-197v-199c0 -69 31 -118 98 -118zM-17 609v131h1019v-131h-423v-148c30 42 82 70 152 70c127 0 202 -99 202 -225c0 -147 -86 -232 -206 -232c-25 0 -50 3 -74 10v121c10 -3 22 -4 32 -4c54 0 89 39 89 97c0 56 -36 99 -93 99
c-69 0 -102 -55 -102 -126v-271h-157v216c-31 -35 -77 -56 -139 -56c-142 0 -215 106 -215 250v199h-85z" />
    <glyph glyph-name="dvBA" unicode="&#x92c;" horiz-adv-x="688" 
d="M456 0v126c-32 -41 -89 -67 -160 -67c-139 0 -243 100 -243 245c0 141 103 237 242 237c69 0 124 -24 161 -61v129h-473v131h722v-131h-98v-609h-151zM329 440c-33 0 -63 -10 -87 -28l212 -162c7 17 11 36 11 55c0 72 -51 135 -136 135zM329 171c36 0 65 10 87 28
l-215 161c-7 -17 -11 -36 -11 -56c0 -83 64 -133 139 -133z" />
    <glyph glyph-name="dvBHA" unicode="&#x92d;" horiz-adv-x="853" 
d="M272 194c48 0 72 35 72 87v55h-58c-50 0 -85 -25 -85 -72c0 -45 31 -70 71 -70zM275 61c-132 0 -220 80 -220 203c0 136 102 200 226 200h63v76c0 44 -16 75 -55 75c-33 0 -54 -25 -54 -64c0 -10 1 -21 3 -32h-157c-2 11 -4 25 -4 38c0 109 68 192 206 192
c156 0 207 -105 207 -238v-47h124v276h256v-131h-99v-609h-157v336h-124v-47c0 -141 -73 -228 -215 -228z" />
    <glyph glyph-name="dvMA" unicode="&#x92e;" horiz-adv-x="843" 
d="M256 194c48 0 73 35 73 87v55h-60c-48 0 -83 -25 -83 -72c0 -45 30 -70 70 -70zM604 464v145h-129v-145h129zM-17 609v131h877v-131h-98v-609h-158v336h-129v-47c0 -141 -74 -228 -216 -228c-132 0 -219 80 -219 203c0 136 101 200 225 200h64v145h-346z" />
    <glyph glyph-name="dvYA" unicode="&#x92f;" horiz-adv-x="757" 
d="M360 213c98 0 158 68 158 160v236h-146v-74c0 -103 -45 -177 -161 -191c2 -76 55 -131 149 -131zM-17 609v131h791v-131h-98v-609h-158v156c-41 -45 -105 -74 -192 -74c-174 0 -271 111 -271 282c0 20 1 40 4 60h10c114 0 148 53 148 140v45h-234z" />
    <glyph glyph-name="dvRA" unicode="&#x930;" horiz-adv-x="531" 
d="M-17 609v131h565v-131h-85v-53c0 -146 -57 -256 -240 -256h-5v-100c0 -43 18 -75 61 -75c38 0 60 30 60 71v28h151v-23c0 -127 -76 -210 -208 -210c-145 0 -219 95 -219 217v218h101c107 0 142 50 142 130v53h-323z" />
    <glyph glyph-name="dvLA" unicode="&#x932;" horiz-adv-x="914" 
d="M602 30c-8 0 -20 0 -34 1v137c9 -1 21 -2 27 -2c64 0 107 43 107 115c0 61 -31 105 -90 105c-65 0 -90 -55 -90 -118v-24h-130v24c0 62 -25 118 -88 118c-60 0 -92 -43 -92 -105c0 -72 43 -115 107 -115c6 0 17 1 27 2v-137c-14 -1 -26 -1 -34 -1
c-168 0 -259 107 -259 253c0 164 107 241 228 241c96 0 148 -52 174 -114h3c22 50 60 93 125 108v91h-600v131h948v-131h-194v-106c72 -33 124 -106 124 -220c0 -146 -91 -253 -259 -253z" />
    <glyph glyph-name="dvVA" unicode="&#x935;" horiz-adv-x="667" 
d="M320 187c74 0 113 56 113 111v1c0 58 -39 110 -113 110c-66 0 -113 -45 -113 -110c0 -66 46 -112 113 -112zM684 609h-98v-609h-153v134c-34 -46 -88 -72 -156 -72c-141 0 -224 103 -224 241c0 133 84 232 224 232c68 0 122 -26 156 -70v144h-450v131h701v-131z" />
    <glyph glyph-name="dvSHA" unicode="&#x936;" horiz-adv-x="856" 
d="M307 -7c-151 0 -240 91 -240 234v192h139c88 0 173 27 173 116c0 46 -25 78 -70 78s-70 -32 -70 -79c0 -12 0 -23 1 -34h-157c-1 13 -3 26 -3 39c0 123 88 210 229 210c136 0 229 -80 229 -224c0 -164 -122 -238 -273 -238h-40v-70c0 -48 20 -89 78 -89c46 0 72 34 72 81
v16h152c1 -10 1 -16 1 -18c0 -135 -86 -214 -221 -214zM616 0v740h257v-131h-98v-609h-159z" />
    <glyph glyph-name="dvSSA" unicode="&#x937;" horiz-adv-x="691" 
d="M334 280c57 0 95 29 112 70l-226 151v-88c0 -77 36 -133 114 -133zM456 451v158h-235zM-17 609v131h725v-131h-98v-609h-154v210c-32 -39 -83 -62 -155 -62c-154 0 -233 115 -233 270v191h-85z" />
    <glyph glyph-name="dvSA" unicode="&#x938;" horiz-adv-x="828" 
d="M436 543c0 -43 -8 -82 -24 -115h178v181h-154v-66zM-17 609v131h862v-131h-98v-609h-157v300h-372v-98c0 -43 20 -77 65 -77c41 0 63 31 63 71v13h151c1 -9 1 -17 1 -22c0 -119 -79 -196 -212 -196c-147 0 -223 96 -223 219v202h74c108 0 142 54 142 131v66h-296z" />
    <glyph glyph-name="dvHA" unicode="&#x939;" horiz-adv-x="585" 
d="M542 77c-10 -114 -103 -189 -237 -189c-151 0 -246 92 -246 232c0 78 34 139 90 176c-42 26 -67 65 -67 115c0 78 61 128 162 128h80v70h-341v131h619v-131h-128v-181h-174c-33 0 -62 -13 -62 -48c0 -19 10 -34 27 -43c14 2 29 3 44 3c148 0 221 -81 233 -186h-150
c-7 31 -37 62 -87 62c-53 0 -92 -38 -92 -99c0 -63 39 -100 92 -100c47 0 78 29 87 60h150z" />
    <glyph glyph-name="dvLLA" unicode="&#x933;" horiz-adv-x="961" 
d="M306 187c57 0 98 39 98 98c0 58 -41 100 -98 100c-59 0 -100 -41 -100 -101c0 -59 42 -97 100 -97zM655 187c58 0 100 38 100 97c0 60 -41 101 -99 101c-59 0 -99 -42 -99 -100c0 -59 40 -98 98 -98zM679 53c-88 0 -162 42 -196 116h-5c-34 -74 -108 -116 -195 -116
c-127 0 -230 89 -230 232s103 233 229 233c81 0 151 -33 197 -114h3c34 61 82 95 139 108v97h-638v131h995v-131h-204v-110c79 -33 134 -109 134 -214c0 -143 -103 -232 -229 -232z" />
    <glyph glyph-name="dvK_SSA" horiz-adv-x="861" 
d="M226 543c0 -48 40 -84 104 -85c32 21 54 47 54 83c0 41 -31 74 -79 74c-43 0 -79 -26 -79 -72zM370 -63v150c-21 -28 -65 -55 -127 -55c-109 0 -185 69 -185 172c0 101 68 150 142 188c-61 24 -114 74 -114 163c0 115 94 194 223 194c113 0 205 -59 205 -176
c0 -50 -19 -87 -46 -117h161v284h249v-131h-98v-609h-151v343h-311c-57 -26 -98 -51 -98 -104c0 -44 32 -77 80 -77c55 0 84 44 84 88h130v-313h-144z" />
    <glyph glyph-name="dvJ_NYA" horiz-adv-x="843" 
d="M607 0v377h-137c35 -28 58 -70 58 -129c0 -109 -79 -175 -180 -175c-62 0 -112 22 -143 55v-126h-153v287h147c6 -54 45 -88 99 -88c57 0 87 38 87 84c0 63 -49 92 -102 92h-39v125h363v107h-624v131h877v-131h-98v-609h-155z" />
    <glyph glyph-name="dvKxA" unicode="&#x958;" horiz-adv-x="965" 
d="M415 0v139c-30 -46 -83 -75 -156 -75c-127 0 -206 97 -206 234c0 138 79 233 212 233c71 0 121 -27 150 -70v148h-432v131h999v-131h-416v-148c29 43 77 70 144 70c128 0 202 -102 202 -229c0 -145 -87 -228 -206 -228c-24 0 -44 2 -68 8v123c7 -2 16 -3 25 -3
c52 0 90 35 90 96c0 56 -36 99 -93 99c-65 0 -94 -50 -94 -109v-288h-151zM237 -175c-51 0 -91 39 -91 89c0 52 40 93 91 93c52 0 92 -41 92 -93c0 -50 -40 -89 -92 -89zM313 196c66 0 102 51 102 102c0 52 -35 100 -101 100c-58 0 -102 -40 -102 -101s41 -101 101 -101z
" />
    <glyph glyph-name="dvKHxA" unicode="&#x959;" horiz-adv-x="960" 
d="M605 111c-11 0 -21 1 -31 2c-45 -68 -121 -120 -227 -120c-172 0 -282 102 -282 283v127h26c90 0 135 38 135 130v76h-243v131h994v-131h-98v-609h-156v158c-25 -28 -63 -47 -118 -47zM324 -243c-51 0 -91 39 -91 89c0 52 40 93 91 93c52 0 92 -41 92 -93
c0 -50 -40 -89 -92 -89zM640 231c55 0 83 41 83 87c-1 43 -26 86 -83 86c-48 0 -87 -31 -87 -85c0 -58 38 -88 87 -88zM351 129c55 0 89 22 108 49c-29 37 -46 85 -46 141c0 118 80 204 192 204c55 0 93 -19 118 -48v134h-340v-98c0 -134 -66 -205 -162 -217v-37
c0 -73 45 -128 130 -128z" />
    <glyph glyph-name="dvGxA" unicode="&#x95a;" horiz-adv-x="814" 
d="M577 0v609h-126v-226c0 -120 -61 -214 -205 -214c-133 0 -210 73 -210 206c0 11 0 22 1 32h152v-31c0 -40 12 -73 53 -73c43 0 51 39 51 74v232h-310v131h849v-131h-98v-609h-157zM247 -71c-51 0 -91 39 -91 89c0 52 40 93 91 93c52 0 92 -41 92 -93
c0 -50 -40 -89 -92 -89z" />
    <glyph glyph-name="dvJxA" unicode="&#x95b;" horiz-adv-x="860" 
d="M-17 609v131h894v-131h-98v-609h-157v354h-115v-30c0 -131 -86 -224 -226 -224c-151 0 -229 93 -229 224v164h158v-160c0 -56 25 -91 72 -91c46 0 71 35 71 91v160h269v121h-639zM282 -139c-51 0 -91 39 -91 89c0 52 40 93 91 93c52 0 92 -41 92 -93
c0 -50 -40 -89 -92 -89z" />
    <glyph glyph-name="dvDDxA" unicode="&#x95c;" horiz-adv-x="566" 
d="M-17 609v131h599v-131h-111v-184h-183c-32 0 -65 -11 -65 -46c0 -34 27 -46 59 -46h45c102 0 206 -44 206 -175c0 -108 -80 -178 -225 -178s-252 69 -257 193h156c2 -50 44 -75 96 -75s82 24 82 61c0 45 -36 63 -87 63h-36c-76 0 -197 25 -197 162c0 105 83 151 183 151
h71v74h-336zM306 -259c-51 0 -91 39 -91 89c0 52 40 93 91 93c52 0 92 -41 92 -93c0 -50 -40 -89 -92 -89z" />
    <glyph glyph-name="dvDDHxA" unicode="&#x95d;" horiz-adv-x="655" 
d="M-17 609v131h689v-131h-162v-176h-116c-107 0 -189 -56 -189 -167c0 -91 56 -162 173 -162c72 0 128 32 128 91c0 33 -22 56 -55 56c-28 0 -50 -20 -50 -48c0 -6 1 -12 3 -16h-112c-2 13 -4 27 -4 38c0 89 71 138 170 138c115 0 182 -69 182 -168
c0 -127 -95 -204 -265 -204c-182 0 -322 102 -322 281c0 174 124 269 290 269h19v68h-379zM355 -246c-51 0 -91 39 -91 89c0 52 40 93 91 93c52 0 92 -41 92 -93c0 -50 -40 -89 -92 -89z" />
    <glyph glyph-name="dvPHxA" unicode="&#x95e;" horiz-adv-x="984" 
d="M323 292c66 0 99 50 99 109v208h-197v-199c0 -69 31 -118 98 -118zM-17 609v131h1019v-131h-423v-148c30 42 82 70 152 70c127 0 202 -99 202 -225c0 -147 -86 -232 -206 -232c-25 0 -50 3 -74 10v121c10 -3 22 -4 32 -4c54 0 89 39 89 97c0 56 -36 99 -93 99
c-69 0 -102 -55 -102 -126v-271h-157v216c-31 -35 -77 -56 -139 -56c-142 0 -215 106 -215 250v199h-85zM227 -74c-51 0 -91 39 -91 89c0 52 40 93 91 93c52 0 92 -41 92 -93c0 -50 -40 -89 -92 -89z" />
    <glyph glyph-name="dvRxA" unicode="&#x931;" horiz-adv-x="531" 
d="M-17 609v131h565v-131h-85v-53c0 -146 -57 -256 -240 -256h-5v-100c0 -43 18 -75 61 -75c38 0 60 30 60 71v28h151v-23c0 -127 -76 -210 -208 -210c-145 0 -219 95 -219 217v218h101c107 0 142 50 142 130v53h-323zM108 -212c-51 0 -91 39 -91 89c0 52 40 93 91 93
c52 0 92 -41 92 -93c0 -50 -40 -89 -92 -89z" />
    <glyph glyph-name="dvK" horiz-adv-x="701" 
d="M415 0v139c-30 -46 -83 -75 -156 -75c-127 0 -206 97 -206 234c0 138 79 233 212 233c71 0 121 -27 150 -70v148h-432v131h929v-131h-346v-148c29 43 77 70 144 70c128 0 202 -102 202 -233h-159c0 56 -36 99 -93 99c-65 0 -94 -50 -94 -109v-288h-151zM313 196
c66 0 102 51 102 102c0 52 -35 100 -101 100c-58 0 -102 -40 -102 -101s41 -101 101 -101z" />
    <glyph glyph-name="dvKH" horiz-adv-x="670" 
d="M-17 609v131h886v-131h-486v-98c0 -134 -66 -205 -162 -217v-37c0 -73 45 -128 130 -128c58 0 92 25 111 53c-30 34 -47 79 -47 134c0 128 96 205 228 205c131 0 226 -77 226 -205c0 -133 -100 -207 -226 -207c-24 0 -46 3 -67 7c-44 -70 -121 -123 -229 -123
c-172 0 -282 102 -282 283v127h26c90 0 135 38 135 130v76h-243zM553 316c0 -55 35 -89 90 -89c54 0 89 34 89 89c0 53 -35 88 -89 88c-55 0 -90 -35 -90 -88z" />
    <glyph glyph-name="dvG" horiz-adv-x="546" 
d="M-17 609v131h580v-131h-112v-226c0 -120 -61 -214 -205 -214c-133 0 -210 73 -210 206c0 11 0 22 1 32h152v-31c0 -40 12 -73 53 -73c43 0 51 39 51 74v232h-310z" />
    <glyph glyph-name="dvGH" horiz-adv-x="384" 
d="M-17 609v131h611v-131h-359v-40c0 -50 23 -82 90 -82h39v-126h-52c-60 0 -87 -29 -87 -68c0 -48 41 -71 95 -71c93 0 141 59 141 134h133c0 -143 -99 -262 -274 -262c-157 0 -254 62 -254 183c0 78 52 128 107 144v3c-54 14 -95 54 -95 138v47h-95z" />
    <glyph glyph-name="dvNG" horiz-adv-x="702" 
d="M609 287c-46 0 -82 37 -82 82c0 46 36 82 82 82s82 -36 82 -82c0 -45 -36 -82 -82 -82zM367 -301l-129 223h156l134 -223h-161zM-17 609v131h736v-131h-246v-184h-185c-32 0 -65 -11 -65 -46c0 -34 27 -46 59 -46h45c102 0 206 -44 206 -175c0 -108 -80 -178 -225 -178
s-252 69 -257 193h156c2 -50 44 -75 96 -75s82 24 82 61c0 45 -36 63 -87 63h-36c-76 0 -197 25 -197 162c0 105 83 151 183 151h74v74h-339z" />
    <glyph glyph-name="dvC" horiz-adv-x="442" 
d="M51 389v123h369v-123h-41c-55 0 -96 -34 -96 -88c0 -58 47 -89 105 -88c81 1 127 63 127 155h136c2 -173 -101 -287 -278 -287c-138 0 -237 64 -237 191c0 48 17 88 49 117h-134zM-17 609v131h668v-131h-668z" />
    <glyph glyph-name="dvCH" horiz-adv-x="824" 
d="M-17 609v131h858v-131h-607v-64c0 -50 21 -82 80 -82h20v-126h-17c-66 0 -96 -36 -96 -80c0 -64 55 -103 182 -103c154 0 240 62 240 179c0 54 -26 91 -63 91c-35 0 -63 -27 -63 -80c0 -24 5 -51 13 -76h-129c-8 24 -14 57 -14 94c0 124 90 177 194 177
c119 0 200 -79 200 -214c0 -185 -139 -305 -379 -305c-200 0 -340 72 -340 222c0 81 43 132 109 154v4c-53 13 -94 54 -94 138v71h-94z" />
    <glyph glyph-name="dvJ" horiz-adv-x="550" 
d="M281 100c-151 0 -229 93 -229 224v164h158v-160c0 -56 25 -91 72 -91c46 0 71 35 71 91v160h352v-134h-198v-30c0 -131 -86 -224 -226 -224zM-17 609v131h722v-131h-722z" />
    <glyph glyph-name="dvJH" horiz-adv-x="561" 
d="M-17 609v131h709v-131h-223v-184h-185c-33 0 -66 -11 -66 -47c0 -32 26 -45 61 -45h413v-118h-184c11 -21 17 -47 17 -78c0 -87 -59 -152 -165 -152c-69 0 -110 31 -128 48v-117h-148v253h141c3 -41 34 -69 85 -69c48 0 70 26 70 58c0 39 -27 64 -87 64
c-20 0 -40 0 -63 2c-81 4 -170 46 -170 156s84 156 184 156h73v73h-334z" />
    <glyph glyph-name="dvNY" horiz-adv-x="533" 
d="M286 54c-131 0 -224 75 -233 195h148c11 -39 44 -63 87 -63c61 0 93 48 93 108c0 57 -32 107 -93 107c-44 0 -77 -25 -87 -63h-148c8 120 102 196 233 196c117 0 201 -64 228 -168h168v-132h-166c-22 -112 -108 -180 -230 -180zM-17 609v131h699v-131h-699z" />
    <glyph glyph-name="dvTT" horiz-adv-x="646" 
d="M394 -260l-129 223h156l134 -223h-161zM-17 609v131h680v-131h-173v-208h-137c-79 0 -143 -42 -143 -126c0 -70 50 -119 127 -119c79 0 130 52 130 127h149c0 -159 -107 -263 -275 -263c-169 0 -288 102 -288 256s107 254 283 257v76h-353z" />
    <glyph glyph-name="dvTTH" horiz-adv-x="671" 
d="M335 161c78 0 128 52 128 124s-50 123 -128 123c-75 0 -126 -51 -126 -123s51 -124 126 -124zM335 30c-159 0 -282 96 -282 255c0 138 91 221 204 246v78h-274v131h705v-131h-276v-77c115 -25 207 -108 207 -247c0 -159 -124 -255 -284 -255zM393 -251l-129 223h156
l134 -223h-161z" />
    <glyph glyph-name="dvDD" horiz-adv-x="566" 
d="M353 -301l-129 223h156l134 -223h-161zM-17 609v131h599v-131h-111v-184h-183c-32 0 -65 -11 -65 -46c0 -34 27 -46 59 -46h45c102 0 206 -44 206 -175c0 -108 -80 -178 -225 -178s-252 69 -257 193h156c2 -50 44 -75 96 -75s82 24 82 61c0 45 -36 63 -87 63h-36
c-76 0 -197 25 -197 162c0 105 83 151 183 151h71v74h-336z" />
    <glyph glyph-name="dvDDH" horiz-adv-x="655" 
d="M400 -289l-129 223h156l134 -223h-161zM-17 609v131h689v-131h-162v-176h-116c-107 0 -189 -56 -189 -167c0 -91 56 -162 173 -162c72 0 128 32 128 91c0 33 -22 56 -55 56c-28 0 -50 -20 -50 -48c0 -6 1 -12 3 -16h-112c-2 13 -4 27 -4 38c0 89 71 138 170 138
c115 0 182 -69 182 -168c0 -127 -95 -204 -265 -204c-182 0 -322 102 -322 281c0 174 124 269 290 269h19v68h-379z" />
    <glyph glyph-name="dvNN" horiz-adv-x="584" 
d="M-17 609v131h618v-131h-78v-244c0 -126 -73 -220 -221 -220c-149 0 -221 98 -221 220v244h-98zM303 277c43 0 66 30 66 74v258h-134v-258c0 -44 26 -74 68 -74z" />
    <glyph glyph-name="dvT" horiz-adv-x="384" 
d="M552 357h-207c-80 0 -133 -40 -133 -115c0 -71 41 -117 125 -117h19v-124h-43c-143 0 -260 73 -260 244c0 173 129 247 284 247h215v-135zM-17 609v131h569v-131h-569z" />
    <glyph glyph-name="dvTH" horiz-adv-x="475" 
d="M691 361c0 -180 -152 -279 -325 -279c-191 0 -311 103 -311 285c0 23 1 47 5 72h87c104 0 185 24 185 110c0 37 -22 66 -60 66c-39 0 -63 -26 -63 -69c0 -13 2 -24 4 -35h-142c-2 13 -4 28 -4 39c0 132 95 199 207 199c122 0 206 -80 206 -204c0 -130 -91 -218 -270 -218
h-2c7 -59 50 -114 155 -114c109 0 193 51 193 148h135z" />
    <glyph glyph-name="dvD" horiz-adv-x="611" 
d="M521 -314l-129 223h156l134 -223h-161zM-17 609v131h646l-1 -131h-114v-214h-178c-73 0 -122 -39 -122 -107c0 -60 37 -99 97 -99c50 0 91 33 91 92h146v-314h-154v147c-28 -31 -73 -49 -128 -49c-112 0 -213 73 -213 227s113 237 266 237h38v80h-374z" />
    <glyph glyph-name="dvDH" horiz-adv-x="427" 
d="M331 76c-147 0 -260 57 -260 183c0 87 63 132 116 144v3c-62 19 -124 71 -124 167c0 109 80 176 187 176c116 0 180 -71 180 -169c0 -12 -1 -30 -2 -41h-116c1 11 1 16 1 21c0 34 -22 58 -57 58c-37 0 -59 -27 -59 -62c0 -63 64 -85 126 -85h60v-127h-53
c-61 0 -99 -23 -99 -68c0 -53 58 -70 115 -70c105 0 158 51 158 122h138c0 -151 -121 -252 -311 -252z" />
    <glyph glyph-name="dvN" horiz-adv-x="514" 
d="M274 69c-119 0 -225 78 -225 213c0 144 109 214 238 214h396v-131h-225c15 -27 26 -61 26 -103c0 -127 -97 -193 -210 -193zM276 202c49 0 83 33 83 81s-34 82 -83 82c-50 0 -85 -34 -85 -82s35 -81 85 -81zM-17 609v131h700v-131h-700z" />
    <glyph glyph-name="dvP" horiz-adv-x="353" 
d="M-17 609v131h586v-131h-344v-191c0 -74 34 -126 109 -126c70 0 105 53 105 117h130c0 -142 -88 -249 -247 -249c-167 0 -254 110 -254 258v191h-85z" />
    <glyph glyph-name="dvPH" horiz-adv-x="700" 
d="M323 292c66 0 99 50 99 109v208h-197v-199c0 -69 31 -118 98 -118zM-17 609v131h950v-131h-354v-148c30 42 82 70 152 70c132 0 202 -99 202 -233h-159c0 56 -30 99 -93 99c-69 0 -102 -55 -102 -126v-271h-157v216c-31 -35 -77 -56 -139 -56c-142 0 -215 106 -215 250
v199h-85z" />
    <glyph glyph-name="dvB" horiz-adv-x="386" 
d="M318 58c-167 0 -265 106 -265 246c0 135 97 239 264 239c181 0 264 -116 264 -238c0 -134 -88 -247 -263 -247zM322 436c-33 0 -64 -10 -87 -29l213 -162c7 17 11 36 11 55c0 72 -51 136 -137 136zM-17 609v131h601v-131h-601zM322 166c35 0 64 11 86 28l-214 162
c-7 -17 -11 -36 -11 -56c0 -83 65 -134 139 -134z" />
    <glyph glyph-name="dvBH" horiz-adv-x="540" 
d="M272 194c48 0 72 35 72 87v55h-58c-50 0 -85 -25 -85 -72c0 -45 31 -70 71 -70zM275 61c-132 0 -220 80 -220 203c0 136 102 200 226 200h63v76c0 44 -16 75 -55 75c-33 0 -54 -25 -54 -64c0 -10 1 -21 3 -32h-157c-2 11 -4 25 -4 38c0 109 68 192 206 192
c156 0 207 -105 207 -238v-47h203v-128h-203v-47c0 -141 -73 -228 -215 -228z" />
    <glyph glyph-name="dvM" horiz-adv-x="533" 
d="M256 194c48 0 73 35 73 87v55h-60c-48 0 -83 -25 -83 -72c0 -45 30 -70 70 -70zM-17 609v131h705v-131h-213v-145h213v-128h-213v-47c0 -141 -74 -228 -216 -228c-132 0 -219 80 -219 203c0 136 101 200 225 200h64v145h-346z" />
    <glyph glyph-name="dvY" horiz-adv-x="430" 
d="M-17 609v131h679v-131h-290v-74c0 -103 -45 -177 -161 -191c2 -85 67 -131 154 -131c95 0 153 60 153 139h144c2 -152 -112 -271 -303 -271c-187 0 -304 104 -304 283c0 20 1 40 4 60h10c114 0 148 53 148 140v45h-234z" />
    <glyph glyph-name="dvR" horiz-adv-x="531" 
d="M320 -291l-129 223h156l134 -223h-161zM-17 609v131h565v-131h-85v-53c0 -146 -57 -256 -240 -256h-5v-100c0 -43 18 -75 61 -75c38 0 60 30 60 71v28h151v-23c0 -127 -76 -210 -208 -210c-145 0 -219 95 -219 217v218h101c107 0 142 50 142 130v53h-323z" />
    <glyph glyph-name="dvL" horiz-adv-x="639" 
d="M458 410c27 63 80 114 179 114c118 0 224 -78 224 -241l-159 -2c0 61 -31 105 -90 105c-65 0 -90 -55 -90 -118v-24h-130v24c0 62 -25 118 -88 118c-60 0 -92 -43 -92 -105c0 -72 43 -115 107 -115c6 0 17 1 27 2v-137c-14 -1 -26 -1 -34 -1c-168 0 -259 107 -259 253
c0 164 107 241 228 241c96 0 148 -52 174 -114h3zM-17 609v131h878v-131h-878z" />
    <glyph glyph-name="dvV" horiz-adv-x="359" 
d="M317 62c-168 0 -264 103 -264 241c0 133 97 232 264 232c183 0 269 -114 269 -237c0 -122 -88 -236 -269 -236zM321 186c75 0 115 55 115 113c0 59 -40 112 -115 112c-68 0 -117 -46 -117 -112c0 -68 48 -113 117 -113zM-17 609v131h603v-131h-603z" />
    <glyph glyph-name="dvSH" horiz-adv-x="553" 
d="M307 -7c-151 0 -240 91 -240 234v192h139c88 0 173 27 173 116c0 46 -25 78 -70 78s-70 -32 -70 -79c0 -12 0 -23 1 -34h-157c-1 13 -3 26 -3 39c0 123 88 210 229 210c136 0 229 -80 229 -224c0 -164 -122 -238 -273 -238h-40v-70c0 -48 20 -89 78 -89c46 0 72 34 72 81
v16h152c1 -10 1 -16 1 -18c0 -135 -86 -214 -221 -214z" />
    <glyph glyph-name="dvSS" horiz-adv-x="383" 
d="M337 280c60 0 96 30 110 68l-227 154v-89c0 -81 36 -133 117 -133zM-17 609v131h605v-131h-368l368 -244c0 -105 -86 -217 -257 -217c-174 0 -263 115 -263 270v191h-85z" />
    <glyph glyph-name="dvS" horiz-adv-x="511" 
d="M-17 609v131h645v-131h-192v-66c0 -43 -8 -82 -24 -115h216v-128h-410v-98c0 -43 20 -77 65 -77c41 0 63 31 63 71v13h151c1 -9 1 -17 1 -22c0 -119 -79 -196 -212 -196c-147 0 -223 96 -223 219v202h74c108 0 142 54 142 131v66h-296z" />
    <glyph glyph-name="dvH" horiz-adv-x="585" 
d="M542 77c-10 -114 -103 -189 -237 -189c-151 0 -246 92 -246 232c0 78 34 139 90 176c-42 26 -67 65 -67 115c0 78 61 128 162 128h80v70h-341v131h619v-131h-128v-181h-174c-33 0 -62 -13 -62 -48c0 -19 10 -34 27 -43c14 2 29 3 44 3c148 0 221 -81 233 -186h-150
c-7 31 -37 62 -87 62c-53 0 -92 -38 -92 -99c0 -63 39 -100 92 -100c47 0 78 29 87 60h150zM355 -392l-129 223h156l134 -223h-161z" />
    <glyph glyph-name="dvLL" horiz-adv-x="961" 
d="M283 53c-127 0 -230 89 -230 232s103 233 229 233c81 0 151 -33 197 -114h3c45 81 116 114 197 114c126 0 229 -90 229 -233s-103 -232 -229 -232c-88 0 -162 42 -196 116h-5c-34 -74 -108 -116 -195 -116zM306 187c57 0 98 39 98 98c0 58 -41 100 -98 100
c-59 0 -100 -41 -100 -101c0 -59 42 -97 100 -97zM655 187c58 0 100 38 100 97c0 60 -41 101 -99 101c-59 0 -99 -42 -99 -100c0 -59 40 -98 98 -98zM-17 609v131h995v-131h-995z" />
    <glyph glyph-name="dvK_SS" horiz-adv-x="559" 
d="M226 543c0 -48 40 -84 104 -85c32 21 54 47 54 83c0 41 -31 74 -79 74c-43 0 -79 -26 -79 -72zM370 -63v150c-21 -28 -65 -55 -127 -55c-109 0 -185 69 -185 172c0 101 68 150 142 188c-61 24 -114 74 -114 163c0 115 94 194 223 194c113 0 205 -59 205 -176
c0 -50 -19 -87 -46 -117h222v-113h-372c-57 -26 -98 -51 -98 -104c0 -44 32 -77 80 -77c55 0 84 44 84 88h130v-313h-144z" />
    <glyph glyph-name="dvJ_NY" horiz-adv-x="545" 
d="M-17 609v131h731v-131h-731zM244 377v125h470v-125h-244c35 -28 58 -70 58 -129c0 -109 -79 -175 -180 -175c-62 0 -112 22 -143 55v-126h-153v287h147c6 -54 45 -88 99 -88c57 0 87 38 87 84c0 63 -49 92 -102 92h-39z" />
    <glyph glyph-name="dvKx" horiz-adv-x="701" 
d="M415 0v139c-30 -46 -83 -75 -156 -75c-127 0 -206 97 -206 234c0 138 79 233 212 233c71 0 121 -27 150 -70v148h-432v131h929v-131h-346v-148c29 43 77 70 144 70c128 0 202 -102 202 -233h-159c0 56 -36 99 -93 99c-65 0 -94 -50 -94 -109v-288h-151zM237 -175
c-51 0 -91 39 -91 89c0 52 40 93 91 93c52 0 92 -41 92 -93c0 -50 -40 -89 -92 -89zM313 196c66 0 102 51 102 102c0 52 -35 100 -101 100c-58 0 -102 -40 -102 -101s41 -101 101 -101z" />
    <glyph glyph-name="dvKHx" horiz-adv-x="670" 
d="M-17 609v131h886v-131h-486v-98c0 -134 -66 -205 -162 -217v-37c0 -73 45 -128 130 -128c58 0 92 25 111 53c-30 34 -47 79 -47 134c0 128 96 205 228 205c131 0 226 -77 226 -205c0 -133 -100 -207 -226 -207c-24 0 -46 3 -67 7c-44 -70 -121 -123 -229 -123
c-172 0 -282 102 -282 283v127h26c90 0 135 38 135 130v76h-243zM324 -243c-51 0 -91 39 -91 89c0 52 40 93 91 93c52 0 92 -41 92 -93c0 -50 -40 -89 -92 -89zM553 316c0 -55 35 -89 90 -89c54 0 89 34 89 89c0 53 -35 88 -89 88c-55 0 -90 -35 -90 -88z" />
    <glyph glyph-name="dvGx" horiz-adv-x="546" 
d="M-17 609v131h580v-131h-112v-226c0 -120 -61 -214 -205 -214c-133 0 -210 73 -210 206c0 11 0 22 1 32h152v-31c0 -40 12 -73 53 -73c43 0 51 39 51 74v232h-310zM247 -71c-51 0 -91 39 -91 89c0 52 40 93 91 93c52 0 92 -41 92 -93c0 -50 -40 -89 -92 -89z" />
    <glyph glyph-name="dvJx" horiz-adv-x="550" 
d="M281 100c-151 0 -229 93 -229 224v164h158v-160c0 -56 25 -91 72 -91c46 0 71 35 71 91v160h352v-134h-198v-30c0 -131 -86 -224 -226 -224zM-17 609v131h722v-131h-722zM282 -139c-51 0 -91 39 -91 89c0 52 40 93 91 93c52 0 92 -41 92 -93c0 -50 -40 -89 -92 -89z" />
    <glyph glyph-name="dvPHx" horiz-adv-x="700" 
d="M323 292c66 0 99 50 99 109v208h-197v-199c0 -69 31 -118 98 -118zM-17 609v131h950v-131h-354v-148c30 42 82 70 152 70c132 0 202 -99 202 -233h-159c0 56 -30 99 -93 99c-69 0 -102 -55 -102 -126v-271h-157v216c-31 -35 -77 -56 -139 -56c-142 0 -215 106 -215 250
v199h-85zM227 -74c-51 0 -91 39 -91 89c0 52 40 93 91 93c52 0 92 -41 92 -93c0 -50 -40 -89 -92 -89z" />
    <glyph glyph-name="dvAnusvara" unicode="&#x902;" horiz-adv-x="0" 
d="M-161 813c-51 0 -91 41 -91 91c0 51 40 91 91 91s92 -40 92 -91c0 -50 -41 -91 -92 -91z" />
    <glyph glyph-name="dvCandrabindu" unicode="&#x901;" horiz-adv-x="0" 
d="M-168 811c-155 0 -239 81 -239 211h125c0 -53 40 -99 114 -99s114 46 114 99h126c0 -130 -84 -211 -240 -211zM-169 986c-33 0 -60 27 -60 61c0 33 27 61 60 61c36 0 62 -28 62 -61c0 -34 -26 -61 -62 -61z" />
    <glyph glyph-name="dvVisarga" unicode="&#x903;" horiz-adv-x="280" 
d="M140 377c-51 0 -92 41 -92 91c0 51 41 91 92 91s92 -40 92 -91c0 -50 -41 -91 -92 -91zM140 87c-51 0 -92 40 -92 91s41 91 92 91s92 -40 92 -91s-41 -91 -92 -91z" />
    <glyph glyph-name="dvAvagraha" unicode="&#x93d;" horiz-adv-x="597" 
d="M57 46v132h235c36 0 54 15 54 39c0 78 -226 137 -226 312c0 96 71 143 169 143h227v-132h-188c-24 0 -48 -6 -48 -35c0 -78 226 -136 226 -312c0 -91 -71 -147 -173 -147h-276z" />
    <glyph glyph-name="dvVirama" unicode="&#x94d;" horiz-adv-x="0" 
d="M-106 -278l-129 223h156l134 -223h-161z" />
    <glyph glyph-name="dvNukta" unicode="&#x93c;" horiz-adv-x="0" 
d="M-283 -262c-51 0 -91 39 -91 89c0 52 40 93 91 93c52 0 92 -41 92 -93c0 -50 -40 -89 -92 -89z" />
    <glyph glyph-name="dvZero" unicode="&#x966;" horiz-adv-x="652" 
d="M45 375c0 214 73 370 281 370s281 -156 281 -370c0 -216 -73 -372 -281 -372s-281 156 -281 372zM439 375c0 112 -12 210 -113 210s-113 -98 -113 -210c0 -116 12 -212 113 -212s113 96 113 212z" />
    <glyph glyph-name="dvOne" unicode="&#x967;" horiz-adv-x="376" 
d="M126 0v571h-99v159h277v-730h-178z" />
    <glyph glyph-name="dvTwo" unicode="&#x968;" horiz-adv-x="571" 
d="M39 10v127c155 128 320 255 320 378c0 53 -24 87 -76 87c-51 0 -81 -40 -81 -109h-165c5 177 120 253 253 253c166 0 240 -97 240 -220c0 -160 -143 -288 -259 -377h270v-139h-502z" />
    <glyph glyph-name="dvThree" unicode="&#x969;" horiz-adv-x="605" 
d="M51 524c6 144 100 223 249 223c154 0 237 -88 237 -198c0 -96 -60 -147 -110 -164v-4c73 -24 123 -80 123 -176c0 -123 -88 -211 -241 -211c-152 0 -262 72 -267 237h166c1 -57 32 -95 95 -95c53 0 82 34 82 82c0 65 -39 91 -128 91h-32v139h32c58 0 114 14 114 80
c0 49 -29 76 -75 76c-55 0 -75 -40 -78 -80h-167z" />
    <glyph glyph-name="dvFour" unicode="&#x96a;" horiz-adv-x="677" 
d="M385 0v130h-336v138l316 452h191v-442h82v-148h-82v-130h-171zM229 278h168v254z" />
    <glyph glyph-name="dvFive" unicode="&#x96b;" horiz-adv-x="650" 
d="M92 731h467v-150h-312v-138c26 29 76 50 134 50c159 0 220 -121 220 -239c0 -154 -90 -254 -252 -254c-164 0 -259 91 -265 217h167c7 -38 36 -72 92 -72c65 0 93 47 93 110c0 66 -33 101 -94 101c-48 0 -76 -26 -85 -60h-165v435z" />
    <glyph glyph-name="dvSix" unicode="&#x96c;" horiz-adv-x="637" 
d="M565 533h-159c-10 48 -34 74 -85 74c-77 0 -107 -65 -108 -206c29 47 88 75 155 75c127 0 217 -83 217 -235c0 -145 -92 -245 -249 -245c-220 0 -274 156 -274 374c0 250 78 375 267 375c157 0 227 -104 236 -212zM327 341c-54 0 -100 -32 -100 -98
c0 -64 37 -102 102 -102c58 0 95 37 95 99c0 61 -33 101 -97 101z" />
    <glyph glyph-name="dvSeven" unicode="&#x96d;" horiz-adv-x="535" 
d="M28 729h483v-127l-251 -602h-175l254 583h-311v146z" />
    <glyph glyph-name="dvEight" unicode="&#x96e;" horiz-adv-x="648" 
d="M165 392c-56 30 -94 80 -94 157c0 104 81 196 253 196s252 -92 252 -196c0 -75 -39 -128 -94 -157c71 -34 112 -95 112 -178c0 -146 -121 -228 -270 -228s-270 82 -270 228c0 83 41 145 111 178zM324 438c49 0 86 32 86 85c0 55 -35 86 -86 86s-86 -31 -86 -87
c0 -53 37 -84 86 -84zM324 318c-61 0 -105 -34 -105 -96c0 -55 39 -96 105 -96c65 0 103 42 103 96c0 60 -42 96 -103 96z" />
    <glyph glyph-name="dvNine" unicode="&#x96f;" horiz-adv-x="615" 
d="M71 214h158c10 -51 39 -79 92 -79c72 0 97 61 97 200c-29 -41 -83 -65 -145 -65c-125 0 -221 78 -221 233c0 148 96 244 251 244c208 0 266 -141 266 -363c0 -249 -58 -387 -254 -387c-159 0 -236 105 -244 217zM312 405c56 0 92 36 92 95c0 65 -38 100 -96 100
c-59 0 -95 -38 -95 -99c0 -55 32 -96 99 -96z" />
    <glyph glyph-name="dvOm" unicode="&#x950;" horiz-adv-x="1072" 
d="M302 10c-143 0 -234 85 -234 211h147c0 -42 30 -76 78 -76s76 32 76 78c0 42 -27 82 -93 82h-45v132h45c53 0 86 31 86 73c0 45 -31 72 -71 72c-41 0 -71 -26 -71 -67h-146c0 120 88 201 220 201c128 0 210 -73 210 -185c0 -74 -37 -131 -106 -153v-4c6 -2 13 -4 18 -6
h57c67 0 97 20 97 98c0 135 55 216 212 216s219 -89 219 -247v-121c0 -195 -95 -298 -270 -298c-33 0 -65 3 -102 10v130c27 -4 52 -7 73 -7c115 0 146 66 146 170v137c0 57 -16 94 -66 94c-49 0 -65 -38 -65 -86c0 -153 -50 -215 -206 -218c2 -13 3 -26 3 -39
c0 -121 -87 -197 -212 -197zM562 726c-156 0 -239 80 -239 211h124c0 -54 41 -99 115 -99c73 0 114 45 114 99h126c0 -131 -84 -211 -240 -211zM561 901c-33 0 -60 26 -60 60c0 35 27 62 60 62c35 0 61 -27 61 -62c0 -34 -26 -60 -61 -60z" />
    <glyph glyph-name="dvAbbreviationsign" unicode="&#x970;" horiz-adv-x="476" 
d="M240 504c100 0 170 -69 170 -168c0 -98 -70 -167 -170 -167c-102 0 -174 69 -174 167c0 99 72 168 174 168zM240 411c-46 0 -79 -31 -79 -75s33 -74 79 -74c43 0 74 30 74 74c0 43 -31 75 -74 75z" />
    <glyph glyph-name="danda" unicode="&#x964;" horiz-adv-x="344" 
d="M303 740v-740h-156v740h156z" />
    <glyph glyph-name="doubledanda" unicode="&#x965;" horiz-adv-x="617" 
d="M303 740v-740h-156v740h156zM575 740v-740h-156v740h156z" />
    <glyph glyph-name="rupee" unicode="&#x20a8;" horiz-adv-x="1190" 
d="M433 474c0 53 -30 88 -94 88h-106v-175h106c64 0 94 32 94 87zM62 702h287c172 0 258 -98 258 -220c0 -90 -50 -174 -162 -203l168 -279h-194l-152 267h-34v-267h-171v702zM650 393c0 93 82 173 232 173c148 0 234 -78 249 -190h-170c-6 40 -39 61 -85 61
c-43 0 -69 -19 -69 -46c0 -93 330 -22 330 -227c0 -99 -86 -172 -226 -172c-146 0 -242 67 -258 190h170c4 -42 41 -61 87 -61c47 0 69 19 69 46c0 96 -329 21 -329 226z" />
    <glyph glyph-name="indianrupee" unicode="&#x20b9;" horiz-adv-x="598" 
d="M38 587v115h529v-115h-85v-60h85v-104h-91c-21 -115 -96 -182 -259 -182v-40c0 -47 15 -82 67 -82c49 0 65 30 65 84h158c-5 -132 -77 -213 -219 -213c-147 0 -231 75 -231 234v129c189 0 244 6 260 70h-279v104h284v60h-284z" />
    <glyph glyph-name="zerowidthnonjoiner" unicode="&#x200c;" horiz-adv-x="0" 
d="M24 -230h-47v1041h47v-1041z" />
    <glyph glyph-name="zerowidthjoiner" unicode="&#x200d;" horiz-adv-x="0" 
d="M128 593l-33 -33l-72 75v-865h-47v865l-69 -73l-33 33l93 93l-95 95l33 33l95 -95l96 95l32 -32l-96 -96z" />
    <glyph glyph-name="dottedcircle" unicode="&#x25cc;" horiz-adv-x="651" 
d="M557 409c0 -25 -18 -42 -43 -42s-43 17 -43 42s18 42 43 42s43 -17 43 -42zM181 123c0 -25 -18 -42 -43 -42s-43 17 -43 42s18 42 43 42s43 -17 43 -42zM279 47c0 -25 -18 -42 -43 -42s-43 17 -43 42s18 42 43 42s43 -17 43 -42zM136 236c0 -25 -18 -42 -43 -42
s-43 17 -43 42s18 42 43 42s43 -17 43 -42zM403 33c0 -25 -18 -42 -43 -42s-43 17 -43 42s18 42 43 42s43 -17 43 -42zM151 357c0 -25 -18 -42 -43 -42s-43 17 -43 42s18 42 43 42s43 -17 43 -42zM518 79c0 -25 -18 -42 -43 -42s-43 17 -43 42s18 42 43 42s43 -17 43 -42z
M227 456c0 -25 -18 -42 -43 -42s-43 17 -43 42s18 42 43 42s43 -17 43 -42zM591 175c0 -25 -18 -42 -43 -42s-43 17 -43 42s18 42 43 42s43 -17 43 -42zM344 498c0 -25 -18 -42 -43 -42s-43 17 -43 42s18 42 43 42s43 -17 43 -42zM601 295c0 -25 -18 -42 -43 -42
s-43 17 -43 42s18 42 43 42s43 -17 43 -42zM465 483c0 -25 -18 -42 -43 -42s-43 17 -43 42s18 42 43 42s43 -17 43 -42z" />
    <glyph glyph-name="dvReph" horiz-adv-x="0" 
d="M-227 715v89c0 106 44 217 199 217c130 0 199 -80 193 -205h-137c2 48 -19 75 -53 75c-40 0 -56 -29 -56 -85v-91h-146z" />
    <glyph glyph-name="dvEyelash" horiz-adv-x="353" 
d="M449 345c-41 -27 -104 -47 -170 -47c-123 0 -244 57 -250 217h150c4 -77 62 -104 122 -104c40 0 66 10 87 20zM-17 609v131h459v-131h-459z" />
    <glyph glyph-name="dvRashtrasign" horiz-adv-x="0" 
d="M-562 -97l145 179h210l146 -179h-159l-92 119l-92 -119h-158z" />
    <glyph glyph-name="dvK_RA" horiz-adv-x="965" 
d="M415 0v148c-3 -4 -5 -7 -8 -11v0l-155 -183h-169l119 131c-90 24 -149 106 -149 213c0 138 79 233 212 233c71 0 121 -27 150 -70v148h-432v131h999v-131h-416v-148c29 43 77 70 144 70c128 0 202 -102 202 -229c0 -145 -87 -228 -206 -228c-24 0 -44 2 -68 8v123
c7 -2 16 -3 25 -3c52 0 90 35 90 96c0 56 -36 99 -93 99c-65 0 -92 -52 -94 -109v-288h-151zM313 196c66 0 102 51 102 102c0 52 -35 100 -101 100c-58 0 -102 -40 -102 -101s41 -101 101 -101z" />
    <glyph glyph-name="dvKH_RA" horiz-adv-x="960" 
d="M558 94l-186 -229h-168v8l112 129c-154 11 -251 108 -251 274v127h26c90 0 135 38 135 130v76h-243v131h994v-131h-98v-609h-156v158c-25 -28 -63 -47 -118 -47c-12 0 -23 1 -33 3c-5 -7 -10 -13 -15 -20h1zM640 231c55 0 83 41 83 87c-1 43 -26 86 -83 86
c-48 0 -87 -31 -87 -85c0 -58 38 -88 87 -88zM351 129c55 0 89 22 108 49c-29 37 -46 85 -46 141c0 118 80 204 192 204c55 0 93 -19 118 -48v134h-340v-98c0 -134 -66 -205 -162 -217v-37c0 -73 45 -128 130 -128z" />
    <glyph glyph-name="dvG_RA" horiz-adv-x="814" 
d="M580 0v183l-202 -203h-181l380 363v266h-126v-157c0 -120 -61 -214 -205 -214c-133 0 -210 73 -210 206c0 10 0 21 1 32h152v-32c0 -39 12 -72 53 -72c43 0 51 39 51 73v164h-310v131h848v-131h-97v-609h-154z" />
    <glyph glyph-name="dvGH_RA" horiz-adv-x="699" 
d="M320 222c79 0 141 52 141 134v253h-226v-36c0 -50 23 -86 90 -86h39v-126h-52c-60 0 -87 -29 -87 -68c0 -48 41 -71 95 -71zM-17 609v131h733v-131h-97v-609h-158v172l-183 -221h-170l140 153c-103 10 -182 68 -182 173c0 78 52 128 107 144v3c-54 14 -95 54 -95 138v47
h-95z" />
    <glyph glyph-name="dvNG_RA" horiz-adv-x="702" 
d="M609 287c-46 0 -82 37 -82 82c0 46 36 82 82 82s82 -36 82 -82c0 -45 -36 -82 -82 -82zM-17 609v131h736v-131h-246v-184h-185c-32 0 -65 -11 -65 -46c0 -34 27 -46 59 -46h45c102 0 206 -44 206 -175c0 -71 -35 -126 -100 -155l121 -148h-159l-92 119l-92 -119h-158
l121 149c-73 30 -120 88 -123 169h156c2 -50 44 -75 96 -75s82 24 82 61c0 45 -36 63 -87 63h-36c-76 0 -197 25 -197 162c0 105 83 151 183 151h74v74h-339z" />
    <glyph glyph-name="dvC_RA" horiz-adv-x="753" 
d="M-17 609v131h787v-131h-98v-609h-157v164c-8 -9 -16 -18 -25 -26l-153 -184h-169l126 139c-91 16 -158 80 -158 179c0 48 17 88 49 117h-134v123h369v-123h-41c-55 0 -96 -34 -96 -88c0 -58 47 -89 105 -88c81 1 127 63 127 155v241h-532z" />
    <glyph glyph-name="dvCH_RA" horiz-adv-x="824" 
d="M-17 609v131h858v-131h-188v-81c78 -26 128 -97 128 -203c0 -143 -83 -248 -232 -287l116 -143h-159l-92 119l-92 -119h-158l111 136c-130 26 -213 95 -213 211c0 81 43 132 109 154v4c-53 13 -94 54 -94 138v71h-94zM403 154c154 0 240 62 240 179c0 54 -26 91 -63 91
c-35 0 -63 -27 -63 -80c0 -24 5 -51 13 -76h-129c-8 24 -14 57 -14 94c0 94 51 147 121 167v80h-274v-64c0 -50 21 -82 80 -82h20v-126h-17c-66 0 -96 -36 -96 -80c0 -64 55 -103 182 -103z" />
    <glyph glyph-name="dvJ_RA" horiz-adv-x="860" 
d="M-17 609v131h894v-131h-98v-609h-146v161l-186 -210h-172l354 369v46h-130c-11 -117 -88 -197 -218 -197c-151 0 -229 93 -229 225v99h158v-95c0 -57 25 -91 71 -91s72 34 72 91v95h276v116h-646z" />
    <glyph glyph-name="dvJH_RA" horiz-adv-x="952" 
d="M279 333h438v276h-248v-184h-185c-33 0 -66 -11 -66 -47c0 -32 26 -45 61 -45zM722 0v28l-121 -142h-157l278 307v22h-214c11 -21 17 -47 17 -78c0 -87 -59 -152 -165 -152c-69 0 -110 31 -128 48v-117h-148v253h141c3 -41 34 -69 85 -69c48 0 70 26 70 58
c0 39 -27 64 -87 64c-20 0 -40 0 -63 2c-81 4 -170 46 -170 156s84 156 184 156h73v73h-334v131h986v-131h-97v-609h-150z" />
    <glyph glyph-name="dvNY_RA" horiz-adv-x="835" 
d="M-17 609v131h912v-131h-98v-609h-153v55l-124 -144h-159l283 309v34h-126c-19 -114 -107 -185 -232 -185c-131 0 -226 76 -233 196h148c9 -39 44 -63 87 -63c61 0 93 45 93 101c0 52 -32 98 -93 98c-44 0 -77 -25 -87 -63h-148c8 120 102 196 233 196
c112 0 193 -56 223 -148h131v223h-657z" />
    <glyph glyph-name="dvTT_RA" horiz-adv-x="646" 
d="M-17 609v131h680v-131h-173v-208h-137c-79 0 -143 -42 -143 -126c0 -70 50 -119 127 -119c79 0 130 52 130 127h149c0 -112 -53 -196 -142 -237l116 -142h-159l-89 116h-1h-5l-89 -116h-158l115 142c-93 40 -151 122 -151 230c0 154 107 254 283 257v76h-353z" />
    <glyph glyph-name="dvTTH_RA" horiz-adv-x="674" 
d="M335 161c78 0 128 52 128 124s-50 123 -128 123c-75 0 -126 -51 -126 -123s51 -124 126 -124zM431 -99l-92 119l-92 -119h-158l122 151c-94 37 -158 119 -158 233c0 138 91 221 204 246v78h-274v131h705v-131h-276v-77c115 -25 207 -108 207 -247
c0 -112 -62 -193 -154 -231l125 -153h-159z" />
    <glyph glyph-name="dvDD_RA" horiz-adv-x="566" 
d="M-17 609v131h599v-131h-111v-184h-183c-32 0 -65 -11 -65 -46c0 -34 27 -46 59 -46h45c102 0 206 -44 206 -175c0 -72 -36 -127 -103 -156l120 -147h-159l-92 119l-92 -119h-158l122 150c-71 31 -117 88 -120 168h156c2 -50 44 -75 96 -75s82 24 82 61
c0 45 -36 63 -87 63h-36c-76 0 -197 25 -197 162c0 105 83 151 183 151h71v74h-336z" />
    <glyph glyph-name="dvDDH_RA" horiz-adv-x="655" 
d="M-17 609v131h689v-131h-162v-176h-116c-107 0 -189 -56 -189 -167c0 -91 56 -162 173 -162c72 0 128 32 128 91c0 33 -22 56 -55 56c-28 0 -50 -20 -50 -48c0 -6 1 -12 3 -16h-112c-2 13 -4 27 -4 38c0 89 71 138 170 138c115 0 182 -69 182 -168
c0 -95 -54 -163 -152 -190l113 -139h-159l-92 119l-92 -119h-158l124 153c-103 41 -171 128 -171 253c0 174 124 269 290 269h19v68h-379z" />
    <glyph glyph-name="dvNN_RA" horiz-adv-x="892" 
d="M303 360c43 0 66 31 66 74v175h-134v-175c0 -43 26 -74 68 -74zM-17 609v131h926v-131h-98v-609h-148v185l-207 -231h-178l379 400v255h-134v-160c0 -126 -73 -221 -221 -221c-149 0 -221 98 -221 221v160h-98z" />
    <glyph glyph-name="dvT_RA" horiz-adv-x="710" 
d="M-17 609v131h744v-131h-97v-609h-152v181l-185 -180h-206v6l377 333c-25 32 -68 54 -117 54c-76 0 -135 -45 -135 -131h-157c-3 153 94 255 251 255c76 0 133 -30 169 -66v157h-492z" />
    <glyph glyph-name="dvTH_RA" horiz-adv-x="794" 
d="M556 0v190c-9 -16 -22 -32 -39 -46h2l-237 -212h-194v8l184 153c-133 24 -217 124 -217 274c0 23 1 47 5 72h87c104 0 185 24 185 110c0 37 -22 66 -60 66c-39 0 -63 -26 -63 -69c0 -13 2 -24 4 -35h-142c-2 13 -4 28 -4 39c0 132 95 199 207 199c122 0 206 -80 206 -204
c0 -130 -91 -218 -270 -218h-2c7 -59 50 -114 155 -114c106 0 193 69 193 206v321h255v-131h-98v-609h-157z" />
    <glyph glyph-name="dvD_RA" horiz-adv-x="611" 
d="M-17 609v131h645v-131h-114v-214h-178c-73 0 -122 -39 -122 -107c0 -60 37 -99 97 -99c50 0 91 33 91 92h146v-314h-154v152c-3 -3 -6 -6 -9 -8l2 -1l-156 -184h-168l139 154c-84 23 -149 92 -149 212c0 154 113 237 266 237h38v80h-374z" />
    <glyph glyph-name="dvDH_RA" horiz-adv-x="732" 
d="M494 155l-187 -226h-170l139 153c-113 6 -205 66 -205 177c0 87 63 132 116 144v3c-62 19 -124 71 -124 167c0 109 80 176 187 176c116 0 180 -71 180 -169c0 -12 -1 -30 -2 -41h-116c1 11 1 16 1 21c0 34 -22 58 -57 58c-37 0 -59 -27 -59 -62c0 -63 64 -85 126 -85h60
v-127h-53c-61 0 -99 -23 -99 -68c0 -47 42 -70 106 -70c101 0 167 70 167 174v360h252v-131h-95v-609h-157v168c-3 -5 -7 -9 -11 -13h1z" />
    <glyph glyph-name="dvN_RA" horiz-adv-x="867" 
d="M276 202c49 0 83 33 83 81s-34 82 -83 82c-50 0 -85 -34 -85 -82s35 -81 85 -81zM-17 609v131h901v-131h-97v-609h-142v113l-170 -202h-171l332 355v99h-178c15 -27 26 -61 26 -103c0 -115 -91 -193 -210 -193s-225 78 -225 213c0 144 109 214 238 214h349v113h-653z" />
    <glyph glyph-name="dvP_RA" horiz-adv-x="677" 
d="M332 292c71 0 107 53 107 117v200h-214v-191c0 -74 33 -126 107 -126zM-17 609v131h711v-131h-98v-609h-157v223c-1 -1 -2 -3 -3 -4l-198 -245h-170l175 197c-116 21 -175 119 -175 247v191h-85z" />
    <glyph glyph-name="dvPH_RA" horiz-adv-x="984" 
d="M323 292c66 0 99 50 99 109v208h-197v-199c0 -69 31 -118 98 -118zM-17 609v131h1019v-131h-423v-148c30 42 82 70 152 70c127 0 202 -99 202 -225c0 -147 -86 -232 -206 -232c-25 0 -50 3 -74 10v121c10 -3 22 -4 32 -4c54 0 89 39 89 97c0 56 -36 99 -93 99
c-69 0 -102 -55 -102 -126v-271h-157v221c0 -1 -1 -1 -1 -1l-188 -246h-170l169 198c-109 22 -164 117 -164 238v199h-85z" />
    <glyph glyph-name="dvB_RA" horiz-adv-x="687" 
d="M450 121l-155 -183h-165l123 132c-117 18 -200 108 -200 234c0 141 103 237 242 237c69 0 124 -24 161 -61v129h-473v131h721v-131h-97v-609h-151v128c-2 -2 -4 -5 -6 -7zM329 440c-33 0 -63 -10 -87 -28l212 -162c7 17 11 36 11 55c0 72 -51 135 -136 135zM329 171
c36 0 65 10 87 28l-215 161c-7 -17 -11 -36 -11 -56c0 -83 64 -133 139 -133z" />
    <glyph glyph-name="dvBH_RA" horiz-adv-x="853" 
d="M272 212c51 0 74 35 74 88v45h-64c-47 0 -82 -25 -82 -68c0 -41 31 -65 72 -65zM275 83c-131 0 -220 76 -220 193c0 132 102 195 226 195h65v69c0 45 -17 76 -59 76c-36 0 -57 -26 -57 -64c0 -10 1 -19 3 -30h-152c-2 12 -4 26 -4 38c0 108 68 189 206 189
c153 0 204 -105 204 -238v-40h154v269h249v-131h-99v-609h-141v119l-207 -208h-171l369 346v88h-154v-37c0 -133 -76 -225 -212 -225z" />
    <glyph glyph-name="dvM_RA" horiz-adv-x="843" 
d="M256 214c51 0 75 37 75 89v50h-65c-47 0 -81 -26 -81 -70c0 -42 30 -69 71 -69zM612 479v130h-140v-130h140zM-17 609v131h877v-131h-98v-609h-142v119l-207 -208h-171l370 347v95h-140v-42c0 -135 -75 -225 -214 -225c-130 0 -218 78 -218 196c0 134 101 197 225 197h66
v130h-348z" />
    <glyph glyph-name="dvY_RA" horiz-adv-x="757" 
d="M360 213c98 0 158 68 158 160v236h-146v-74c0 -103 -45 -177 -161 -191c2 -76 55 -131 149 -131zM-17 609v131h791v-131h-98v-609h-158v158c-2 -3 -5 -5 -7 -8h1l-237 -213h-191v9l176 145c-132 25 -205 127 -205 273c0 20 1 40 4 60h10c114 0 148 53 148 140v45h-234z
" />
    <glyph glyph-name="dvL_RA" horiz-adv-x="914" 
d="M602 30c-8 0 -20 0 -34 1v137c9 -1 21 -2 27 -2c64 0 107 43 107 115c0 61 -31 105 -90 105c-65 0 -90 -55 -90 -118v-24h-130v24c0 62 -25 118 -88 118c-60 0 -92 -43 -92 -105c0 -72 43 -115 107 -115c6 0 17 1 27 2v-137c-14 -1 -26 -1 -34 -1
c-168 0 -259 107 -259 253c0 164 107 241 228 241c96 0 148 -52 174 -114h3c22 50 60 93 125 108v91h-600v131h948v-131h-194v-106c72 -33 124 -106 124 -220c0 -146 -91 -253 -259 -253zM422 -194l145 179h210l146 -179h-159l-92 119l-92 -119h-158z" />
    <glyph glyph-name="dvV_RA" horiz-adv-x="667" 
d="M320 187c74 0 113 56 113 111v1c0 58 -39 110 -113 110c-66 0 -113 -45 -113 -110c0 -66 46 -112 113 -112zM684 609h-98v-609h-153v141c-5 -7 -11 -13 -17 -19l-146 -167h-168l116 123c-105 24 -165 112 -165 225c0 133 84 232 224 232c68 0 122 -26 156 -70v144h-450
v131h701v-131z" />
    <glyph glyph-name="dvSH_RA" horiz-adv-x="861" 
d="M314 440l10 -5c36 27 69 59 69 107c0 40 -28 76 -76 77c-46 0 -77 -34 -78 -73c-1 -48 29 -82 75 -106zM626 0v145l-56 28l-191 -184h-184v14l257 229l-114 58l-140 -110h-179v18l200 156c-78 51 -126 112 -126 197c0 114 83 198 219 198c139 0 223 -81 223 -191
c0 -73 -25 -123 -92 -183l183 -92v457h252v-131h-97v-609h-155z" />
    <glyph glyph-name="dvSS_RA" horiz-adv-x="691" 
d="M456 450v159h-236v0zM334 280c56 0 94 28 111 69l-225 151v-87c0 -77 36 -133 114 -133zM-17 609v131h725v-131h-98v-609h-154v213c-5 -6 -11 -12 -17 -17l-201 -222h-170l182 184c-120 22 -182 126 -182 260v191h-85z" />
    <glyph glyph-name="dvS_RA" horiz-adv-x="916" 
d="M436 543c0 -43 -8 -82 -24 -115h273v181h-249v-66zM-17 609v131h950v-131h-98v-609h-136v141l-153 -205h-150l289 352v20h-474v-115c0 -37 18 -68 59 -68c36 0 55 30 55 68v13h136c1 -10 1 -17 1 -21c0 -118 -70 -194 -190 -194c-137 0 -209 92 -209 210v211h74
c108 0 142 54 142 131v66h-296z" />
    <glyph glyph-name="dvH_RA" horiz-adv-x="585" 
d="M542 38c-10 -108 -103 -181 -237 -181c-151 0 -246 99 -246 246c0 85 35 151 93 191c-44 26 -70 66 -70 117c0 78 61 128 162 128h80v70h-341v131h619v-131h-128v-181h-174c-33 0 -62 -13 -62 -48c0 -19 11 -35 29 -44c13 2 27 3 41 3c120 0 211 -66 226 -156l-82 -93
h-139l83 93c-14 18 -40 38 -83 38c-66 0 -107 -51 -107 -124c0 -72 45 -117 107 -117c50 0 81 29 92 58h137z" />
    <glyph glyph-name="dvLL_RA" horiz-adv-x="961" 
d="M306 187c57 0 98 39 98 98c0 58 -41 100 -98 100c-59 0 -100 -41 -100 -101c0 -59 42 -97 100 -97zM655 187c58 0 100 38 100 97c0 60 -41 101 -99 101c-59 0 -99 -42 -99 -100c0 -59 40 -98 98 -98zM776 -72l-92 119l-92 -119h-158l126 156c-33 19 -60 48 -77 85h-5
c-34 -74 -108 -116 -195 -116c-127 0 -230 89 -230 232s103 233 229 233c81 0 151 -33 197 -114h3c34 61 82 95 139 108v97h-638v131h995v-131h-204v-110c79 -33 134 -109 134 -214c0 -90 -41 -159 -103 -197l130 -160h-159z" />
    <glyph glyph-name="dvKx_RA" horiz-adv-x="1043" 
d="M492 0v146c-4 -6 -9 -12 -15 -17l-148 -175h-169l119 131c-90 24 -148 106 -148 213c0 138 79 233 212 233c70 0 120 -27 149 -68v146h-509v131h1077v-131h-417v-148c29 43 77 70 144 70c129 0 203 -102 203 -229c0 -145 -88 -228 -207 -228c-23 0 -44 2 -68 8v123
c7 -2 17 -3 26 -3c51 0 89 35 89 96c0 56 -35 99 -93 99c-64 0 -91 -52 -94 -109v-288h-151zM79 -17c-44 0 -79 34 -79 77c0 45 35 81 79 81c45 0 80 -36 80 -81c0 -43 -35 -77 -80 -77zM391 196c66 0 101 51 101 102c0 52 -34 100 -101 100c-59 0 -101 -40 -101 -101
s40 -101 101 -101z" />
    <glyph glyph-name="dvKHx_RA" horiz-adv-x="960" 
d="M558 94l-186 -229h-168v8l112 129c-154 11 -251 108 -251 274v127h26c90 0 135 38 135 130v76h-243v131h994v-131h-98v-609h-156v158c-25 -28 -63 -47 -118 -47c-12 0 -23 1 -33 3c-5 -7 -10 -13 -15 -20h1zM90 -148c-44 0 -79 34 -79 77c0 45 35 81 79 81
c45 0 80 -36 80 -81c0 -43 -35 -77 -80 -77zM640 231c55 0 83 41 83 87c-1 43 -26 86 -83 86c-48 0 -87 -31 -87 -85c0 -58 38 -88 87 -88zM351 129c55 0 89 22 108 49c-29 37 -46 85 -46 141c0 118 80 204 192 204c55 0 93 -19 118 -48v134h-340v-98
c0 -134 -66 -205 -162 -217v-37c0 -73 45 -128 130 -128z" />
    <glyph glyph-name="dvGx_RA" horiz-adv-x="814" 
d="M580 0v183l-202 -203h-181l380 363v266h-126v-157c0 -120 -61 -214 -205 -214c-133 0 -210 73 -210 206c0 10 0 21 1 32h152v-32c0 -39 12 -72 53 -72c43 0 51 39 51 73v164h-310v131h848v-131h-97v-609h-154zM103 16c-44 0 -79 34 -79 77c0 45 35 81 79 81
c45 0 80 -36 80 -81c0 -43 -35 -77 -80 -77z" />
    <glyph glyph-name="dvJx_RA" horiz-adv-x="860" 
d="M-17 609v131h894v-131h-98v-609h-146v161l-186 -210h-172l354 369v46h-130c-11 -117 -88 -197 -218 -197c-151 0 -229 93 -229 225v99h158v-95c0 -57 25 -91 71 -91s72 34 72 91v95h276v116h-646zM146 -42c-44 0 -79 34 -79 77c0 45 35 81 79 81c45 0 80 -36 80 -81
c0 -43 -35 -77 -80 -77z" />
    <glyph glyph-name="dvPHx_RA" horiz-adv-x="1068" 
d="M406 292c66 0 99 50 99 109v208h-196v-199c0 -69 30 -118 97 -118zM-17 609v131h1102v-131h-422v-146c30 41 82 68 151 68c127 0 203 -99 203 -225c0 -147 -87 -232 -207 -232c-24 0 -50 3 -74 10v121c11 -3 21 -4 32 -4c55 0 89 39 89 97c0 56 -35 99 -92 99
c-69 0 -102 -55 -102 -126v-271h-158v220c-2 -2 -4 -4 -6 -5l-183 -241h-169l168 198c-108 22 -164 117 -164 238v199h-168zM91 49c-44 0 -79 34 -79 77c0 45 35 81 79 81c45 0 80 -36 80 -81c0 -43 -35 -77 -80 -77z" />
    <glyph glyph-name="dvK_R" horiz-adv-x="701" 
d="M415 0v148c-3 -4 -5 -7 -8 -11v0l-155 -183h-169l119 131c-90 24 -149 106 -149 213c0 138 79 233 212 233c71 0 121 -27 150 -70v148h-432v131h929v-131h-346v-148c29 43 77 70 144 70c128 0 202 -102 202 -233h-159c0 56 -36 99 -93 99c-65 0 -92 -52 -94 -109v-288
h-151zM313 196c66 0 102 51 102 102c0 52 -35 100 -101 100c-58 0 -102 -40 -102 -101s41 -101 101 -101z" />
    <glyph glyph-name="dvKH_R" horiz-adv-x="670" 
d="M-17 609v131h886v-131h-486v-98c0 -134 -66 -205 -162 -217v-37c0 -73 45 -128 130 -128c58 0 92 25 111 53c-30 34 -47 79 -47 134c0 128 96 205 228 205c131 0 226 -77 226 -205c0 -133 -100 -207 -226 -207c-24 0 -47 3 -69 8c-5 -8 -11 -15 -17 -23h1l-186 -229h-168
v8l112 129c-154 11 -251 108 -251 274v127h26c90 0 135 38 135 130v76h-243zM643 227c54 0 89 34 89 89c0 53 -35 88 -89 88c-55 0 -90 -35 -90 -88c0 -55 35 -89 90 -89z" />
    <glyph glyph-name="dvG_R" horiz-adv-x="546" 
d="M610 213l-232 -233h-181l413 394v-161zM-17 609v131h627v-131h-159v-157c0 -120 -61 -214 -205 -214c-133 0 -210 73 -210 206c0 10 0 21 1 32h152v-32c0 -39 12 -72 53 -72c43 0 51 39 51 73v164h-310z" />
    <glyph glyph-name="dvGH_R" horiz-adv-x="384" 
d="M-17 609v131h611v-131h-359v-40c0 -50 23 -82 90 -82h39v-126h-52c-60 0 -87 -29 -87 -68c0 -48 41 -71 95 -71c93 0 141 59 141 134h133c0 -74 -27 -142 -77 -190l-177 -215h-168l130 143c-146 5 -236 67 -236 183c0 78 52 128 107 144v3c-54 14 -95 54 -95 138v47h-95z
" />
    <glyph glyph-name="dvNG_R" horiz-adv-x="702" 
d="M609 287c-46 0 -82 37 -82 82c0 46 36 82 82 82s82 -36 82 -82c0 -45 -36 -82 -82 -82zM355 -398l-129 223h156l134 -223h-161zM-17 609v131h736v-131h-246v-184h-185c-32 0 -65 -11 -65 -46c0 -34 27 -46 59 -46h45c102 0 206 -44 206 -175c0 -71 -35 -126 -100 -155
l121 -148h-159l-92 119l-92 -119h-158l121 149c-73 30 -120 88 -123 169h156c2 -50 44 -75 96 -75s82 24 82 61c0 45 -36 63 -87 63h-36c-76 0 -197 25 -197 162c0 105 83 151 183 151h74v74h-339z" />
    <glyph glyph-name="dvC_R" horiz-adv-x="442" 
d="M-17 609v131h668v-131h-668zM51 389v123h369v-123h-41c-55 0 -96 -34 -96 -88c0 -58 47 -89 105 -88c81 1 127 63 127 155h136c1 -92 -27 -167 -81 -217l-161 -197h-169l116 127c-129 6 -220 69 -220 191c0 48 17 88 49 117h-134z" />
    <glyph glyph-name="dvCH_R" horiz-adv-x="824" 
d="M-17 609v131h858v-131h-607v-64c0 -50 21 -82 80 -82h20v-126h-17c-66 0 -96 -36 -96 -80c0 -64 55 -103 182 -103c154 0 240 62 240 179c0 54 -26 91 -63 91c-35 0 -63 -27 -63 -80c0 -24 5 -51 13 -76h-129c-8 24 -14 57 -14 94c0 124 90 177 194 177
c119 0 200 -79 200 -214c0 -143 -83 -248 -232 -287l116 -143h-159l-92 119l-92 -119h-158l111 136c-130 26 -213 95 -213 211c0 81 43 132 109 154v4c-53 13 -94 54 -94 138v71h-94z" />
    <glyph glyph-name="dvJ_R" horiz-adv-x="550" 
d="M-17 609v131h722v-131h-722zM447 -49h-172l391 408h-168c-13 -113 -90 -190 -217 -190c-151 0 -229 93 -229 225v99h158v-95c0 -57 25 -91 71 -91s72 34 72 91v95h352v-250z" />
    <glyph glyph-name="dvJH_R" horiz-adv-x="561" 
d="M-17 609v131h766v-131h-280v-184h-185c-33 0 -66 -11 -66 -47c0 -32 26 -45 61 -45h470v-267l-148 -180h-157l301 329h-237c11 -21 17 -47 17 -78c0 -87 -59 -152 -165 -152c-69 0 -110 31 -128 48v-117h-148v253h141c3 -41 34 -69 85 -69c48 0 70 26 70 58
c0 39 -27 64 -87 64c-20 0 -40 0 -63 2c-81 4 -170 46 -170 156s84 156 184 156h73v73h-334z" />
    <glyph glyph-name="dvNY_R" horiz-adv-x="533" 
d="M286 69c-131 0 -226 76 -233 196h148c9 -39 44 -63 87 -63c61 0 93 45 93 101c0 52 -32 98 -93 98c-44 0 -77 -25 -87 -63h-148c8 120 102 196 233 196c112 0 193 -56 223 -148h194v-261l-183 -214h-159l311 343h-154c-19 -114 -107 -185 -232 -185zM-17 609v131h720
v-131h-720z" />
    <glyph glyph-name="dvTT_R" horiz-adv-x="646" 
d="M396 -348l-129 223h156l134 -223h-161zM-17 609v131h680v-131h-173v-208h-137c-79 0 -143 -42 -143 -126c0 -70 50 -119 127 -119c79 0 130 52 130 127h149c0 -112 -53 -196 -142 -237l116 -142h-159l-89 116h-1h-5l-89 -116h-158l115 142c-93 40 -151 122 -151 230
c0 154 107 254 283 257v76h-353z" />
    <glyph glyph-name="dvTTH_R" horiz-adv-x="674" 
d="M335 161c78 0 128 52 128 124s-50 123 -128 123c-75 0 -126 -51 -126 -123s51 -124 126 -124zM431 -99l-92 119l-92 -119h-158l122 151c-94 37 -158 119 -158 233c0 138 91 221 204 246v78h-274v131h705v-131h-276v-77c115 -25 207 -108 207 -247
c0 -112 -62 -193 -154 -231l125 -153h-159zM392 -352l-129 223h156l134 -223h-161z" />
    <glyph glyph-name="dvDD_R" horiz-adv-x="566" 
d="M351 -398l-129 223h156l134 -223h-161zM-17 609v131h599v-131h-111v-184h-183c-32 0 -65 -11 -65 -46c0 -34 27 -46 59 -46h45c102 0 206 -44 206 -175c0 -72 -36 -127 -103 -156l120 -147h-159l-92 119l-92 -119h-158l122 150c-71 31 -117 88 -120 168h156
c2 -50 44 -75 96 -75s82 24 82 61c0 45 -36 63 -87 63h-36c-76 0 -197 25 -197 162c0 105 83 151 183 151h71v74h-336z" />
    <glyph glyph-name="dvDDH_R" horiz-adv-x="655" 
d="M407 -386l-129 223h156l134 -223h-161zM-17 609v131h689v-131h-162v-176h-116c-107 0 -189 -56 -189 -167c0 -91 56 -162 173 -162c72 0 128 32 128 91c0 33 -22 56 -55 56c-28 0 -50 -20 -50 -48c0 -6 1 -12 3 -16h-112c-2 13 -4 27 -4 38c0 89 71 138 170 138
c115 0 182 -69 182 -168c0 -95 -54 -163 -152 -190l113 -139h-159l-92 119l-92 -119h-158l124 153c-103 41 -171 128 -171 253c0 174 124 269 290 269h19v68h-379z" />
    <glyph glyph-name="dvNN_R" horiz-adv-x="584" 
d="M278 -46l399 420v-175l-221 -245h-178zM-17 609v131h694v-131h-154v-160c0 -126 -73 -221 -221 -221c-149 0 -221 98 -221 221v160h-98zM303 360c43 0 66 31 66 74v175h-134v-175c0 -43 26 -74 68 -74z" />
    <glyph glyph-name="dvT_R" horiz-adv-x="412" 
d="M55 263c0 145 105 257 283 257c133 0 248 -74 284 -200l-329 -319h-206v6l378 334c-25 31 -67 53 -117 53c-76 0 -136 -45 -136 -131h-157zM-17 609v131h639v-131h-639z" />
    <glyph glyph-name="dvTH_R" horiz-adv-x="475" 
d="M691 361c0 -89 -37 -158 -95 -205l-262 -237h-195v9l189 155c-169 13 -273 114 -273 284c0 23 1 47 5 72h87c104 0 185 24 185 110c0 37 -22 66 -60 66c-39 0 -63 -26 -63 -69c0 -13 2 -24 4 -35h-142c-2 13 -4 28 -4 39c0 132 95 199 207 199c122 0 206 -80 206 -204
c0 -130 -91 -218 -270 -218h-2c7 -59 50 -114 155 -114c109 0 193 51 193 148h135z" />
    <glyph glyph-name="dvD_R" horiz-adv-x="611" 
d="M522 -314l-129 223h156l134 -223h-161zM-17 609v131h645v-131h-114v-214h-178c-73 0 -122 -39 -122 -107c0 -60 37 -99 97 -99c50 0 91 33 91 92h146v-314h-154v152c-3 -3 -6 -6 -9 -8l2 -1l-156 -184h-168l139 154c-84 23 -149 92 -149 212c0 154 113 237 266 237h38v80
h-374z" />
    <glyph glyph-name="dvDH_R" horiz-adv-x="427" 
d="M331 76c-147 0 -260 57 -260 183c0 87 63 132 116 144v3c-62 19 -124 71 -124 167c0 109 80 176 187 176c116 0 180 -71 180 -169c0 -12 -1 -30 -2 -41h-116c1 11 1 16 1 21c0 34 -22 58 -57 58c-37 0 -59 -27 -59 -62c0 -63 64 -85 126 -85h60v-127h-53
c-61 0 -99 -23 -99 -68c0 -53 58 -70 115 -70c105 0 158 51 158 122h138c0 -69 -25 -127 -70 -170l-186 -229h-169l134 147h-20z" />
    <glyph glyph-name="dvN_R" horiz-adv-x="514" 
d="M274 69c-119 0 -225 78 -225 213c0 144 109 214 238 214h396v-131h-225c15 -27 26 -61 26 -103c0 -127 -97 -193 -210 -193zM276 202c49 0 83 33 83 81s-34 82 -83 82c-50 0 -85 -34 -85 -82s35 -81 85 -81zM304 -89l379 407v-162l-208 -245h-171zM-17 609v131h700v-131
h-700z" />
    <glyph glyph-name="dvP_R" horiz-adv-x="353" 
d="M-17 609v131h586v-131h-344v-191c0 -74 34 -126 109 -126c70 0 105 53 105 117h130c0 -74 -24 -139 -70 -184l-199 -251h-169l166 187c-151 10 -229 117 -229 257v191h-85z" />
    <glyph glyph-name="dvPH_R" horiz-adv-x="700" 
d="M323 292c66 0 99 50 99 109v208h-197v-199c0 -69 31 -118 98 -118zM-17 609v131h950v-131h-354v-148c30 42 82 70 152 70c132 0 202 -99 202 -233h-159c0 56 -30 99 -93 99c-69 0 -102 -55 -102 -126v-271h-157v221c0 -1 -1 -1 -1 -1l-188 -246h-170l169 198
c-109 22 -164 117 -164 238v199h-85z" />
    <glyph glyph-name="dvB_R" horiz-adv-x="386" 
d="M-17 609v131h601v-131h-601zM356 -62h-158l112 120c-162 4 -257 108 -257 246c0 135 97 239 264 239c181 0 264 -116 264 -238c0 -59 -17 -113 -50 -156v0zM322 436c-33 0 -64 -10 -87 -29l213 -162c7 17 11 36 11 55c0 72 -51 136 -137 136zM322 166c35 0 64 11 86 28
l-214 162c-7 -17 -11 -36 -11 -56c0 -83 65 -134 139 -134z" />
    <glyph glyph-name="dvBH_R" horiz-adv-x="540" 
d="M272 212c51 0 74 35 74 88v45h-64c-47 0 -82 -25 -82 -68c0 -41 31 -65 72 -65zM275 83c-131 0 -220 76 -220 193c0 132 102 195 226 195h65v69c0 45 -17 76 -59 76c-36 0 -57 -26 -57 -64c0 -10 1 -19 3 -30h-152c-2 12 -4 26 -4 38c0 108 68 189 206 189
c153 0 204 -105 204 -238v-40h206v-126h-206v-37c0 -133 -76 -225 -212 -225zM272 -89l421 394v-142l-250 -252h-171z" />
    <glyph glyph-name="dvM_R" horiz-adv-x="533" 
d="M256 214c51 0 75 37 75 89v50h-65c-47 0 -81 -26 -81 -70c0 -42 30 -69 71 -69zM242 -89l444 415l-1 -141l-272 -274h-171zM-17 609v131h705v-131h-216v-130h214v-126h-214v-42c0 -135 -75 -225 -214 -225c-130 0 -218 78 -218 196c0 134 101 197 225 197h66v130h-348z
" />
    <glyph glyph-name="dvY_R" horiz-adv-x="430" 
d="M-17 609v131h679v-131h-290v-74c0 -103 -45 -177 -161 -191c2 -85 67 -131 154 -131c95 0 153 60 153 139h144c1 -81 -31 -153 -91 -203l-237 -212h-191v9l168 137c-159 17 -256 118 -256 281c0 20 1 40 4 60h10c114 0 148 53 148 140v45h-234z" />
    <glyph glyph-name="dvL_R" horiz-adv-x="914" 
d="M602 30c-8 0 -20 0 -34 1v137c9 -1 21 -2 27 -2c64 0 107 43 107 115c0 61 -31 105 -90 105c-65 0 -90 -55 -90 -118v-24h-130v24c0 62 -25 118 -88 118c-60 0 -92 -43 -92 -105c0 -72 43 -115 107 -115c6 0 17 1 27 2v-137c-14 -1 -26 -1 -34 -1
c-168 0 -259 107 -259 253c0 164 107 241 228 241c96 0 148 -52 174 -114h3c22 50 60 93 125 108v91h-600v131h948v-131h-194v-106c72 -33 124 -106 124 -220c0 -146 -91 -253 -259 -253zM422 -194l145 179h210l146 -179h-159l-92 119l-92 -119h-158zM722 -446l-129 223h156
l134 -223h-161z" />
    <glyph glyph-name="dvV_R" horiz-adv-x="359" 
d="M321 187c74 0 112 56 112 112c0 58 -38 110 -112 110c-66 0 -114 -45 -114 -110c0 -66 47 -112 114 -112zM359 -62h-165l115 124c-163 3 -256 105 -256 241c0 133 97 232 264 232c183 0 269 -114 269 -237c0 -59 -20 -115 -61 -158zM-17 609v131h603v-131h-603z" />
    <glyph glyph-name="dvSH_R" horiz-adv-x="522" 
d="M314 440l10 -5c35 28 69 59 69 107c0 40 -28 76 -76 77c-46 0 -77 -34 -78 -73c-1 -48 29 -82 75 -106zM19 180v18l201 156c-78 52 -127 112 -127 197c0 114 83 198 219 198c139 0 223 -81 223 -191c0 -73 -25 -123 -91 -183l127 -63v-139l-192 -184h-188v9l262 234
l-115 58l-140 -110h-179z" />
    <glyph glyph-name="dvSS_R" horiz-adv-x="383" 
d="M588 365c0 -51 -20 -103 -60 -143l-223 -248h-169l173 175c-160 9 -241 121 -241 269v191h-85v131h605v-131h-368zM337 280c60 0 96 30 110 68l-227 154v-89c0 -81 36 -133 117 -133z" />
    <glyph glyph-name="dvS_R" horiz-adv-x="511" 
d="M396 -64l261 317v-167l-111 -150h-150zM-17 609v131h674v-131h-221v-66c0 -43 -8 -82 -24 -115h245v-120h-446v-115c0 -37 18 -68 59 -68c36 0 55 30 55 68v13h136c1 -10 1 -17 1 -21c0 -118 -70 -194 -190 -194c-137 0 -209 92 -209 210v211h74c108 0 142 54 142 131v66
h-296z" />
    <glyph glyph-name="dvH_R" horiz-adv-x="585" 
d="M542 38c-10 -108 -103 -181 -237 -181c-151 0 -246 99 -246 246c0 85 35 151 93 191c-44 26 -70 66 -70 117c0 78 61 128 162 128h80v70h-341v131h619v-131h-128v-181h-174c-33 0 -62 -13 -62 -48c0 -19 11 -35 29 -44c13 2 27 3 41 3c120 0 211 -66 226 -156l-82 -93
h-139l83 93c-14 18 -40 38 -83 38c-66 0 -107 -51 -107 -124c0 -72 45 -117 107 -117c50 0 81 29 92 58h137zM352 -423l-129 223h156l134 -223h-161z" />
    <glyph glyph-name="dvLL_R" horiz-adv-x="961" 
d="M283 53c-127 0 -230 89 -230 232s103 233 229 233c81 0 151 -33 197 -114h3c45 81 116 114 197 114c126 0 229 -90 229 -233c0 -90 -41 -159 -103 -197l130 -160h-159l-92 119l-92 -119h-158l126 156c-33 19 -60 48 -77 85h-5c-34 -74 -108 -116 -195 -116zM306 187
c57 0 98 39 98 98c0 58 -41 100 -98 100c-59 0 -100 -41 -100 -101c0 -59 42 -97 100 -97zM655 187c58 0 100 38 100 97c0 60 -41 101 -99 101c-59 0 -99 -42 -99 -100c0 -59 40 -98 98 -98zM-17 609v131h995v-131h-995z" />
    <glyph glyph-name="dvKx_R" horiz-adv-x="778" 
d="M492 0v146c-4 -6 -9 -12 -15 -17l-148 -175h-169l119 131c-90 24 -148 106 -148 213c0 138 79 233 212 233c70 0 120 -27 149 -68v146h-509v131h1007v-131h-347v-148c29 43 77 70 144 70c129 0 203 -102 203 -233h-160c0 56 -35 99 -93 99c-64 0 -91 -52 -94 -109v-288
h-151zM79 -17c-44 0 -79 34 -79 77c0 45 35 81 79 81c45 0 80 -36 80 -81c0 -43 -35 -77 -80 -77zM391 196c66 0 101 51 101 102c0 52 -34 100 -101 100c-59 0 -101 -40 -101 -101s40 -101 101 -101z" />
    <glyph glyph-name="dvKHx_R" horiz-adv-x="670" 
d="M-17 609v131h886v-131h-486v-98c0 -134 -66 -205 -162 -217v-37c0 -73 45 -128 130 -128c58 0 92 25 111 53c-30 34 -47 79 -47 134c0 128 96 205 228 205c131 0 226 -77 226 -205c0 -133 -100 -207 -226 -207c-24 0 -47 3 -69 8c-5 -8 -11 -15 -17 -23h1l-186 -229h-168
v8l112 129c-154 11 -251 108 -251 274v127h26c90 0 135 38 135 130v76h-243zM90 -148c-44 0 -79 34 -79 77c0 45 35 81 79 81c45 0 80 -36 80 -81c0 -43 -35 -77 -80 -77zM643 227c54 0 89 34 89 89c0 53 -35 88 -89 88c-55 0 -90 -35 -90 -88c0 -55 35 -89 90 -89z" />
    <glyph glyph-name="dvGx_R" horiz-adv-x="546" 
d="M610 213l-232 -233h-181l413 394v-161zM-17 609v131h627v-131h-159v-157c0 -120 -61 -214 -205 -214c-133 0 -210 73 -210 206c0 10 0 21 1 32h152v-32c0 -39 12 -72 53 -72c43 0 51 39 51 73v164h-310zM103 16c-44 0 -79 34 -79 77c0 45 35 81 79 81c45 0 80 -36 80 -81
c0 -43 -35 -77 -80 -77z" />
    <glyph glyph-name="dvJx_R" horiz-adv-x="550" 
d="M-17 609v131h722v-131h-722zM447 -49h-172l391 408h-168c-13 -113 -90 -190 -217 -190c-151 0 -229 93 -229 225v99h158v-95c0 -57 25 -91 71 -91s72 34 72 91v95h352v-250zM146 -42c-44 0 -79 34 -79 77c0 45 35 81 79 81c45 0 80 -36 80 -81c0 -43 -35 -77 -80 -77z
" />
    <glyph glyph-name="dvPHx_R" horiz-adv-x="783" 
d="M406 292c66 0 99 50 99 109v208h-196v-199c0 -69 30 -118 97 -118zM-17 609v131h1034v-131h-354v-146c30 41 82 68 151 68c132 0 203 -99 203 -233h-160c0 56 -30 99 -92 99c-69 0 -102 -55 -102 -126v-271h-158v220c-2 -2 -4 -4 -6 -5l-183 -241h-169l168 198
c-108 22 -164 117 -164 238v199h-168zM91 49c-44 0 -79 34 -79 77c0 45 35 81 79 81c45 0 80 -36 80 -81c0 -43 -35 -77 -80 -77z" />
    <glyph glyph-name="dvK_KA" horiz-adv-x="1659" 
d="M313 196c66 0 102 51 102 102c0 52 -35 100 -101 100c-58 0 -102 -40 -102 -101s41 -101 101 -101zM1110 609h-544v-146c28 41 75 68 141 68c50 0 91 -15 122 -41c35 26 79 41 131 41c71 0 121 -27 150 -70v148zM1110 0v139c-30 -46 -83 -75 -156 -75
c-127 0 -206 97 -206 234h-1c0 56 -33 99 -90 99c-64 0 -91 -50 -91 -109v-288h-151v139c-30 -46 -83 -75 -156 -75c-127 0 -206 97 -206 234c0 138 79 233 212 233c71 0 121 -27 150 -70v148h-432v131h1694v-131h-416v-148c29 43 77 70 144 70c128 0 202 -102 202 -229
c0 -145 -87 -228 -206 -228c-24 0 -44 2 -68 8v123c7 -2 16 -3 25 -3c52 0 90 35 90 96c0 56 -36 99 -93 99c-65 0 -94 -50 -94 -109v-288h-151zM1008 196c66 0 102 51 102 102c0 52 -35 100 -101 100c-58 0 -102 -40 -102 -101s41 -101 101 -101z" />
    <glyph glyph-name="dvKx_KxA" horiz-adv-x="1659" 
d="M237 -175c-51 0 -91 39 -91 89c0 52 40 93 91 93c52 0 92 -41 92 -93c0 -50 -40 -89 -92 -89zM932 -175c-51 0 -91 39 -91 89c0 52 40 93 91 93c52 0 92 -41 92 -93c0 -50 -40 -89 -92 -89zM313 196c66 0 102 51 102 102c0 52 -35 100 -101 100c-58 0 -102 -40 -102 -101
s41 -101 101 -101zM1008 196c66 0 102 51 102 102c0 52 -35 100 -101 100c-58 0 -102 -40 -102 -101s41 -101 101 -101zM1110 609h-544v-146c28 41 75 68 141 68c49 0 87 -17 115 -47c35 30 82 47 138 47c71 0 121 -27 150 -70v148zM1110 0v139c-30 -46 -83 -75 -156 -75
c-127 0 -206 97 -206 234h-1c0 56 -33 99 -90 99c-64 0 -91 -50 -91 -109v-288h-151v139c-30 -46 -83 -75 -156 -75c-127 0 -206 97 -206 234c0 138 79 233 212 233c71 0 121 -27 150 -70v148h-432v131h1694v-131h-416v-148c29 43 77 70 144 70c128 0 202 -102 202 -229
c0 -145 -87 -228 -206 -228c-24 0 -44 2 -68 8v123c7 -2 16 -3 25 -3c52 0 90 35 90 96c0 56 -36 99 -93 99c-65 0 -94 -50 -94 -109v-288h-151z" />
    <glyph glyph-name="dvK_KHA" horiz-adv-x="1642" 
d="M707 523c79 0 131 -38 159 -96c27 21 41 55 41 106v76h-341v-152c28 40 75 66 141 66zM313 196c66 0 102 51 102 102c0 52 -35 100 -101 100c-58 0 -102 -40 -102 -101s41 -101 101 -101zM1405 0v159c-25 -29 -63 -48 -118 -48c-11 0 -21 1 -31 2
c-45 -68 -121 -120 -227 -120c-173 0 -282 102 -282 267v38c0 56 -33 99 -90 99c-64 0 -91 -50 -91 -109v-288h-151v139c-30 -46 -83 -75 -156 -75c-127 0 -206 97 -206 234c0 138 79 233 212 233c71 0 121 -27 150 -70v148h-432v131h1676v-131h-98v-609h-156zM1321 231
c55 0 84 41 84 87c-1 43 -27 86 -84 86c-47 0 -86 -31 -86 -85c0 -58 38 -88 86 -88zM1033 129c55 0 89 22 108 49c-29 37 -46 85 -46 141c0 118 79 204 192 204c55 0 93 -19 118 -49v135h-340v-98c0 -134 -67 -205 -162 -217v-37c0 -73 46 -128 130 -128z" />
    <glyph glyph-name="dvK_CA" horiz-adv-x="1335" 
d="M969 213c82 1 127 63 127 155v241h-530v-157c29 40 79 64 155 64h281v-123h-42c-55 0 -95 -34 -95 -90c0 -60 46 -91 104 -90zM313 196c66 0 102 51 102 102c0 52 -35 100 -101 100c-58 0 -102 -40 -102 -101s41 -101 101 -101zM566 286v-286h-151v139
c-30 -46 -83 -75 -156 -75c-127 0 -206 97 -206 234c0 138 79 233 212 233c71 0 121 -27 150 -70v148h-432v131h1369v-131h-98v-609h-158v159c-38 -49 -100 -76 -174 -76c-115 0 -205 58 -205 179c0 56 23 102 64 131h-108c-78 0 -107 -49 -107 -107z" />
    <glyph glyph-name="dvK_JA" horiz-adv-x="1553" 
d="M313 196c66 0 102 51 102 102c0 52 -35 100 -101 100c-58 0 -102 -40 -102 -101s41 -101 101 -101zM974 237c46 0 72 35 72 91v160h269v121h-749v-146c28 41 75 68 141 68c129 0 196 -95 196 -193v-10c0 -56 25 -91 71 -91zM566 288v-288h-151v139
c-30 -46 -83 -75 -156 -75c-127 0 -206 97 -206 234c0 138 79 233 212 233c71 0 121 -27 150 -70v148h-432v131h1587v-131h-98v-609h-157v354h-116v-30c0 -131 -85 -224 -225 -224c-151 0 -227 93 -227 197v6c0 55 -33 94 -90 94c-64 0 -91 -50 -91 -109z" />
    <glyph glyph-name="dvK_TTA" horiz-adv-x="1339" 
d="M566 609v-146c28 41 75 68 141 68c57 0 102 -20 134 -54c47 35 111 55 188 56v76h-463zM313 196c66 0 102 51 102 102c0 52 -35 100 -101 100c-58 0 -102 -40 -102 -101s41 -101 101 -101zM566 288v-288h-151v139c-30 -46 -83 -75 -156 -75c-127 0 -206 97 -206 234
c0 138 79 233 212 233c71 0 121 -27 150 -70v148h-432v131h1373v-131h-173v-208h-137c-79 0 -143 -42 -143 -126c0 -70 50 -119 127 -119c79 0 130 52 130 127h149c0 -159 -107 -263 -275 -263c-169 0 -288 102 -288 256c0 8 0 17 1 25c-1 55 -34 96 -90 96
c-64 0 -91 -50 -91 -109z" />
    <glyph glyph-name="dvK_NNA" horiz-adv-x="1554" 
d="M566 609v-154c27 38 73 62 137 62c13 0 25 -1 36 -3v95h-173zM313 196c66 0 102 51 102 102c0 52 -35 100 -101 100c-58 0 -102 -40 -102 -101s41 -101 101 -101zM961 277c43 0 66 30 66 74v258h-134v-258c0 -44 26 -74 68 -74zM566 288v-288h-151v139
c-30 -46 -83 -75 -156 -75c-127 0 -206 97 -206 234c0 138 79 233 212 233c71 0 121 -27 150 -70v148h-432v131h1588v-131h-99v-609h-157v609h-134v-244c0 -126 -73 -220 -221 -220c-139 0 -211 86 -220 197c-13 32 -41 55 -83 55c-64 0 -91 -50 -91 -109z" />
    <glyph glyph-name="dvK_TA" horiz-adv-x="1088" 
d="M-17 609v131h1122v-131h-426v-186c30 43 81 71 151 71c129 0 206 -103 206 -231c0 -147 -89 -232 -213 -232c-24 0 -46 2 -70 9v122c6 -1 18 -3 28 -3c56 0 95 38 95 101c0 56 -37 100 -94 100c-71 0 -103 -52 -103 -107v-253h-151v352h-109c-81 0 -134 -40 -134 -114
c0 -68 42 -113 126 -113h18v-124h-43c-142 0 -258 79 -258 223c0 55 16 98 42 130h-130v132h488v123h-545z" />
    <glyph glyph-name="dvKx_TA" horiz-adv-x="1389" 
d="M700 522c64 0 115 -25 146 -70c48 27 108 40 172 40h133v117h-585v-149c27 39 72 62 134 62zM237 -175c-51 0 -91 39 -91 89c0 52 40 93 91 93c52 0 92 -41 92 -93c0 -50 -40 -89 -92 -89zM313 196c66 0 102 51 102 102c0 52 -35 100 -101 100c-58 0 -102 -40 -102 -101
s41 -101 101 -101zM566 288v-288h-151v139c-30 -46 -83 -75 -156 -75c-127 0 -206 97 -206 234c0 138 79 233 212 233c71 0 121 -27 150 -70v148h-432v131h1423v-131h-98v-609h-157v357h-125c-80 0 -133 -40 -133 -115c0 -71 41 -117 125 -117h19v-124h-43
c-143 0 -260 73 -260 244c0 14 1 28 3 41c1 72 -36 109 -82 109c-63 0 -89 -49 -89 -107z" />
    <glyph glyph-name="dvK_T_YA" horiz-adv-x="1814" 
d="M1006 500c90 0 151 -27 191 -67c59 19 79 65 79 131v45h-710v-144c25 35 65 57 120 57c59 0 106 -28 132 -79c48 39 114 57 188 57zM313 196c66 0 102 51 102 102c0 52 -35 100 -101 100c-58 0 -102 -40 -102 -101s41 -101 101 -101zM1418 213c99 0 159 68 159 160v236
h-147v-74c0 -105 -57 -182 -161 -197c2 -72 55 -125 149 -125zM566 288v-288h-151v139c-30 -46 -83 -75 -156 -75c-127 0 -206 97 -206 234c0 138 79 233 212 233c71 0 121 -27 150 -70v148h-432v131h1849v-131h-98v-609h-157v157c-40 -46 -105 -75 -193 -75
c-155 0 -249 87 -268 225c-14 31 -39 58 -102 58c-74 0 -119 -41 -119 -115c0 -71 41 -117 125 -117h19v-123h-43c-143 0 -260 72 -260 244v17v0c4 84 -32 124 -81 124c-63 0 -89 -49 -89 -107z" />
    <glyph glyph-name="dvK_T_RA" horiz-adv-x="1406" 
d="M1170 452v157h-604v-146c28 41 74 68 138 68c55 0 100 -23 132 -65c42 34 98 52 165 52c76 0 133 -30 169 -66zM313 196c66 0 102 51 102 102c0 52 -35 100 -101 100c-58 0 -102 -40 -102 -101s41 -101 101 -101zM566 288v-288h-151v139c-30 -46 -83 -75 -156 -75
c-127 0 -206 97 -206 234c0 138 79 233 212 233c71 0 121 -27 150 -70v148h-432v131h1439v-131h-97v-609h-152v181l-185 -180h-206v6l377 333c-25 32 -68 54 -117 54c-76 0 -135 -45 -135 -131h-157v7c-2 85 -37 127 -92 127c-63 0 -92 -50 -92 -109z" />
    <glyph glyph-name="dvK_T_VA" horiz-adv-x="1733" 
d="M693 522c57 0 103 -31 128 -88c51 40 122 58 199 58h184c36 27 83 43 139 43c68 0 122 -26 156 -70v144h-933v-146c26 36 68 59 127 59zM313 196c66 0 102 51 102 102c0 52 -35 100 -101 100c-58 0 -102 -40 -102 -101s41 -101 101 -101zM1386 187c74 0 113 56 113 111v1
c0 58 -39 110 -113 110c-66 0 -113 -45 -113 -110c0 -66 46 -112 113 -112zM1750 609h-98v-609h-153v134c-34 -46 -88 -72 -156 -72c-141 0 -224 103 -224 241c0 19 2 37 5 54h-96c-80 0 -133 -40 -133 -115c0 -71 41 -117 125 -117h19v-124h-43c-143 0 -260 73 -260 244v12
v0c4 92 -25 138 -81 138c-63 0 -89 -49 -89 -107v-288h-151v139c-30 -46 -83 -75 -156 -75c-127 0 -206 97 -206 234c0 138 79 233 212 233c71 0 121 -27 150 -70v148h-432v131h1767v-131z" />
    <glyph glyph-name="dvK_THA" horiz-adv-x="1480" 
d="M313 196c66 0 102 51 102 102c0 52 -35 100 -101 100c-58 0 -102 -40 -102 -101s41 -101 101 -101zM707 523c72 0 124 -32 153 -83c91 4 158 31 158 109c0 37 -23 66 -60 66c-12 0 -21 -2 -30 -6v0h-362v-152c28 40 75 66 141 66zM1242 0v190
c-30 -56 -105 -108 -217 -108c-159 0 -270 95 -283 253c-10 37 -42 62 -85 62c-64 0 -91 -50 -91 -109v-288h-151v139c-30 -46 -83 -75 -156 -75c-127 0 -206 97 -206 234c0 138 79 233 212 233c71 0 121 -27 150 -70v148h-432v131h912c20 6 42 9 65 9
c121 0 206 -80 206 -204c0 -130 -91 -218 -270 -218h-2c7 -59 50 -114 155 -114s193 69 193 206v321h255v-134h-97v-606h-158z" />
    <glyph glyph-name="dvK_DA" horiz-adv-x="1305" 
d="M566 609v-146c28 41 75 68 141 68c55 0 100 -19 133 -50c45 32 105 48 173 48h38v80h-485zM313 196c66 0 102 51 102 102c0 52 -35 100 -101 100c-58 0 -102 -40 -102 -101s41 -101 101 -101zM1242 -33h-154v146c-28 -31 -72 -48 -127 -48c-113 0 -214 73 -214 227v6v0
c0 56 -33 99 -90 99c-64 0 -91 -50 -91 -109v-288h-151v139c-30 -46 -83 -75 -156 -75c-127 0 -206 97 -206 234c0 138 79 233 212 233c71 0 121 -27 150 -70v148h-432v131h1339v-131h-114v-214h-178c-72 0 -122 -39 -122 -107c0 -60 38 -99 98 -99c49 0 91 33 91 92h145
v-314z" />
    <glyph glyph-name="dvK_NA" horiz-adv-x="1519" 
d="M566 609v-146c28 41 75 68 141 68c67 0 112 -24 140 -67c39 21 86 32 136 32h297v113h-714zM972 202c49 0 83 33 83 81s-34 82 -83 82c-50 0 -85 -34 -85 -82s35 -81 85 -81zM313 196c66 0 102 51 102 102c0 52 -35 100 -101 100c-58 0 -102 -40 -102 -101
s41 -101 101 -101zM566 288v-288h-151v139c-30 -46 -83 -75 -156 -75c-127 0 -206 97 -206 234c0 138 79 233 212 233c71 0 121 -27 150 -70v148h-432v131h1553v-131h-98v-609h-158v365h-126c15 -27 26 -61 26 -103c0 -127 -97 -193 -210 -193c-119 0 -225 78 -225 213
c0 10 0 19 1 28c-4 50 -36 87 -89 87c-64 0 -91 -50 -91 -109z" />
    <glyph glyph-name="dvK_PA" horiz-adv-x="1332" 
d="M566 609v-149c28 39 74 63 138 63c7 0 14 0 20 -1v87h-158zM313 196c66 0 102 51 102 102c0 52 -35 100 -101 100c-58 0 -102 -40 -102 -101s41 -101 101 -101zM988 292c71 0 107 53 107 117v200h-214v-191c0 -74 33 -126 107 -126zM566 288v-288h-151v139
c-30 -46 -83 -75 -156 -75c-127 0 -206 97 -206 234c0 138 79 233 212 233c71 0 121 -27 150 -70v148h-432v131h1367v-131h-98v-609h-157v218c-33 -36 -82 -58 -148 -58c-120 0 -191 72 -215 177c-10 36 -38 60 -77 60c-63 0 -89 -50 -89 -109z" />
    <glyph glyph-name="dvK_P_RA" horiz-adv-x="1332" 
d="M566 609v-149c28 39 74 63 138 63c7 0 14 0 20 -1v87h-158zM313 196c66 0 102 51 102 102c0 52 -35 100 -101 100c-58 0 -102 -40 -102 -101s41 -101 101 -101zM988 292c71 0 107 53 107 117v200h-214v-191c0 -74 33 -126 107 -126zM1095 0v223c-1 -1 -2 -3 -3 -4
l-198 -245h-170l175 197c-92 17 -148 82 -167 171c-12 33 -39 55 -77 55c-63 0 -89 -50 -89 -109v-288h-151v139c-30 -46 -83 -75 -156 -75c-127 0 -206 97 -206 234c0 138 79 233 212 233c71 0 121 -27 150 -70v148h-432v131h1367v-131h-98v-609h-157z" />
    <glyph glyph-name="dvK_PHA" horiz-adv-x="1650" 
d="M566 609v-149c28 39 75 63 141 63c9 0 18 0 26 -1v87h-167zM313 196c66 0 102 51 102 102c0 52 -35 100 -101 100c-58 0 -102 -40 -102 -101s41 -101 101 -101zM988 292c66 0 99 50 99 109v208h-197v-199c0 -69 31 -118 98 -118zM566 288v-288h-151v139
c-30 -46 -83 -75 -156 -75c-127 0 -206 97 -206 234c0 138 79 233 212 233c71 0 121 -27 150 -70v148h-432v131h1684v-131h-423v-148c30 42 82 70 152 70c127 0 202 -99 202 -225c0 -147 -86 -232 -206 -232c-25 0 -50 3 -74 10v121c10 -3 22 -4 32 -4c54 0 89 39 89 97
c0 56 -36 99 -93 99c-69 0 -102 -55 -102 -126v-271h-157v216c-31 -35 -77 -56 -139 -56c-118 0 -188 73 -209 181c-11 33 -41 56 -82 56c-64 0 -91 -50 -91 -109z" />
    <glyph glyph-name="dvKx_PHA" horiz-adv-x="1650" 
d="M566 609v-149c28 39 75 63 141 63c9 0 18 0 26 -1v87h-167zM988 292c66 0 99 50 99 109v208h-197v-199c0 -69 31 -118 98 -118zM566 288v-288h-151v139c-30 -46 -83 -75 -156 -75c-127 0 -206 97 -206 234c0 138 79 233 212 233c71 0 121 -27 150 -70v148h-432v131h1684
v-131h-423v-148c30 42 82 70 152 70c127 0 202 -99 202 -225c0 -147 -86 -232 -206 -232c-25 0 -50 3 -74 10v121c10 -3 22 -4 32 -4c54 0 89 39 89 97c0 56 -36 99 -93 99c-69 0 -102 -55 -102 -126v-271h-157v216c-31 -35 -77 -56 -139 -56c-118 0 -188 73 -209 181
c-11 33 -41 56 -82 56c-64 0 -91 -50 -91 -109zM237 -175c-51 0 -91 39 -91 89c0 52 40 93 91 93c52 0 92 -41 92 -93c0 -50 -40 -89 -92 -89zM313 196c66 0 102 51 102 102c0 52 -35 100 -101 100c-58 0 -102 -40 -102 -101s41 -101 101 -101z" />
    <glyph glyph-name="dvKx_PHxA" horiz-adv-x="1651" 
d="M566 609v-149c28 39 75 63 141 63c9 0 18 -1 27 -2v88h-168zM237 -175c-51 0 -91 39 -91 89c0 52 40 93 91 93c52 0 92 -41 92 -93c0 -50 -40 -89 -92 -89zM893 -74c-51 0 -91 39 -91 89c0 52 40 93 91 93c52 0 92 -41 92 -93c0 -50 -40 -89 -92 -89zM313 196
c66 0 102 51 102 102c0 52 -35 100 -101 100c-58 0 -102 -40 -102 -101s41 -101 101 -101zM989 292c66 0 99 50 99 109v208h-197v-199c0 -69 31 -118 98 -118zM566 288v-288h-151v139c-30 -46 -83 -75 -156 -75c-127 0 -206 97 -206 234c0 138 79 233 212 233
c71 0 121 -27 150 -70v148h-432v131h1685v-131h-423v-148c30 42 82 70 152 70c127 0 202 -99 202 -225c0 -147 -86 -232 -206 -232c-25 0 -50 3 -74 10v121c10 -3 22 -4 32 -4c54 0 89 39 89 97c0 56 -36 99 -93 99c-69 0 -102 -55 -102 -126v-271h-157v216
c-31 -35 -77 -56 -139 -56c-114 0 -184 69 -207 171v0c-9 39 -40 66 -85 66c-64 0 -91 -50 -91 -109z" />
    <glyph glyph-name="dvKx_BA" horiz-adv-x="1382" 
d="M566 609v-146c28 41 75 68 141 68c50 0 89 -18 117 -48c42 37 100 58 165 58c69 0 124 -24 161 -61v129h-584zM1150 0v126c-32 -41 -89 -67 -160 -67c-137 0 -240 97 -243 239v0c0 56 -33 99 -90 99c-64 0 -91 -50 -91 -109v-288h-151v139c-30 -46 -83 -75 -156 -75
c-127 0 -206 97 -206 234c0 138 79 233 212 233c71 0 121 -27 150 -70v148h-432v131h1416v-131h-98v-609h-151zM237 -175c-51 0 -91 39 -91 89c0 52 40 93 91 93c52 0 92 -41 92 -93c0 -50 -40 -89 -92 -89zM313 196c66 0 102 51 102 102c0 52 -35 100 -101 100
c-58 0 -102 -40 -102 -101s41 -101 101 -101zM1023 440c-33 0 -63 -10 -87 -28l212 -162c7 17 11 36 11 55c0 72 -51 135 -136 135zM1023 171c36 0 65 10 87 28l-215 161c-7 -17 -11 -36 -11 -56c0 -83 64 -133 139 -133z" />
    <glyph glyph-name="dvK_MA" horiz-adv-x="1545" 
d="M707 523c72 0 121 -30 151 -79c32 13 69 20 109 20h64v145h-465v-151c28 40 75 65 141 65zM313 196c66 0 102 51 102 102c0 52 -35 100 -101 100c-58 0 -102 -40 -102 -101s41 -101 101 -101zM958 194c48 0 73 35 73 87v55h-60c-48 0 -83 -25 -83 -72
c0 -45 30 -70 70 -70zM1306 464v145h-129v-145h129zM566 288v-288h-151v139c-30 -46 -83 -75 -156 -75c-127 0 -206 97 -206 234c0 138 79 233 212 233c71 0 121 -27 150 -70v148h-432v131h1579v-131h-98v-609h-158v336h-129v-47c0 -141 -74 -228 -216 -228
c-132 0 -219 80 -219 203c0 17 2 32 4 47c-4 49 -36 86 -89 86c-64 0 -91 -50 -91 -109z" />
    <glyph glyph-name="dvKx_MA" horiz-adv-x="1534" 
d="M707 523c72 0 121 -30 151 -79c32 13 69 20 109 20h64v145h-465v-151c28 40 75 65 141 65zM237 -175c-51 0 -91 39 -91 89c0 52 40 93 91 93c52 0 92 -41 92 -93c0 -50 -40 -89 -92 -89zM313 196c66 0 102 51 102 102c0 52 -35 100 -101 100c-58 0 -102 -40 -102 -101
s41 -101 101 -101zM958 194c48 0 73 35 73 87v55h-60c-48 0 -83 -25 -83 -72c0 -45 30 -70 70 -70zM1306 464v145h-129v-145h129zM566 288v-288h-151v139c-30 -46 -83 -75 -156 -75c-127 0 -206 97 -206 234c0 138 79 233 212 233c71 0 121 -27 150 -70v148h-432v131h1579
v-131h-98v-609h-158v336h-129v-47c0 -141 -74 -228 -216 -228c-132 0 -219 80 -219 203c0 17 2 32 4 47c-4 49 -36 86 -89 86c-64 0 -91 -50 -91 -109z" />
    <glyph glyph-name="dvK_YA" horiz-adv-x="1442" 
d="M707 523c71 1 119 -32 149 -80c34 23 47 63 47 115v51h-337v-153c28 40 76 66 141 67zM313 196c66 0 102 51 102 102c0 52 -35 100 -101 100c-58 0 -102 -40 -102 -101s41 -101 101 -101zM1045 213c99 0 159 68 159 160v236h-146v-80c0 -102 -45 -178 -162 -191
c2 -69 56 -125 149 -125zM566 288v-288h-151v139c-30 -46 -83 -75 -156 -75c-127 0 -206 97 -206 234c0 138 79 233 212 233c71 0 121 -27 150 -70v148h-432v131h1476v-131h-98v-609h-157v156c-41 -45 -105 -74 -193 -74c-163 0 -258 98 -269 247c-7 34 -32 69 -85 68
c-63 -1 -91 -50 -91 -109z" />
    <glyph glyph-name="dvK_LA" horiz-adv-x="1607" 
d="M1152 410c22 50 60 93 125 108v91h-711v-151c28 40 75 65 141 65c49 0 89 -18 118 -49c41 34 94 50 150 50c96 0 148 -52 174 -114h3zM313 196c66 0 102 51 102 102c0 52 -35 100 -101 100c-58 0 -102 -40 -102 -101s41 -101 101 -101zM566 288v-288h-151v139
c-30 -46 -83 -75 -156 -75c-127 0 -206 97 -206 234c0 138 79 233 212 233c71 0 121 -27 150 -70v148h-432v131h1642v-131h-194v-106c72 -33 124 -106 124 -220c0 -146 -91 -253 -259 -253c-8 0 -20 0 -34 1v137c9 -1 21 -2 27 -2c64 0 107 43 107 115c0 61 -31 105 -90 105
c-65 0 -90 -55 -90 -118v-24h-130v24c0 62 -25 118 -88 118c-60 0 -92 -43 -92 -105c0 -72 43 -115 107 -115c6 0 17 1 27 2v-137c-14 -1 -26 -1 -34 -1c-168 0 -259 107 -259 253v15v0c0 56 -33 99 -90 99c-64 0 -91 -50 -91 -109z" />
    <glyph glyph-name="dvK_VA" horiz-adv-x="1361" 
d="M566 609v-151c28 40 75 65 140 65c47 0 85 -15 114 -42c38 34 89 54 152 54c68 0 122 -26 156 -70v144h-562zM313 196c66 0 102 51 102 102c0 52 -35 100 -101 100c-58 0 -102 -40 -102 -101s41 -101 101 -101zM1015 187c74 0 113 56 113 111v1c0 58 -39 110 -113 110
c-66 0 -113 -45 -113 -110c0 -66 46 -112 113 -112zM1379 609h-98v-609h-153v134c-34 -46 -88 -72 -156 -72c-141 0 -224 103 -224 236h-1c0 56 -33 99 -90 99c-64 0 -91 -50 -91 -109v-288h-151v139c-30 -46 -83 -75 -156 -75c-127 0 -206 97 -206 234
c0 138 79 233 212 233c71 0 121 -27 150 -70v148h-432v131h1396v-131z" />
    <glyph glyph-name="dvK_V_YA" horiz-adv-x="1825" 
d="M1006 535c101 0 170 -45 206 -108c55 20 74 65 74 129v53h-720v-151c28 40 75 65 140 65c50 0 90 -17 119 -46c43 36 105 58 181 58zM313 196c66 0 102 51 102 102c0 52 -35 100 -101 100c-58 0 -102 -40 -102 -101s41 -101 101 -101zM1016 187c72 0 112 52 111 114v5
c-1 7 -2 15 -2 23c-10 44 -49 80 -109 80c-66 0 -114 -45 -114 -110c0 -66 47 -112 114 -112zM1428 213c100 0 159 68 159 160v236h-146v-83c0 -105 -44 -185 -161 -203c7 -64 60 -110 148 -110zM566 288v-288h-151v139c-30 -46 -83 -75 -156 -75c-127 0 -206 97 -206 234
c0 138 79 233 212 233c71 0 121 -27 150 -70v148h-432v131h1859v-131h-97v-609h-158v157c-41 -46 -105 -75 -193 -75c-83 0 -148 25 -194 69c-37 -53 -100 -89 -188 -89c-168 0 -264 103 -264 236h-1c0 56 -33 99 -90 99c-64 0 -91 -50 -91 -109z" />
    <glyph glyph-name="dvK_SHA" horiz-adv-x="1536" 
d="M313 196c66 0 102 51 102 102c0 52 -35 100 -101 100c-58 0 -102 -40 -102 -101s41 -101 101 -101zM707 523c83 0 135 -42 163 -104h16c89 0 173 27 173 116c0 46 -26 78 -73 78c-10 0 -17 -1 -27 -4h-393v-152c28 40 75 66 141 66zM987 -7c-150 0 -240 91 -240 234v71
c0 56 -33 99 -90 99c-64 0 -91 -50 -91 -109v-288h-151v139c-30 -46 -83 -75 -156 -75c-127 0 -206 97 -206 234c0 138 79 233 212 233c71 0 121 -27 150 -70v148h-432v131h935c22 6 46 9 72 9c135 0 228 -80 228 -224c0 -164 -122 -238 -273 -238h-40v-70
c0 -48 21 -89 78 -89c46 0 72 34 72 81v16h153v-18c0 -135 -86 -214 -221 -214zM1296 0v740h257v-131h-98v-609h-159z" />
    <glyph glyph-name="dvK_SS_MA" horiz-adv-x="1407" 
d="M821 186c48 0 72 35 72 87v55h-59c-49 0 -84 -26 -84 -71s31 -71 71 -71zM226 543c0 -48 40 -84 104 -85c32 21 54 47 54 83c0 41 -31 74 -79 74c-43 0 -79 -26 -79 -72zM370 -63v150c-21 -28 -65 -55 -127 -55c-109 0 -185 69 -185 172c0 101 68 150 142 188
c-61 24 -114 74 -114 163c0 115 94 194 223 194c113 0 205 -59 205 -176c0 -50 -19 -87 -46 -117h425v153h-289v131h820v-131h-98v-609h-157v328h-130v-47c0 -141 -74 -228 -215 -228c-132 0 -220 80 -220 203c0 33 6 62 17 87h-303c-57 -26 -98 -51 -98 -104
c0 -44 32 -77 80 -77c55 0 84 44 84 88h130v-313h-144zM1169 456v153h-130v-153h130z" />
    <glyph glyph-name="dvK_SS_M_YA" horiz-adv-x="1856" 
d="M819 178c48 0 71 36 71 88v55h-58c-48 0 -84 -26 -84 -71c0 -46 31 -72 71 -72zM226 543c0 -48 40 -84 104 -85c32 21 54 47 54 83c0 41 -31 74 -79 74c-43 0 -79 -26 -79 -72zM370 -63v150c-21 -28 -65 -55 -127 -55c-109 0 -185 69 -185 172c0 101 68 150 142 188
c-61 24 -114 74 -114 163c0 115 94 194 223 194c113 0 205 -59 205 -176c0 -53 -21 -92 -52 -123h428v159h-288v131h1271v-131h-98v-609h-157v154c-41 -46 -105 -76 -194 -76c-159 0 -254 94 -268 243h-119v-47c0 -142 -74 -228 -215 -228c-132 0 -220 80 -220 203
c0 36 7 68 20 94h-304c-57 -26 -98 -51 -98 -104c0 -44 32 -77 80 -77c55 0 84 44 84 88h130v-313h-144zM1204 450c80 0 113 38 113 105v54h-280v-159h167zM1459 209c99 0 159 68 159 160v240h-147v-78c0 -101 -57 -176 -161 -190c2 -76 54 -132 149 -132z" />
    <glyph glyph-name="dvK_SS_YA" horiz-adv-x="1305" 
d="M226 543c0 -48 40 -84 104 -85c32 21 54 47 54 83c0 41 -31 74 -79 74c-43 0 -79 -26 -79 -72zM370 -63v150c-21 -28 -65 -55 -127 -55c-109 0 -185 69 -185 172c0 101 68 150 142 188c-61 24 -114 74 -114 163c0 115 94 194 223 194c113 0 205 -59 205 -176
c0 -53 -21 -92 -52 -123h178c75 0 126 35 126 105v54h-165v131h721v-131h-97v-609h-158v155c-40 -45 -101 -73 -185 -73c-166 0 -273 103 -278 261h-286c-57 -26 -98 -51 -98 -104c0 -44 32 -77 80 -77c55 0 84 44 84 88h130v-313h-144zM908 213c100 0 159 68 159 160v236
h-146v-54c0 -103 -47 -186 -162 -207c3 -77 56 -135 149 -135z" />
    <glyph glyph-name="dvK_SS_VA" horiz-adv-x="1221" 
d="M226 543c0 -48 40 -84 104 -85c32 21 54 47 54 83c0 41 -31 74 -79 74c-43 0 -79 -26 -79 -72zM370 -63v150c-21 -28 -65 -55 -127 -55c-109 0 -185 69 -185 172c0 101 68 150 142 188c-61 24 -114 74 -114 163c0 115 94 194 223 194c113 0 205 -59 205 -176
c0 -50 -19 -87 -46 -117h188c39 49 99 79 176 79c67 0 121 -26 155 -69v143h-390v131h641v-131h-97v-609h-154v133c-34 -45 -88 -71 -155 -71c-141 0 -225 103 -225 241c0 14 1 27 3 40h-292c-57 -26 -98 -51 -98 -104c0 -44 32 -77 80 -77c55 0 84 44 84 88h130v-313h-144z
M875 187c74 0 112 56 112 111v1c0 58 -38 110 -112 110c-66 0 -113 -45 -113 -110c0 -66 46 -112 113 -112z" />
    <glyph glyph-name="dvK_SA" horiz-adv-x="1513" 
d="M707 517c80 0 132 -41 159 -101c73 13 97 62 97 127v66h-397v-156c28 38 75 64 141 64zM313 196c66 0 102 51 102 102c0 52 -35 100 -101 100c-58 0 -102 -40 -102 -101s41 -101 101 -101zM1120 543c0 -43 -8 -82 -24 -115h178v181h-154v-66zM1182 187
c0 -119 -79 -196 -212 -196c-147 0 -223 96 -223 219v94c0 50 -33 93 -90 93c-64 0 -91 -50 -91 -109v-288h-151v139c-30 -46 -83 -75 -156 -75c-127 0 -206 97 -206 234c0 138 79 233 212 233c71 0 121 -27 150 -70v148h-432v131h1546v-131h-98v-609h-157v300h-372v-98
c0 -43 20 -77 65 -77c41 0 63 31 63 71v13h151c1 -9 1 -17 1 -22z" />
    <glyph glyph-name="dvK_S_TTA" horiz-adv-x="1850" 
d="M707 517c80 0 132 -41 159 -101c73 13 97 62 97 127v66h-397v-156c28 38 75 64 141 64zM313 196c66 0 102 51 102 102c0 52 -35 100 -101 100c-58 0 -102 -40 -102 -101s41 -101 101 -101zM1120 543c0 -43 -8 -82 -24 -115h206c47 65 129 103 237 105v76h-419v-66z
M1182 187c0 -119 -79 -196 -212 -196c-147 0 -223 96 -223 219v94c0 50 -33 93 -90 93c-64 0 -91 -50 -91 -109v-288h-151v139c-30 -46 -83 -75 -156 -75c-127 0 -206 97 -206 234c0 138 79 233 212 233c71 0 121 -27 150 -70v148h-432v131h1883v-131h-173v-208h-137
c-79 0 -143 -42 -143 -126c0 -70 50 -119 127 -119c79 0 130 52 130 127h149c0 -159 -107 -263 -275 -263c-169 0 -288 102 -288 256c0 8 0 16 1 24h-355v-98c0 -43 20 -77 65 -77c41 0 63 31 63 71v13h151c1 -9 1 -17 1 -22z" />
    <glyph glyph-name="dvK_S_DDA" horiz-adv-x="1780" 
d="M707 517c80 0 132 -41 159 -101c74 13 98 62 98 127v66h-398v-156c28 38 75 64 141 64zM313 196c66 0 102 51 102 102c0 52 -35 100 -101 100c-58 0 -102 -40 -102 -101s41 -101 101 -101zM1121 543c0 -43 -8 -82 -25 -115h190c20 74 92 107 177 107h71v74h-413v-66z
M1523 -20c-145 0 -252 69 -257 193h156c2 -50 44 -75 96 -75s82 24 82 61c0 45 -36 63 -87 63h-36c-57 0 -139 14 -176 78h-398v-98c0 -43 20 -77 64 -77c42 0 64 31 64 71v13h150c1 -9 1 -17 1 -22c0 -119 -78 -196 -212 -196c-147 0 -223 96 -223 219v94
c0 50 -33 93 -90 93c-64 0 -91 -50 -91 -109v-288h-151v139c-30 -46 -83 -75 -156 -75c-127 0 -206 97 -206 234c0 138 79 233 212 233c71 0 121 -27 150 -70v148h-432v131h1814v-131h-111v-184h-183c-32 0 -65 -11 -65 -46c0 -34 27 -46 59 -46h45c102 0 206 -44 206 -175
c0 -108 -80 -178 -225 -178z" />
    <glyph glyph-name="dvK_S_TA" horiz-adv-x="1911" 
d="M707 517c80 0 132 -41 159 -101c73 13 97 62 97 127v66h-397v-156c28 38 75 64 141 64zM313 196c66 0 102 51 102 102c0 52 -35 100 -101 100c-58 0 -102 -40 -102 -101s41 -101 101 -101zM1120 543c0 -43 -8 -82 -24 -115h237c52 44 126 64 207 64h133v117h-553v-66z
M1182 187c0 -119 -79 -196 -212 -196c-147 0 -223 96 -223 219v94c0 50 -33 93 -90 93c-64 0 -91 -50 -91 -109v-288h-151v139c-30 -46 -83 -75 -156 -75c-127 0 -206 97 -206 234c0 138 79 233 212 233c71 0 121 -27 150 -70v148h-432v131h1945v-131h-98v-609h-157v357
h-125c-80 0 -133 -40 -133 -115c0 -71 41 -117 125 -117h19v-124h-43c-143 0 -260 73 -260 244c0 20 2 38 5 55h-359v-98c0 -43 20 -77 65 -77c41 0 63 31 63 71v13h151c1 -9 1 -17 1 -22z" />
    <glyph glyph-name="dvK_S_P_RA" horiz-adv-x="1869" 
d="M707 517c80 0 132 -41 159 -101c73 13 97 62 97 127v66h-397v-156c28 38 75 64 141 64zM313 196c66 0 102 51 102 102c0 52 -35 100 -101 100c-58 0 -102 -40 -102 -101s41 -101 101 -101zM1120 543c0 -43 -8 -82 -24 -115h164v181h-140v-66zM1524 292
c71 0 107 53 107 117v200h-214v-191c0 -74 33 -126 107 -126zM1631 0v223c-1 -1 -2 -3 -3 -4l-198 -245h-170l175 197c-77 14 -128 61 -155 129h-378v-98c0 -43 20 -77 65 -77c41 0 63 31 63 71v13h151c1 -9 1 -17 1 -22c0 -119 -79 -196 -212 -196c-147 0 -223 96 -223 219
v94c0 50 -33 93 -90 93c-64 0 -91 -50 -91 -109v-288h-151v139c-30 -46 -83 -75 -156 -75c-127 0 -206 97 -206 234c0 138 79 233 212 233c71 0 121 -27 150 -70v148h-432v131h1903v-131h-98v-609h-157z" />
    <glyph glyph-name="dvK_S_P_LA" horiz-adv-x="2461" 
d="M707 517c80 0 132 -41 159 -101c74 13 98 62 98 127v66h-398v-156c28 38 75 64 141 64zM313 196c66 0 102 51 102 102c0 52 -35 100 -101 100c-58 0 -102 -40 -102 -101s41 -101 101 -101zM1121 543c0 -43 -8 -82 -25 -115h164v181h-139v-66zM1518 292c46 0 75 25 88 60
c26 117 118 172 221 172c96 0 148 -52 174 -114h3c22 50 60 93 125 108v91h-712v-191c0 -74 31 -126 101 -126zM1182 187c0 -119 -78 -196 -212 -196c-147 0 -223 96 -223 219v94c0 50 -33 93 -90 93c-64 0 -91 -50 -91 -109v-288h-151v139c-30 -46 -83 -75 -156 -75
c-127 0 -206 97 -206 234c0 138 79 233 212 233c71 0 121 -27 150 -70v148h-432v131h2494v-131h-194v-106c72 -33 124 -106 124 -220c0 -146 -91 -253 -259 -253c-8 0 -20 0 -34 1v137c9 -1 21 -2 27 -2c64 0 107 43 107 115c0 61 -31 105 -90 105c-65 0 -90 -55 -90 -118
v-24h-130v24c0 62 -25 118 -88 118c-60 0 -92 -43 -92 -105c0 -72 43 -115 107 -115c6 0 17 1 27 2v-137c-14 -1 -26 -1 -34 -1c-129 0 -212 63 -244 158c-32 -18 -70 -28 -115 -28c-112 0 -185 55 -218 140h-378v-98c0 -43 20 -77 64 -77c42 0 64 31 64 71v13h150
c1 -9 1 -17 1 -22z" />
    <glyph glyph-name="dvKH_KHA" horiz-adv-x="1627" 
d="M553 316c0 -55 35 -89 90 -89c54 0 89 34 89 89c0 53 -35 88 -89 88c-55 0 -90 -35 -90 -88zM1307 231c55 0 83 41 83 87c-1 43 -26 86 -83 86c-48 0 -87 -31 -87 -85c0 -58 38 -88 87 -88zM1390 0v158c-25 -28 -63 -47 -118 -47c-11 0 -21 1 -31 2
c-45 -68 -121 -120 -227 -120c-121 0 -211 50 -254 142c-33 -17 -73 -26 -117 -26c-24 0 -46 3 -67 7c-44 -70 -121 -123 -229 -123c-172 0 -282 102 -282 283v127h26c90 0 135 38 135 130v76h-243v131h1661v-131h-98v-609h-156zM351 129c58 0 92 25 111 53
c-30 34 -47 79 -47 134c0 128 96 205 228 205c96 0 167 -45 198 -117c34 19 51 55 51 112v93h-509v-98c0 -134 -66 -205 -162 -217v-37c0 -73 45 -128 130 -128zM1018 129c56 0 89 22 108 49c-29 36 -46 85 -46 141c0 118 80 204 192 204c55 0 93 -19 118 -49v135h-340v-98
c0 -134 -67 -205 -162 -217v-37c0 -73 46 -128 130 -128z" />
    <glyph glyph-name="dvKH_TA" horiz-adv-x="1367" 
d="M643 227c54 0 89 34 89 89c0 53 -35 88 -89 88c-55 0 -90 -35 -90 -88c0 -55 35 -89 90 -89zM351 129c57 0 91 24 110 52c-29 34 -46 79 -46 135c0 128 89 205 220 205c80 0 144 -29 182 -80c47 35 110 51 183 51h129v117h-746v-98c0 -134 -66 -205 -162 -217v-37
c0 -73 45 -128 130 -128zM637 109c-22 0 -42 2 -62 6c-44 -69 -121 -122 -228 -122c-172 0 -282 102 -282 283v127h26c90 0 135 38 135 130v76h-243v131h1401v-131h-98v-609h-157v357h-124c-81 0 -134 -40 -134 -115c0 -71 42 -117 126 -117h18v-124h-39
c-106 0 -191 40 -227 132c-32 -16 -70 -24 -112 -24z" />
    <glyph glyph-name="dvKHx_TA" horiz-adv-x="1367" 
d="M351 -248c-51 0 -91 39 -91 89c0 52 40 93 91 93c52 0 92 -41 92 -93c0 -50 -40 -89 -92 -89zM643 227c54 0 89 34 89 89c0 53 -35 88 -89 88c-55 0 -90 -35 -90 -88c0 -55 35 -89 90 -89zM351 129c57 0 91 24 110 52c-29 34 -46 79 -46 135c0 128 89 205 220 205
c80 0 144 -29 182 -80c47 35 110 51 183 51h129v117h-746v-98c0 -134 -66 -205 -162 -217v-37c0 -73 45 -128 130 -128zM637 109c-22 0 -42 2 -62 6c-44 -69 -121 -122 -228 -122c-172 0 -282 102 -282 283v127h26c90 0 135 38 135 130v76h-243v131h1401v-131h-98v-609h-157
v357h-124c-81 0 -134 -40 -134 -115c0 -71 42 -117 126 -117h18v-124h-39c-106 0 -191 40 -227 132c-32 -16 -70 -24 -112 -24z" />
    <glyph glyph-name="dvKH_NA" horiz-adv-x="1505" 
d="M958 202c49 0 84 33 84 81s-35 82 -84 82c-50 0 -84 -34 -84 -82s34 -81 84 -81zM643 227c54 0 89 34 89 89c0 53 -35 88 -89 88c-55 0 -90 -35 -90 -88c0 -55 35 -89 90 -89zM351 129c58 0 92 25 111 53c-30 34 -47 79 -47 134c0 128 89 205 220 205
c78 0 140 -27 177 -76c40 34 94 51 158 51h297v113h-884v-98c0 -134 -66 -205 -162 -217v-37c0 -73 45 -128 130 -128zM643 109c-24 0 -46 3 -67 7c-44 -70 -121 -123 -229 -123c-172 0 -282 102 -282 283v127h26c90 0 135 38 135 130v76h-243v131h1539v-131h-98v-609h-157
v365h-127c15 -27 26 -61 26 -103c0 -127 -91 -193 -203 -193c-74 0 -139 30 -178 85c-36 -30 -85 -45 -142 -45z" />
    <glyph glyph-name="dvKH_MA" horiz-adv-x="1530" 
d="M1290 464v145h-129v-145h129zM553 316c0 -55 35 -89 90 -89c54 0 89 34 89 89c0 53 -35 88 -89 88c-55 0 -90 -35 -90 -88zM943 194c48 0 71 35 71 87v55h-58c-49 0 -84 -25 -84 -72c0 -45 31 -70 71 -70zM351 129c58 0 92 25 111 53c-30 34 -47 79 -47 134
c0 128 89 205 220 205c85 0 151 -32 187 -90c35 22 79 33 129 33h63v145h-631v-98c0 -134 -66 -205 -162 -217v-37c0 -73 45 -128 130 -128zM643 109c-24 0 -46 3 -67 7c-44 -70 -121 -123 -229 -123c-172 0 -282 102 -282 283v127h26c90 0 135 38 135 130v76h-243v131h1564
v-131h-99v-609h-158v336h-129v-47c0 -141 -68 -228 -210 -228c-82 0 -143 31 -178 84c-34 -24 -79 -36 -130 -36z" />
    <glyph glyph-name="dvKHx_MA" horiz-adv-x="1530" 
d="M324 -243c-51 0 -91 39 -91 89c0 52 40 93 91 93c52 0 92 -41 92 -93c0 -50 -40 -89 -92 -89zM553 316c0 -55 35 -89 90 -89c54 0 89 34 89 89c0 53 -35 88 -89 88c-55 0 -90 -35 -90 -88zM1290 464v145h-129v-145h129zM943 194c48 0 71 35 71 87v55h-58
c-49 0 -84 -25 -84 -72c0 -45 31 -70 71 -70zM351 129c58 0 92 25 111 53c-30 34 -47 79 -47 134c0 128 89 205 220 205c85 0 151 -32 187 -90c35 22 79 33 129 33h63v145h-631v-98c0 -134 -66 -205 -162 -217v-37c0 -73 45 -128 130 -128zM643 109c-24 0 -46 3 -67 7
c-44 -70 -121 -123 -229 -123c-172 0 -282 102 -282 283v127h26c90 0 135 38 135 130v76h-243v131h1564v-131h-99v-609h-158v336h-129v-47c0 -141 -68 -228 -210 -228c-82 0 -143 31 -178 84c-34 -24 -79 -36 -130 -36z" />
    <glyph glyph-name="dvKH_YA" horiz-adv-x="1425" 
d="M643 227c54 0 89 34 89 89c0 53 -35 88 -89 88c-55 0 -90 -35 -90 -88c0 -55 35 -89 90 -89zM1027 213c100 0 160 68 160 160v236h-152v-80c0 -102 -36 -181 -154 -196c5 -77 59 -120 146 -120zM351 129c58 0 92 25 111 53c-30 34 -47 79 -47 134c0 128 96 205 228 205
c86 0 152 -36 187 -95c42 22 50 68 50 132v51h-497v-98c0 -134 -66 -205 -162 -217v-37c0 -73 45 -128 130 -128zM643 109c-24 0 -46 3 -67 7c-44 -70 -121 -123 -229 -123c-172 0 -282 102 -282 283v127h26c90 0 135 38 135 130v76h-243v131h1458v-131h-97v-609h-157v157
c-41 -46 -105 -75 -193 -75s-150 29 -191 86c-38 -39 -93 -59 -160 -59z" />
    <glyph glyph-name="dvKHx_YA" horiz-adv-x="1425" 
d="M351 -248c-51 0 -91 39 -91 89c0 52 40 93 91 93c52 0 92 -41 92 -93c0 -50 -40 -89 -92 -89zM643 227c54 0 89 34 89 89c0 53 -35 88 -89 88c-55 0 -90 -35 -90 -88c0 -55 35 -89 90 -89zM1027 213c100 0 160 68 160 160v236h-152v-80c0 -102 -36 -181 -154 -196
c5 -77 59 -120 146 -120zM351 129c58 0 92 25 111 53c-30 34 -47 79 -47 134c0 128 96 205 228 205c86 0 152 -36 187 -95c42 22 50 68 50 132v51h-497v-98c0 -134 -66 -205 -162 -217v-37c0 -73 45 -128 130 -128zM643 109c-24 0 -46 3 -67 7c-44 -70 -121 -123 -229 -123
c-172 0 -282 102 -282 283v127h26c90 0 135 38 135 130v76h-243v131h1458v-131h-97v-609h-157v157c-41 -46 -105 -75 -193 -75s-150 29 -191 86c-38 -39 -93 -59 -160 -59z" />
    <glyph glyph-name="dvKH_VA" horiz-adv-x="1333" 
d="M1099 0v133c-34 -45 -88 -71 -155 -71c-79 0 -135 32 -169 84c-35 -24 -80 -37 -132 -37c-24 0 -46 3 -67 7c-44 -70 -121 -123 -229 -123c-172 0 -282 102 -282 283v127h26c90 0 135 38 135 130v76h-243v131h1367v-131h-97v-609h-154zM987 187c74 0 112 56 112 111v1
c0 58 -38 110 -112 110c-66 0 -113 -45 -113 -110c0 -66 46 -112 113 -112zM643 227c54 0 89 34 89 89c0 53 -35 88 -89 88c-55 0 -90 -35 -90 -88c0 -55 35 -89 90 -89zM351 129c58 0 92 25 111 53c-30 34 -47 79 -47 134c0 128 89 205 220 205c63 0 116 -18 153 -50
c35 40 87 64 156 64c67 0 121 -26 155 -69v143h-716v-98c0 -134 -66 -205 -162 -217v-37c0 -73 45 -128 130 -128z" />
    <glyph glyph-name="dvKHx_VA" horiz-adv-x="1333" 
d="M351 -248c-51 0 -91 39 -91 89c0 52 40 93 91 93c52 0 92 -41 92 -93c0 -50 -40 -89 -92 -89zM643 227c54 0 89 34 89 89c0 53 -35 88 -89 88c-55 0 -90 -35 -90 -88c0 -55 35 -89 90 -89zM1099 0v133c-34 -45 -88 -71 -155 -71c-79 0 -135 32 -169 84
c-35 -24 -80 -37 -132 -37c-24 0 -46 3 -67 7c-44 -70 -121 -123 -229 -123c-172 0 -282 102 -282 283v127h26c90 0 135 38 135 130v76h-243v131h1367v-131h-97v-609h-154zM987 187c74 0 112 56 112 111v1c0 58 -38 110 -112 110c-66 0 -113 -45 -113 -110
c0 -66 46 -112 113 -112zM351 129c58 0 92 25 111 53c-30 34 -47 79 -47 134c0 128 89 205 220 205c63 0 116 -18 153 -50c35 40 87 64 156 64c67 0 121 -26 155 -69v143h-716v-98c0 -134 -66 -205 -162 -217v-37c0 -73 45 -128 130 -128z" />
    <glyph glyph-name="dvKH_SHA" horiz-adv-x="1505" 
d="M351 129c57 0 91 24 110 52c-29 34 -46 79 -46 135c0 128 89 205 220 205c91 0 162 -37 196 -102h24c88 0 173 27 173 116c0 46 -26 78 -73 78c-9 0 -17 -1 -28 -4h-544v-98c0 -134 -66 -205 -162 -217v-37c0 -73 45 -128 130 -128zM643 227c54 0 89 34 89 89
c0 53 -35 88 -89 88c-55 0 -90 -35 -90 -88c0 -55 35 -89 90 -89zM956 -7c-110 0 -191 46 -222 133c-29 -11 -61 -17 -97 -17c-22 0 -42 2 -62 6c-44 -69 -121 -122 -228 -122c-172 0 -282 102 -282 283v127h26c90 0 135 38 135 130v76h-243v131h904c21 6 45 9 71 9
c136 0 229 -80 229 -224c0 -164 -122 -238 -273 -238h-40v-70c0 -48 20 -89 78 -89c46 0 72 34 72 81v16h153v-18c0 -135 -85 -214 -221 -214zM1265 0v740h257v-134h-98v-606h-159z" />
    <glyph glyph-name="dvKHx_SHA" horiz-adv-x="1505" 
d="M351 129c57 0 91 24 110 52c-29 34 -46 79 -46 135c0 128 89 205 220 205c91 0 162 -37 196 -102h24c88 0 173 27 173 116c0 46 -26 78 -73 78c-9 0 -17 -1 -28 -4h-544v-98c0 -134 -66 -205 -162 -217v-37c0 -73 45 -128 130 -128zM351 -248c-51 0 -91 39 -91 89
c0 52 40 93 91 93c52 0 92 -41 92 -93c0 -50 -40 -89 -92 -89zM643 227c54 0 89 34 89 89c0 53 -35 88 -89 88c-55 0 -90 -35 -90 -88c0 -55 35 -89 90 -89zM956 -7c-110 0 -191 46 -222 133c-29 -11 -61 -17 -97 -17c-22 0 -42 2 -62 6c-44 -69 -121 -122 -228 -122
c-172 0 -282 102 -282 283v127h26c90 0 135 38 135 130v76h-243v131h904c21 6 45 9 71 9c136 0 229 -80 229 -224c0 -164 -122 -238 -273 -238h-40v-70c0 -48 20 -89 78 -89c46 0 72 34 72 81v16h153v-18c0 -135 -85 -214 -221 -214zM1265 0v740h257v-134h-98v-606h-159z
" />
    <glyph glyph-name="dvKHx_SA" horiz-adv-x="1501" 
d="M351 -248c-51 0 -91 39 -91 89c0 52 40 93 91 93c52 0 92 -41 92 -93c0 -50 -40 -89 -92 -89zM643 227c54 0 89 34 89 89c0 53 -35 88 -89 88c-55 0 -90 -35 -90 -88c0 -55 35 -89 90 -89zM351 129c57 0 91 24 110 52c-29 34 -46 79 -46 135c0 128 89 205 220 205
c94 0 166 -39 199 -108c90 8 119 59 119 130v66h-570v-98c0 -134 -66 -205 -162 -217v-37c0 -73 45 -128 130 -128zM1110 543c0 -43 -8 -82 -25 -115h178v181h-153v-66zM1171 187c0 -119 -78 -196 -212 -196c-114 0 -185 58 -212 141c-31 -15 -69 -23 -110 -23
c-22 0 -42 2 -62 6c-44 -69 -121 -122 -228 -122c-172 0 -282 102 -282 283v127h26c90 0 135 38 135 130v76h-243v131h1535v-131h-97v-609h-158v300h-371v-98c0 -43 19 -77 64 -77c41 0 63 31 63 71v13h151c1 -9 1 -17 1 -22z" />
    <glyph glyph-name="dvG_GA" horiz-adv-x="1315" 
d="M1078 0v609h-126v-226c0 -120 -61 -214 -205 -214c-133 0 -210 73 -210 206c0 11 0 22 1 32h152v-31c0 -40 12 -73 53 -73c43 0 51 39 51 74v232h-343v-226c0 -120 -61 -214 -205 -214c-133 0 -210 73 -210 206c0 11 0 22 1 32h152v-31c0 -40 12 -73 53 -73
c43 0 51 39 51 74v232h-310v131h1350v-131h-98v-609h-157z" />
    <glyph glyph-name="dvG_GHA" horiz-adv-x="1190" 
d="M812 222c79 0 141 52 141 134v253h-226v-40c0 -50 23 -82 90 -82h39v-126h-52c-60 0 -87 -29 -87 -68c0 -48 41 -71 95 -71zM1111 0h-158v171c-41 -50 -104 -77 -179 -77c-119 0 -216 62 -216 183c0 78 52 128 107 144v3c-54 14 -95 54 -95 138v47h-119v-226
c0 -120 -61 -214 -205 -214c-133 0 -210 73 -210 206c0 11 0 22 1 32h152v-31c0 -40 12 -73 53 -73c43 0 51 39 51 74v232h-310v131h1225v-131h-97v-609z" />
    <glyph glyph-name="dvG_JA" horiz-adv-x="1359" 
d="M1278 0h-157v354h-115v-30c0 -131 -86 -224 -226 -224c-151 0 -229 93 -229 224v164h158v-160c0 -56 25 -91 72 -91c46 0 71 35 71 91v160h269v121h-670v-226c0 -120 -61 -214 -205 -214c-133 0 -210 73 -210 206c0 11 0 22 1 32h152v-31c0 -40 12 -73 53 -73
c43 0 51 39 51 74v232h-310v131h1393v-131h-98v-609z" />
    <glyph glyph-name="dvG_NNA" horiz-adv-x="1384" 
d="M792 277c43 0 66 30 66 74v258h-134v-258c0 -44 26 -74 68 -74zM1303 0h-157v609h-134v-244c0 -126 -73 -220 -221 -220c-149 0 -221 98 -221 220v244h-119v-226c0 -120 -61 -214 -205 -214c-133 0 -210 73 -210 206c0 11 0 22 1 32h152v-31c0 -40 12 -73 53 -73
c43 0 51 39 51 74v232h-310v131h1419v-131h-99v-609z" />
    <glyph glyph-name="dvG_DA" horiz-adv-x="1109" 
d="M1046 -33h-154v147c-28 -31 -73 -49 -128 -49c-112 0 -213 73 -213 227s113 237 266 237h38v80h-404v-226c0 -120 -61 -214 -205 -214c-133 0 -210 73 -210 206c0 11 0 22 1 32h152v-31c0 -40 12 -73 53 -73c43 0 51 39 51 74v232h-310v131h1144l-1 -131h-114v-214h-178
c-73 0 -122 -39 -122 -107c0 -60 37 -99 97 -99c50 0 91 33 91 92h146v-314z" />
    <glyph glyph-name="dvG_DHA" horiz-adv-x="1222" 
d="M780 78c-123 0 -226 61 -226 181c0 87 63 132 116 144v3c-62 19 -124 71 -124 167c0 13 1 25 3 36h-98v-226c0 -120 -61 -214 -205 -214c-133 0 -210 73 -210 206c0 11 0 22 1 32h152v-31c0 -40 12 -73 53 -73c43 0 51 39 51 74v232h-310v131h685c20 6 42 9 65 9
c116 0 180 -71 180 -169c0 -12 -1 -30 -2 -41h-116c1 11 1 16 1 21c0 34 -22 58 -57 58c-37 0 -59 -27 -59 -62c0 -63 64 -85 126 -85h60v-127h-53c-61 0 -99 -23 -99 -68c0 -47 42 -70 106 -70c101 0 167 70 167 174v360h252v-131h-95v-609h-157v166
c-42 -56 -113 -88 -207 -88z" />
    <glyph glyph-name="dvG_DH_YA" horiz-adv-x="1686" 
d="M1289 213c98 0 158 68 158 160v236h-146v-74c0 -103 -45 -178 -162 -191c2 -76 56 -131 150 -131zM814 76c-147 0 -260 57 -260 183c0 87 63 132 116 144v3c-62 19 -124 71 -124 167c0 13 1 25 3 36h-98v-226c0 -120 -61 -214 -205 -214c-133 0 -210 73 -210 206
c0 11 0 22 1 32h152v-31c0 -40 12 -73 53 -73c43 0 51 39 51 74v232h-310v131h685c20 6 42 9 65 9c116 0 180 -71 180 -169c0 -12 -1 -30 -2 -41h-116c1 11 1 16 1 21c0 34 -22 58 -57 58c-37 0 -59 -27 -59 -62c0 -63 64 -85 126 -85h60v-127h-53c-61 0 -99 -23 -99 -68
c0 -53 58 -70 115 -70c105 0 156 65 155 156v0v2c0 20 1 40 4 60h10c113 0 148 53 148 140v45h-140v131h697v-131h-99v-609h-157v157c-40 -46 -105 -75 -193 -75c-97 0 -171 35 -216 96c-48 -64 -125 -102 -224 -102z" />
    <glyph glyph-name="dvG_DH_VA" horiz-adv-x="1603" 
d="M1522 0h-154v134c-34 -46 -88 -72 -156 -72c-93 0 -161 45 -196 115c-39 -61 -104 -101 -215 -101c-141 0 -247 57 -247 183c0 87 63 132 116 144v3c-62 19 -124 71 -124 167c0 13 1 25 3 36h-98v-226c0 -120 -61 -214 -205 -214c-133 0 -210 73 -210 206c0 11 0 22 1 32
h152v-31c0 -40 12 -73 53 -73c43 0 51 39 51 74v232h-310v131h685c20 6 42 9 65 9c116 0 180 -71 180 -169c0 -12 -1 -30 -2 -41h-116c1 11 1 16 1 21c0 34 -22 58 -57 58c-37 0 -59 -27 -59 -62c0 -63 64 -85 126 -85h60v-127h-53c-61 0 -99 -23 -99 -68
c0 -53 58 -70 116 -70c83 0 144 41 159 126l1 3c12 116 93 200 222 200c68 0 122 -26 156 -70v144h-362v131h613v-131h-97v-609zM1256 187c74 0 112 56 112 111v1c0 58 -38 110 -112 110c-66 0 -114 -45 -114 -110c0 -66 47 -112 114 -112z" />
    <glyph glyph-name="dvG_NA" horiz-adv-x="1323" 
d="M777 202c49 0 83 33 83 81s-34 82 -83 82c-50 0 -85 -34 -85 -82s35 -81 85 -81zM1243 0h-158v365h-126c15 -27 26 -61 26 -103c0 -127 -97 -193 -210 -193c-119 0 -225 78 -225 213c0 144 109 214 238 214h297v113h-634v-226c0 -120 -61 -214 -205 -214
c-133 0 -210 73 -210 206c0 11 0 22 1 32h152v-31c0 -40 12 -73 53 -73c43 0 51 39 51 74v232h-310v131h1358v-131h-98v-609z" />
    <glyph glyph-name="dvG_N_YA" horiz-adv-x="1774" 
d="M777 165c49 0 83 34 83 83c0 47 -34 82 -83 82c-50 0 -85 -35 -85 -83s35 -82 85 -82zM1379 213c98 0 158 68 158 160v236h-146v-74c0 -96 -53 -169 -162 -188c12 -78 64 -134 150 -134zM1694 0h-157v157c-40 -46 -105 -75 -193 -75c-151 0 -244 95 -265 248h-121
c16 -27 27 -61 27 -104c0 -127 -97 -193 -210 -193c-119 0 -225 78 -225 214c0 143 109 213 238 213h299c114 0 149 36 149 104v45h-785v-226c0 -120 -61 -214 -205 -214c-133 0 -210 73 -210 206c0 11 0 22 1 32h152v-31c0 -40 12 -73 53 -73c43 0 51 39 51 74v232h-310
v131h1810v-131h-99v-609z" />
    <glyph glyph-name="dvG_BA" horiz-adv-x="1186" 
d="M954 0v126c-32 -41 -89 -67 -160 -67c-139 0 -243 100 -243 245c0 141 103 237 242 237c69 0 124 -24 161 -61v129h-503v-226c0 -120 -61 -214 -205 -214c-133 0 -210 73 -210 206c0 11 0 22 1 32h152v-31c0 -40 12 -73 53 -73c43 0 51 39 51 74v232h-310v131h1220v-131
h-98v-609h-151zM827 171c36 0 65 10 87 28l-215 161c-7 -17 -11 -36 -11 -56c0 -83 64 -133 139 -133zM827 440c-33 0 -63 -10 -87 -28l212 -162c7 17 11 36 11 55c0 72 -51 135 -136 135z" />
    <glyph glyph-name="dvG_BHA" horiz-adv-x="1348" 
d="M768 194c47 0 71 35 71 87v55h-59c-49 0 -84 -25 -84 -72c0 -45 31 -70 72 -70zM770 61c-132 0 -220 80 -220 203c0 136 102 200 226 200h63v76c0 44 -16 75 -56 75c-8 0 -18 -2 -26 -6h-306v-226c0 -120 -61 -214 -205 -214c-133 0 -210 73 -210 206c0 11 0 22 1 32h152
v-31c0 -40 12 -73 53 -73c43 0 51 39 51 74v232h-310v131h723c21 6 45 9 72 9c156 0 208 -105 208 -238v-47h123v276h257v-131h-100v-609h-157v336h-123v-47c0 -141 -74 -228 -216 -228z" />
    <glyph glyph-name="dvG_BH_YA" horiz-adv-x="1777" 
d="M767 194c48 0 72 35 72 87v55h-58c-50 0 -85 -25 -85 -72c0 -45 31 -70 71 -70zM770 61c-132 0 -220 80 -220 203c0 136 102 200 226 200h63v76c0 44 -16 75 -55 75c-33 0 -54 -25 -54 -64c0 -10 1 -21 3 -32h-157c-2 11 -4 25 -4 38c0 18 2 36 6 52h-127v-226
c0 -120 -61 -214 -205 -214c-133 0 -210 73 -210 206c0 11 0 22 1 32h152v-31c0 -40 12 -73 53 -73c43 0 51 39 51 74v232h-310v131h722c22 6 46 9 73 9c156 0 207 -105 207 -238v-47h140c78 0 113 20 113 100v45h-158v131h715v-131h-99v-609h-157v157
c-40 -46 -105 -75 -193 -75c-163 0 -260 99 -270 254h-91v-47c0 -141 -73 -228 -215 -228zM1381 213c98 0 158 68 158 160v236h-146v-74c0 -103 -45 -176 -162 -189c1 -78 54 -133 150 -133z" />
    <glyph glyph-name="dvG_MA" horiz-adv-x="1350" 
d="M1111 464v145h-129v-145h129zM763 194c48 0 73 35 73 87v55h-60c-48 0 -83 -25 -83 -72c0 -45 30 -70 70 -70zM1269 0h-158v336h-129v-47c0 -141 -74 -228 -216 -228c-132 0 -219 80 -219 203c0 136 101 200 225 200h64v145h-385v-226c0 -120 -61 -214 -205 -214
c-133 0 -210 73 -210 206c0 11 0 22 1 32h152v-31c0 -40 12 -73 53 -73c43 0 51 39 51 74v232h-310v131h1384v-131h-98v-609z" />
    <glyph glyph-name="dvG_YA" horiz-adv-x="1253" 
d="M856 213c98 0 158 68 158 160v236h-146v-74c0 -103 -45 -177 -161 -191c2 -76 55 -131 149 -131zM1172 0h-158v156c-41 -45 -105 -74 -192 -74c-174 0 -271 111 -271 282c0 20 1 40 4 60h10c114 0 148 53 148 140v45h-262v-226c0 -120 -61 -214 -205 -214
c-133 0 -210 73 -210 206c0 11 0 22 1 32h152v-31c0 -40 12 -73 53 -73c43 0 51 39 51 74v232h-310v131h1287v-131h-98v-609z" />
    <glyph glyph-name="dvG_R_YA" horiz-adv-x="1253" 
d="M856 213c98 0 158 68 158 160v236h-146v-74c0 -103 -45 -177 -161 -191c2 -76 55 -131 149 -131zM822 82c-107 0 -185 42 -229 114l-215 -216h-181l356 339c-1 14 -2 29 -2 45c0 20 1 40 4 60h10c114 0 148 53 148 140v45h-262v-157c0 -120 -61 -214 -205 -214
c-133 0 -210 73 -210 206c0 10 0 21 1 32h152v-32c0 -39 12 -72 53 -72c43 0 51 39 51 73v164h-310v131h1287v-131h-98v-609h-158v156c-41 -45 -105 -74 -192 -74z" />
    <glyph glyph-name="dvG_LA" horiz-adv-x="1411" 
d="M1100 30c-8 0 -20 0 -34 1v137c9 -1 21 -2 27 -2c64 0 107 43 107 115c0 61 -31 105 -90 105c-65 0 -90 -55 -90 -118v-24h-130v24c0 62 -25 118 -88 118c-60 0 -92 -43 -92 -105c0 -72 43 -115 107 -115c6 0 17 1 27 2v-137c-14 -1 -26 -1 -34 -1
c-168 0 -259 107 -259 253c0 164 107 241 228 241c96 0 148 -52 174 -114h3c22 50 60 93 125 108v91h-630v-226c0 -120 -61 -214 -205 -214c-133 0 -210 73 -210 206c0 11 0 22 1 32h152v-31c0 -40 12 -73 53 -73c43 0 51 39 51 74v232h-310v131h1446v-131h-194v-106
c72 -33 124 -106 124 -220c0 -146 -91 -253 -259 -253z" />
    <glyph glyph-name="dvG_VA" horiz-adv-x="1164" 
d="M818 187c74 0 113 56 113 111v1c0 58 -39 110 -113 110c-66 0 -113 -45 -113 -110c0 -66 46 -112 113 -112zM1182 609h-98v-609h-153v134c-34 -46 -88 -72 -156 -72c-141 0 -224 103 -224 241c0 133 84 232 224 232c68 0 122 -26 156 -70v144h-480v-226
c0 -120 -61 -214 -205 -214c-133 0 -210 73 -210 206c0 11 0 22 1 32h152v-31c0 -40 12 -73 53 -73c43 0 51 39 51 74v232h-310v131h1199v-131z" />
    <glyph glyph-name="dvG_SA" horiz-adv-x="1324" 
d="M931 543c0 -43 -8 -82 -24 -115h178v181h-154v-66zM993 187c0 -119 -79 -196 -212 -196c-147 0 -223 96 -223 219v202h74c108 0 142 54 142 131v66h-323v-226c0 -120 -61 -214 -205 -214c-133 0 -210 73 -210 206c0 11 0 22 1 32h152v-31c0 -40 12 -73 53 -73
c43 0 51 39 51 74v232h-310v131h1357v-131h-98v-609h-157v300h-372v-98c0 -43 20 -77 65 -77c41 0 63 31 63 71v13h151c1 -9 1 -17 1 -22z" />
    <glyph glyph-name="dvGH_NA" horiz-adv-x="1216" 
d="M670 202c49 0 83 33 83 81s-34 82 -83 82c-50 0 -85 -34 -85 -82s35 -81 85 -81zM315 222c61 0 104 22 130 103l3 10c24 108 121 161 233 161h297v113h-743v-40c0 -50 23 -82 90 -82h37v-126h-50c-60 0 -87 -29 -87 -68c0 -48 41 -71 90 -71zM1234 609h-98v-609h-158v365
h-126c15 -27 26 -61 26 -103c0 -127 -97 -193 -210 -193c-81 0 -155 36 -195 101c-43 -54 -115 -76 -192 -76c-129 0 -215 62 -215 183c0 78 52 128 107 144v3c-54 14 -95 54 -95 138v47h-95v131h1251v-131z" />
    <glyph glyph-name="dvGH_MA" horiz-adv-x="1243" 
d="M1004 464v145h-129v-145h129zM656 194c48 0 73 35 73 87v55h-60c-48 0 -83 -25 -83 -72c0 -45 30 -70 70 -70zM315 222c58 0 105 19 129 90l2 6c23 99 113 146 219 146h64v145h-494v-40c0 -50 23 -82 90 -82h42v-126h-55c-60 0 -87 -29 -87 -68c0 -48 41 -71 90 -71z
M1260 609h-98v-609h-158v336h-129v-47c0 -141 -74 -228 -216 -228c-89 0 -158 37 -193 98c-43 -45 -109 -65 -181 -65c-132 0 -219 62 -219 183c0 78 52 128 107 144v3c-54 14 -95 54 -95 138v47h-95v131h1277v-131z" />
    <glyph glyph-name="dvGH_YA" horiz-adv-x="1162" 
d="M320 222c88 0 135 52 141 121c-1 7 -1 14 -1 21c0 20 1 40 4 60h10c114 0 148 53 148 140v45h-387v-40c0 -50 23 -82 90 -82h39v-126h-52c-60 0 -87 -29 -87 -68c0 -48 41 -71 95 -71zM765 213c98 0 158 68 158 160v236h-146v-74c0 -103 -45 -177 -161 -191
c2 -76 55 -131 149 -131zM1179 609h-98v-609h-158v156c-41 -45 -105 -74 -192 -74c-93 0 -164 32 -210 88c-47 -47 -115 -76 -201 -76c-157 0 -254 62 -254 183c0 78 52 128 107 144v3c-54 14 -95 54 -95 138v47h-95v131h1196v-131z" />
    <glyph glyph-name="dvC_CA" horiz-adv-x="1118" 
d="M384 213c60 0 99 38 119 92c6 33 22 62 46 84h-170c-55 0 -96 -34 -96 -88c0 -58 45 -88 101 -88zM1134 609h-98v-609h-157v160c-38 -50 -101 -77 -175 -77s-138 30 -174 83c-40 -53 -97 -85 -177 -85c-126 0 -217 64 -217 191c0 48 17 88 49 117h-134v123h733v-123h-41
c-55 0 -96 -34 -96 -88c0 -58 47 -89 105 -88c81 1 127 63 127 155v241h-896v131h1151v-131z" />
    <glyph glyph-name="dvC_CHA" horiz-adv-x="1258" 
d="M838 154c154 0 240 62 240 179c0 54 -26 91 -63 91c-35 0 -63 -27 -63 -80c0 -24 5 -51 13 -76h-129c-8 24 -14 57 -14 94c0 94 51 147 121 167v80h-274v-64c0 -50 21 -82 80 -82h20v-126h-17c-66 0 -96 -36 -96 -80c0 -64 55 -103 182 -103zM1216 325
c0 -185 -139 -305 -379 -305c-148 0 -263 40 -313 121c-41 -38 -95 -59 -160 -60c-123 -2 -228 64 -228 191c0 48 17 88 49 117h-134v123h369v-123h-41c-55 0 -96 -34 -96 -88c0 -58 47 -89 105 -88c59 1 101 36 116 84h1c15 50 51 82 101 99v4c-53 13 -94 54 -94 138v71
h-529v131h1293v-131h-188v-81c78 -26 128 -97 128 -203z" />
    <glyph glyph-name="dvC_CH_VA" horiz-adv-x="1258" 
d="M836 -179c64 0 99 46 99 96v110c-30 -4 -63 -7 -93 -7v0c-68 -1 -106 -44 -106 -100c0 -59 40 -99 100 -99zM838 154c154 0 240 62 240 179c0 54 -26 91 -63 91c-35 0 -63 -27 -63 -80c0 -24 5 -51 13 -76h-129c-8 24 -14 57 -14 94c0 94 51 147 121 167v80h-274v-64
c0 -50 21 -82 80 -82h20v-126h-17c-66 0 -96 -36 -96 -80c0 -64 55 -103 182 -103zM1216 325c0 -111 -50 -198 -141 -250v-427h-140v114c-31 -40 -79 -62 -139 -62c-130 0 -207 88 -207 196c0 61 24 114 67 149c-59 20 -105 52 -132 96c-41 -38 -95 -59 -160 -60
c-123 -2 -228 64 -228 191c0 48 17 88 49 117h-134v123h369v-123h-41c-55 0 -96 -34 -96 -88c0 -58 47 -89 105 -88c59 1 101 36 116 84h1c15 50 51 82 101 99v4c-53 13 -94 54 -94 138v71h-529v131h1293v-131h-188v-81c78 -26 128 -97 128 -203z" />
    <glyph glyph-name="dvC_NA" horiz-adv-x="1287" 
d="M724 202c49 0 83 33 83 81s-34 82 -83 82c-50 0 -85 -34 -85 -82s35 -81 85 -81zM1288 609h-98v-609h-158v365h-126c15 -27 26 -61 26 -103c0 -127 -97 -193 -210 -193c-73 0 -142 30 -184 84c-40 -45 -98 -71 -169 -71c-131 0 -233 66 -233 190c0 48 17 88 49 117h-134
v123h369v-123h-41c-55 0 -96 -34 -96 -88c0 -58 46 -87 102 -87c61 1 99 37 113 89c10 130 114 193 237 193h297v113h-1049v131h1305v-131z" />
    <glyph glyph-name="dvC_MA" horiz-adv-x="1299" 
d="M1059 464v145h-129v-145h129zM711 194c48 0 73 35 73 87v55h-60c-48 0 -83 -25 -83 -72c0 -45 30 -70 70 -70zM1315 609h-98v-609h-158v336h-129v-47c0 -141 -74 -228 -216 -228c-83 0 -148 31 -185 85c-40 -42 -97 -65 -169 -65c-129 0 -224 67 -224 191
c0 48 17 88 49 117h-134v123h369v-123h-41c-55 0 -96 -34 -96 -88c0 -58 43 -88 98 -88c67 0 106 41 119 101v0c22 102 112 150 220 150h64v145h-801v131h1332v-131z" />
    <glyph glyph-name="dvC_YA" horiz-adv-x="1217" 
d="M820 213c98 0 158 68 158 160v236h-146v-74c0 -103 -45 -177 -161 -191c2 -76 55 -131 149 -131zM1234 609h-98v-609h-158v156c-41 -45 -105 -74 -192 -74c-97 0 -170 35 -216 95c-43 -63 -112 -96 -199 -96c-138 0 -235 64 -235 191c0 48 17 88 49 117h-134v123h369
v-123h-41c-55 0 -96 -34 -96 -88c0 -58 46 -89 103 -88c77 1 127 55 129 171v0c1 13 2 27 4 40h10c114 0 148 53 148 140v45h-694v131h1251v-131z" />
    <glyph glyph-name="dvCH_YA" horiz-adv-x="1345" 
d="M403 154c154 0 240 62 240 179c0 54 -26 91 -63 91c-35 0 -63 -27 -63 -80c0 -24 5 -51 13 -76h-129c-8 24 -14 57 -14 94c0 124 90 177 194 177c65 0 119 -26 153 -74c54 10 74 42 74 93v51h-574v-64c0 -50 21 -82 80 -82h20v-126h-17c-66 0 -96 -36 -96 -80
c0 -64 55 -103 182 -103zM947 213c94 0 159 66 159 160v236h-146v-74c0 -106 -66 -182 -178 -192c22 -80 71 -130 165 -130zM1361 609h-97v-609h-158v151c-37 -42 -94 -69 -171 -69c-89 0 -158 30 -205 83c-57 -91 -171 -145 -328 -145c-200 0 -340 72 -340 222
c0 81 43 132 109 154v4c-53 13 -94 54 -94 138v71h-94v131h1378v-131z" />
    <glyph glyph-name="dvCH_R_YA" horiz-adv-x="1345" 
d="M403 154c154 0 240 62 240 179c0 54 -26 91 -63 91c-35 0 -63 -27 -63 -80c0 -24 5 -51 13 -76h-129c-8 24 -14 57 -14 94c0 124 90 177 194 177c65 0 119 -26 153 -74c54 10 74 42 74 93v51h-574v-64c0 -50 21 -82 80 -82h20v-126h-17c-66 0 -96 -36 -96 -80
c0 -64 55 -103 182 -103zM947 213c94 0 159 66 159 160v236h-146v-74c0 -106 -66 -182 -178 -192c22 -80 71 -130 165 -130zM506 -105l-92 119l-92 -119h-158l111 136c-130 26 -213 95 -213 211c0 81 43 132 109 154v4c-53 13 -94 54 -94 138v71h-94v131h1378v-131h-97v-609
h-158v151c-37 -42 -94 -69 -171 -69c-89 0 -158 30 -205 83c-38 -60 -99 -104 -182 -127l117 -143h-159z" />
    <glyph glyph-name="dvJ_KA" horiz-adv-x="1522" 
d="M972 0v139c-30 -46 -83 -75 -156 -75c-127 0 -206 97 -206 234c0 20 2 38 5 56h-108v-30c0 -131 -86 -224 -226 -224c-151 0 -229 93 -229 224v164h158v-160c0 -56 25 -91 72 -91c46 0 71 35 71 91v160h336c34 28 79 43 133 43c71 0 121 -27 150 -70v148h-989v131h1556
v-131h-416v-148c29 43 77 70 144 70c128 0 202 -102 202 -229c0 -145 -87 -228 -206 -228c-24 0 -44 2 -68 8v123c7 -2 16 -3 25 -3c52 0 90 35 90 96c0 56 -36 99 -93 99c-65 0 -94 -50 -94 -109v-288h-151zM870 196c66 0 102 51 102 102c0 52 -35 100 -101 100
c-58 0 -102 -40 -102 -101s41 -101 101 -101z" />
    <glyph glyph-name="dvJ_JA" horiz-adv-x="1426" 
d="M1345 0h-157v354h-115v-30c0 -131 -86 -224 -226 -224c-151 0 -229 93 -229 224v30h-111v-30c0 -131 -86 -224 -226 -224c-151 0 -229 93 -229 224v164h158v-160c0 -56 25 -91 72 -91c46 0 71 35 71 91v160h423v-160c0 -56 25 -91 72 -91c46 0 71 35 71 91v160h269v121
h-1205v131h1460v-131h-98v-609z" />
    <glyph glyph-name="dvJx_JxA" horiz-adv-x="1426" 
d="M282 -139c-51 0 -91 39 -91 89c0 52 40 93 91 93c52 0 92 -41 92 -93c0 -50 -40 -89 -92 -89zM848 -139c-51 0 -91 39 -91 89c0 52 40 93 91 93c52 0 92 -41 92 -93c0 -50 -40 -89 -92 -89zM1345 0h-157v354h-115v-30c0 -131 -86 -224 -226 -224c-151 0 -229 93 -229 224
v30h-111v-30c0 -131 -86 -224 -226 -224c-151 0 -229 93 -229 224v164h158v-160c0 -56 25 -91 72 -91c46 0 71 35 71 91v160h423v-160c0 -56 25 -91 72 -91c46 0 71 35 71 91v160h269v121h-1205v131h1460v-131h-98v-609z" />
    <glyph glyph-name="dvJ_J_NYA" horiz-adv-x="1386" 
d="M1150 0v362h-139c36 -29 60 -73 60 -134c0 -108 -80 -176 -181 -176c-60 0 -110 22 -142 55v-124h-154v285h147c6 -53 46 -87 100 -87c57 0 87 40 87 88c0 63 -51 93 -102 93h-319v-38c0 -131 -86 -224 -226 -224c-151 0 -229 93 -229 224v163h158v-159
c0 -56 25 -91 72 -91c46 0 71 35 71 91v159h797v122h-1167v131h1420v-131h-99v-609h-154z" />
    <glyph glyph-name="dvJ_J_YA" horiz-adv-x="1880" 
d="M1483 213c99 0 159 68 159 160v236h-146v-74c0 -97 -54 -171 -162 -190c4 -77 56 -132 149 -132zM1799 0h-157v157c-41 -46 -105 -75 -193 -75c-152 0 -246 92 -267 238c-20 -1 -43 -1 -71 -1h-38c-2 -129 -88 -219 -226 -219c-148 0 -226 89 -229 216h-111
c-4 -127 -89 -216 -226 -216c-151 0 -229 93 -229 224v126h158v-122c0 -56 25 -91 72 -91c46 0 71 35 71 91v122h422v-122c0 -56 27 -91 72 -91c46 0 72 35 72 91v122h274c113 0 148 43 148 114v45h-1358v131h1914v-131h-98v-609z" />
    <glyph glyph-name="dvJ_J_VA" horiz-adv-x="1789" 
d="M1442 187c74 0 113 56 113 111v1c0 58 -39 110 -113 110c-66 0 -113 -45 -113 -110c0 -66 46 -112 113 -112zM1806 609h-98v-609h-153v134c-34 -46 -88 -72 -156 -72c-141 0 -224 103 -224 241c0 18 1 35 4 51h-106v-30c0 -131 -86 -224 -226 -224
c-151 0 -229 93 -229 224v30h-111v-30c0 -131 -86 -224 -226 -224c-151 0 -229 93 -229 224v164h158v-160c0 -56 25 -91 72 -91c46 0 71 35 71 91v160h423v-160c0 -56 25 -91 72 -91c46 0 71 35 71 91v160h336c37 30 86 47 144 47c68 0 122 -26 156 -70v144h-1572v131h1823
v-131z" />
    <glyph glyph-name="dvJ_JHA" horiz-adv-x="1418" 
d="M828 333h355v276h-165v-184h-185c-33 0 -66 -11 -66 -47c0 -32 26 -45 61 -45zM1183 0v215h-126c11 -21 17 -47 17 -78c0 -87 -59 -152 -165 -152c-69 0 -110 31 -128 48v-117h-148v253h141c3 -41 34 -69 85 -69c48 0 70 26 70 58c0 39 -27 64 -87 64c-20 0 -40 0 -63 2
c-74 4 -155 39 -168 130h-104v-30c0 -131 -86 -224 -226 -224c-151 0 -229 93 -229 224v164h158v-160c0 -56 25 -91 72 -91c46 0 71 35 71 91v160h297c34 33 86 48 143 48h73v73h-883v131h1452v-131h-98v-609h-154z" />
    <glyph glyph-name="dvJ_NY_YA" horiz-adv-x="1322" 
d="M925 213c99 0 159 68 159 160v236h-146v-74c0 -102 -50 -181 -159 -206c13 -68 58 -116 146 -116zM1241 0h-157v157c-40 -46 -105 -75 -193 -75c-157 0 -243 92 -265 237c-15 38 -48 58 -95 58h-61c35 -28 58 -70 58 -129c0 -109 -79 -175 -180 -175
c-62 0 -112 22 -143 55v-126h-153v287h147c6 -54 45 -88 99 -88c57 0 87 38 87 84c0 63 -49 92 -102 92h-39v125h289c86 0 146 -23 184 -64c48 21 65 65 65 126v45h-799v131h1356v-131h-98v-609z" />
    <glyph glyph-name="dvJ_TTA" horiz-adv-x="1199" 
d="M894 20c-169 0 -288 102 -288 256c0 28 4 54 10 78h-109v-30c0 -131 -86 -224 -226 -224c-151 0 -229 93 -229 224v164h158v-160c0 -56 25 -91 72 -91c46 0 71 35 71 91v160h364c45 28 103 44 172 45v76h-906v131h1233v-131h-173v-208h-137c-79 0 -143 -42 -143 -126
c0 -70 50 -119 127 -119c79 0 130 52 130 127h149c0 -159 -107 -263 -275 -263z" />
    <glyph glyph-name="dvJ_DDA" horiz-adv-x="1097" 
d="M839 -20c-145 0 -252 69 -257 193h156c2 -50 44 -75 96 -75s82 24 82 61c0 45 -36 63 -87 63h-36c-70 0 -178 21 -195 132h-91v-30c0 -131 -86 -224 -226 -224c-151 0 -229 93 -229 224v164h158v-160c0 -56 25 -91 72 -91c46 0 71 35 71 91v160h284c34 32 85 47 142 47
h71v74h-867v131h1130v-131h-111v-184h-183c-32 0 -65 -11 -65 -46c0 -34 27 -46 59 -46h45c102 0 206 -44 206 -175c0 -108 -80 -178 -225 -178z" />
    <glyph glyph-name="dvJ_TA" horiz-adv-x="1264" 
d="M1183 0h-157v357h-125c-79 0 -133 -40 -133 -115c0 -71 41 -117 126 -117h18v-124h-43c-142 0 -258 77 -258 230c0 52 13 93 35 126h-139v-33c0 -131 -86 -224 -226 -224c-151 0 -229 93 -229 224v168h158v-164c0 -56 25 -91 72 -91c46 0 71 35 71 91v164h673v117h-1043
v131h1298v-131h-98v-609z" />
    <glyph glyph-name="dvJ_DA" horiz-adv-x="1166" 
d="M1102 -33h-154v147c-28 -31 -73 -49 -128 -49c-112 0 -213 73 -213 227c0 23 3 44 7 64h-107v-32c0 -131 -86 -224 -226 -224c-151 0 -229 93 -229 224v164h158v-160c0 -56 25 -91 72 -91c46 0 71 35 71 91v160h357c44 27 100 41 163 41h38v80h-928v131h1200l-1 -131
h-114v-214h-178c-73 0 -122 -39 -122 -107c0 -60 37 -99 97 -99c50 0 91 33 91 92h146v-314z" />
    <glyph glyph-name="dvJ_NA" horiz-adv-x="1387" 
d="M830 193c49 0 84 35 84 82c0 48 -35 83 -84 83s-84 -34 -84 -83c0 -47 34 -82 84 -82zM1296 0h-157v358h-128c16 -27 27 -62 27 -104c0 -127 -96 -193 -210 -193c-119 0 -224 78 -224 213c0 30 5 57 13 80h-110v-30c0 -131 -86 -224 -226 -224c-151 0 -229 93 -229 224
v164h158v-160c0 -56 25 -91 72 -91c46 0 71 35 71 91v160h786v121h-1156v131h1411v-131h-98v-609z" />
    <glyph glyph-name="dvJ_BA" horiz-adv-x="1238" 
d="M879 171c36 0 65 10 87 28l-215 161c-7 -17 -11 -36 -11 -56c0 -83 64 -133 139 -133zM1006 0v126c-32 -41 -89 -67 -160 -67c-139 0 -243 100 -243 245c0 17 2 34 5 50h-101v-30c0 -131 -86 -224 -226 -224c-151 0 -229 93 -229 224v164h158v-160c0 -56 25 -91 72 -91
c46 0 71 35 71 91v160h333c42 34 97 53 159 53c69 0 124 -24 161 -61v129h-1023v131h1272v-131h-98v-609h-151zM879 440c-33 0 -63 -10 -87 -28l212 -162c7 17 11 36 11 55c0 72 -51 135 -136 135z" />
    <glyph glyph-name="dvJ_MA" horiz-adv-x="1405" 
d="M1166 477v132h-130v-132h130zM818 206c48 0 72 34 72 81v62h-58c-49 0 -85 -27 -85 -72s31 -71 71 -71zM1324 0h-158v349h-130v-53c0 -138 -73 -223 -215 -223c-130 0 -218 77 -218 194c0 33 6 61 17 85h-113v-28c0 -131 -86 -224 -226 -224c-151 0 -229 93 -229 224v153
h158v-149c0 -56 25 -91 72 -91c46 0 71 35 71 91v149h537v132h-907v131h1439v-131h-98v-609z" />
    <glyph glyph-name="dvJ_YA" horiz-adv-x="1314" 
d="M917 213c99 0 158 68 158 160v236h-145v-74c0 -97 -55 -172 -162 -190c4 -77 57 -132 149 -132zM1234 0h-159v155c-41 -44 -105 -73 -192 -73c-153 0 -245 92 -266 238c-20 -1 -44 -1 -72 -1h-38c-2 -129 -88 -219 -226 -219c-151 0 -229 93 -229 224v126h158v-122
c0 -56 25 -91 72 -91c46 0 71 35 71 91v122h274c113 0 148 43 148 114v45h-792v131h1348v-131h-97v-609z" />
    <glyph glyph-name="dvJx_YA" horiz-adv-x="1314" 
d="M1234 0h-159v155c-41 -44 -105 -73 -192 -73c-153 0 -245 92 -266 238c-20 -1 -44 -1 -72 -1h-38c-2 -129 -88 -219 -226 -219c-151 0 -229 93 -229 224v126h158v-122c0 -56 25 -91 72 -91c46 0 71 35 71 91v122h274c113 0 148 43 148 114v45h-792v131h1348v-131h-97
v-609zM282 -139c-51 0 -91 39 -91 89c0 52 40 93 91 93c52 0 92 -41 92 -93c0 -50 -40 -89 -92 -89zM917 213c99 0 158 68 158 160v236h-145v-74c0 -97 -55 -172 -162 -190c4 -77 57 -132 149 -132z" />
    <glyph glyph-name="dvJ_VA" horiz-adv-x="1223" 
d="M876 187c74 0 113 56 113 111v1c0 58 -39 110 -113 110c-66 0 -113 -45 -113 -110c0 -66 46 -112 113 -112zM1240 609h-98v-609h-153v134c-34 -46 -88 -72 -156 -72c-141 0 -224 103 -224 241c0 18 1 35 4 51h-106v-30c0 -131 -86 -224 -226 -224
c-151 0 -229 93 -229 224v164h158v-160c0 -56 25 -91 72 -91c46 0 71 35 71 91v160h336c37 30 86 47 144 47c68 0 122 -26 156 -70v144h-1006v131h1257v-131z" />
    <glyph glyph-name="dvJH_NA" horiz-adv-x="1365" 
d="M279 333h318c23 110 120 163 233 163h297v113h-658v-184h-185c-33 0 -66 -11 -66 -47c0 -32 26 -45 61 -45zM819 202c49 0 83 33 83 81s-34 82 -83 82c-50 0 -85 -34 -85 -82s35 -81 85 -81zM232 33v-117h-148v253h141c3 -41 34 -69 85 -69c48 0 70 26 70 58
c0 39 -27 64 -87 64c-20 0 -40 0 -63 2c-81 4 -170 46 -170 156s84 156 184 156h73v73h-334v131h1400v-131h-98v-609h-158v365h-126c15 -27 26 -61 26 -103c0 -127 -97 -193 -210 -193c-98 0 -187 53 -215 146h-94c11 -21 17 -47 17 -78c0 -87 -59 -152 -165 -152
c-69 0 -110 31 -128 48z" />
    <glyph glyph-name="dvJH_MA" horiz-adv-x="1397" 
d="M1158 464v145h-129v-145h129zM810 194c48 0 73 35 73 87v55h-60c-48 0 -83 -25 -83 -72c0 -45 30 -70 70 -70zM279 333h325c29 89 114 131 215 131h64v145h-414v-184h-185c-33 0 -66 -11 -66 -47c0 -32 26 -45 61 -45zM232 33v-117h-148v253h141c3 -41 34 -69 85 -69
c48 0 70 26 70 58c0 39 -27 64 -87 64c-20 0 -40 0 -63 2c-81 4 -170 46 -170 156s84 156 184 156h73v73h-334v131h1431v-131h-98v-609h-158v336h-129v-47c0 -141 -74 -228 -216 -228c-114 0 -194 59 -214 154h-91c11 -21 17 -47 17 -78c0 -87 -59 -152 -165 -152
c-69 0 -110 31 -128 48z" />
    <glyph glyph-name="dvJH_YA" horiz-adv-x="1294" 
d="M279 333h314c-1 10 -1 20 -1 31c0 20 1 40 4 60h10c114 0 148 53 148 140v45h-285v-184h-185c-33 0 -66 -11 -66 -47c0 -32 26 -45 61 -45zM897 213c98 0 158 68 158 160v236h-146v-74c0 -103 -45 -177 -161 -191c2 -76 55 -131 149 -131zM232 33v-117h-148v253h141
c3 -41 34 -69 85 -69c48 0 70 26 70 58c0 39 -27 64 -87 64c-20 0 -40 0 -63 2c-81 4 -170 46 -170 156s84 156 184 156h73v73h-334v131h1328v-131h-98v-609h-158v156c-41 -45 -105 -74 -192 -74c-116 0 -198 49 -239 133h-116c11 -21 17 -47 17 -78
c0 -87 -59 -152 -165 -152c-69 0 -110 31 -128 48z" />
    <glyph glyph-name="dvNY_CA" horiz-adv-x="1268" 
d="M1187 0h-157v160c-38 -50 -101 -77 -175 -77c-87 0 -160 41 -190 113h-159c-33 -89 -113 -142 -220 -142c-131 0 -224 75 -233 195h148c11 -39 44 -63 87 -63c61 0 93 48 93 108c0 57 -32 107 -93 107c-44 0 -77 -25 -87 -63h-148c8 120 102 196 233 196
c134 0 225 -84 235 -216h136c7 28 22 52 43 71h-134v123h369v-123h-41c-55 0 -96 -34 -96 -88c0 -58 47 -89 105 -88c81 1 127 63 127 155v241h-1047v131h1302v-131h-98v-609z" />
    <glyph glyph-name="dvNY_CHA" horiz-adv-x="1353" 
d="M932 154c154 0 240 62 240 179c0 54 -26 91 -63 91c-35 0 -63 -27 -63 -80c0 -24 5 -51 13 -76h-129c-8 24 -14 57 -14 94c0 94 51 147 121 167v80h-274v-64c0 -50 21 -82 80 -82h20v-126h-17c-66 0 -96 -36 -96 -80c0 -64 55 -103 182 -103zM931 20
c-196 0 -335 69 -340 214h-75c-22 -112 -108 -180 -230 -180c-131 0 -224 75 -233 195h148c11 -39 44 -63 87 -63c61 0 93 48 93 108c0 57 -32 107 -93 107c-44 0 -77 -25 -87 -63h-148c8 120 102 196 233 196c117 0 201 -64 228 -168h130c16 13 35 23 56 30v4
c-53 13 -94 54 -94 138v71h-623v131h1387v-131h-188v-81c78 -26 128 -97 128 -203c0 -185 -139 -305 -379 -305z" />
    <glyph glyph-name="dvNY_JA" horiz-adv-x="1401" 
d="M1320 0h-157v354h-115v-30c0 -131 -86 -224 -226 -224c-113 0 -186 52 -215 134h-91c-22 -112 -108 -180 -230 -180c-131 0 -224 75 -233 195h148c11 -39 44 -63 87 -63c61 0 93 48 93 108c0 57 -32 107 -93 107c-44 0 -77 -25 -87 -63h-148c8 120 102 196 233 196
c117 0 201 -64 228 -168h79v122h158v-160c0 -56 25 -91 72 -91c46 0 71 35 71 91v160h269v121h-1180v131h1435v-131h-98v-609z" />
    <glyph glyph-name="dvNY_SHA" horiz-adv-x="1389" 
d="M840 -7c-151 0 -240 91 -240 234v7h-84c-22 -112 -108 -180 -230 -180c-131 0 -224 75 -233 195h148c11 -39 44 -63 87 -63c61 0 93 48 93 108c0 57 -32 107 -93 107c-44 0 -77 -25 -87 -63h-148c8 120 102 196 233 196c117 0 201 -63 227 -167h87v52h139
c88 0 173 27 173 116c0 46 -25 78 -70 78s-70 -32 -70 -79c0 -12 0 -23 1 -34h-157c-1 13 -3 26 -3 39c0 25 4 48 11 70h-641v131h785c23 6 47 9 74 9c136 0 229 -80 229 -224c0 -164 -122 -238 -273 -238h-40v-70c0 -48 20 -89 78 -89c46 0 72 34 72 81v16h152
c1 -10 1 -16 1 -18c0 -135 -86 -214 -221 -214zM1149 0v740h257v-131h-98v-609h-159z" />
    <glyph glyph-name="dvTT_TTA" horiz-adv-x="668" 
d="M-17 609v131h703v-131h-189v-203h-152c-68 0 -125 -34 -125 -103c0 -59 44 -103 123 -103c86 0 128 47 128 113h150c0 -150 -96 -244 -274 -248c-68 -2 -127 -30 -127 -104c0 -60 44 -103 123 -103c86 0 128 47 128 114h150c0 -151 -100 -249 -274 -249
c-172 0 -285 93 -285 235c0 77 37 137 96 172c-60 39 -96 101 -96 180c0 137 103 228 274 228h6v71h-359z" />
    <glyph glyph-name="dvTT_TTHA" horiz-adv-x="670" 
d="M-17 609v131h704v-131h-190v-203h-151c-69 0 -126 -34 -126 -103c0 -59 44 -103 124 -103c83 0 127 47 127 113h150c0 -79 -32 -142 -93 -181c58 -36 96 -95 96 -177c0 -147 -123 -231 -281 -231c-159 0 -280 84 -280 231c0 82 37 140 95 176c-66 41 -95 106 -95 179
c0 137 103 228 273 228h7v71h-360zM343 -144c78 0 124 41 124 106s-46 106 -124 106c-77 0 -124 -41 -124 -106s47 -106 124 -106z" />
    <glyph glyph-name="dvTT_YA" horiz-adv-x="1305" 
d="M1070 0v115c-32 -44 -83 -72 -160 -72c-122 0 -225 73 -225 240c0 8 1 16 1 24h54c46 0 74 11 74 45c0 41 -39 49 -75 49h-386c-79 0 -143 -42 -143 -126c0 -70 49 -119 124 -119c73 0 119 48 119 117h150c0 -153 -104 -253 -266 -253c-167 0 -284 102 -284 256
s107 254 283 257v76h-353v131h1339v-131h-98v-609h-154zM942 161c73 0 128 53 128 149v299h-580v-84h254c144 0 222 -56 222 -156c0 -65 -47 -114 -131 -125c7 -46 39 -83 107 -83z" />
    <glyph glyph-name="dvTT_VA" horiz-adv-x="659" 
d="M325 -126c63 0 98 46 98 96v103c-27 -5 -56 -8 -87 -8c-72 0 -110 -41 -110 -97s39 -94 99 -94zM-17 609v131h693v-131h-176v-203h-155c-71 0 -129 -34 -129 -103c0 -59 46 -103 129 -103c88 0 135 47 135 113h149c0 -69 -21 -126 -61 -167v-445h-145v115
c-32 -40 -81 -63 -144 -63c-128 0 -203 92 -203 205c0 69 30 129 82 165c-63 40 -98 106 -98 185c0 138 103 230 272 230h14v71h-363z" />
    <glyph glyph-name="dvTTH_TTHA" horiz-adv-x="673" 
d="M339 -146c77 0 123 42 123 108s-46 107 -123 107c-76 0 -122 -41 -122 -107s46 -108 122 -108zM339 199c77 0 123 41 123 108c0 65 -46 107 -123 107c-76 0 -122 -42 -122 -107c0 -67 46 -108 122 -108zM339 -276c-156 0 -277 84 -277 231c0 78 33 134 86 171
c-54 40 -86 101 -86 181c0 132 87 206 199 229v73h-278v131h707v-131h-275v-72c113 -23 202 -98 202 -230c0 -80 -32 -141 -86 -181c53 -37 86 -93 86 -171c0 -147 -121 -231 -278 -231z" />
    <glyph glyph-name="dvTTH_YA" horiz-adv-x="1314" 
d="M335 161c78 0 128 52 128 124s-50 123 -128 123c-75 0 -126 -51 -126 -123s51 -124 126 -124zM952 173c72 0 128 52 128 149v287h-668v-79h342c143 0 222 -54 222 -153c0 -65 -47 -113 -131 -124c7 -44 39 -80 107 -80zM1080 0v128c-32 -44 -83 -73 -161 -73
c-121 0 -224 71 -224 237v22h55c45 0 73 13 73 46c0 41 -39 49 -72 49h-178c26 -36 40 -82 40 -133c0 -146 -116 -246 -278 -246c-159 0 -282 96 -282 255c0 138 91 221 204 246v78h-274v131h1348v-131h-98v-609h-153z" />
    <glyph glyph-name="dvTTH_VA" horiz-adv-x="673" 
d="M343 204c77 0 123 42 123 108s-46 107 -122 107c-78 0 -125 -41 -125 -107s46 -108 124 -108zM323 -116c65 0 99 47 99 95v105c-27 -6 -55 -9 -85 -9c-68 0 -110 -36 -110 -97c0 -56 38 -94 96 -94zM569 -288h-147v114c-31 -40 -80 -63 -140 -63c-128 0 -203 89 -203 209
c0 69 28 126 77 161c-58 39 -93 101 -93 182c0 131 89 204 202 226v68h-282v131h707v-131h-270v-67c112 -23 200 -97 200 -230c0 -60 -19 -109 -51 -147v-453z" />
    <glyph glyph-name="dvDD_DDA" horiz-adv-x="578" 
d="M-17 609v131h612v-131h-121v-168h-183c-32 0 -63 -8 -63 -40c0 -33 33 -38 84 -38c134 0 225 -34 225 -152c0 -100 -87 -157 -239 -157c-53 0 -78 -12 -78 -40c0 -35 37 -38 87 -38c139 0 230 -32 230 -152c0 -101 -82 -158 -225 -158c-140 0 -247 58 -252 170h149
c2 -42 41 -68 101 -68c53 0 80 20 80 55c0 51 -50 56 -100 56c-128 0 -215 31 -215 131c0 46 23 78 61 98c-46 24 -76 64 -76 116h149c3 -38 41 -67 101 -67c53 0 80 22 80 55c0 49 -52 54 -101 54c-128 0 -214 35 -214 139c0 95 78 138 179 138h74v66h-345z" />
    <glyph glyph-name="dvDD_DDHA" horiz-adv-x="587" 
d="M-12 609v131h601v-131h-115v-168h-184c-32 0 -63 -8 -63 -40c0 -33 33 -38 84 -38c134 0 225 -34 225 -152c0 -95 -73 -144 -215 -158c-90 -8 -160 -54 -160 -146c0 -76 49 -132 157 -132c72 0 124 26 124 75c0 29 -17 50 -52 50c-29 0 -48 -17 -48 -42c0 -5 1 -10 3 -15
h-102c-2 13 -4 26 -4 36c0 79 62 123 157 123c107 0 172 -62 172 -150c0 -111 -85 -180 -246 -180c-163 0 -293 81 -293 239c0 94 45 159 115 192c-51 24 -86 66 -86 121h150c3 -38 41 -67 101 -67c52 0 79 22 79 55c0 49 -51 54 -100 54c-128 0 -214 35 -214 139
c0 95 79 138 178 138h75v66h-339z" />
    <glyph glyph-name="dvDD_YA" horiz-adv-x="1209" 
d="M974 0v127c-32 -44 -82 -72 -159 -72c-122 0 -226 71 -226 238c0 7 0 15 1 23h49c46 0 80 14 80 52c0 47 -46 57 -80 57h-351c-32 0 -65 -11 -65 -46c0 -34 27 -46 59 -46h45c102 0 206 -44 206 -175c0 -108 -80 -178 -225 -178s-252 69 -257 193h156
c2 -50 44 -75 96 -75s82 24 82 61c0 45 -36 63 -87 63h-36c-76 0 -197 25 -197 162c0 105 83 151 183 151h71v74h-336v131h1243v-131h-97v-609h-155zM847 173c72 0 127 52 127 149v287h-503v-78h178c149 0 221 -54 221 -152c0 -67 -46 -115 -131 -126c7 -43 40 -80 108 -80z
" />
    <glyph glyph-name="dvDD_VA" horiz-adv-x="589" 
d="M283 -150c58 0 90 40 90 81v112c-19 -3 -40 -4 -62 -4c-73 0 -118 -34 -118 -100c0 -55 40 -89 90 -89zM-17 609v131h623v-131h-132v-168h-184c-30 0 -63 -9 -63 -44c0 -43 46 -39 108 -42c120 -6 201 -46 201 -156c0 -37 -11 -69 -31 -93v-432h-132v115
c-30 -32 -75 -49 -128 -49c-111 0 -186 75 -186 183c0 69 33 125 88 154c-55 30 -89 78 -89 131h150c3 -37 41 -65 101 -65c52 0 79 21 79 57c0 53 -50 59 -111 59c-80 0 -203 17 -203 146c0 95 79 138 178 138h75v66h-344z" />
    <glyph glyph-name="dvDDH_DDHA" horiz-adv-x="676" 
d="M-17 609v131h710v-131h-197v-158h-117c-95 0 -169 -50 -169 -146c0 -80 51 -140 162 -140c76 0 130 26 130 75c0 30 -18 51 -53 51c-33 0 -52 -18 -52 -43c0 -4 1 -10 3 -14h-102c-3 12 -5 25 -5 35c0 81 65 124 161 124c113 0 174 -62 174 -151
c0 -112 -100 -179 -246 -179c-95 0 -172 -50 -172 -147c0 -80 51 -139 162 -139c76 0 130 26 130 75c0 29 -18 50 -54 50c-31 0 -51 -18 -51 -42c0 -5 1 -10 3 -15h-102c-3 12 -5 25 -5 35c0 80 64 124 160 124c109 0 175 -62 175 -150c0 -112 -89 -180 -259 -180
c-169 0 -301 85 -301 242c0 92 44 158 114 195c-70 41 -114 109 -114 201c0 152 113 236 265 236h29v61h-379z" />
    <glyph glyph-name="dvDDH_YA" horiz-adv-x="1322" 
d="M1088 0v126c-32 -43 -83 -71 -160 -71c-122 0 -225 73 -225 241v23h45c49 -2 84 15 84 53c0 50 -45 61 -83 61h-355c-107 0 -189 -56 -189 -167c0 -91 56 -162 173 -162c72 0 128 32 128 91c0 33 -22 56 -55 56c-28 0 -50 -20 -50 -48c0 -6 1 -12 3 -16h-112
c-2 13 -4 27 -4 38c0 89 71 138 170 138c115 0 182 -69 182 -168c0 -127 -95 -204 -265 -204c-182 0 -322 102 -322 281c0 174 124 269 290 269h19v68h-379v131h1356v-131h-97v-609h-154zM961 173c71 0 127 50 127 143v293h-578v-73h255c148 0 219 -52 219 -153
c0 -77 -54 -118 -131 -127c7 -45 39 -83 108 -83z" />
    <glyph glyph-name="dvDDH_VA" horiz-adv-x="658" 
d="M-17 609v131h692v-131h-181v-158h-115c-95 0 -169 -50 -169 -146c0 -80 51 -140 162 -140c73 0 125 27 125 76c0 29 -19 50 -50 50s-50 -18 -50 -43c0 -4 1 -10 3 -14h-102c-3 12 -5 25 -5 35c0 81 64 124 160 124c109 0 169 -62 169 -150c0 -53 -22 -96 -61 -126v-443
h-132v142c-30 -39 -77 -62 -137 -62c-128 0 -203 83 -203 193c0 70 33 127 88 160c-67 40 -109 110 -109 205c0 152 113 236 265 236h26v61h-376zM331 -126c65 0 98 49 98 99v94c-19 -3 -40 -4 -62 -4c-76 0 -131 -29 -131 -98c0 -54 39 -91 95 -91z" />
    <glyph glyph-name="dvNN_TTA" horiz-adv-x="1206" 
d="M303 277c43 0 66 30 66 74v258h-134v-258c0 -44 26 -74 68 -74zM1176 283c0 -159 -107 -263 -275 -263c-169 0 -288 102 -288 256s107 254 283 257v76h-373v-244c0 -126 -73 -220 -221 -220c-149 0 -221 98 -221 220v244h-98v131h1240v-131h-173v-208h-137
c-79 0 -143 -42 -143 -126c0 -70 50 -119 127 -119c79 0 130 52 130 127h149z" />
    <glyph glyph-name="dvNN_TTHA" horiz-adv-x="1242" 
d="M906 161c78 0 128 52 128 124s-50 123 -128 123c-75 0 -126 -51 -126 -123s51 -124 126 -124zM303 277c43 0 66 30 66 74v258h-134v-258c0 -44 26 -74 68 -74zM906 30c-159 0 -282 96 -282 255c0 138 91 221 204 246v78h-305v-244c0 -126 -73 -220 -221 -220
c-149 0 -221 98 -221 220v244h-98v131h1276v-131h-276v-77c115 -25 207 -108 207 -247c0 -159 -124 -255 -284 -255z" />
    <glyph glyph-name="dvNN_DDA" horiz-adv-x="1133" 
d="M303 277c43 0 66 30 66 74v258h-134v-258c0 -44 26 -74 68 -74zM876 -20c-145 0 -252 69 -257 193h156c2 -50 44 -75 96 -75s82 24 82 61c0 45 -36 63 -87 63h-36c-76 0 -197 25 -197 162c0 105 83 151 183 151h71v74h-364v-244c0 -126 -73 -220 -221 -220
c-149 0 -221 98 -221 220v244h-98v131h1167v-131h-111v-184h-183c-32 0 -65 -11 -65 -46c0 -34 27 -46 59 -46h45c102 0 206 -44 206 -175c0 -108 -80 -178 -225 -178z" />
    <glyph glyph-name="dvNN_DDHA" horiz-adv-x="1226" 
d="M303 277c43 0 66 30 66 74v258h-134v-258c0 -44 26 -74 68 -74zM1210 195c0 -127 -95 -204 -265 -204c-182 0 -322 102 -322 281c0 174 124 269 290 269h19v68h-409v-244c0 -126 -73 -220 -221 -220c-149 0 -221 98 -221 220v244h-98v131h1259v-131h-162v-176h-116
c-107 0 -189 -56 -189 -167c0 -91 56 -162 173 -162c72 0 128 32 128 91c0 33 -22 56 -55 56c-28 0 -50 -20 -50 -48c0 -6 1 -12 3 -16h-112c-2 13 -4 27 -4 38c0 89 71 138 170 138c115 0 182 -69 182 -168z" />
    <glyph glyph-name="dvNN_NNA" horiz-adv-x="1451" 
d="M303 277c43 0 66 30 66 74v258h-134v-258c0 -44 26 -74 68 -74zM858 277c43 0 66 30 66 74v258h-134v-258c0 -44 26 -74 68 -74zM1468 609h-99v-609h-157v609h-134v-244c0 -126 -73 -220 -221 -220c-149 0 -221 98 -221 220v244h-113v-244c0 -126 -73 -220 -221 -220
c-149 0 -221 98 -221 220v244h-98v131h1485v-131z" />
    <glyph glyph-name="dvNN_MA" horiz-adv-x="1406" 
d="M1167 464v145h-129v-145h129zM819 194c48 0 73 35 73 87v55h-60c-48 0 -83 -25 -83 -72c0 -45 30 -70 70 -70zM303 277c43 0 66 30 66 74v258h-134v-258c0 -44 26 -74 68 -74zM1423 609h-98v-609h-158v336h-129v-47c0 -141 -74 -228 -216 -228c-132 0 -219 80 -219 203
c0 136 101 200 225 200h64v145h-369v-244c0 -126 -73 -220 -221 -220c-149 0 -221 98 -221 220v244h-98v131h1440v-131z" />
    <glyph glyph-name="dvNN_YA" horiz-adv-x="1311" 
d="M1329 609h-98v-609h-158v156c-41 -45 -105 -74 -192 -74c-174 0 -271 111 -271 282c0 20 1 40 4 60h10c114 0 148 53 148 140v45h-249v-244c0 -126 -73 -220 -221 -220c-149 0 -221 98 -221 220v244h-98v131h1346v-131zM303 277c43 0 66 30 66 74v258h-134v-258
c0 -44 26 -74 68 -74zM915 213c98 0 158 68 158 160v236h-146v-74c0 -103 -45 -177 -161 -191c2 -76 55 -131 149 -131z" />
    <glyph glyph-name="dvNN_VA" horiz-adv-x="1238" 
d="M891 187c74 0 113 56 113 111v1c0 58 -39 110 -113 110c-66 0 -113 -45 -113 -110c0 -66 46 -112 113 -112zM303 277c43 0 66 30 66 74v258h-134v-258c0 -44 26 -74 68 -74zM1255 609h-98v-609h-153v134c-34 -46 -88 -72 -156 -72c-141 0 -224 103 -224 241
c0 133 84 232 224 232c68 0 122 -26 156 -70v144h-481v-244c0 -126 -73 -220 -221 -220c-149 0 -221 98 -221 220v244h-98v131h1272v-131z" />
    <glyph glyph-name="dvT_KA" horiz-adv-x="1347" 
d="M797 0v139c-30 -46 -83 -75 -156 -75c-127 0 -206 97 -206 234c0 20 2 38 5 56h-95c-80 0 -133 -39 -133 -112c0 -71 41 -117 125 -117h19v-124h-43c-143 0 -260 73 -260 244s129 244 284 244h178c35 27 79 42 132 42c71 0 121 -27 150 -70v148h-814v131h1381v-131h-416
v-148c29 43 77 70 144 70c128 0 202 -102 202 -229c0 -145 -87 -228 -206 -228c-24 0 -44 2 -68 8v123c7 -2 16 -3 25 -3c52 0 90 35 90 96c0 56 -36 99 -93 99c-65 0 -94 -50 -94 -109v-288h-151zM695 196c66 0 102 51 102 102c0 52 -35 100 -101 100
c-58 0 -102 -40 -102 -101s41 -101 101 -101z" />
    <glyph glyph-name="dvT_K_YA" horiz-adv-x="1824" 
d="M1089 523c71 1 119 -32 149 -80c34 23 47 63 47 115v51h-337v-153c28 40 76 66 141 67zM695 196c66 0 102 51 102 102c0 52 -35 100 -101 100c-58 0 -102 -40 -102 -101s41 -101 101 -101zM1427 213c99 0 159 68 159 160v236h-146v-80c0 -102 -45 -178 -162 -191
c2 -69 56 -125 149 -125zM948 288v-288h-151v139c-30 -46 -83 -75 -156 -75c-127 0 -206 97 -206 234c0 20 2 38 5 56h-95c-80 0 -133 -39 -133 -112c0 -71 41 -117 125 -117h19v-124h-43c-143 0 -260 73 -260 244s129 244 284 244h178c35 27 79 42 132 42
c71 0 121 -27 150 -70v148h-814v131h1858v-131h-98v-609h-157v156c-41 -45 -105 -74 -193 -74c-163 0 -258 98 -269 247c-7 34 -32 69 -85 68c-63 -1 -91 -50 -91 -109z" />
    <glyph glyph-name="dvT_K_RA" horiz-adv-x="1347" 
d="M797 0v148c-3 -4 -5 -7 -8 -11v0l-155 -183h-169l119 131c-90 24 -149 106 -149 213c0 20 2 38 5 56h-95c-80 0 -133 -39 -133 -112c0 -71 41 -117 125 -117h19v-124h-43c-143 0 -260 73 -260 244s129 244 284 244h178c35 27 79 42 132 42c71 0 121 -27 150 -70v148h-814
v131h1381v-131h-416v-148c29 43 77 70 144 70c128 0 202 -102 202 -229c0 -145 -87 -228 -206 -228c-24 0 -44 2 -68 8v123c7 -2 16 -3 25 -3c52 0 90 35 90 96c0 56 -36 99 -93 99c-65 0 -92 -52 -94 -109v-288h-151zM695 196c66 0 102 51 102 102c0 52 -35 100 -101 100
c-58 0 -102 -40 -102 -101s41 -101 101 -101z" />
    <glyph glyph-name="dvT_K_VA" horiz-adv-x="1743" 
d="M948 609v-151c28 40 75 65 140 65c47 0 85 -15 114 -42c38 34 89 54 152 54c68 0 122 -26 156 -70v144h-562zM695 196c66 0 102 51 102 102c0 52 -35 100 -101 100c-58 0 -102 -40 -102 -101s41 -101 101 -101zM1397 187c74 0 113 56 113 111v1c0 58 -39 110 -113 110
c-66 0 -113 -45 -113 -110c0 -66 46 -112 113 -112zM1761 609h-98v-609h-153v134c-34 -46 -88 -72 -156 -72c-141 0 -224 103 -224 236h-1c0 56 -33 99 -90 99c-64 0 -91 -50 -91 -109v-288h-151v139c-30 -46 -83 -75 -156 -75c-127 0 -206 97 -206 234c0 21 2 40 5 59h-95
c-80 0 -133 -40 -133 -115c0 -71 41 -117 125 -117h19v-124h-43c-143 0 -260 73 -260 244c0 173 129 247 284 247h182c34 25 77 39 128 39c71 0 121 -27 150 -70v148h-814v131h1778v-131z" />
    <glyph glyph-name="dvT_K_SSA" horiz-adv-x="1257" 
d="M623 543c0 -48 40 -84 104 -85c32 21 54 47 54 83c0 41 -31 74 -79 74c-43 0 -79 -26 -79 -72zM767 -63v150c-21 -28 -65 -55 -127 -55c-109 0 -185 69 -185 172h-1v22c0 71 -44 131 -123 131c-72 0 -119 -41 -119 -115c0 -71 41 -117 125 -117h19v-124h-43
c-143 0 -260 73 -260 244c0 165 112 247 248 247c114 0 186 -65 219 -149c23 19 50 35 77 49c-61 24 -114 74 -114 163c0 19 3 37 7 54h-507v131h651c22 6 46 9 72 9c113 0 205 -59 205 -176c0 -50 -19 -87 -46 -117h161v284h249v-131h-98v-609h-151v343h-311
c-57 -26 -98 -51 -98 -104c0 -44 32 -77 80 -77c55 0 84 44 84 88h130v-313h-144z" />
    <glyph glyph-name="dvT_KHA" horiz-adv-x="1358" 
d="M749 129c55 0 88 22 108 49c-30 36 -46 85 -46 141c0 118 79 204 192 204c54 0 92 -19 117 -48v134h-339v-103c0 -134 -67 -205 -162 -218v-31c0 -73 45 -128 130 -128zM1120 0v157c-25 -28 -63 -46 -117 -46c-11 0 -22 1 -32 2c-44 -68 -120 -120 -226 -120
c-173 0 -282 102 -282 283v9c-11 35 -42 72 -119 72c-84 0 -132 -40 -132 -115c0 -71 41 -117 125 -117h19v-124h-43c-143 0 -260 73 -260 244c0 170 127 250 282 250c108 0 180 -33 222 -86c44 16 66 54 66 118v82h-640v131h1391v-131h-97v-609h-157zM1037 231
c55 0 83 41 83 87c-1 43 -25 86 -83 86c-48 0 -86 -31 -86 -85c0 -58 37 -88 86 -88z" />
    <glyph glyph-name="dvT_KH_RA" horiz-adv-x="1358" 
d="M1120 0v157c-25 -28 -63 -46 -117 -46c-12 0 -23 1 -33 3c-5 -7 -10 -14 -15 -20v0l-186 -229h-167v8l112 129c-155 11 -251 108 -251 274v9c-11 35 -42 72 -119 72c-84 0 -132 -40 -132 -115c0 -71 41 -117 125 -117h19v-124h-43c-143 0 -260 73 -260 244
c0 170 127 250 282 250c108 0 180 -33 222 -86c44 16 66 54 66 118v82h-640v131h1391v-131h-97v-609h-157zM749 129c55 0 88 22 108 49c-30 36 -46 85 -46 141c0 118 79 204 192 204c54 0 92 -19 117 -48v134h-339v-103c0 -134 -67 -205 -162 -218v-31
c0 -73 45 -128 130 -128zM1037 231c55 0 83 41 83 87c-1 43 -25 86 -83 86c-48 0 -86 -31 -86 -85c0 -58 37 -88 86 -88z" />
    <glyph glyph-name="dvT_TA" horiz-adv-x="765" 
d="M-17 609v131h799v-131h-98v-609h-158v357h-124c-80 0 -134 -41 -134 -119c0 -68 42 -113 127 -113h17v-124h-42c-142 0 -258 79 -258 223c0 58 17 103 43 136h-132v132h503v117h-543z" />
    <glyph glyph-name="dvT_T_YA" horiz-adv-x="1184" 
d="M787 213c98 0 158 68 158 160v236h-146v-74c0 -104 -57 -182 -161 -197c2 -72 55 -125 149 -125zM1103 0h-158v156c-41 -45 -105 -74 -192 -74c-155 0 -249 87 -268 224c-14 32 -40 59 -102 59c-72 0 -121 -39 -121 -115c0 -68 42 -114 126 -114h18v-123h-43
c-142 0 -258 78 -258 222c0 57 15 101 39 133h-127v132h358c90 0 151 -27 191 -67c59 19 78 65 78 131v45h-668v131h1225v-131h-98v-609z" />
    <glyph glyph-name="dvT_T_VA" horiz-adv-x="1106" 
d="M759 187c74 0 113 56 113 111v1c0 58 -39 110 -113 110c-66 0 -113 -45 -113 -110c0 -66 46 -112 113 -112zM1123 609h-98v-609h-153v134c-34 -46 -88 -72 -156 -72c-141 0 -224 103 -224 241c0 19 2 37 5 54h-95c-80 0 -134 -41 -134 -119c0 -68 42 -113 127 -113h17
v-124h-42c-142 0 -258 79 -258 223c0 58 17 103 43 136h-132v132h554c36 27 83 43 139 43c68 0 122 -26 156 -70v144h-889v131h1140v-131z" />
    <glyph glyph-name="dvT_THA" horiz-adv-x="1187" 
d="M948 0v190c-30 -56 -105 -108 -216 -108c-152 0 -259 88 -281 234h-117c-77 0 -122 -33 -122 -95c0 -58 39 -96 115 -96h29v-124h-48c-140 0 -255 67 -255 225c0 153 120 218 273 218h217c103 0 181 24 181 108c0 36 -22 63 -60 63s-64 -26 -64 -69c0 -13 2 -24 4 -35
h-141c-2 13 -4 28 -4 39c0 21 2 41 7 59h-483v131h614c22 6 44 9 68 9c122 0 207 -79 207 -201c0 -128 -88 -216 -267 -216h-5c7 -62 50 -119 155 -119c106 0 193 69 193 206v321h255v-131h-98v-609h-157z" />
    <glyph glyph-name="dvT_NA" horiz-adv-x="1199" 
d="M653 197c48 0 83 34 83 82s-35 82 -83 82c-50 0 -85 -34 -85 -82s34 -82 85 -82zM1118 0h-158v361h-127c16 -27 27 -61 27 -103c0 -127 -96 -193 -209 -193c-120 0 -225 77 -225 213c0 29 5 56 13 79h-94c-80 0 -133 -40 -133 -115c0 -71 41 -117 125 -117h19v-124h-43
c-143 0 -260 73 -260 244c0 173 129 247 284 247h623v117h-977v131h1233v-131h-98v-609z" />
    <glyph glyph-name="dvT_N_YA" horiz-adv-x="1650" 
d="M653 165c49 0 83 34 83 83c0 47 -34 82 -83 82c-50 0 -85 -35 -85 -83s35 -82 85 -82zM1255 213c98 0 158 68 158 160v236h-146v-74c0 -96 -53 -169 -162 -188c12 -78 64 -134 150 -134zM1570 0h-157v157c-40 -46 -105 -75 -193 -75c-151 0 -244 95 -265 248h-121
c16 -27 27 -61 27 -104c0 -127 -97 -193 -210 -193c-119 0 -225 78 -225 214c0 29 5 56 13 79h-97c-81 0 -130 -31 -130 -99c0 -62 40 -102 119 -102h25v-124h-43c-143 0 -260 69 -260 233c0 158 129 226 284 226h626c114 0 149 36 149 104v45h-1129v131h1686v-131h-99v-609
z" />
    <glyph glyph-name="dvT_PA" horiz-adv-x="1032" 
d="M687 292c71 0 107 53 107 117v200h-214v-191c0 -74 33 -126 107 -126zM951 0h-157v218c-33 -36 -82 -58 -148 -58c-127 0 -200 81 -218 197h-83c-80 0 -133 -40 -133 -115c0 -71 41 -117 125 -117h19v-124h-43c-143 0 -260 73 -260 244c0 173 129 247 284 247h86v117
h-440v131h1066v-131h-98v-609z" />
    <glyph glyph-name="dvT_P_RA" horiz-adv-x="1032" 
d="M687 292c71 0 107 53 107 117v200h-214v-191c0 -74 33 -126 107 -126zM794 0v223c-1 -1 -2 -3 -3 -4l-198 -245h-170l175 197c-97 17 -154 89 -170 186h-83c-80 0 -133 -40 -133 -115c0 -71 41 -117 125 -117h19v-124h-43c-143 0 -260 73 -260 244c0 173 129 247 284 247
h86v117h-440v131h1066v-131h-98v-609h-157z" />
    <glyph glyph-name="dvT_P_LA" horiz-adv-x="1623" 
d="M681 292c46 0 75 25 88 60c26 117 118 172 221 172c96 0 148 -52 174 -114h3c22 50 60 93 125 108v91h-712v-191c0 -74 31 -126 101 -126zM356 1h-43c-143 0 -260 73 -260 244c0 173 129 247 284 247h86v117h-440v131h1657v-131h-194v-106c72 -33 124 -106 124 -220
c0 -146 -91 -253 -259 -253c-8 0 -20 0 -34 1v137c9 -1 21 -2 27 -2c64 0 107 43 107 115c0 61 -31 105 -90 105c-65 0 -90 -55 -90 -118v-24h-130v24c0 62 -25 118 -88 118c-60 0 -92 -43 -92 -105c0 -72 43 -115 107 -115c6 0 17 1 27 2v-137c-14 -1 -26 -1 -34 -1
c-129 0 -212 63 -244 158c-32 -18 -70 -28 -115 -28c-135 0 -214 81 -234 197h-83c-80 0 -133 -40 -133 -115c0 -71 41 -117 125 -117h19v-124z" />
    <glyph glyph-name="dvT_PHA" horiz-adv-x="1340" 
d="M678 292c66 0 99 50 99 109v208h-197v-199c0 -69 31 -118 98 -118zM934 0h-157v216c-31 -35 -77 -56 -139 -56c-124 0 -195 81 -211 197h-82c-80 0 -133 -40 -133 -115c0 -71 41 -117 125 -117h19v-124h-43c-143 0 -260 73 -260 244c0 173 129 247 284 247h86v117h-440
v131h1374v-131h-423v-148c30 42 82 70 152 70c127 0 202 -99 202 -225c0 -147 -86 -232 -206 -232c-25 0 -50 3 -74 10v121c10 -3 22 -4 32 -4c54 0 89 39 89 97c0 56 -36 99 -93 99c-69 0 -102 -55 -102 -126v-271z" />
    <glyph glyph-name="dvT_MA" horiz-adv-x="1227" 
d="M988 470v139h-129v-139h129zM641 199c48 0 72 36 72 87v56h-59c-49 0 -84 -27 -84 -72s31 -71 71 -71zM1146 0h-158v342h-129v-47c0 -141 -74 -228 -215 -228c-132 0 -220 80 -220 203c0 24 3 46 9 66h-88c-80 0 -133 -36 -133 -103c0 -65 41 -108 125 -108h19v-124h-43
c-143 0 -260 70 -260 236c0 164 129 233 284 233h376v139h-730v131h1262v-131h-99v-609z" />
    <glyph glyph-name="dvT_M_YA" horiz-adv-x="1679" 
d="M641 182c48 0 73 35 73 88v54h-60c-48 0 -83 -25 -83 -70c0 -46 30 -72 70 -72zM1027 453c81 0 112 39 112 111v45h-279v-156h167zM1281 213c99 0 159 68 159 160v236h-146v-74c0 -102 -58 -176 -162 -190c2 -77 55 -132 149 -132zM1597 0h-157v157
c-41 -46 -105 -75 -193 -75c-159 0 -254 94 -268 242h-119v-47c0 -141 -74 -228 -216 -228c-132 0 -219 80 -219 204c0 24 3 46 9 66h-100c-73 0 -122 -33 -122 -97c0 -59 39 -97 117 -97h27v-124h-43c-143 0 -260 68 -260 227c0 158 125 225 277 225h384v156h-731v131h1712
v-131h-98v-609z" />
    <glyph glyph-name="dvT_YA" horiz-adv-x="1132" 
d="M735 213c99 0 159 68 159 160v236h-147v-74c0 -105 -57 -182 -161 -197c2 -72 55 -125 149 -125zM1051 0h-157v157c-40 -46 -105 -75 -193 -75c-155 0 -249 87 -268 225c-14 31 -39 58 -102 58c-74 0 -119 -41 -119 -115c0 -71 41 -117 125 -117h19v-123h-43
c-143 0 -260 72 -260 244c0 171 120 246 270 246c90 0 151 -27 191 -67c59 19 79 65 79 131v45h-610v131h1166v-131h-98v-609z" />
    <glyph glyph-name="dvT_R_YA" horiz-adv-x="1166" 
d="M769 196c99 0 158 68 158 160v253h-145v-96c0 -102 -45 -177 -161 -191l1 -2l-3 -3c4 -70 57 -121 150 -121zM1085 0h-158v140c-41 -45 -105 -74 -193 -74c-115 0 -197 48 -239 131l-202 -196h-206v6l377 333v2c-25 31 -66 52 -116 52c-76 0 -136 -45 -136 -131h-157
c0 145 105 257 283 257c92 0 176 -36 230 -99c43 22 58 64 58 121v67h-643v131h1200v-131h-98v-609z" />
    <glyph glyph-name="dvT_LA" horiz-adv-x="1294" 
d="M356 1h-43c-143 0 -260 73 -260 244c0 173 129 247 284 247h200c37 22 79 32 124 32c96 0 148 -52 174 -114h3c22 50 60 93 125 108v91h-980v131h1328v-131h-194v-106c72 -33 124 -106 124 -220c0 -146 -91 -253 -259 -253c-8 0 -20 0 -34 1v137c9 -1 21 -2 27 -2
c64 0 107 43 107 115c0 61 -31 105 -90 105c-65 0 -90 -55 -90 -118v-24h-130v24c0 62 -25 118 -88 118c-60 0 -92 -43 -92 -105c0 -72 43 -115 107 -115c6 0 17 1 27 2v-137c-14 -1 -26 -1 -34 -1c-168 0 -259 107 -259 253c0 27 3 52 8 74h-96c-80 0 -133 -40 -133 -115
c0 -71 41 -117 125 -117h19v-124z" />
    <glyph glyph-name="dvT_VA" horiz-adv-x="1050" 
d="M703 187c74 0 113 56 113 111v1c0 58 -39 110 -113 110c-66 0 -113 -45 -113 -110c0 -66 46 -112 113 -112zM1067 609h-98v-609h-153v134c-34 -46 -88 -72 -156 -72c-141 0 -224 103 -224 241c0 19 2 37 5 54h-96c-80 0 -133 -40 -133 -115c0 -71 41 -117 125 -117h19
v-124h-43c-143 0 -260 73 -260 244c0 173 129 247 284 247h184c36 27 83 43 139 43c68 0 122 -26 156 -70v144h-833v131h1084v-131z" />
    <glyph glyph-name="dvT_SA" horiz-adv-x="1234" 
d="M842 537c0 -43 -8 -81 -25 -114h178v186h-153v-72zM903 187c0 -119 -79 -196 -213 -196c-146 0 -222 96 -222 219v51c0 39 -29 96 -124 96c-84 0 -132 -40 -132 -115c0 -71 41 -117 125 -117h19v-124h-43c-143 0 -260 73 -260 244c0 170 127 250 282 250
c110 0 183 -34 224 -89c95 6 126 58 126 131v72h-702v131h1268v-131h-99v-609h-157v294h-371v-92c0 -43 20 -77 64 -77c42 0 63 31 63 71v13h152v-22z" />
    <glyph glyph-name="dvT_S_NA" horiz-adv-x="1747" 
d="M842 537c0 -43 -8 -81 -25 -114h206c44 49 112 73 188 73h297v113h-666v-72zM1200 202c49 0 83 33 83 81s-34 82 -83 82c-50 0 -85 -34 -85 -82s35 -81 85 -81zM903 187c0 -119 -79 -196 -213 -196c-146 0 -222 96 -222 219v51c0 39 -29 96 -124 96
c-84 0 -132 -40 -132 -115c0 -71 41 -117 125 -117h19v-124h-43c-143 0 -260 73 -260 244c0 170 127 250 282 250c110 0 183 -34 224 -89c95 6 126 58 126 131v72h-702v131h1781v-131h-98v-609h-158v365h-126c15 -27 26 -61 26 -103c0 -127 -97 -193 -210 -193
c-119 0 -225 78 -225 213v12h-349v-92c0 -43 20 -77 64 -77c42 0 63 31 63 71v13h152v-22z" />
    <glyph glyph-name="dvT_S_YA" horiz-adv-x="1673" 
d="M986 423c114 0 148 44 148 122v64h-292v-72c0 -43 -8 -81 -25 -114h169zM1276 202c99 0 159 68 159 161v246h-146v-93c0 -101 -54 -175 -161 -189c1 -71 53 -125 148 -125zM903 187c0 -119 -79 -196 -213 -196c-146 0 -222 96 -222 219v51c0 39 -29 96 -124 96
c-84 0 -132 -40 -132 -115c0 -71 41 -117 125 -117h19v-124h-43c-143 0 -260 73 -260 244c0 170 127 250 282 250c110 0 183 -34 224 -89c95 6 126 58 126 131v72h-702v131h1707v-131h-98v-609h-157v146c-40 -45 -105 -74 -193 -74c-155 0 -249 85 -268 222h-350v-92
c0 -43 20 -77 64 -77c42 0 63 31 63 71v13h152v-22z" />
    <glyph glyph-name="dvT_S_VA" horiz-adv-x="1585" 
d="M842 537c0 -43 -8 -81 -25 -114h181c36 68 104 112 197 112c68 0 122 -26 156 -70v144h-509v-72zM1238 187c74 0 113 56 113 111v1c0 58 -39 110 -113 110c-66 0 -113 -45 -113 -110c0 -66 46 -112 113 -112zM1602 609h-98v-609h-153v134c-34 -46 -88 -72 -156 -72
c-138 0 -220 98 -224 232h-347v-92c0 -43 20 -77 64 -77c42 0 63 31 63 71v13h152v-22c0 -119 -79 -196 -213 -196c-146 0 -222 96 -222 219v51c0 39 -29 96 -124 96c-84 0 -132 -40 -132 -115c0 -71 41 -117 125 -117h19v-124h-43c-143 0 -260 73 -260 244
c0 170 127 250 282 250c110 0 183 -34 224 -89c95 6 126 58 126 131v72h-702v131h1619v-131z" />
    <glyph glyph-name="dvTH_NA" horiz-adv-x="1318" 
d="M1335 609h-98v-609h-158v365h-126c15 -27 26 -61 26 -103c0 -127 -97 -193 -209 -193c-75 0 -143 30 -185 85c-52 -52 -129 -80 -218 -80c-191 0 -312 107 -312 293c0 23 1 47 5 72h87c104 0 185 24 185 110c0 37 -22 66 -60 66c-39 0 -63 -26 -63 -69c0 -13 2 -24 4 -35
h-142c-2 13 -4 28 -4 39c0 132 95 199 207 199c122 0 206 -80 206 -204c0 -130 -91 -218 -270 -218h-2c6 -62 51 -117 156 -121c89 -4 162 31 182 99c11 128 114 191 236 191h297v113h-522v131h778v-131zM772 202c48 0 83 33 83 81s-35 82 -83 82c-50 0 -85 -34 -85 -82
s34 -81 85 -81z" />
    <glyph glyph-name="dvTH_YA" horiz-adv-x="1256" 
d="M365 82c-190 0 -310 103 -310 285c0 23 1 47 5 72h87c104 0 185 24 185 110c0 37 -22 66 -60 66c-39 0 -63 -26 -63 -69c0 -13 2 -24 4 -35h-142c-2 13 -4 28 -4 39c0 132 95 199 207 199c122 0 206 -80 206 -204c0 -130 -91 -218 -270 -218h-2c7 -59 50 -114 154 -114
c112 0 192 63 192 178v0c1 11 1 22 1 33h13c114 0 149 53 149 140v45h-159v131h715v-131h-98v-609h-157v157c-40 -46 -105 -75 -194 -75c-103 0 -179 40 -224 108c-54 -70 -140 -108 -235 -108zM859 213c99 0 159 68 159 160v236h-146v-74c0 -103 -45 -178 -162 -191
c2 -76 54 -131 149 -131z" />
    <glyph glyph-name="dvTH_VA" horiz-adv-x="1161" 
d="M1080 609v-609h-153v134c-34 -46 -88 -72 -156 -72c-89 0 -155 41 -191 106c-53 -56 -128 -86 -214 -86c-191 0 -311 103 -311 285c0 23 1 47 5 72h87c104 0 185 24 185 110c0 37 -22 66 -60 66c-39 0 -63 -26 -63 -69c0 -13 2 -24 4 -35h-142c-2 13 -4 28 -4 39
c0 132 95 199 207 199c122 0 206 -80 206 -204c0 -130 -91 -218 -270 -218h-2c8 -59 55 -114 169 -114c87 0 147 44 172 126c14 115 95 196 222 196c68 0 122 -26 156 -70v144h-380v131h631v-131h-98zM814 187c74 0 113 56 113 111v1c0 58 -39 110 -113 110
c-66 0 -113 -45 -113 -110c0 -66 46 -112 113 -112z" />
    <glyph glyph-name="dvD_GA" horiz-adv-x="675" 
d="M-17 609v131h709v-131h-107v-210h-183c-75 0 -118 -34 -118 -95c0 -53 36 -90 93 -90c50 0 92 34 92 89h136v-559h-144v401c-22 -24 -53 -42 -91 -48v-76c0 -113 -57 -199 -190 -199c-117 0 -184 65 -184 177c0 10 0 20 1 30h132v-25c0 -29 12 -60 51 -60
c42 0 51 38 51 71v104c-65 35 -101 104 -101 187c0 144 105 223 258 223h40v80h-445z" />
    <glyph glyph-name="dvD_G_RA" horiz-adv-x="675" 
d="M-17 609v131h709v-131h-107v-210h-183c-75 0 -118 -34 -118 -95c0 -53 36 -90 93 -90c50 0 92 34 92 89h136v-559h-136v114l-162 -172h-153l307 304v155c-22 -24 -53 -42 -91 -48v-20c0 -114 -57 -199 -190 -199c-117 0 -184 64 -184 177c0 10 0 20 1 30h132v-25
c0 -29 12 -60 51 -60c42 0 51 38 51 71v48c-65 35 -101 104 -101 187c0 144 105 223 258 223h40v80h-445z" />
    <glyph glyph-name="dvD_GHA" horiz-adv-x="920" 
d="M301 -3c62 0 107 45 122 121c-41 37 -68 95 -68 174c0 29 4 56 12 80c-25 10 -50 15 -72 15c-52 0 -83 -25 -83 -64c0 -43 35 -65 85 -65h11v-123h-10c-49 0 -80 -26 -80 -67c0 -48 34 -71 83 -71zM-17 609v131h954v-131h-121v-214h-178c-72 0 -122 -39 -122 -107
c0 -60 38 -99 98 -99c49 0 91 33 91 92h145v-314h-154v147c-28 -32 -72 -49 -127 -49c-13 0 -25 1 -37 3c-22 -123 -121 -200 -254 -200c-119 0 -219 61 -219 180c0 88 60 135 115 146v5c-57 16 -117 60 -117 151c0 94 66 168 213 168c57 0 118 -18 166 -46
c47 38 111 57 185 57h38v80h-676z" />
    <glyph glyph-name="dvD_DA" horiz-adv-x="572" 
d="M371 -88v125c-25 -30 -68 -54 -137 -54c-89 0 -181 48 -181 155c0 67 42 116 107 130v4c-62 13 -109 58 -109 126c0 106 93 141 200 141h46v70h-318v131h610v-131h-138v-174h-154c-49 0 -87 -13 -87 -54c0 -32 28 -53 78 -53h54v-112h-57c-49 0 -70 -22 -70 -54
c0 -37 27 -63 83 -63c63 0 95 35 95 86h131v-273h-153z" />
    <glyph glyph-name="dvD_DHA" horiz-adv-x="920" 
d="M-17 609v131h954v-131h-121v-214h-178c-72 0 -122 -39 -122 -107c0 -60 38 -99 98 -99c49 0 91 33 91 92h145v-314h-154v147c-28 -32 -72 -49 -127 -49c-13 0 -25 1 -37 3c-22 -123 -121 -200 -254 -200c-119 0 -219 61 -219 180c0 88 60 135 115 146v5
c-57 16 -117 60 -117 151c0 101 77 178 251 166v-129c-63 3 -96 -23 -96 -64c0 -43 35 -65 85 -65h11v-123h-10c-49 0 -80 -26 -80 -67c0 -48 34 -71 83 -71c62 0 107 45 122 121c-41 37 -68 95 -68 174c0 154 114 237 266 237h38v80h-676z" />
    <glyph glyph-name="dvD_NA" horiz-adv-x="1409" 
d="M521 -314l-129 223h156l134 -223h-161zM861 202c49 0 83 33 83 81s-34 82 -83 82c-50 0 -85 -34 -85 -82s35 -81 85 -81zM548 -33h-154v147c-28 -31 -73 -49 -128 -49c-112 0 -213 73 -213 227s113 237 266 237h38v80h-374v131h1442v-131h-98v-609h-158v365h-126
c15 -27 26 -61 26 -103c0 -127 -97 -193 -210 -193c-119 0 -225 78 -225 213c0 144 109 214 238 214h297v113h-655v-214h-178c-73 0 -122 -39 -122 -107c0 -60 37 -99 97 -99c50 0 91 33 91 92h146v-314z" />
    <glyph glyph-name="dvD_BA" horiz-adv-x="622" 
d="M-17 609v131h656v-131h-111v-210h-184c-74 0 -118 -34 -118 -95c0 -53 40 -90 93 -90c50 0 92 34 92 89h136v-579h-138v132c-31 -49 -84 -74 -146 -74c-131 0 -209 92 -209 206c0 74 36 136 96 170c-46 32 -78 85 -78 161c0 136 105 210 258 210h41v80h-388zM302 -112
c33 0 60 14 78 36l-178 118c-9 -14 -13 -31 -13 -50c0 -63 46 -105 113 -104zM299 94c-22 -2 -41 -7 -57 -15l162 -108c3 11 5 23 5 35v142c-23 -30 -61 -49 -110 -54z" />
    <glyph glyph-name="dvD_B_RA" horiz-adv-x="622" 
d="M-17 609v131h656v-131h-111v-210h-184c-74 0 -118 -34 -118 -95c0 -53 40 -90 93 -90c50 0 92 34 92 89h136v-579h-138v132c-7 -11 -14 -20 -23 -29l-129 -153h-162l107 115c-94 24 -148 104 -148 199c0 74 36 136 96 170c-46 32 -78 85 -78 161c0 136 105 210 258 210
h41v80h-388zM302 -112c33 0 60 14 78 36l-178 118c-9 -14 -13 -31 -13 -50c0 -63 46 -105 113 -104zM299 94c-22 -2 -41 -7 -57 -15l162 -108c3 11 5 23 5 35v142c-23 -30 -61 -49 -110 -54z" />
    <glyph glyph-name="dvD_BHA" horiz-adv-x="1445" 
d="M521 -314l-129 223h156l134 -223h-161zM-17 609v131h646l-1 -131h-114v-214h-178c-73 0 -122 -39 -122 -107c0 -60 37 -99 97 -99c50 0 91 33 91 92h146v-314h-154v147c-28 -31 -73 -49 -128 -49c-112 0 -213 73 -213 227s113 237 266 237h38v80h-374zM864 194
c48 0 72 35 72 87v55h-58c-50 0 -85 -25 -85 -72c0 -45 31 -70 71 -70zM867 61c-132 0 -220 80 -220 203c0 136 102 200 226 200h63v76c0 44 -16 75 -55 75c-33 0 -54 -25 -54 -64c0 -10 1 -21 3 -32h-157c-2 11 -4 25 -4 38c0 109 68 192 206 192c156 0 207 -105 207 -238
v-47h124v276h256v-131h-99v-609h-157v336h-124v-47c0 -141 -73 -228 -215 -228z" />
    <glyph glyph-name="dvD_MA" horiz-adv-x="867" 
d="M283 -175c44 0 66 33 66 86v47h-54c-41 0 -81 -19 -81 -69c0 -37 28 -64 69 -64zM492 86h132v523h-153v-213h-185c-43 0 -73 -20 -73 -60c0 -36 30 -57 74 -57h206zM-17 609v131h901v-131h-103v-943h-157v292h-131v-33c0 -142 -68 -229 -208 -229
c-127 0 -208 75 -208 198c0 145 106 192 229 192h44v68h-79c-118 0 -213 63 -213 185c0 138 90 190 210 190h50v80h-335z" />
    <glyph glyph-name="dvD_YA" horiz-adv-x="712" 
d="M311 147c89 0 166 47 166 168v294h-122v-121h-64c-39 0 -75 -15 -75 -53c0 -34 31 -52 75 -52h56v-118h-57c-44 0 -74 -18 -74 -56c0 -40 35 -62 95 -62zM-9 609v131h739v-131h-99v-609h-154v119c-38 -57 -106 -88 -203 -88c-123 0 -216 58 -216 162c0 76 50 113 104 126
v5c-56 10 -106 44 -106 110c0 84 76 110 134 110h15v65h-214z" />
    <glyph glyph-name="dvD_VA" horiz-adv-x="611" 
d="M-17 609v131h645v-131h-110v-210h-184c-75 0 -117 -34 -117 -95c0 -53 35 -90 92 -90c50 0 92 34 92 89h136v-564h-144v119c-31 -40 -80 -60 -138 -60c-122 0 -193 89 -193 197c0 68 30 126 81 160c-48 31 -81 85 -81 164c0 136 106 210 258 210h40v80h-377zM298 -85
c61 0 95 44 95 91v136c-24 -27 -59 -44 -103 -48c-54 -5 -87 -41 -87 -91c0 -52 38 -89 95 -88z" />
    <glyph glyph-name="dvDH_NA" horiz-adv-x="1271" 
d="M1292 609h-97v-609h-158v365h-128c16 -27 27 -61 27 -103c0 -127 -96 -193 -209 -193c-81 0 -155 36 -195 100c-43 -61 -117 -93 -214 -93c-134 0 -247 57 -247 183c0 87 63 132 116 144v3c-62 19 -124 71 -124 167c0 109 80 176 187 176c116 0 180 -71 180 -169
c0 -12 -1 -30 -2 -41h-116c1 11 1 16 1 21c0 34 -22 58 -57 58c-37 0 -59 -27 -59 -62c0 -63 64 -85 126 -85h60v-127h-53c-61 0 -99 -23 -99 -68c0 -53 58 -70 116 -70c90 0 143 37 157 107c14 123 116 183 235 183h298v113h-514v131h769v-131zM729 202c48 0 83 33 83 81
s-35 82 -83 82c-50 0 -85 -34 -85 -82s35 -81 85 -81z" />
    <glyph glyph-name="dvDH_N_YA" horiz-adv-x="1723" 
d="M1740 609h-98v-609h-158v157c-41 -46 -105 -75 -193 -75c-150 0 -244 95 -265 248h-121c16 -27 27 -61 27 -104c0 -127 -96 -193 -209 -193c-88 0 -167 42 -204 117c-44 -49 -112 -74 -201 -74c-134 0 -247 57 -247 183c0 87 63 132 116 144v3c-62 19 -124 71 -124 167
c0 109 80 176 187 176c116 0 180 -71 180 -169c0 -12 -1 -30 -2 -41h-116c1 11 1 16 1 21c0 34 -22 58 -57 58c-37 0 -59 -27 -59 -62c0 -63 64 -85 126 -85h60v-127h-53c-61 0 -99 -23 -99 -68c0 -53 58 -70 116 -70c86 0 134 30 155 87c21 112 119 167 233 167h300
c113 0 149 36 149 104v45h-676v131h1232v-131zM725 165c48 0 83 34 83 83c0 47 -35 82 -83 82c-50 0 -86 -35 -86 -83s35 -82 86 -82zM1326 213c99 0 158 68 158 160v236h-146v-74c0 -96 -53 -169 -162 -188c12 -78 64 -134 150 -134z" />
    <glyph glyph-name="dvDH_MA" horiz-adv-x="1300" 
d="M1318 609h-99v-609h-158v336h-129v-47c0 -141 -74 -228 -215 -228c-79 0 -143 29 -180 79c-50 -42 -125 -64 -220 -64c-140 0 -246 57 -246 183c0 87 63 132 116 144v3c-62 19 -124 71 -124 167c0 109 80 176 187 176c116 0 180 -71 180 -169c0 -12 -1 -30 -2 -41h-116
c1 11 1 16 1 21c0 34 -22 58 -57 58c-37 0 -59 -27 -59 -62c0 -63 64 -85 126 -85h60v-127h-53c-61 0 -99 -23 -99 -68c0 -53 58 -70 115 -70c91 0 140 36 153 89l2 11c19 107 111 158 222 158h63v145h-263v131h795v-131zM714 194c48 0 72 35 72 87v55h-59
c-49 0 -83 -25 -83 -72c0 -45 30 -70 70 -70zM1061 464v145h-129v-145h129z" />
    <glyph glyph-name="dvDH_YA" horiz-adv-x="1202" 
d="M331 76c-147 0 -260 57 -260 183c0 87 63 132 116 144v3c-62 19 -124 71 -124 167c0 109 80 176 187 176c116 0 180 -71 180 -169c0 -12 -1 -30 -2 -41h-116c1 11 1 16 1 21c0 34 -22 58 -57 58c-37 0 -59 -27 -59 -62c0 -63 64 -85 126 -85h60v-127h-53
c-61 0 -99 -23 -99 -68c0 -53 58 -70 115 -70c105 0 156 65 155 156v0v2c0 20 1 40 4 60h10c113 0 148 53 148 140v45h-140v131h697v-131h-99v-609h-157v157c-40 -46 -105 -75 -193 -75c-97 0 -171 35 -216 96c-48 -64 -125 -102 -224 -102zM806 213c98 0 158 68 158 160
v236h-146v-74c0 -103 -45 -178 -162 -191c2 -76 56 -131 150 -131z" />
    <glyph glyph-name="dvDH_VA" horiz-adv-x="1104" 
d="M1039 609v-609h-154v134c-34 -46 -88 -72 -156 -72c-93 0 -161 45 -196 115c-39 -61 -104 -101 -215 -101c-141 0 -247 57 -247 183c0 87 63 132 116 144v3c-62 19 -124 71 -124 167c0 109 80 176 187 176c116 0 180 -71 180 -169c0 -12 -1 -30 -2 -41h-116
c1 11 1 16 1 21c0 34 -22 58 -57 58c-37 0 -59 -27 -59 -62c0 -63 64 -85 126 -85h60v-127h-53c-61 0 -99 -23 -99 -68c0 -53 58 -70 116 -70c83 0 144 41 159 126l1 3c12 116 93 200 222 200c68 0 122 -26 156 -70v144h-362v131h613v-131h-97zM773 187c74 0 112 56 112 111
v1c0 58 -38 110 -112 110c-66 0 -114 -45 -114 -110c0 -66 47 -112 114 -112z" />
    <glyph glyph-name="dvN_KA" horiz-adv-x="1480" 
d="M276 202c49 0 83 33 83 81s-34 82 -83 82c-50 0 -85 -34 -85 -82s35 -81 85 -81zM828 196c66 0 102 51 102 102c0 52 -35 100 -101 100c-58 0 -102 -40 -102 -101s41 -101 101 -101zM930 0v139c-30 -46 -83 -75 -156 -75c-127 0 -206 97 -206 234c0 24 2 46 7 67h-117
c15 -27 26 -61 26 -103c0 -127 -97 -193 -210 -193c-119 0 -225 78 -225 213c0 144 109 214 238 214h371c33 23 74 35 122 35c71 0 121 -27 150 -70v148h-947v131h1514v-131h-416v-148c29 43 77 70 144 70c128 0 202 -102 202 -229c0 -145 -87 -228 -206 -228
c-24 0 -44 2 -68 8v123c7 -2 16 -3 25 -3c52 0 90 35 90 96c0 56 -36 99 -93 99c-65 0 -94 -50 -94 -109v-288h-151z" />
    <glyph glyph-name="dvN_K_SA" horiz-adv-x="2027" 
d="M276 202c49 0 83 33 83 81s-34 82 -83 82c-50 0 -85 -34 -85 -82s35 -81 85 -81zM828 196c66 0 102 51 102 102c0 52 -35 100 -101 100c-58 0 -102 -40 -102 -101s41 -101 101 -101zM1222 517c80 0 132 -41 159 -101c73 13 97 62 97 127v66h-397v-156c28 38 75 64 141 64
zM1635 543c0 -43 -8 -82 -24 -115h178v181h-154v-66zM1697 187c0 -119 -79 -196 -212 -196c-147 0 -223 96 -223 219v94c0 50 -33 93 -90 93c-64 0 -91 -50 -91 -109v-288h-151v139c-30 -46 -83 -75 -156 -75c-127 0 -206 97 -206 234c0 24 2 46 7 67h-117
c15 -27 26 -61 26 -103c0 -127 -97 -193 -210 -193c-119 0 -225 78 -225 213c0 144 109 214 238 214h371c33 23 74 35 122 35c71 0 121 -27 150 -70v148h-947v131h2061v-131h-98v-609h-157v300h-372v-98c0 -43 20 -77 65 -77c41 0 63 31 63 71v13h151c1 -9 1 -17 1 -22z" />
    <glyph glyph-name="dvN_CA" horiz-adv-x="1199" 
d="M1216 609h-98v-609h-157v160c-38 -50 -101 -77 -175 -77c-122 0 -205 67 -205 182c0 44 17 82 47 110h-175c18 -28 31 -64 31 -110c0 -127 -97 -193 -210 -193c-119 0 -225 77 -225 213c0 143 109 214 238 214h579v-124h-42c-59 0 -95 -34 -95 -81c0 -54 45 -81 101 -81
c88 0 131 63 131 155v241h-978v131h1233v-131zM276 204c49 0 83 35 83 82c0 48 -34 82 -83 82c-50 0 -85 -34 -85 -83c0 -47 35 -81 85 -81z" />
    <glyph glyph-name="dvN_CHA" horiz-adv-x="1354" 
d="M276 202c49 0 83 33 83 81s-34 82 -83 82c-50 0 -85 -34 -85 -82s35 -81 85 -81zM934 154c152 0 239 62 239 179c0 54 -26 91 -64 91c-33 0 -62 -27 -62 -80c0 -24 5 -51 12 -76h-128c-8 24 -14 57 -14 94c0 94 52 147 122 167v80h-275v-59c0 -51 21 -82 79 -82h21v-127
h-18c-65 0 -95 -37 -95 -84c0 -64 55 -103 183 -103zM931 20c-181 0 -314 60 -336 185c-27 67 -69 130 -133 152c13 -26 22 -57 22 -95c0 -127 -97 -193 -210 -193c-119 0 -225 78 -225 213c0 144 109 214 238 214h50c135 0 239 -45 298 -135c18 19 41 33 67 43v4
c-53 13 -95 52 -95 133v68h-624v131h1388v-131h-188v-81c78 -26 128 -97 128 -203c0 -185 -140 -305 -380 -305z" />
    <glyph glyph-name="dvN_TTA" horiz-adv-x="1154" 
d="M276 202c49 0 83 33 83 81s-34 82 -83 82c-50 0 -85 -34 -85 -82s35 -81 85 -81zM850 20c-169 0 -288 102 -288 256c0 32 5 62 14 89h-118c15 -27 26 -61 26 -103c0 -127 -97 -193 -210 -193c-119 0 -225 78 -225 213c0 144 109 214 238 214h400c43 23 96 36 158 37v76
h-862v131h1189v-131h-173v-208h-137c-79 0 -143 -42 -143 -126c0 -70 50 -119 127 -119c79 0 130 52 130 127h149c0 -159 -107 -263 -275 -263z" />
    <glyph glyph-name="dvN_DDA" horiz-adv-x="1067" 
d="M276 202c49 0 83 33 83 81s-34 82 -83 82c-50 0 -85 -34 -85 -82s35 -81 85 -81zM810 -20c-145 0 -252 69 -257 193h156c2 -50 44 -75 96 -75s82 24 82 61c0 45 -36 63 -87 63h-36c-72 0 -185 23 -196 143h-110c15 -27 26 -61 26 -103c0 -127 -97 -193 -210 -193
c-119 0 -225 78 -225 213c0 144 109 214 238 214h330c34 27 81 39 133 39h71v74h-838v131h1101v-131h-111v-184h-183c-32 0 -65 -11 -65 -46c0 -34 27 -46 59 -46h45c102 0 206 -44 206 -175c0 -108 -80 -178 -225 -178z" />
    <glyph glyph-name="dvN_TA" horiz-adv-x="1222" 
d="M276 197c49 0 83 34 83 82s-34 82 -83 82c-50 0 -85 -34 -85 -82s35 -82 85 -82zM1142 0h-157v357h-125c-80 0 -133 -40 -133 -115c0 -71 41 -117 125 -117h19v-124h-43c-143 0 -260 73 -260 244c0 45 9 84 25 116h-136c16 -27 27 -61 27 -103c0 -127 -97 -193 -210 -193
c-119 0 -225 77 -225 213c0 143 109 214 238 214h698v117h-1002v131h1257v-131h-98v-609z" />
    <glyph glyph-name="dvN_T_YA" horiz-adv-x="1648" 
d="M276 206c49 0 83 33 83 82c0 47 -34 81 -83 81c-50 0 -85 -34 -85 -82s35 -81 85 -81zM1251 213c99 0 159 68 159 160v236h-147v-74c0 -105 -57 -182 -161 -197c2 -72 55 -125 149 -125zM1567 0h-157v157c-40 -46 -105 -75 -193 -75c-155 0 -249 87 -268 225
c-14 31 -39 58 -102 58c-74 0 -119 -41 -119 -115c0 -71 41 -117 125 -117h19v-123h-43c-143 0 -260 72 -260 244c0 45 8 84 24 116h-136c16 -27 27 -61 27 -104c0 -127 -97 -193 -210 -193c-119 0 -225 78 -225 213c0 144 109 214 238 214h552c90 0 151 -27 191 -67
c59 19 79 65 79 131v45h-1126v131h1682v-131h-98v-609z" />
    <glyph glyph-name="dvN_T_RA" horiz-adv-x="1192" 
d="M276 148c49 0 83 34 83 82c0 47 -34 82 -83 82c-50 0 -85 -35 -85 -83c0 -47 35 -81 85 -81zM1112 0h-152v181l-185 -180h-205v6l377 333c-25 32 -68 54 -118 54c-55 0 -104 -25 -125 -82h-247c16 -27 27 -61 27 -104c0 -117 -95 -192 -212 -192c-120 0 -223 75 -223 207
c0 141 109 216 238 216h316c43 49 107 79 186 79c76 0 132 -30 169 -66v157h-975v131h1226v-131h-97v-609z" />
    <glyph glyph-name="dvN_T_SA" horiz-adv-x="1749" 
d="M276 200c49 0 83 35 83 83c0 47 -34 82 -83 82c-50 0 -85 -34 -85 -83c0 -47 35 -82 85 -82zM1357 537c0 -43 -8 -81 -25 -114h178v186h-153v-72zM1418 187c0 -119 -79 -196 -213 -196c-146 0 -222 96 -222 219v51c0 39 -29 96 -124 96c-84 0 -132 -40 -132 -115
c0 -71 41 -117 125 -117h19v-124h-43c-143 0 -260 73 -260 244c0 47 10 87 27 120h-138c16 -27 27 -61 27 -104c0 -127 -97 -192 -210 -192c-119 0 -225 76 -225 212c0 143 109 214 238 214h558v0h5c110 0 183 -34 224 -89c95 6 126 58 126 131v72h-1217v131h1783v-131h-99
v-609h-157v294h-371v-92c0 -43 20 -77 64 -77c42 0 63 31 63 71v13h152v-22z" />
    <glyph glyph-name="dvN_THA" horiz-adv-x="1308" 
d="M276 150c49 0 83 34 83 82s-34 82 -83 82c-50 0 -85 -34 -85 -82s35 -82 85 -82zM1070 0v190c-30 -56 -104 -108 -216 -108c-152 0 -259 87 -281 233h-116c16 -27 27 -61 27 -104c0 -127 -97 -193 -210 -193c-119 0 -225 77 -225 213c0 143 109 213 238 213h374
c105 0 185 24 185 109c0 35 -23 62 -60 62c-38 0 -64 -26 -64 -69c0 -13 2 -24 5 -35h-142c-2 13 -3 28 -3 39c0 21 2 41 7 59h-606v131h736c21 6 44 9 68 9c123 0 207 -78 207 -201c0 -128 -91 -216 -270 -216h-2c7 -62 50 -119 155 -119c106 0 193 69 193 206v321h255
v-131h-97v-609h-158z" />
    <glyph glyph-name="dvN_TH_YA" horiz-adv-x="1770" 
d="M276 144c49 0 83 35 83 83c0 47 -34 82 -83 82c-50 0 -85 -35 -85 -83c0 -47 35 -82 85 -82zM1373 213c99 0 159 68 159 160v236h-146v-74c0 -103 -45 -178 -162 -191c2 -76 54 -131 149 -131zM879 82c-169 0 -282 81 -306 227h-116c16 -27 27 -61 27 -104
c0 -127 -97 -192 -210 -192c-119 0 -225 77 -225 212c0 144 109 214 238 214h374c104 0 185 24 185 110c0 37 -22 66 -60 66c-39 0 -63 -26 -63 -69c0 -13 2 -24 4 -35h-142c-2 13 -4 28 -4 39c0 21 2 41 7 59h-605v131h737c21 6 44 9 68 9c122 0 206 -80 206 -204
c0 -130 -91 -218 -270 -218h-2c7 -59 50 -114 154 -114c112 0 192 63 192 178v0c1 11 1 22 1 33h13c114 0 149 53 149 140v45h-159v131h715v-131h-98v-609h-157v157c-40 -46 -105 -75 -194 -75c-103 0 -179 40 -224 108c-54 -70 -140 -108 -235 -108z" />
    <glyph glyph-name="dvN_TH_VA" horiz-adv-x="1674" 
d="M276 144c49 0 83 35 83 83c0 47 -34 82 -83 82c-50 0 -85 -35 -85 -83c0 -47 35 -82 85 -82zM1594 609v-609h-153v134c-34 -46 -88 -72 -156 -72c-89 0 -155 41 -191 106c-53 -56 -128 -86 -214 -86c-170 0 -283 81 -307 227h-116c16 -27 27 -61 27 -104
c0 -127 -97 -192 -210 -192c-119 0 -225 77 -225 212c0 144 109 214 238 214h374c104 0 185 24 185 110c0 37 -22 66 -60 66c-39 0 -63 -26 -63 -69c0 -13 2 -24 4 -35h-142c-2 13 -4 28 -4 39c0 21 2 41 7 59h-605v131h737c21 6 44 9 68 9c122 0 206 -80 206 -204
c0 -130 -91 -218 -270 -218h-2c8 -59 55 -114 169 -114c87 0 147 44 172 126c14 115 95 196 222 196c68 0 122 -26 156 -70v144h-380v131h631v-131h-98zM1328 187c74 0 113 56 113 111v1c0 58 -39 110 -113 110c-66 0 -113 -45 -113 -110c0 -66 46 -112 113 -112z" />
    <glyph glyph-name="dvN_DA" horiz-adv-x="1121" 
d="M276 202c49 0 83 33 83 81s-34 82 -83 82c-50 0 -85 -34 -85 -82s35 -81 85 -81zM1058 -33h-154v147c-28 -31 -73 -49 -128 -49c-112 0 -213 73 -213 227c0 26 3 51 10 73h-115c15 -27 26 -61 26 -103c0 -127 -97 -193 -210 -193c-119 0 -225 78 -225 213
c0 144 109 214 238 214h393c42 22 93 33 149 33h38v80h-884v131h1156l-1 -131h-114v-214h-178c-73 0 -122 -39 -122 -107c0 -60 37 -99 97 -99c50 0 91 33 91 92h146v-314z" />
    <glyph glyph-name="dvN_D_RA" horiz-adv-x="1120" 
d="M276 202c49 0 83 33 83 81s-34 82 -83 82c-50 0 -85 -34 -85 -82s35 -81 85 -81zM897 110l-156 -184h-168l139 154c-84 23 -149 92 -149 212c0 26 3 51 10 73h-115c15 -27 26 -61 26 -103c0 -127 -97 -193 -210 -193c-119 0 -225 78 -225 213c0 144 109 214 238 214h393
c42 22 93 33 149 33h38v80h-884v131h1155v-131h-114v-214h-178c-73 0 -122 -39 -122 -107c0 -60 37 -99 97 -99c50 0 91 33 91 92h146v-314h-154v152c-3 -3 -6 -6 -9 -8z" />
    <glyph glyph-name="dvN_D_VA" horiz-adv-x="1112" 
d="M276 202c49 0 83 33 83 81s-34 82 -83 82c-50 0 -85 -34 -85 -82s35 -81 85 -81zM799 -85c61 0 95 44 95 91v136c-24 -27 -59 -44 -103 -48c-54 -5 -87 -41 -87 -91c0 -52 38 -89 95 -88zM1038 -261h-144v119c-31 -40 -80 -60 -138 -60c-122 0 -193 89 -193 197
c0 68 30 126 81 160c-48 31 -81 85 -81 164c0 16 2 32 4 46h-109c15 -27 26 -61 26 -103c0 -127 -97 -193 -210 -193c-119 0 -225 78 -225 213c0 144 109 214 238 214h381c42 22 94 33 153 33h40v80h-878v131h1146v-131h-110v-210h-184c-75 0 -117 -34 -117 -95
c0 -53 35 -90 92 -90c50 0 92 34 92 89h136v-564z" />
    <glyph glyph-name="dvN_DHA" horiz-adv-x="1251" 
d="M809 78c-117 0 -215 55 -225 163c-20 56 -60 97 -121 115c13 -26 21 -57 21 -94c0 -127 -97 -193 -210 -193c-119 0 -225 78 -225 213c0 144 109 214 238 214h50c141 0 242 -45 296 -125c21 16 44 27 66 32v3c-63 19 -124 71 -124 167c0 13 1 25 3 36h-595v131h714
c20 6 42 9 65 9c116 0 180 -71 180 -169c0 -12 -1 -30 -2 -41h-116c1 11 1 16 1 21c0 34 -22 58 -57 58c-37 0 -59 -27 -59 -62c0 -63 63 -85 125 -85h60v-127h-52c-61 0 -99 -23 -99 -68c0 -47 43 -70 106 -70c101 0 167 70 167 174v360h252v-131h-95v-609h-157v167
c-42 -57 -112 -89 -207 -89zM276 202c49 0 83 33 83 81s-34 82 -83 82c-50 0 -85 -34 -85 -82s35 -81 85 -81z" />
    <glyph glyph-name="dvN_DH_YA" horiz-adv-x="1714" 
d="M276 202c49 0 83 33 83 81s-34 82 -83 82c-50 0 -85 -34 -85 -82s35 -81 85 -81zM1318 213c98 0 158 68 158 160v236h-146v-74c0 -103 -45 -178 -162 -191c2 -76 56 -131 150 -131zM843 76c-140 0 -248 51 -259 165c-20 55 -60 97 -121 115c13 -26 21 -57 21 -94
c0 -127 -97 -193 -210 -193c-119 0 -225 78 -225 213c0 144 109 214 238 214h50c141 0 242 -45 296 -125c21 16 44 27 66 32v3c-62 19 -124 71 -124 167c0 13 1 25 3 36h-595v131h714c20 6 42 9 65 9c116 0 180 -71 180 -169c0 -12 -1 -30 -2 -41h-116c1 11 1 16 1 21
c0 34 -22 58 -57 58c-37 0 -59 -27 -59 -62c0 -63 64 -85 126 -85h60v-127h-53c-61 0 -99 -23 -99 -68c0 -53 58 -70 115 -70c105 0 156 65 155 156v0v2c0 20 1 40 4 60h10c113 0 148 53 148 140v45h-140v131h697v-131h-99v-609h-157v157c-40 -46 -105 -75 -193 -75
c-97 0 -171 35 -216 96c-48 -64 -125 -102 -224 -102z" />
    <glyph glyph-name="dvN_DH_RA" horiz-adv-x="1251" 
d="M276 202c49 0 83 33 83 81s-34 82 -83 82c-50 0 -85 -34 -85 -82s35 -81 85 -81zM1006 155l-187 -226h-170l139 153c-107 6 -194 59 -204 159c-20 55 -60 97 -121 115c13 -26 21 -57 21 -94c0 -127 -97 -193 -210 -193c-119 0 -225 78 -225 213c0 144 109 214 238 214h50
c141 0 242 -45 296 -125c21 16 44 27 66 32v3c-62 19 -124 71 -124 167c0 13 1 25 3 36h-595v131h714c20 6 42 9 65 9c116 0 180 -71 180 -169c0 -12 -1 -30 -2 -41h-116c1 11 1 16 1 21c0 34 -22 58 -57 58c-37 0 -59 -27 -59 -62c0 -63 64 -85 126 -85h60v-127h-53
c-61 0 -99 -23 -99 -68c0 -47 42 -70 106 -70c101 0 167 70 167 174v360h252v-131h-95v-609h-157v168c-3 -5 -7 -9 -11 -13h1z" />
    <glyph glyph-name="dvN_DH_VA" horiz-adv-x="1575" 
d="M276 202c49 0 83 33 83 81s-34 82 -83 82c-50 0 -85 -34 -85 -82s35 -81 85 -81zM1551 0h-154v134c-34 -46 -88 -72 -156 -72c-93 0 -161 45 -196 115c-39 -61 -104 -101 -215 -101c-134 0 -236 51 -246 165c-20 56 -60 97 -121 115c13 -26 21 -57 21 -94
c0 -127 -97 -193 -210 -193c-119 0 -225 78 -225 213c0 144 109 214 238 214h50c141 0 242 -45 296 -125c21 16 44 27 66 32v3c-62 19 -124 71 -124 167c0 13 1 25 3 36h-595v131h714c20 6 42 9 65 9c116 0 180 -71 180 -169c0 -12 -1 -30 -2 -41h-116c1 11 1 16 1 21
c0 34 -22 58 -57 58c-37 0 -59 -27 -59 -62c0 -63 64 -85 126 -85h60v-127h-53c-61 0 -99 -23 -99 -68c0 -53 58 -70 116 -70c83 0 144 41 159 126l1 3c12 116 93 200 222 200c68 0 122 -26 156 -70v144h-362v131h613v-131h-97v-609zM1285 187c74 0 112 56 112 111v1
c0 58 -38 110 -112 110c-66 0 -114 -45 -114 -110c0 -66 47 -112 114 -112z" />
    <glyph glyph-name="dvN_NA" horiz-adv-x="1341" 
d="M276 202c49 0 83 33 83 81s-34 82 -83 82c-50 0 -85 -34 -85 -82s35 -81 85 -81zM795 202c49 0 83 33 83 81s-34 82 -83 82c-50 0 -85 -34 -85 -82s35 -81 85 -81zM1261 0h-158v365h-126c15 -27 26 -61 26 -103c0 -127 -97 -193 -210 -193c-119 0 -225 78 -225 213
c0 31 5 59 14 83h-124c15 -27 26 -61 26 -103c0 -127 -97 -193 -210 -193c-119 0 -225 78 -225 213c0 144 109 214 238 214h816v113h-1120v131h1376v-131h-98v-609z" />
    <glyph glyph-name="dvN_N_YA" horiz-adv-x="1794" 
d="M276 165c49 0 83 34 83 83c0 47 -34 82 -83 82c-50 0 -85 -35 -85 -83s35 -82 85 -82zM796 165c49 0 83 34 83 83c0 47 -34 82 -83 82c-50 0 -85 -35 -85 -83s35 -82 85 -82zM1398 213c98 0 158 68 158 160v236h-146v-74c0 -96 -53 -169 -162 -188
c12 -78 64 -134 150 -134zM1713 0h-157v157c-40 -46 -105 -75 -193 -75c-151 0 -244 95 -265 248h-121c16 -27 27 -61 27 -104c0 -127 -97 -193 -210 -193c-119 0 -225 78 -225 214c0 31 5 59 15 83h-127c16 -27 27 -61 27 -104c0 -127 -97 -193 -210 -193
c-119 0 -225 78 -225 214c0 143 109 213 238 213h819c114 0 149 36 149 104v45h-1272v131h1829v-131h-99v-609z" />
    <glyph glyph-name="dvN_PA" horiz-adv-x="1177" 
d="M276 202c49 0 83 33 83 81s-34 82 -83 82c-50 0 -85 -34 -85 -82s35 -81 85 -81zM831 292c71 0 107 53 107 117v200h-214v-191c0 -74 33 -126 107 -126zM1095 0h-157v218c-33 -36 -82 -58 -148 -58c-130 0 -203 84 -220 205h-112c15 -27 26 -61 26 -103
c0 -127 -97 -193 -210 -193c-119 0 -225 78 -225 213c0 144 109 214 238 214h280v113h-584v131h1210v-131h-98v-609z" />
    <glyph glyph-name="dvN_P_RA" horiz-adv-x="1177" 
d="M276 202c49 0 83 33 83 81s-34 82 -83 82c-50 0 -85 -34 -85 -82s35 -81 85 -81zM831 292c71 0 107 53 107 117v200h-214v-191c0 -74 33 -126 107 -126zM938 0v223c-1 -1 -2 -3 -3 -4l-198 -245h-170l175 197c-99 18 -157 93 -171 194h-113c15 -27 26 -61 26 -103
c0 -127 -97 -193 -210 -193c-119 0 -225 78 -225 213c0 144 109 214 238 214h280v113h-584v131h1210v-131h-98v-609h-157z" />
    <glyph glyph-name="dvN_PHA" horiz-adv-x="1484" 
d="M276 202c49 0 83 33 83 81s-34 82 -83 82c-50 0 -85 -34 -85 -82s35 -81 85 -81zM823 292c66 0 99 50 99 109v208h-197v-199c0 -69 31 -118 98 -118zM1079 0h-157v216c-31 -35 -77 -56 -139 -56c-127 0 -198 84 -212 205h-113c15 -27 26 -61 26 -103
c0 -127 -97 -193 -210 -193c-119 0 -225 78 -225 213c0 144 109 214 238 214h281v113h-585v131h1519v-131h-423v-148c30 42 82 70 152 70c127 0 202 -99 202 -225c0 -147 -86 -232 -206 -232c-25 0 -50 3 -74 10v121c10 -3 22 -4 32 -4c54 0 89 39 89 97c0 56 -36 99 -93 99
c-69 0 -102 -55 -102 -126v-271z" />
    <glyph glyph-name="dvN_PH_RA" horiz-adv-x="1484" 
d="M276 202c49 0 83 33 83 81s-34 82 -83 82c-50 0 -85 -34 -85 -82s35 -81 85 -81zM823 292c66 0 99 50 99 109v208h-197v-199c0 -69 31 -118 98 -118zM922 0v221c0 -1 -1 -1 -1 -1l-188 -246h-170l169 198c-95 19 -149 94 -161 193h-113c15 -27 26 -61 26 -103
c0 -127 -97 -193 -210 -193c-119 0 -225 78 -225 213c0 144 109 214 238 214h281v113h-585v131h1519v-131h-423v-148c30 42 82 70 152 70c127 0 202 -99 202 -225c0 -147 -86 -232 -206 -232c-25 0 -50 3 -74 10v121c10 -3 22 -4 32 -4c54 0 89 39 89 97c0 56 -36 99 -93 99
c-69 0 -102 -55 -102 -126v-271h-157z" />
    <glyph glyph-name="dvN_BHA" horiz-adv-x="1360" 
d="M791 199c48 0 72 35 72 87v55h-59c-49 0 -84 -26 -84 -71c0 -46 31 -71 71 -71zM794 66c-132 0 -220 81 -220 203c0 26 4 49 10 70h-127c16 -27 27 -61 27 -104c0 -127 -97 -192 -210 -192c-119 0 -225 78 -225 213c0 144 109 214 238 214h576v70c0 44 -16 75 -55 75
c-33 0 -55 -25 -55 -64c0 -10 1 -21 4 -32h-157c-2 11 -4 25 -4 38c0 18 2 36 6 52h-619v131h746c22 6 46 9 73 9c155 0 207 -105 207 -238v-41h124v270h256v-131h-99v-609h-157v341h-124v-47c0 -141 -74 -228 -215 -228zM276 174c49 0 83 35 83 83c0 47 -34 82 -83 82
c-50 0 -85 -34 -85 -82s35 -83 85 -83z" />
    <glyph glyph-name="dvN_BH_YA" horiz-adv-x="1801" 
d="M276 170c49 0 83 34 83 82s-34 82 -83 82c-50 0 -85 -34 -85 -82s35 -82 85 -82zM1405 213c98 0 158 68 158 160v236h-146v-74c0 -103 -45 -176 -162 -189c1 -78 54 -133 150 -133zM791 194c48 0 72 35 72 87v55h-58c-50 0 -85 -25 -85 -72c0 -45 31 -70 71 -70zM794 61
c-132 0 -220 80 -220 203c0 26 4 49 11 70h-128c16 -27 27 -61 27 -104c0 -126 -97 -192 -210 -192c-119 0 -225 77 -225 213c0 143 109 213 238 213h576v76c0 44 -16 75 -55 75c-33 0 -54 -25 -54 -64c0 -10 1 -21 3 -32h-157c-2 11 -4 25 -4 38c0 18 2 36 6 52h-619v131
h746c22 6 46 9 73 9c156 0 207 -105 207 -238v-47h140c78 0 113 20 113 100v45h-158v131h715v-131h-99v-609h-157v157c-40 -46 -105 -75 -193 -75c-163 0 -260 99 -270 254h-91v-47c0 -141 -73 -228 -215 -228z" />
    <glyph glyph-name="dvN_BH_VA" horiz-adv-x="1723" 
d="M276 170c49 0 83 34 83 82s-34 82 -83 82c-50 0 -85 -34 -85 -82s35 -82 85 -82zM791 194c48 0 72 35 72 87v55h-58c-50 0 -85 -25 -85 -72c0 -45 31 -70 71 -70zM794 61c-132 0 -220 80 -220 203c0 26 4 49 11 70h-128c16 -27 27 -61 27 -104c0 -126 -97 -192 -210 -192
c-119 0 -225 77 -225 213c0 143 109 213 238 213h576v76c0 44 -16 75 -55 75c-33 0 -54 -25 -54 -64c0 -10 1 -21 3 -32h-157c-2 11 -4 25 -4 38c0 18 2 36 6 52h-619v131h746c22 6 46 9 73 9c156 0 207 -105 207 -238v-47h155c39 44 97 71 170 71c68 0 122 -26 155 -70v144
h-383v131h634v-131h-97v-609h-154v134c-34 -46 -87 -72 -155 -72c-142 0 -225 103 -225 241c0 11 1 22 2 33h-102v-47c0 -141 -73 -228 -215 -228zM1376 187c75 0 113 56 113 111v1c0 58 -38 110 -113 110c-66 0 -113 -45 -113 -110c0 -66 46 -112 113 -112z" />
    <glyph glyph-name="dvN_MA" horiz-adv-x="1376" 
d="M790 199c48 0 71 35 71 87v55h-58c-49 0 -84 -26 -84 -71c0 -46 31 -71 71 -71zM276 174c49 0 83 35 83 83c0 47 -34 82 -83 82c-50 0 -85 -34 -85 -82s35 -83 85 -83zM1137 470v139h-129v-139h129zM1295 0h-158v341h-129v-47c0 -141 -74 -228 -215 -228
c-132 0 -220 81 -220 203c0 26 4 49 10 70h-126c16 -27 27 -61 27 -104c0 -127 -97 -192 -210 -192c-119 0 -225 78 -225 213c0 144 109 214 238 214h574v139h-878v131h1410v-131h-98v-609z" />
    <glyph glyph-name="dvN_M_YA" horiz-adv-x="1827" 
d="M276 158c49 0 83 35 83 82c0 48 -34 82 -83 82c-50 0 -85 -34 -85 -82c0 -47 35 -82 85 -82zM1429 213c99 0 159 68 159 160v236h-146v-74c0 -102 -58 -176 -162 -190c2 -77 55 -132 149 -132zM789 182c48 0 73 35 73 88v54h-60c-48 0 -83 -25 -83 -70
c0 -46 30 -72 70 -72zM1175 453c81 0 112 39 112 111v45h-279v-156h167zM1745 0h-157v157c-41 -46 -105 -75 -193 -75c-159 0 -254 94 -268 242h-119v-47c0 -141 -74 -228 -216 -228c-132 0 -219 80 -219 204c0 27 4 51 11 72h-129c17 -28 29 -63 29 -107
c0 -126 -97 -192 -210 -192c-119 0 -225 78 -225 213c0 143 109 214 238 214h575v156h-879v131h1860v-131h-98v-609z" />
    <glyph glyph-name="dvN_YA" horiz-adv-x="1274" 
d="M276 165c49 0 83 34 83 83c0 47 -34 82 -83 82c-50 0 -85 -35 -85 -83s35 -82 85 -82zM878 213c98 0 158 68 158 160v236h-146v-74c0 -96 -53 -169 -162 -188c12 -78 64 -134 150 -134zM1193 0h-157v157c-40 -46 -105 -75 -193 -75c-151 0 -244 95 -265 248h-121
c16 -27 27 -61 27 -104c0 -127 -97 -193 -210 -193c-119 0 -225 78 -225 214c0 143 109 213 238 213h299c114 0 149 36 149 104v45h-752v131h1309v-131h-99v-609z" />
    <glyph glyph-name="dvN_VA" horiz-adv-x="1179" 
d="M276 202c49 0 83 33 83 81s-34 82 -83 82c-50 0 -85 -34 -85 -82s35 -81 85 -81zM838 187c74 0 113 56 113 111v1c0 58 -39 110 -113 110c-66 0 -113 -45 -113 -110c0 -66 46 -112 113 -112zM1202 609h-98v-609h-153v134c-34 -46 -88 -72 -156 -72
c-141 0 -224 103 -224 241c0 22 2 42 7 62h-120c15 -27 26 -61 26 -103c0 -127 -97 -193 -210 -193c-119 0 -225 78 -225 213c0 144 109 214 238 214h375c35 25 80 39 133 39c68 0 122 -26 156 -70v144h-968v131h1219v-131z" />
    <glyph glyph-name="dvN_SA" horiz-adv-x="1347" 
d="M276 202c49 0 83 33 83 81s-34 82 -83 82c-50 0 -85 -34 -85 -82s35 -81 85 -81zM955 543c0 -43 -8 -82 -24 -115h178v181h-154v-66zM1017 187c0 -119 -79 -196 -212 -196c-147 0 -223 96 -223 219v74h-1c0 43 -30 81 -108 81h-15c15 -27 26 -61 26 -103
c0 -127 -97 -193 -210 -193c-119 0 -225 78 -225 213c0 144 109 214 238 214h169c97 0 180 -24 226 -83c88 8 116 60 116 130v66h-815v131h1381v-131h-98v-609h-157v300h-372v-98c0 -43 20 -77 65 -77c41 0 63 31 63 71v13h151c1 -9 1 -17 1 -22z" />
    <glyph glyph-name="dvN_S_TTA" horiz-adv-x="1685" 
d="M276 202c49 0 83 33 83 81s-34 82 -83 82c-50 0 -85 -34 -85 -82s35 -81 85 -81zM955 543c0 -43 -8 -82 -24 -115h206c47 65 129 103 237 105v76h-419v-66zM1017 187c0 -119 -79 -196 -212 -196c-147 0 -223 96 -223 219v74h-1c0 43 -30 81 -108 81h-15
c15 -27 26 -61 26 -103c0 -127 -97 -193 -210 -193c-119 0 -225 78 -225 213c0 144 109 214 238 214h169c97 0 180 -24 226 -83c88 8 116 60 116 130v66h-815v131h1718v-131h-173v-208h-137c-79 0 -143 -42 -143 -126c0 -70 50 -119 127 -119c79 0 130 52 130 127h149
c0 -159 -107 -263 -275 -263c-169 0 -288 102 -288 256c0 8 0 16 1 24h-355v-98c0 -43 20 -77 65 -77c41 0 63 31 63 71v13h151c1 -9 1 -17 1 -22z" />
    <glyph glyph-name="dvN_S_M_YA" horiz-adv-x="2334" 
d="M276 202c49 0 83 33 83 81s-34 82 -83 82c-50 0 -85 -34 -85 -82s35 -81 85 -81zM1937 213c99 0 159 68 159 160v236h-146v-74c0 -102 -58 -176 -162 -190c2 -77 55 -132 149 -132zM1297 182c48 0 73 35 73 88v54h-60c-48 0 -83 -25 -83 -70c0 -46 30 -72 70 -72z
M956 543c0 -43 -9 -82 -25 -115h255c35 17 76 25 120 25h64v156h-414v-66zM1683 453c81 0 112 39 112 111v45h-279v-156h167zM1017 187c0 -119 -79 -196 -213 -196c-147 0 -223 96 -223 219v74c0 43 -30 81 -108 81h-15c15 -27 26 -61 26 -103c0 -127 -97 -193 -210 -193
c-119 0 -225 78 -225 213c0 144 109 214 238 214h169c97 0 180 -24 226 -83c88 8 116 60 116 130v66h-815v131h2368v-131h-98v-609h-157v157c-41 -46 -105 -75 -193 -75c-159 0 -254 94 -268 242h-119v-47c0 -141 -74 -228 -216 -228c-132 0 -219 80 -219 204
c0 17 2 32 5 47h-348v-98c0 -43 19 -77 63 -77c42 0 64 31 64 71v13h151c1 -9 1 -17 1 -22z" />
    <glyph glyph-name="dvN_S_YA" horiz-adv-x="1787" 
d="M276 202c49 0 83 33 83 81s-34 82 -83 82c-50 0 -85 -34 -85 -82s35 -81 85 -81zM1390 208c99 0 158 68 158 160v241h-145v-87c0 -102 -54 -176 -162 -190c2 -71 55 -124 149 -124zM1099 428c114 0 148 45 148 123v58h-292v-66c0 -43 -8 -82 -24 -115h168zM1017 187
c0 -119 -79 -196 -212 -196c-147 0 -223 96 -223 219v74h-1c0 43 -30 81 -108 81h-15c15 -27 26 -61 26 -103c0 -127 -97 -193 -210 -193c-119 0 -225 78 -225 213c0 144 109 214 238 214h169c97 0 180 -24 226 -83c88 8 116 60 116 130v66h-815v131h1821v-131h-98v-609
h-158v151c-41 -45 -105 -74 -192 -74c-155 0 -249 86 -267 223h-352v-98c0 -43 20 -77 65 -77c41 0 63 31 63 71v13h151c1 -9 1 -17 1 -22z" />
    <glyph glyph-name="dvN_HA" horiz-adv-x="1083" 
d="M276 202c49 0 83 33 83 81s-34 82 -83 82c-50 0 -85 -34 -85 -82s35 -81 85 -81zM1040 77c-10 -114 -103 -189 -237 -189c-151 0 -246 92 -246 232c0 78 34 139 90 176c-28 17 -49 40 -59 69h-130c15 -27 26 -61 26 -103c0 -127 -97 -193 -210 -193
c-119 0 -225 78 -225 213c0 144 109 214 238 214h327c28 27 72 43 128 43h80v70h-839v131h1117v-131h-128v-181h-174c-33 0 -62 -13 -62 -48c0 -19 10 -34 27 -43c14 2 29 3 44 3c148 0 221 -81 233 -186h-150c-7 31 -37 62 -87 62c-53 0 -92 -38 -92 -99
c0 -63 39 -100 92 -100c47 0 78 29 87 60h150z" />
    <glyph glyph-name="dvP_TTA" horiz-adv-x="1012" 
d="M334 292c53 0 87 30 98 72v0c34 103 130 167 270 169v76h-477v-191c0 -74 34 -126 109 -126zM982 283c0 -159 -107 -263 -275 -263c-137 0 -241 67 -276 174c-33 -22 -74 -34 -123 -34c-159 0 -240 110 -240 258v191h-85v131h1046v-131h-173v-208h-137
c-79 0 -143 -42 -143 -126c0 -70 50 -119 127 -119c79 0 130 52 130 127h149z" />
    <glyph glyph-name="dvP_TTHA" horiz-adv-x="1040" 
d="M703 161c78 0 128 52 128 124s-50 123 -128 123c-75 0 -126 -51 -126 -123s51 -124 126 -124zM334 292c49 0 82 25 95 61c25 98 103 157 196 178v78h-400v-191c0 -74 34 -126 109 -126zM703 30c-127 0 -231 61 -268 167c-33 -24 -76 -37 -127 -37
c-159 0 -240 110 -240 258v191h-85v131h1073v-131h-276v-77c115 -25 207 -108 207 -247c0 -159 -124 -255 -284 -255z" />
    <glyph glyph-name="dvP_TA" horiz-adv-x="1054" 
d="M329 292c42 0 72 21 87 51c40 104 145 149 267 149h133v117h-591v-191c0 -74 32 -126 104 -126zM1071 609h-98v-609h-157v357h-125c-80 0 -133 -40 -133 -115c0 -71 41 -117 125 -117h19v-124h-43c-124 0 -228 55 -254 181c-29 -14 -63 -22 -102 -22
c-155 0 -235 110 -235 258v191h-85v131h1088v-131z" />
    <glyph glyph-name="dvP_T_YA" horiz-adv-x="1478" 
d="M328 292c44 0 73 24 87 57l3 9l1 2v0c40 96 137 140 251 140c90 0 151 -27 191 -67c59 19 79 65 79 131v45h-715v-199c0 -69 32 -118 103 -118zM1082 213c99 0 159 68 159 160v236h-147v-74c0 -105 -57 -182 -161 -197c2 -72 55 -125 149 -125zM1496 609h-98v-609h-157
v157c-40 -46 -105 -75 -193 -75c-155 0 -249 87 -268 225c-14 31 -39 58 -102 58c-74 0 -119 -41 -119 -115c0 -71 41 -117 125 -117h19v-123h-43c-121 0 -224 52 -252 173c-30 -15 -65 -23 -105 -23c-155 0 -235 110 -235 258v191h-85v131h1513v-131z" />
    </font>
</defs>
</svg>
