<?xml version="1.0" standalone="no"?>
<!DOCTYPE svg PUBLIC "-//W3C//DTD SVG 1.1//EN" "http://www.w3.org/Graphics/SVG/1.1/DTD/svg11.dtd" >
<svg xmlns="http://www.w3.org/2000/svg" xmlns:xlink="http://www.w3.org/1999/xlink" version="1.1">
<metadata>
Created by FontForge 20170910 at Fri Dec 22 03:09:04 2017
 By Jimmy Wärting
Copyright 2014-2017 Indian Type Foundry (info@indiantypefoundry.com)
</metadata>
<defs>
<font id="Poppins-BoldItalic" horiz-adv-x="319" >
  <font-face 
    font-family="Poppins"
    font-weight="700"
    font-style="italic"
    font-stretch="normal"
    units-per-em="1000"
    panose-1="0 0 8 0 0 0 0 0 0 0"
    ascent="800"
    descent="-200"
    x-height="558"
    cap-height="702"
    bbox="-578 -606 2542 1108"
    underline-thickness="50"
    underline-position="-100"
    slope="-10"
    unicode-range="U+000D-FB02"
  />
<missing-glyph horiz-adv-x="500" 
d="M0 0v700h500v-700h-500zM250 395l170 255h-340zM280 350l170 -255v510zM80 50h340l-170 255zM50 605v-510l170 255z" />
    <glyph glyph-name=".notdef" horiz-adv-x="500" 
d="M0 0v700h500v-700h-500zM250 395l170 255h-340zM280 350l170 -255v510zM80 50h340l-170 255zM50 605v-510l170 255z" />
    <glyph glyph-name="NULL" horiz-adv-x="0" 
 />
    <glyph glyph-name="NULL" horiz-adv-x="0" 
 />
    <glyph glyph-name="CR" unicode="&#xd;" horiz-adv-x="231" 
 />
    <glyph glyph-name="space" unicode=" " horiz-adv-x="231" 
 />
    <glyph glyph-name="dvA" unicode="&#x905;" horiz-adv-x="838" 
d="M286 476c53 0 90 30 98 70c8 43 -18 70 -58 70c-41 0 -77 -27 -84 -68h-145c21 120 122 201 253 201c127 0 196 -72 177 -182c-13 -72 -61 -126 -132 -149l-1 -4c18 -5 34 -12 46 -22h165l60 348h255l-22 -131h-99l-108 -609h-156l46 263h-98c0 -3 -1 -6 -1 -9
c-21 -119 -118 -195 -242 -195c-142 0 -221 85 -199 211h147c-8 -42 17 -76 65 -76s81 31 89 76c7 41 -14 79 -79 79h-45l22 127h46z" />
    <glyph glyph-name="dvAA" unicode="&#x906;" horiz-adv-x="1156" 
d="M286 476c53 0 90 30 98 70c8 43 -18 70 -58 70c-41 0 -77 -27 -84 -68h-145c21 120 122 201 253 201c127 0 196 -72 177 -182c-13 -72 -61 -126 -132 -149l-1 -4c18 -5 34 -12 46 -22h165l60 348h573l-23 -131h-98l-107 -609h-157l107 609h-161l-108 -609h-156l46 263
h-98c0 -3 -1 -6 -1 -9c-21 -119 -118 -195 -242 -195c-142 0 -221 85 -199 211h147c-8 -42 17 -76 65 -76s81 31 89 76c7 41 -14 79 -79 79h-45l22 127h46z" />
    <glyph glyph-name="dvI" unicode="&#x907;" horiz-adv-x="585" 
d="M28 609l23 131h621l-23 -131h-130l-13 -73v0l-20 -111h-186c-32 0 -67 -11 -73 -47c-6 -32 17 -45 53 -45h43c102 0 199 -50 175 -188c-18 -98 -92 -165 -204 -163c-67 1 -102 32 -117 52l-20 -118h-149l45 257h141c-4 -47 23 -75 74 -75c47 0 76 26 82 60
c8 47 -26 64 -77 64c-19 0 -38 0 -62 2c-78 4 -160 51 -140 161c19 110 110 151 210 151h73l12 73h-338z" />
    <glyph glyph-name="dvII" unicode="&#x908;" horiz-adv-x="578" 
d="M177 34l-20 -118h-149l45 257h141c-4 -47 23 -75 74 -75c47 0 77 26 82 60c7 47 -26 64 -77 64c-19 0 -38 0 -62 2c-78 4 -159 51 -140 161s110 151 210 151h74l13 73h-338l23 131h340l12 64c19 106 82 217 237 217c129 0 185 -80 156 -205h-137c11 48 -5 75 -39 75
c-41 0 -63 -29 -72 -85l-12 -66h136l-23 -131h-131l-19 -105h-1l-14 -79h-186c-32 0 -67 -11 -73 -47c-6 -32 17 -45 53 -45h43c102 0 199 -50 175 -188c-18 -98 -92 -165 -204 -163c-67 1 -102 32 -117 52z" />
    <glyph glyph-name="dvU" unicode="&#x909;" horiz-adv-x="565" 
d="M25 609l23 131h599l-23 -131h-87l-11 -60c-15 -83 -63 -135 -118 -148l-1 -3c66 -20 101 -89 87 -177c-23 -128 -123 -217 -267 -217c-148 0 -236 88 -210 234h149c-10 -54 23 -94 78 -94c54 0 94 37 104 90c8 46 -12 93 -79 93h-60l23 137h38c53 0 95 30 106 92l9 53
h-360z" />
    <glyph glyph-name="dvUU" unicode="&#x90a;" horiz-adv-x="851" 
d="M25 609l23 131h885l-23 -131h-373l-11 -60c-15 -83 -63 -135 -118 -148l-1 -3h179c137 0 223 -60 199 -196c-20 -110 -103 -183 -223 -183c-19 0 -38 2 -58 6l21 118c10 -1 21 -1 31 -1c39 0 71 20 80 66c8 45 -23 66 -70 66h-74c2 -19 2 -40 -2 -62
c-21 -118 -121 -208 -263 -208c-148 0 -236 88 -210 234h149c-10 -54 23 -94 78 -94c54 0 94 37 104 90c8 46 -12 93 -79 93h-60l23 137h38c53 0 95 30 106 92l9 53h-360z" />
    <glyph glyph-name="dvvR" unicode="&#x90b;" horiz-adv-x="1052" 
d="M412 0l30 171l-217 -171h-200l1 7l440 315c-9 46 -45 77 -104 77c-86 0 -147 -57 -161 -141h-158c29 161 140 274 296 274c75 0 125 -26 154 -70l26 147h-494l23 131h1086l-23 -131h-447l-28 -158h145c37 0 62 16 71 45l8 46h135l-62 -350h-26c-57 0 -90 -31 -96 -71
c-9 -50 28 -68 79 -68c19 0 41 3 58 7l-22 -125c-22 -4 -54 -7 -79 -7c-127 0 -210 63 -189 179c15 86 75 143 155 168l11 66c-28 -10 -59 -14 -88 -14h-122l-58 -327h-144z" />
    <glyph glyph-name="dvvRR" unicode="&#x960;" horiz-adv-x="1054" 
d="M412 0l30 171l-217 -171h-201l1 7l441 315c-9 46 -45 77 -104 77c-86 0 -147 -57 -162 -141h-157c28 161 140 274 295 274c75 0 125 -26 154 -70l26 147h-493l23 131h1088l-23 -131h-450l-28 -158h146c38 0 63 16 71 46l8 45h135l-63 -354h-35c-39 0 -73 -10 -80 -49
c-7 -36 25 -47 64 -47h57l-20 -117h-50c-41 0 -82 -9 -90 -51c-7 -42 34 -51 74 -51c43 0 88 11 105 16l-20 -116c-34 -13 -87 -21 -130 -21c-104 0 -202 42 -182 155c11 63 61 109 121 122l1 4c-52 12 -92 45 -79 115c14 79 83 113 144 122l13 72c-29 -10 -60 -15 -90 -15
h-122l-57 -327h-144z" />
    <glyph glyph-name="dvvL" unicode="&#x90c;" horiz-adv-x="906" 
d="M19 609l23 131h940l-24 -131h-205l-16 -95c72 -29 116 -104 96 -226c-6 -36 -18 -70 -34 -100h-7c-77 0 -109 -30 -116 -72c-9 -46 30 -66 83 -66c19 0 40 2 59 7l-22 -125c-27 -5 -54 -7 -80 -7c-130 0 -212 63 -191 184c14 77 77 136 146 158c2 7 3 14 5 22
c11 59 -12 102 -66 102c-66 0 -101 -55 -111 -118l-6 -29h-130l5 29c10 62 -3 118 -67 118c-60 0 -98 -43 -110 -105c-13 -78 22 -115 86 -115c7 0 17 0 29 1l-25 -136c-15 -1 -27 -1 -35 -1c-168 0 -241 101 -214 253c29 164 149 241 269 241c95 0 139 -52 153 -114h3
c26 45 69 85 127 103l16 91h-581z" />
    <glyph glyph-name="dvvLL" unicode="&#x961;" horiz-adv-x="916" 
d="M20 609l23 131h949l-24 -131h-216l-16 -94c73 -30 120 -104 97 -227c-7 -36 -19 -70 -34 -100h-30c-38 0 -73 -10 -81 -49c-6 -36 27 -47 66 -47h57l-20 -117h-51c-42 0 -82 -9 -90 -51s35 -51 75 -51c42 0 88 11 104 16l-20 -116c-33 -13 -87 -21 -129 -21
c-105 0 -203 42 -183 156c11 62 62 108 121 121l1 4c-52 12 -91 45 -79 115c14 73 73 107 131 120c2 7 4 14 5 21c11 59 -12 102 -66 102c-66 0 -103 -55 -112 -118l-5 -29h-130l5 29c9 62 -3 118 -67 118c-60 0 -99 -43 -110 -105c-14 -78 22 -115 86 -115c7 0 17 0 28 1
l-24 -136c-15 -1 -27 -1 -35 -1c-168 0 -241 101 -214 253c29 164 148 241 269 241c94 0 139 -52 153 -114h3c26 45 69 85 128 104l15 90h-580z" />
    <glyph glyph-name="dvE" unicode="&#x90f;" horiz-adv-x="652" 
d="M24 609l23 131h687l-24 -131h-87l-14 -79c-26 -151 -102 -234 -273 -211l24 141c57 -8 88 17 98 74l13 75h-191l-61 -346c-13 -73 21 -110 78 -110c54 0 94 34 104 92h153c-24 -144 -124 -226 -269 -226c-170 0 -248 102 -222 250l60 340h-99z" />
    <glyph glyph-name="dvAI" unicode="&#x910;" horiz-adv-x="652" 
d="M286 19c-170 0 -248 102 -222 250l60 340h-99l23 131h443c-56 117 -78 134 -166 134h-52l23 126h50c154 -1 205 -28 292 -260h97l-24 -131h-87l-14 -79c-26 -151 -102 -234 -273 -211l24 141c57 -8 88 17 98 74l13 75h-191l-61 -346c-13 -73 21 -110 78 -110
c54 0 94 34 104 92h153c-24 -144 -124 -226 -269 -226z" />
    <glyph glyph-name="dvO" unicode="&#x913;" horiz-adv-x="1156" 
d="M691 0h-156l46 263h-98c0 -3 -1 -6 -1 -9c-21 -119 -118 -195 -242 -195c-142 0 -221 85 -199 211h147c-8 -42 17 -76 65 -76s81 31 89 76c7 41 -14 79 -79 79h-45l22 127h46c53 0 90 30 98 70c8 43 -18 70 -58 70c-41 0 -77 -27 -84 -68h-145c21 120 122 201 253 201
c127 0 196 -72 177 -182c-13 -72 -61 -126 -132 -149l-1 -4c18 -5 34 -12 46 -22h165l60 348h341c-56 117 -77 134 -165 134h-52l22 126h50c155 -1 204 -28 292 -260h85l-23 -131h-98l-107 -609h-157l107 609h-161z" />
    <glyph glyph-name="dvAU" unicode="&#x914;" horiz-adv-x="1156" 
d="M691 0h-156l46 263h-98c0 -3 -1 -6 -1 -9c-21 -119 -118 -195 -242 -195c-142 0 -221 85 -199 211h147c-8 -42 17 -76 65 -76s81 31 89 76c7 41 -14 79 -79 79h-45l22 127h46c53 0 90 30 98 70c8 43 -18 70 -58 70c-41 0 -77 -27 -84 -68h-145c21 120 122 201 253 201
c127 0 196 -72 177 -182c-13 -72 -61 -126 -132 -149l-1 -4c18 -5 34 -12 46 -22h165l60 348h348c-94 66 -92 68 -198 68h-53l17 98h50c94 0 120 -1 182 -57c-51 122 -94 124 -163 124h-57l17 99h53c153 0 181 -15 290 -332h87l-23 -131h-98l-107 -609h-157l107 609h-161z
" />
    <glyph glyph-name="dvEcandra" unicode="&#x90d;" horiz-adv-x="653" 
d="M380 819c-167 0 -224 89 -202 212h134c-9 -52 13 -96 88 -96c73 0 112 44 122 96h134c-21 -123 -111 -212 -276 -212zM-2 609l23 131h687l-24 -131h-87l-14 -79c-26 -151 -102 -234 -273 -211l24 141c57 -8 88 17 98 74l13 75h-191l-61 -346c-13 -73 21 -110 78 -110
c54 0 94 34 104 92h153c-24 -144 -124 -226 -269 -226c-170 0 -248 102 -222 250l60 340h-99z" />
    <glyph glyph-name="dvAcandra" unicode="&#x972;" horiz-adv-x="838" 
d="M286 476c53 0 90 30 98 70c8 43 -18 70 -58 70c-41 0 -77 -27 -84 -68h-145c21 120 122 201 253 201c127 0 196 -72 177 -182c-13 -72 -61 -126 -132 -149l-1 -4c18 -5 34 -12 46 -22h165l60 348h255l-22 -131h-99l-108 -609h-156l46 263h-98c0 -3 -1 -6 -1 -9
c-21 -119 -118 -195 -242 -195c-142 0 -221 85 -199 211h147c-8 -42 17 -76 65 -76s81 31 89 76c7 41 -14 79 -79 79h-45l22 127h46zM796 824c-167 0 -232 89 -210 211h135c-9 -52 13 -95 88 -95c73 0 112 43 122 95h134c-21 -122 -104 -211 -269 -211z" />
    <glyph glyph-name="dvOcandra" unicode="&#x911;" horiz-adv-x="1156" 
d="M286 476c53 0 90 30 98 70c8 43 -18 70 -58 70c-41 0 -77 -27 -84 -68h-145c21 120 122 201 253 201c127 0 196 -72 177 -182c-13 -72 -61 -126 -132 -149l-1 -4c18 -5 34 -12 46 -22h165l60 348h573l-23 -131h-98l-107 -609h-157l107 609h-161l-108 -609h-156l46 263
h-98c0 -3 -1 -6 -1 -9c-21 -119 -118 -195 -242 -195c-142 0 -221 85 -199 211h147c-8 -42 17 -76 65 -76s81 31 89 76c7 41 -14 79 -79 79h-45l22 127h46zM950 819c-167 0 -232 89 -210 211h135c-9 -52 13 -95 88 -95c73 0 112 43 122 95h134c-21 -122 -104 -211 -269 -211
z" />
    <glyph glyph-name="dvmAA" unicode="&#x93e;" 
d="M16 0l107 609h-98l23 131h353l-23 -131h-98l-107 -609h-157z" />
    <glyph glyph-name="dvmI" unicode="&#x93f;" 
d="M280 609l-108 -609h-157l108 609h-98l23 131h98c42 176 221 291 469 291c254 0 394 -127 363 -308l-3 -18h-157l2 15c19 126 -94 183 -228 183c-130 0 -261 -48 -290 -163h99l-23 -131h-98z" />
    <glyph glyph-name="dvmII" unicode="&#x940;" 
d="M-179 705l11 65c27 151 110 261 286 261c180 0 217 -114 191 -261l-5 -30h98l-23 -131h-98l-108 -609h-157l108 609h-99l23 131h103l7 38c9 51 11 121 -63 121c-76 0 -99 -70 -109 -121l-13 -73h-152z" />
    <glyph glyph-name="dvmU" unicode="&#x941;" horiz-adv-x="0" 
d="M-329 -340c-128 0 -257 61 -224 233h139c-17 -79 29 -110 96 -110c57 0 96 26 103 71c7 37 -14 67 -66 67h-36l22 122h36c126 0 195 -74 179 -191c-15 -119 -113 -192 -249 -192z" />
    <glyph glyph-name="dvmUU" unicode="&#x942;" horiz-adv-x="0" 
d="M-301 -325c-99 0 -192 59 -170 182c20 117 115 181 239 181c192 0 251 -147 225 -301c-4 -20 -8 -38 -13 -56h-127l11 63c20 103 -14 177 -109 177c-47 0 -93 -22 -101 -69c-7 -44 26 -65 66 -65c8 0 17 1 26 1l-19 -112c-9 -1 -19 -1 -28 -1z" />
    <glyph glyph-name="dvmvR" unicode="&#x943;" horiz-adv-x="0" 
d="M-260 -336c-98 0 -211 62 -187 200c20 110 112 176 251 176c10 0 48 -1 57 -2l-18 -105h-45c-53 0 -85 -25 -92 -67c-10 -51 32 -77 81 -77c34 0 68 8 86 13l-22 -122c-36 -11 -75 -16 -111 -16z" />
    <glyph glyph-name="dvmvRR" unicode="&#x944;" horiz-adv-x="0" 
d="M-264 -481c-104 0 -204 42 -183 155c12 63 62 108 122 121v4c-51 12 -91 45 -78 115c17 96 114 126 183 126h81l-15 -85h-20c-38 0 -73 -11 -80 -49c-7 -36 26 -49 64 -49h58l-20 -115h-50c-41 0 -83 -9 -91 -51c-8 -41 35 -51 75 -51c43 0 88 10 104 15l-21 -117
c-32 -12 -86 -19 -129 -19z" />
    <glyph glyph-name="dvmvL" unicode="&#x962;" horiz-adv-x="0" 
d="M-47 -477c-98 0 -161 48 -145 140c10 59 57 102 109 119c1 4 2 9 3 14c8 44 -7 75 -47 75c-48 0 -72 -40 -81 -86l-4 -22h-101l4 22c8 46 -3 86 -49 86c-44 0 -73 -31 -81 -77c-10 -57 17 -83 64 -83c4 0 13 0 20 2l-20 -107h-25c-127 0 -182 76 -162 190
c21 124 114 182 204 182c71 0 104 -39 114 -85h3c28 46 78 85 151 85c87 0 156 -59 134 -182c-5 -27 -13 -52 -24 -75h-6c-60 0 -84 -22 -89 -52c-6 -34 23 -49 61 -49c14 0 30 1 45 5l-17 -97c-20 -3 -41 -5 -61 -5z" />
    <glyph glyph-name="dvmvLL" unicode="&#x963;" horiz-adv-x="0" 
d="M23 -592c-24 -9 -63 -14 -97 -14c-79 0 -153 29 -137 116c8 49 46 83 91 92v2c-39 10 -67 37 -58 89c8 55 53 82 97 91c1 4 1 8 2 12c8 44 -8 75 -48 75c-48 0 -71 -40 -80 -86l-4 -22h-102l4 22c9 46 -3 86 -49 86c-44 0 -73 -31 -81 -77c-10 -57 18 -83 64 -83
c4 0 14 0 20 2l-19 -107h-25c-127 0 -183 76 -162 190c22 124 113 182 203 182c71 0 104 -39 115 -85h3c27 46 77 85 150 85c87 0 157 -59 135 -182c-5 -27 -14 -52 -25 -75h-26c-28 0 -54 -7 -58 -35c-5 -26 18 -35 49 -35h41l-16 -90h-36c-32 0 -63 -5 -69 -38
c-4 -30 26 -36 57 -36c32 0 65 7 77 11z" />
    <glyph glyph-name="dvmE" unicode="&#x947;" horiz-adv-x="0" 
d="M-165 735c-57 122 -78 139 -167 139h-52l22 126h50c155 -1 204 -28 294 -265h-147z" />
    <glyph glyph-name="dvmAI" unicode="&#x948;" horiz-adv-x="0" 
d="M-158 737c-98 69 -94 71 -202 71h-53l17 98h50c94 0 120 -1 182 -57c-51 122 -94 124 -163 124h-57l17 99h53c153 0 181 -15 291 -335h-135z" />
    <glyph glyph-name="dvmO" unicode="&#x94b;" horiz-adv-x="320" 
d="M174 0h-157l107 609h-99l24 131h104c-56 117 -78 134 -165 134h-53l23 126h50c155 -1 205 -28 292 -260h102l-23 -131h-98z" />
    <glyph glyph-name="dvmAU" unicode="&#x94c;" 
d="M144 0h-157l107 609h-99l24 131h110c-95 66 -93 68 -199 68h-53l17 98h50c94 0 120 -1 182 -57c-50 122 -93 124 -163 124h-57l17 99h53c153 0 181 -15 290 -332h106l-23 -131h-98z" />
    <glyph glyph-name="dvmEcandra" unicode="&#x945;" horiz-adv-x="0" 
d="M-75 811c-167 0 -232 89 -210 211h135c-9 -52 13 -95 88 -95c73 0 112 43 122 95h134c-21 -122 -104 -211 -269 -211z" />
    <glyph glyph-name="dvmOcandra" unicode="&#x949;" horiz-adv-x="320" 
d="M245 811c-167 0 -232 89 -210 211h135c-9 -52 13 -95 88 -95c73 0 112 43 122 95h134c-21 -122 -104 -211 -269 -211zM16 0l107 609h-98l23 131h353l-23 -131h-98l-107 -609h-157z" />
    <glyph glyph-name="dvKA" unicode="&#x915;" horiz-adv-x="965" 
d="M350 0l24 135c-37 -43 -92 -71 -161 -71c-120 0 -197 99 -172 238c24 138 120 229 252 229c71 0 116 -28 138 -70l26 148h-432l23 131h999l-23 -131h-417l-25 -146c34 41 85 68 150 68c126 0 191 -105 167 -236c-27 -145 -127 -221 -246 -221c-23 0 -43 2 -66 8l22 123
c6 -2 16 -3 25 -3c51 0 96 35 107 96c9 54 -19 99 -76 99c-65 0 -103 -50 -114 -111v0l-50 -286h-151zM284 196c66 1 108 50 117 96v0l1 4l-1 -1c10 53 -16 103 -82 103c-58 0 -109 -40 -119 -101c-11 -61 26 -101 84 -101z" />
    <glyph glyph-name="dvKHA" unicode="&#x916;" horiz-adv-x="961" 
d="M659 0l28 158c-30 -28 -72 -47 -127 -47c-11 0 -21 1 -30 3c-57 -69 -143 -121 -249 -121c-172 0 -264 102 -231 283l22 127h25c89 0 142 38 158 130l13 76h-243l24 131h994l-24 -131h-97l-107 -609h-156zM615 231c55 0 91 41 99 87c8 41 -11 86 -69 86
c-48 0 -91 -31 -101 -85c-9 -58 25 -88 71 -88zM309 129c60 0 98 26 122 56c-22 39 -30 91 -20 149c20 118 113 193 220 189c55 -2 90 -20 111 -49l23 135h-339l-17 -98c-24 -134 -103 -205 -200 -217l-7 -37c-13 -73 23 -128 107 -128z" />
    <glyph glyph-name="dvGA" unicode="&#x917;" horiz-adv-x="815" 
d="M512 0l106 609h-126l-39 -226c-20 -120 -94 -214 -237 -214c-126 0 -203 73 -179 206c2 11 4 22 6 32h153l-6 -31c-7 -40 0 -73 40 -73c43 0 59 39 64 74l42 232h-311l23 131h849l-23 -131h-98l-107 -609h-157z" />
    <glyph glyph-name="dvGHA" unicode="&#x918;" horiz-adv-x="699" 
d="M294 222c78 0 150 52 164 134v-1l45 254h-226l-7 -40c-9 -50 9 -82 75 -82h40l-22 -126h-52c-61 0 -93 -29 -99 -68c-9 -48 27 -71 82 -71zM25 609l23 131h733l-24 -131h-96l-107 -609h-158l30 171c-50 -50 -118 -77 -193 -77c-115 0 -204 66 -184 183
c14 78 75 128 133 144v3c-51 14 -85 54 -71 138l8 47h-94z" />
    <glyph glyph-name="dvNGA" unicode="&#x919;" horiz-adv-x="703" 
d="M595 287c-45 0 -75 37 -67 82c8 46 51 82 97 82s76 -36 68 -82c-8 -45 -51 -82 -98 -82zM27 609l23 131h735l-22 -131h-246l-13 -74v0l-19 -110h-185c-33 0 -68 -11 -74 -46c-6 -34 19 -46 52 -46h44c109 0 198 -54 176 -180c-19 -107 -104 -173 -250 -173
c-144 0 -247 70 -230 193h156c-6 -50 30 -75 83 -75c50 0 85 24 92 61c8 45 -24 63 -75 63h-35c-75 0 -192 33 -169 162c18 105 109 151 209 151h73l13 74h-338z" />
    <glyph glyph-name="dvCA" unicode="&#x91a;" horiz-adv-x="753" 
d="M25 609l23 131h787l-23 -131h-97l-108 -609h-157l28 160c-47 -50 -115 -77 -189 -77c-114 0 -192 70 -170 189c8 48 32 88 69 117h-134l21 123h370l-22 -123h-41c-55 0 -101 -34 -111 -88c-10 -58 31 -89 90 -88c80 1 137 63 153 154v0l43 242h-532z" />
    <glyph glyph-name="dvCHA" unicode="&#x91b;" horiz-adv-x="822" 
d="M23 609l23 131h858l-23 -131h-188l-14 -81c74 -26 111 -98 93 -203c-33 -185 -194 -305 -434 -305c-195 0 -328 87 -299 231c15 76 67 124 135 145v4c-50 13 -84 54 -70 138l13 71h-94zM363 154c154 0 251 62 272 179c10 54 -10 91 -48 91c-34 0 -67 -27 -76 -80
c-5 -24 -4 -51 -1 -76h-129c-3 24 -4 57 3 94c17 93 77 146 150 167l14 80h-274l-11 -64c-9 -50 7 -82 65 -82h21l-23 -126h-17c-65 0 -102 -36 -110 -80c-11 -64 39 -103 164 -103z" />
    <glyph glyph-name="dvJA" unicode="&#x91c;" horiz-adv-x="860" 
d="M25 609l23 131h894l-24 -131h-97l-107 -609h-157l62 354h-115l-5 -30c-23 -131 -120 -225 -261 -224c-138 0 -218 93 -193 229l28 159h158l-29 -160c-10 -56 10 -91 56 -91s78 35 88 91l28 160h269l21 121h-639z" />
    <glyph glyph-name="dvJHA" unicode="&#x91d;" horiz-adv-x="877" 
d="M280 333h355l48 276h-164l-13 -73v0l-20 -111h-186c-31 0 -67 -11 -73 -47c-6 -32 17 -45 53 -45zM576 0l38 215h-127c7 -22 9 -48 4 -78c-16 -87 -86 -152 -191 -152c-68 0 -105 31 -120 48l-21 -117h-148l45 253h141c-4 -41 21 -69 73 -69c47 0 75 25 80 58
c6 39 -18 64 -76 64c-20 0 -39 0 -63 2c-79 4 -161 50 -141 165c18 108 111 147 211 147h73l12 73h-334l24 131h903l-23 -131h-99l-106 -609h-155z" />
    <glyph glyph-name="dvNYA" unicode="&#x91e;" horiz-adv-x="835" 
d="M25 609l23 131h869l-23 -131h-97l-108 -609h-157l41 234h-81c-42 -112 -140 -180 -261 -180c-131 0 -212 75 -200 195h148c5 -39 34 -63 76 -63c61 0 102 48 112 108c10 57 -12 107 -73 107c-44 0 -82 -25 -99 -63h-148c30 121 137 196 269 196c116 0 190 -64 197 -168
h83l43 243h-614z" />
    <glyph glyph-name="dvTTA" unicode="&#x91f;" horiz-adv-x="644" 
d="M24 609l23 131h680l-24 -131h-173l-36 -208h-137c-79 0 -150 -42 -165 -126c-13 -70 29 -119 107 -119c79 0 138 52 151 127h149c-27 -159 -147 -263 -317 -263c-167 0 -274 104 -248 261c28 160 152 249 328 252l14 76h-352z" />
    <glyph glyph-name="dvTTHA" unicode="&#x920;" horiz-adv-x="669" 
d="M296 161c76 0 136 51 149 123c12 72 -28 124 -106 124c-74 0 -134 -50 -147 -122s28 -125 104 -125zM279 30c-154 0 -272 100 -243 262c24 141 129 219 247 241l14 76h-274l23 131h705l-23 -131h-277l-14 -79c110 -28 188 -115 163 -252c-27 -159 -163 -248 -321 -248z
" />
    <glyph glyph-name="dvDDA" unicode="&#x921;" horiz-adv-x="567" 
d="M27 609l23 131h599l-22 -131h-112l-33 -184h-182c-33 0 -68 -11 -74 -46c-6 -34 19 -46 52 -46h44c109 0 198 -54 176 -180c-19 -107 -104 -173 -250 -173c-144 0 -247 70 -230 193h156c-6 -50 30 -75 83 -75c50 0 85 24 92 61c8 45 -24 63 -75 63h-35
c-75 0 -192 33 -169 162c18 105 109 151 209 151h71l13 74h-336z" />
    <glyph glyph-name="dvDDHA" unicode="&#x922;" horiz-adv-x="656" 
d="M26 609l23 131h689l-23 -131h-162l-31 -176h-116c-106 0 -200 -57 -218 -167c-17 -91 27 -162 144 -162c73 0 133 32 144 91c6 33 -13 56 -44 56c-29 0 -53 -17 -59 -46c-1 -6 -2 -15 -2 -18h-110c0 13 1 27 3 38c15 89 93 138 194 138c104 0 169 -70 151 -173
c-23 -122 -128 -199 -293 -199c-184 0 -309 114 -278 289c31 171 172 261 336 261h19l12 68h-379z" />
    <glyph glyph-name="dvNNA" unicode="&#x923;" horiz-adv-x="896" 
d="M286 277c43 0 72 30 80 74l45 258h-134l-45 -258c-9 -44 13 -74 54 -74zM25 609l23 131h930l-23 -131h-98l-108 -609h-157l107 609h-133l-44 -244c-21 -125 -101 -220 -245 -220c-140 0 -221 89 -197 220l43 244h-98z" />
    <glyph glyph-name="dvTA" unicode="&#x924;" horiz-adv-x="708" 
d="M25 609l23 131h742l-23 -131h-99l-106 -609h-157l62 357h-124c-80 0 -141 -40 -154 -115c-13 -71 21 -117 105 -117h18l-21 -124h-28c-137 0 -260 77 -232 248c29 174 171 243 328 243h132l20 117h-486z" />
    <glyph glyph-name="dvTHA" unicode="&#x925;" horiz-adv-x="793" 
d="M490 0l33 190c-38 -55 -122 -108 -233 -108c-169 0 -268 108 -236 285c4 23 9 47 17 72h87c105 0 190 24 205 110c7 37 -11 66 -50 66c-53 0 -79 -51 -76 -104h-142c4 128 94 238 244 238c122 0 193 -80 171 -204c-23 -130 -129 -218 -308 -218h-2
c-5 -59 32 -114 136 -114c105 0 204 70 227 206l57 321h255l-22 -131h-98l-108 -609h-157z" />
    <glyph glyph-name="dvDA" unicode="&#x926;" horiz-adv-x="615" 
d="M28 609l23 131h645l-24 -131h-112l-38 -214h-179c-72 0 -129 -38 -140 -106c-11 -60 21 -100 80 -100c49 0 96 33 106 92h146l-55 -314h-154l26 148c-33 -32 -81 -50 -137 -50c-110 0 -199 82 -172 235c28 155 155 229 308 229h37l14 80h-374z" />
    <glyph glyph-name="dvDHA" unicode="&#x927;" horiz-adv-x="738" 
d="M244 78c-122 0 -214 63 -193 182c16 87 87 131 141 143v3c-58 19 -110 76 -93 172c18 108 100 171 208 171c127 0 189 -81 150 -210h-116c11 41 1 79 -44 79c-34 0 -61 -27 -68 -62c-12 -63 31 -85 88 -85h83l-23 -127h-52c-61 0 -104 -22 -111 -67c-9 -46 30 -71 93 -71
c101 0 180 70 198 173v0l42 238l21 123h252l-22 -131h-95l-108 -609h-157l30 167c-53 -57 -129 -89 -224 -89z" />
    <glyph glyph-name="dvNA" unicode="&#x928;" horiz-adv-x="823" 
d="M247 202c48 0 88 34 97 81c8 48 -20 82 -68 82c-50 0 -92 -34 -100 -82c-9 -48 20 -81 71 -81zM25 609l23 131h857l-23 -131h-98l-107 -609h-158l64 365h-126c11 -27 15 -61 8 -103c-21 -126 -128 -193 -235 -193c-131 0 -219 94 -196 223c25 140 137 204 271 204h302
l20 113h-602z" />
    <glyph glyph-name="dvPA" unicode="&#x92a;" horiz-adv-x="677" 
d="M323 292c66 0 108 46 122 108l36 209h-214l-34 -191c-13 -74 14 -126 90 -126zM25 609l23 131h711l-23 -131h-98l-107 -609h-157l38 214c-37 -34 -85 -54 -147 -54c-147 0 -217 110 -189 258l34 191h-85z" />
    <glyph glyph-name="dvPHA" unicode="&#x92b;" horiz-adv-x="984" 
d="M313 292c66 0 106 51 115 112v0l36 205h-197l-35 -199c-13 -69 10 -118 81 -118zM25 609l23 131h1019l-24 -131h-422l-26 -148c38 43 95 70 165 70c126 0 184 -99 162 -225c-26 -147 -127 -232 -247 -232c-25 0 -50 3 -72 10l21 121c10 -3 21 -4 31 -4c55 0 96 39 106 97
c10 56 -18 99 -75 99c-67 0 -108 -51 -123 -118l-49 -279h-157l37 212c-35 -33 -81 -52 -139 -52c-141 0 -207 106 -180 250l35 199h-85z" />
    <glyph glyph-name="dvBA" unicode="&#x92c;" horiz-adv-x="688" 
d="M391 0l23 127c-40 -42 -101 -68 -172 -68c-139 0 -224 108 -199 253c25 141 138 229 282 229c69 0 119 -24 150 -61l23 129h-473l23 131h722l-23 -131h-98l-107 -609h-151zM341 440c-33 0 -66 -10 -92 -28l184 -162c10 17 17 36 21 55c12 72 -28 135 -113 135zM294 171
c36 0 66 10 91 28l-185 161c-10 -16 -18 -35 -21 -56c-16 -83 40 -133 115 -133z" />
    <glyph glyph-name="dvBHA" unicode="&#x92d;" horiz-adv-x="852" 
d="M241 194c48 0 77 35 86 87l10 55h-58c-50 0 -89 -25 -97 -72c-9 -45 19 -70 59 -70zM221 61c-132 0 -207 80 -185 203c24 136 136 200 261 200h63l13 76c7 44 -2 75 -41 75c-33 0 -59 -25 -66 -64c-2 -10 -3 -21 -2 -32h-157c-1 11 0 25 2 38c19 109 102 192 239 192
c155 0 190 -105 166 -238l-8 -47h124l48 276h256l-22 -131h-99l-108 -609h-157l59 336h-123l-8 -47c-25 -141 -114 -228 -255 -228z" />
    <glyph glyph-name="dvMA" unicode="&#x92e;" horiz-adv-x="843" 
d="M227 194c48 0 76 35 86 87l10 55h-59c-49 0 -88 -25 -96 -72c-9 -45 21 -70 59 -70zM621 464l25 145h-128l-26 -145h129zM25 609l23 131h877l-23 -131h-98l-107 -609h-158l59 336h-129l-8 -47c-25 -141 -114 -228 -255 -228c-132 0 -206 82 -184 203
c23 136 136 200 260 200h63l26 145h-346z" />
    <glyph glyph-name="dvYA" unicode="&#x92f;" horiz-adv-x="757" 
d="M334 213c99 0 169 68 185 161v0l42 235h-147l-13 -74c-17 -103 -76 -177 -195 -191c-12 -76 34 -131 128 -131zM25 609l23 131h791l-24 -131h-97l-107 -609h-158l27 154c-46 -43 -112 -72 -193 -72c-169 0 -263 113 -233 282c3 20 9 40 15 60h10c113 0 157 53 172 140
l8 45h-234z" />
    <glyph glyph-name="dvRA" unicode="&#x930;" horiz-adv-x="532" 
d="M26 609l23 131h565l-23 -131h-85l-9 -53c-26 -146 -103 -256 -286 -256h-4l-17 -100c-9 -43 6 -75 48 -75c39 0 64 30 71 71l5 28h150c-1 -10 -2 -18 -2 -23c-22 -127 -104 -210 -236 -210c-144 0 -214 95 -191 217l38 218h101c107 0 151 50 166 130l9 53h-323z" />
    <glyph glyph-name="dvLA" unicode="&#x932;" horiz-adv-x="912" 
d="M842 274c-26 -147 -135 -248 -302 -244c-8 0 -25 1 -35 2l25 136c6 -1 17 -2 26 -2c64 0 115 43 127 115c11 61 -13 105 -70 105c-65 0 -100 -55 -112 -118l-4 -24h-130l4 24c12 62 -3 118 -68 118c-60 0 -98 -43 -109 -105c-13 -70 19 -115 90 -115c8 0 16 1 24 2
l-24 -137c-14 -1 -22 -1 -30 -1c-170 0 -245 114 -218 260c28 164 145 234 264 234c96 0 143 -54 158 -114h3c29 51 77 94 146 108l16 91h-600l23 131h948l-24 -131h-193l-19 -109c65 -36 104 -113 84 -226z" />
    <glyph glyph-name="dvVA" unicode="&#x935;" horiz-adv-x="667" 
d="M289 187c73 0 121 56 131 111c11 59 -19 111 -93 111c-66 0 -121 -45 -133 -110c-11 -66 27 -112 95 -112zM725 609h-97l-107 -609h-153l23 132c-40 -45 -97 -70 -162 -70c-136 0 -213 99 -184 253c23 133 119 220 254 220c71 0 121 -27 151 -69l25 143h-450l23 131h701z
" />
    <glyph glyph-name="dvSHA" unicode="&#x936;" horiz-adv-x="856" 
d="M248 -7c-150 0 -233 91 -207 234l34 192h140c87 0 177 27 193 116c7 46 -15 78 -56 78c-58 0 -89 -53 -89 -113h-157c12 156 116 249 263 249c129 0 222 -82 196 -225c-29 -164 -164 -237 -315 -237h-39l-12 -70c-9 -48 4 -89 61 -89c50 0 79 37 89 97h153
c-18 -143 -103 -232 -254 -232zM550 0l131 740h257l-24 -131h-97l-108 -609h-159z" />
    <glyph glyph-name="dvSSA" unicode="&#x937;" horiz-adv-x="691" 
d="M319 280c57 0 99 29 123 71l-199 151l-16 -89c-14 -77 17 -133 92 -133zM470 451l27 158h-233zM25 609l23 131h725l-23 -131h-98l-107 -609h-154l37 210c-39 -39 -93 -62 -161 -62c-150 0 -219 115 -191 270l34 191h-85z" />
    <glyph glyph-name="dvSA" unicode="&#x938;" horiz-adv-x="829" 
d="M467 543c-8 -44 -23 -83 -45 -115h179l32 181h-154zM25 609l24 131h862l-23 -131h-98l-107 -609h-158l53 300h-371l-18 -98c-7 -44 8 -77 53 -77c44 0 68 34 77 84h150c-13 -134 -104 -218 -242 -218c-145 0 -213 100 -191 227l34 194h75c108 0 151 54 165 131l12 66
h-297z" />
    <glyph glyph-name="dvHA" unicode="&#x939;" horiz-adv-x="594" 
d="M500 77c-27 -110 -127 -189 -261 -189c-149 0 -237 101 -212 240c13 77 57 135 117 170c-36 25 -53 64 -44 114c14 77 83 127 184 127h79l13 70h-341l23 131h619l-23 -131h-128l-12 -70l-21 -111h-173c-33 0 -64 -13 -70 -48c-4 -18 3 -33 19 -42c13 1 27 2 41 2
c147 0 214 -96 204 -186h-151c0 31 -26 62 -76 62c-52 0 -98 -38 -109 -99c-12 -63 21 -100 75 -100c47 0 83 29 97 60h150z" />
    <glyph glyph-name="dvLLA" unicode="&#x933;" horiz-adv-x="957" 
d="M269 187c57 0 105 39 115 98c10 58 -23 100 -80 100c-59 0 -107 -41 -117 -101c-11 -59 24 -97 82 -97zM618 187c58 0 107 38 117 97c10 60 -23 101 -81 101c-59 0 -106 -42 -116 -100c-11 -59 23 -98 80 -98zM622 53c-88 0 -156 42 -179 116h-5
c-46 -74 -126 -116 -214 -116c-126 0 -216 89 -191 232c26 143 141 233 268 233c80 0 147 -33 179 -114h4c44 62 99 96 158 108l17 97h-638l23 131h995l-24 -131h-204l-20 -110c74 -34 116 -110 98 -214c-25 -143 -141 -232 -267 -232z" />
    <glyph glyph-name="dvK_SSA" horiz-adv-x="865" 
d="M261 543c-8 -48 25 -84 89 -85c36 21 63 47 69 83c8 41 -18 75 -66 75c-43 0 -84 -28 -92 -73zM299 -63l26 150c-27 -28 -75 -55 -137 -55c-108 0 -173 69 -154 172c18 101 95 151 176 189c-56 26 -100 82 -84 170c20 115 127 186 254 186c112 0 195 -63 174 -179
c-8 -49 -32 -85 -64 -114h159l50 284h249l-23 -131h-98l-108 -609h-150l60 343h-311c-62 -26 -107 -51 -117 -104c-8 -44 18 -77 66 -77c56 0 93 44 100 88h131l-56 -313h-143z" />
    <glyph glyph-name="dvJ_NYA" horiz-adv-x="845" 
d="M543 0l66 377h-138c29 -28 45 -71 37 -130c-15 -109 -102 -178 -211 -174c-62 2 -109 23 -134 56l-22 -127h-152l50 287h146c-3 -54 30 -88 84 -88c57 0 95 38 103 84c11 63 -34 92 -86 92h-40l22 125h363l19 107h-624l23 131h878l-23 -131h-99l-107 -609h-155z" />
    <glyph glyph-name="dvKxA" unicode="&#x958;" horiz-adv-x="965" 
d="M350 0l24 135c-37 -43 -92 -71 -161 -71c-120 0 -197 99 -172 238c24 138 120 229 252 229c71 0 116 -28 138 -70l26 148h-432l23 131h999l-23 -131h-417l-25 -146c34 41 85 68 150 68c126 0 191 -105 167 -236c-27 -145 -127 -221 -246 -221c-23 0 -43 2 -66 8l22 123
c6 -2 16 -3 25 -3c51 0 96 35 107 96c9 54 -19 99 -76 99c-65 0 -103 -50 -114 -111v0l-50 -286h-151zM284 196c66 1 108 50 117 96v0l1 4l-1 -1c10 53 -16 103 -82 103c-58 0 -109 -40 -119 -101c-11 -61 26 -101 84 -101zM141 -175c-51 0 -84 39 -75 89c9 52 56 93 107 93
s84 -41 76 -93c-9 -50 -57 -89 -108 -89z" />
    <glyph glyph-name="dvKHxA" unicode="&#x959;" horiz-adv-x="961" 
d="M659 0l28 158c-30 -28 -72 -47 -127 -47c-11 0 -21 1 -30 3c-57 -69 -143 -121 -249 -121c-172 0 -264 102 -231 283l22 127h25c89 0 142 38 158 130l13 76h-243l24 131h994l-24 -131h-97l-107 -609h-156zM216 -243c-51 0 -84 39 -75 89c9 52 56 93 107 93s84 -41 76 -93
c-9 -50 -57 -89 -108 -89zM615 231c55 0 91 41 99 87c8 41 -11 86 -69 86c-48 0 -91 -31 -101 -85c-9 -58 25 -88 71 -88zM309 129c60 0 98 26 122 56c-22 39 -30 91 -20 149c20 118 113 193 220 189c55 -2 90 -20 111 -49l23 135h-339l-17 -98
c-24 -134 -103 -205 -200 -217l-7 -37c-13 -73 23 -128 107 -128z" />
    <glyph glyph-name="dvGxA" unicode="&#x95a;" horiz-adv-x="815" 
d="M512 0l106 609h-126l-39 -226c-20 -120 -94 -214 -237 -214c-126 0 -203 73 -179 206c2 11 4 22 6 32h153l-6 -31c-7 -40 0 -73 40 -73c43 0 59 39 64 74l42 232h-311l23 131h849l-23 -131h-98l-107 -609h-157zM170 -71c-51 0 -84 39 -75 89c9 52 56 93 107 93
s84 -41 76 -93c-9 -50 -57 -89 -108 -89z" />
    <glyph glyph-name="dvJxA" unicode="&#x95b;" horiz-adv-x="860" 
d="M25 609l23 131h894l-24 -131h-97l-107 -609h-157l62 354h-115l-5 -30c-23 -131 -120 -225 -261 -224c-138 0 -218 93 -193 229l28 159h158l-29 -160c-10 -56 10 -91 56 -91s78 35 88 91l28 160h269l21 121h-639zM193 -139c-51 0 -84 39 -75 89c9 52 56 93 107 93
s84 -41 76 -93c-9 -50 -57 -89 -108 -89z" />
    <glyph glyph-name="dvDDxA" unicode="&#x95c;" horiz-adv-x="567" 
d="M27 609l23 131h599l-22 -131h-112l-33 -184h-182c-33 0 -68 -11 -74 -46c-6 -34 19 -46 52 -46h44c109 0 198 -54 176 -180c-19 -107 -104 -173 -250 -173c-144 0 -247 70 -230 193h156c-6 -50 30 -75 83 -75c50 0 85 24 92 61c8 45 -24 63 -75 63h-35
c-75 0 -192 33 -169 162c18 105 109 151 209 151h71l13 74h-336zM197 -259c-51 0 -84 39 -75 89c9 52 56 93 107 93s84 -41 76 -93c-9 -50 -57 -89 -108 -89z" />
    <glyph glyph-name="dvDDHxA" unicode="&#x95d;" horiz-adv-x="656" 
d="M26 609l23 131h689l-23 -131h-162l-31 -176h-116c-106 0 -200 -57 -218 -167c-17 -91 27 -162 144 -162c73 0 133 32 144 91c6 33 -13 56 -44 56c-29 0 -53 -17 -59 -46c-1 -6 -2 -15 -2 -18h-110c0 13 1 27 3 38c15 89 93 138 194 138c104 0 169 -70 151 -173
c-23 -122 -128 -199 -293 -199c-184 0 -309 114 -278 289c31 171 172 261 336 261h19l12 68h-379zM246 -246c-51 0 -84 39 -75 89c9 52 56 93 107 93s84 -41 76 -93c-9 -50 -57 -89 -108 -89z" />
    <glyph glyph-name="dvPHxA" unicode="&#x95e;" horiz-adv-x="984" 
d="M313 292c66 0 106 51 115 112v0l36 205h-197l-35 -199c-13 -69 10 -118 81 -118zM25 609l23 131h1019l-24 -131h-422l-26 -148c38 43 95 70 165 70c126 0 184 -99 162 -225c-26 -147 -127 -232 -247 -232c-25 0 -50 3 -72 10l21 121c10 -3 21 -4 31 -4c55 0 96 39 106 97
c10 56 -18 99 -75 99c-67 0 -108 -51 -123 -118l-49 -279h-157l37 212c-35 -33 -81 -52 -139 -52c-141 0 -207 106 -180 250l35 199h-85zM149 -74c-51 0 -84 39 -75 89c9 52 56 93 107 93s84 -41 76 -93c-9 -50 -57 -89 -108 -89z" />
    <glyph glyph-name="dvRxA" unicode="&#x931;" horiz-adv-x="532" 
d="M26 609l23 131h565l-23 -131h-85l-9 -53c-26 -146 -103 -256 -286 -256h-4l-17 -100c-9 -43 6 -75 48 -75c39 0 64 30 71 71l5 28h150c-1 -10 -2 -18 -2 -23c-22 -127 -104 -210 -236 -210c-144 0 -214 95 -191 217l38 218h101c107 0 151 50 166 130l9 53h-323zM9 -212
c-51 0 -84 39 -75 89c9 52 56 93 107 93s84 -41 76 -93c-9 -50 -57 -89 -108 -89z" />
    <glyph glyph-name="dvK" horiz-adv-x="702" 
d="M350 0l24 135c-37 -43 -92 -71 -161 -71c-120 0 -197 99 -172 238c24 138 120 229 252 229c71 0 116 -28 138 -70l26 148h-432l23 131h931l-24 -131h-348l-25 -146c34 41 85 68 150 68c126 0 191 -105 167 -233h-158c9 54 -19 99 -76 99c-65 0 -103 -50 -114 -111v0
l-50 -286h-151zM284 196c66 1 108 50 117 96v0l1 4l-1 -1c10 53 -16 103 -82 103c-58 0 -109 -40 -119 -101c-11 -61 26 -101 84 -101z" />
    <glyph glyph-name="dvKH" horiz-adv-x="670" 
d="M618 227c55 0 95 34 105 89c9 53 -19 88 -74 88c-54 0 -96 -35 -105 -88c-10 -55 20 -89 74 -89zM25 609l24 131h886l-23 -131h-486l-17 -98c-24 -134 -103 -205 -200 -217l-7 -37c-13 -73 23 -128 107 -128c59 0 96 24 120 53c-24 34 -34 79 -24 134
c23 128 133 205 265 205s212 -77 190 -205c-23 -133 -136 -207 -263 -207c-20 0 -40 2 -58 6c-49 -68 -129 -122 -237 -122c-184 0 -283 109 -252 283l22 127h25c90 0 142 38 158 130l13 76h-243z" />
    <glyph glyph-name="dvG" horiz-adv-x="561" 
d="M25 609l23 131h581l-24 -131h-113l-39 -226c-20 -120 -94 -214 -237 -214c-126 0 -203 73 -179 206c2 11 4 22 6 32h153l-6 -31c-7 -40 0 -73 40 -73c43 0 59 39 64 74l42 232h-311z" />
    <glyph glyph-name="dvGH" horiz-adv-x="392" 
d="M25 609l23 131h611l-23 -131h-360l-7 -40c-9 -50 9 -82 75 -82h40l-22 -126h-52c-60 0 -92 -29 -99 -68c-8 -48 28 -71 83 -71c93 0 151 59 164 134h134c-26 -143 -147 -262 -321 -262c-157 0 -242 75 -221 188c14 78 73 124 131 139l1 3c-51 14 -86 54 -71 138l8 47h-94
z" />
    <glyph glyph-name="dvNG" horiz-adv-x="702" 
d="M595 287c-45 0 -75 37 -67 82c8 46 51 82 96 82c47 0 76 -36 68 -82c-7 -45 -50 -82 -97 -82zM251 -300l-90 223h156l94 -223h-160zM26 609l24 131h735l-23 -131h-245l-13 -74v0l-20 -110h-184c-33 0 -68 -11 -74 -46c-6 -34 19 -46 52 -46h44c109 0 198 -54 176 -180
c-19 -107 -104 -173 -250 -173c-144 0 -247 70 -230 193h156c-6 -50 30 -75 83 -75c50 0 85 24 92 61c8 45 -24 63 -75 63h-35c-75 0 -192 33 -169 162c18 105 109 151 209 151h73l13 74h-339z" />
    <glyph glyph-name="dvC" horiz-adv-x="449" 
d="M54 389l21 123h370l-22 -123h-41c-55 0 -102 -34 -111 -88c-10 -58 31 -89 90 -88c80 1 137 63 153 155h136c-28 -173 -151 -287 -328 -287c-136 0 -226 64 -203 191c8 48 33 88 69 117h-134zM25 609l23 131h668l-23 -131h-668z" />
    <glyph glyph-name="dvCH" horiz-adv-x="823" 
d="M23 609l23 131h858l-23 -131h-607l-11 -64c-9 -50 7 -82 65 -82h21l-23 -126h-17c-65 0 -102 -36 -110 -80c-11 -64 39 -103 164 -103c154 0 251 62 272 179c10 54 -10 91 -48 91c-34 0 -67 -27 -76 -80c-5 -24 -4 -51 -1 -76h-129c-3 24 -4 57 3 94
c22 124 121 177 225 177c119 0 186 -79 163 -214c-33 -185 -194 -305 -434 -305c-195 0 -328 87 -299 231c15 76 67 124 135 145v4c-50 13 -84 54 -70 138l13 71h-94z" />
    <glyph glyph-name="dvJ" horiz-adv-x="560" 
d="M238 100c-138 0 -218 93 -193 229l28 159h158l-29 -160c-10 -56 10 -91 56 -91s78 35 88 91l28 160h353l-23 -134h-200l-5 -30c-23 -131 -120 -225 -261 -224zM26 609l23 131h722l-23 -131h-722z" />
    <glyph glyph-name="dvJH" horiz-adv-x="559" 
d="M32 609l24 131h708l-23 -131h-222l-13 -73v0l-20 -111h-186c-31 0 -67 -11 -73 -47c-6 -32 17 -45 53 -45h412l-20 -118h-185c7 -22 9 -48 4 -78c-16 -87 -86 -152 -191 -152c-68 0 -105 31 -120 48l-21 -117h-148l45 253h141c-4 -41 21 -69 73 -69c47 0 75 25 80 58
c6 39 -18 64 -76 64c-20 0 -39 0 -63 2c-79 4 -161 50 -141 165c18 108 111 147 211 147h73l12 73h-334z" />
    <glyph glyph-name="dvNY" horiz-adv-x="536" 
d="M231 54c-131 0 -212 75 -200 195h148c5 -39 34 -63 76 -63c61 0 102 48 112 108c10 57 -12 107 -73 107c-44 0 -82 -25 -99 -63h-148c30 121 137 196 269 196c116 0 190 -64 197 -168h167l-23 -132h-165c-42 -112 -140 -180 -261 -180zM25 609l23 131h699l-23 -131h-699z
" />
    <glyph glyph-name="dvTT" horiz-adv-x="644" 
d="M282 -260l-90 223h155l95 -223h-160zM24 609l23 131h680l-24 -131h-173l-36 -208h-137c-79 0 -150 -42 -165 -126c-13 -70 29 -119 107 -119c79 0 138 52 151 127h149c-27 -159 -147 -263 -317 -263c-167 0 -274 104 -248 261c28 160 152 249 328 252l14 76h-352z" />
    <glyph glyph-name="dvTTH" horiz-adv-x="669" 
d="M282 -250l-90 223h156l94 -223h-160zM296 161c76 0 136 51 149 123c12 72 -28 124 -106 124c-74 0 -134 -50 -147 -122s28 -125 104 -125zM279 30c-154 0 -272 100 -243 262c24 141 129 219 247 241l14 76h-274l23 131h705l-23 -131h-277l-14 -79
c110 -28 188 -115 163 -252c-27 -159 -163 -248 -321 -248z" />
    <glyph glyph-name="dvDD" horiz-adv-x="567" 
d="M237 -300l-90 223h156l94 -223h-160zM27 609l23 131h599l-22 -131h-112l-33 -184h-182c-33 0 -68 -11 -74 -46c-6 -34 19 -46 52 -46h44c109 0 198 -54 176 -180c-19 -107 -104 -173 -250 -173c-144 0 -247 70 -230 193h156c-6 -50 30 -75 83 -75c50 0 85 24 92 61
c8 45 -24 63 -75 63h-35c-75 0 -192 33 -169 162c18 105 109 151 209 151h71l13 74h-336z" />
    <glyph glyph-name="dvDDH" horiz-adv-x="656" 
d="M285 -289l-90 223h156l94 -223h-160zM26 609l23 131h689l-23 -131h-162l-31 -176h-116c-106 0 -200 -57 -218 -167c-17 -91 27 -162 144 -162c73 0 133 32 144 91c6 33 -13 56 -44 56c-29 0 -53 -17 -59 -46c-1 -6 -2 -15 -2 -18h-110c0 13 1 27 3 38
c15 89 93 138 194 138c104 0 169 -70 151 -173c-23 -122 -128 -199 -293 -199c-184 0 -309 114 -278 289c31 171 172 261 336 261h19l12 68h-379z" />
    <glyph glyph-name="dvNN" horiz-adv-x="589" 
d="M25 609l23 131h618l-23 -131h-77l-44 -244c-21 -125 -101 -220 -245 -220c-140 0 -221 89 -197 220l43 244h-98zM286 277c43 0 72 30 80 74l45 258h-134l-45 -258c-9 -44 13 -74 54 -74z" />
    <glyph glyph-name="dvT" horiz-adv-x="384" 
d="M263 1c-137 0 -260 77 -232 248c29 174 171 243 328 243h214l-24 -135h-206c-80 0 -141 -40 -154 -115c-13 -71 21 -117 105 -117h18l-21 -124h-28zM25 609l23 131h570l-24 -131h-569z" />
    <glyph glyph-name="dvTH" horiz-adv-x="477" 
d="M687 361c-29 -180 -192 -279 -353 -279c-227 0 -327 156 -262 357h86c106 0 191 24 205 111c6 36 -12 65 -49 65c-53 0 -80 -48 -77 -104h-142c5 134 100 238 245 238c121 0 192 -80 170 -204c-23 -130 -129 -218 -308 -218h-2c-3 -78 63 -114 145 -114
c101 0 191 55 208 148h134z" />
    <glyph glyph-name="dvD" horiz-adv-x="611" 
d="M405 -313l-90 223h156l94 -223h-160zM28 609l23 131h645l-24 -131h-112l-38 -214h-179c-72 0 -129 -38 -140 -106c-11 -60 21 -100 80 -100c49 0 96 33 106 92h146l-55 -314h-154l26 148c-33 -32 -81 -50 -137 -50c-110 0 -199 82 -172 235c28 155 155 229 308 229h37
l14 80h-374z" />
    <glyph glyph-name="dvDH" horiz-adv-x="429" 
d="M285 76c-145 0 -255 62 -233 189c16 88 86 127 140 138v3c-59 19 -110 76 -94 172c19 108 100 171 208 171c128 0 189 -81 151 -210h-116c10 41 0 79 -45 79c-34 0 -61 -27 -68 -62c-13 -63 31 -85 88 -85h83l-23 -127h-52c-61 0 -102 -23 -110 -68
c-11 -53 44 -70 101 -70c106 0 168 51 181 122h137c-26 -151 -143 -252 -348 -252z" />
    <glyph glyph-name="dvN" horiz-adv-x="517" 
d="M230 69c-131 0 -219 94 -196 223c25 140 137 204 271 204h399l-23 -131h-225c11 -27 16 -62 9 -103c-21 -126 -122 -193 -235 -193zM247 202c48 0 88 34 97 81c8 48 -20 82 -68 82c-50 0 -92 -34 -100 -82c-9 -48 20 -81 71 -81zM25 609l23 131h700l-24 -131h-699z" />
    <glyph glyph-name="dvP" horiz-adv-x="358" 
d="M25 609l23 131h586l-24 -131h-343l-34 -191c-13 -74 14 -126 90 -126c69 0 110 53 123 115l129 1c-21 -137 -105 -248 -271 -248c-168 0 -254 117 -225 274l31 175h-85z" />
    <glyph glyph-name="dvPH" horiz-adv-x="700" 
d="M313 292c66 0 106 51 115 112v0l36 205h-197l-35 -199c-13 -69 10 -118 81 -118zM25 609l23 131h950l-23 -131h-354l-26 -148c38 43 95 70 165 70c126 0 184 -99 161 -233h-160c10 56 -18 99 -75 99c-67 0 -108 -51 -123 -118l-49 -279h-157l37 212
c-35 -33 -81 -52 -139 -52c-141 0 -207 106 -180 250l35 199h-85z" />
    <glyph glyph-name="dvB" horiz-adv-x="389" 
d="M269 58c-159 0 -249 106 -228 246c20 135 132 239 300 239c173 0 247 -116 228 -238c-21 -134 -125 -247 -300 -247zM333 436c-33 0 -65 -10 -93 -29l185 -162c10 17 18 36 21 55c13 72 -27 136 -113 136zM25 609l23 131h601l-23 -131h-601zM286 166c35 0 65 11 90 28
l-185 162c-10 -17 -17 -36 -21 -56c-14 -83 41 -134 116 -134z" />
    <glyph glyph-name="dvBH" horiz-adv-x="543" 
d="M241 194c48 0 77 35 86 87l10 55h-58c-50 0 -89 -25 -97 -72c-9 -45 19 -70 59 -70zM221 61c-132 0 -207 80 -185 203c24 136 136 200 261 200h63l13 76c7 44 -2 75 -41 75c-33 0 -59 -25 -66 -64c-2 -10 -3 -21 -2 -32h-157c-1 11 0 25 2 38c19 109 102 192 239 192
c155 0 190 -105 166 -238l-8 -47h203l-22 -128h-203l-8 -47c-25 -141 -114 -228 -255 -228z" />
    <glyph glyph-name="dvM" horiz-adv-x="536" 
d="M227 194c48 0 76 35 86 87l10 55h-59c-49 0 -88 -25 -96 -72c-9 -45 21 -70 59 -70zM25 609l23 131h705l-23 -131h-212l-26 -145h213l-23 -128h-213l-8 -47c-25 -141 -114 -228 -255 -228c-132 0 -206 82 -184 203c23 136 136 200 260 200h63l26 145h-346z" />
    <glyph glyph-name="dvY" horiz-adv-x="433" 
d="M25 609l24 131h679l-23 -131h-291l-13 -74c-17 -103 -75 -178 -195 -191c-11 -84 46 -131 133 -131c95 0 162 60 176 139h144c-23 -151 -142 -271 -334 -271c-186 0 -304 104 -271 283c3 20 9 40 15 60h10c113 0 158 53 173 140l8 45h-235z" />
    <glyph glyph-name="dvR" horiz-adv-x="531" 
d="M204 -291l-89 223h155l94 -223h-160zM26 609l23 131h565l-23 -131h-85l-9 -53c-26 -146 -103 -256 -286 -256h-4l-17 -100c-9 -43 6 -75 48 -75c39 0 64 30 71 71l5 28h150c-1 -10 -2 -18 -2 -23c-22 -127 -104 -210 -236 -210c-144 0 -214 95 -191 217l38 218h101
c107 0 151 50 166 130l9 53h-323z" />
    <glyph glyph-name="dvL" horiz-adv-x="641" 
d="M254 30c-170 0 -245 114 -218 260c28 164 145 234 264 234c96 0 143 -54 158 -114h3c36 63 101 114 200 114c116 0 206 -85 183 -243h-161c11 61 -13 105 -70 105c-65 0 -100 -55 -112 -118l-4 -24h-130l4 24c12 62 -3 118 -68 118c-60 0 -98 -43 -109 -105
c-13 -70 19 -115 90 -115c8 0 16 1 24 2l-24 -137c-14 -1 -22 -1 -30 -1zM23 609l23 131h878l-23 -131h-878z" />
    <glyph glyph-name="dvV" horiz-adv-x="362" 
d="M270 62c-168 0 -255 109 -230 247c23 133 130 226 298 226c181 0 254 -125 232 -247c-20 -122 -120 -226 -300 -226zM289 186c74 0 124 55 134 113c11 59 -21 112 -95 112c-68 0 -126 -46 -137 -112c-11 -68 29 -113 98 -113zM25 609l23 131h603l-23 -131h-603z" />
    <glyph glyph-name="dvSH" horiz-adv-x="553" 
d="M248 -7c-150 0 -233 91 -207 234l34 192h140c87 0 177 27 193 116c7 45 -15 78 -56 78c-58 0 -89 -53 -89 -113h-157c12 156 116 249 263 249c129 0 222 -82 196 -225c-29 -164 -164 -237 -315 -237h-39l-12 -70c-9 -48 4 -89 61 -89c50 0 79 37 89 97h153
c-18 -143 -103 -232 -254 -232z" />
    <glyph glyph-name="dvSS" horiz-adv-x="383" 
d="M320 280c61 0 101 31 122 70l-199 152l-16 -89c-14 -81 17 -133 93 -133zM25 609l23 131h605l-23 -131h-368v0l325 -244c-21 -105 -107 -217 -282 -217c-170 0 -258 115 -229 270l34 191h-85z" />
    <glyph glyph-name="dvS" horiz-adv-x="511" 
d="M25 609l24 131h645l-23 -131h-192l-12 -66c-8 -44 -23 -83 -45 -115h217l-22 -128h-410l-18 -98c-7 -44 8 -77 53 -77c44 0 68 34 77 84h150c-13 -134 -104 -218 -242 -218c-145 0 -213 100 -191 227l34 194h75c108 0 151 54 165 131l12 66h-297z" />
    <glyph glyph-name="dvH" horiz-adv-x="585" 
d="M232 -391l-90 223h156l94 -223h-160zM500 77c-27 -110 -127 -189 -261 -189c-149 0 -237 101 -212 240c13 77 57 135 117 170c-36 25 -53 64 -44 114c14 77 83 127 184 127h79l13 70h-341l23 131h619l-23 -131h-128l-12 -70l-21 -111h-173c-33 0 -64 -13 -70 -48
c-4 -18 3 -33 19 -42c13 1 27 2 41 2c147 0 214 -96 204 -186h-151c0 31 -26 62 -76 62c-52 0 -98 -38 -109 -99c-12 -63 21 -100 75 -100c47 0 83 29 97 60h150z" />
    <glyph glyph-name="dvLL" horiz-adv-x="958" 
d="M224 53c-126 0 -216 89 -191 232c26 143 141 233 268 233c80 0 147 -33 179 -114h4c57 81 133 114 213 114c127 0 217 -90 192 -233s-141 -232 -267 -232c-88 0 -156 42 -179 116h-5c-46 -74 -126 -116 -214 -116zM269 187c57 0 105 39 115 98c10 58 -23 100 -80 100
c-59 0 -107 -41 -117 -101c-11 -59 24 -97 82 -97zM618 187c58 0 107 38 117 97c10 60 -23 101 -81 101c-59 0 -106 -42 -116 -100c-11 -59 23 -98 80 -98zM21 609l23 131h995l-24 -131h-994z" />
    <glyph glyph-name="dvK_SS" horiz-adv-x="559" 
d="M261 543c-8 -48 25 -84 89 -85c36 21 63 47 69 83c8 41 -18 75 -66 75c-43 0 -84 -28 -92 -73zM299 -63l26 150c-27 -28 -75 -55 -137 -55c-108 0 -173 69 -154 172c18 101 95 151 176 189c-56 26 -100 82 -84 170c20 115 127 186 254 186c112 0 195 -63 174 -179
c-8 -49 -32 -85 -64 -114h220l-19 -113h-373c-62 -26 -107 -51 -117 -104c-8 -44 18 -77 66 -77c56 0 93 44 100 88h131l-56 -313h-143z" />
    <glyph glyph-name="dvJ_NY" horiz-adv-x="545" 
d="M26 609l23 131h731l-23 -131h-731zM246 377l22 125h470l-22 -125h-245c29 -28 45 -71 37 -130c-15 -109 -102 -178 -211 -174c-62 2 -109 23 -134 56l-22 -127h-152l50 287h146c-3 -54 30 -88 84 -88c57 0 95 38 103 84c11 63 -34 92 -86 92h-40z" />
    <glyph glyph-name="dvKx" horiz-adv-x="702" 
d="M350 0l24 135c-37 -43 -92 -71 -161 -71c-120 0 -197 99 -172 238c24 138 120 229 252 229c71 0 116 -28 138 -70l26 148h-432l23 131h931l-24 -131h-348l-25 -146c34 41 85 68 150 68c126 0 191 -105 167 -233h-158c9 54 -19 99 -76 99c-65 0 -103 -50 -114 -111v0
l-50 -286h-151zM284 196c66 1 108 50 117 96v0l1 4l-1 -1c10 53 -16 103 -82 103c-58 0 -109 -40 -119 -101c-11 -61 26 -101 84 -101zM141 -175c-51 0 -84 39 -75 89c9 52 56 93 107 93s84 -41 76 -93c-9 -50 -57 -89 -108 -89z" />
    <glyph glyph-name="dvKHx" horiz-adv-x="670" 
d="M217 -243c-51 0 -84 39 -75 89c9 52 56 93 107 93s84 -41 76 -93c-9 -50 -57 -89 -108 -89zM618 227c55 0 95 34 105 89c9 53 -19 88 -74 88c-54 0 -96 -35 -105 -88c-10 -55 20 -89 74 -89zM25 609l24 131h886l-23 -131h-486l-17 -98c-24 -134 -103 -205 -200 -217
l-7 -37c-13 -73 23 -128 107 -128c59 0 96 24 120 53c-24 34 -34 79 -24 134c23 128 133 205 265 205s212 -77 190 -205c-23 -133 -136 -207 -263 -207c-20 0 -40 2 -58 6c-49 -68 -129 -122 -237 -122c-184 0 -283 109 -252 283l22 127h25c90 0 142 38 158 130l13 76h-243z
" />
    <glyph glyph-name="dvGx" horiz-adv-x="561" 
d="M25 609l23 131h581l-24 -131h-113l-39 -226c-20 -120 -94 -214 -237 -214c-126 0 -203 73 -179 206c2 11 4 22 6 32h153l-6 -31c-7 -40 0 -73 40 -73c43 0 59 39 64 74l42 232h-311zM170 -71c-51 0 -84 39 -75 89c9 52 56 93 107 93s84 -41 76 -93
c-9 -50 -57 -89 -108 -89z" />
    <glyph glyph-name="dvJx" horiz-adv-x="560" 
d="M238 100c-138 0 -218 93 -193 229l28 159h158l-29 -160c-10 -56 10 -91 56 -91s78 35 88 91l28 160h353l-23 -134h-200l-5 -30c-23 -131 -120 -225 -261 -224zM26 609l23 131h722l-23 -131h-722zM193 -139c-51 0 -84 39 -75 89c9 52 56 93 107 93s84 -41 76 -93
c-9 -50 -57 -89 -108 -89z" />
    <glyph glyph-name="dvPHx" horiz-adv-x="700" 
d="M313 292c66 0 106 51 115 112v0l36 205h-197l-35 -199c-13 -69 10 -118 81 -118zM25 609l23 131h950l-23 -131h-354l-26 -148c38 43 95 70 165 70c126 0 184 -99 161 -233h-160c10 56 -18 99 -75 99c-67 0 -108 -51 -123 -118l-49 -279h-157l37 212
c-35 -33 -81 -52 -139 -52c-141 0 -207 106 -180 250l35 199h-85zM148 -74c-51 0 -84 39 -75 89c9 52 56 93 107 93s84 -41 76 -93c-9 -50 -57 -89 -108 -89z" />
    <glyph glyph-name="dvAnusvara" unicode="&#x902;" horiz-adv-x="0" 
d="M-85 813c-50 0 -83 41 -75 91c9 51 56 91 107 91c52 0 85 -40 76 -91c-8 -50 -56 -91 -108 -91z" />
    <glyph glyph-name="dvCandrabindu" unicode="&#x901;" horiz-adv-x="0" 
d="M-75 811c-143 0 -233 81 -210 211h125c-9 -53 23 -99 97 -99s121 46 131 99h126c-23 -130 -114 -211 -269 -211zM-53 986c-33 0 -55 27 -49 61c6 33 38 61 71 61c36 0 56 -28 50 -61c-6 -34 -36 -61 -72 -61z" />
    <glyph glyph-name="dvVisarga" unicode="&#x903;" horiz-adv-x="280" 
d="M150 377c-51 0 -85 41 -76 91c9 51 57 91 108 91c50 0 84 -40 75 -91c-9 -50 -57 -91 -107 -91zM98 87c-51 0 -84 40 -75 91s56 91 107 91s85 -40 76 -91s-57 -91 -108 -91z" />
    <glyph glyph-name="dvAvagraha" unicode="&#x93d;" horiz-adv-x="597" 
d="M2 46l23 132h238c33 0 53 15 57 39c14 78 -201 138 -170 312c17 96 96 143 194 143h228l-24 -132h-187c-22 0 -50 -6 -55 -35c-14 -78 201 -137 171 -312c-16 -91 -95 -147 -197 -147h-278z" />
    <glyph glyph-name="dvVirama" unicode="&#x94d;" horiz-adv-x="0" 
d="M-219 -278l-89 223h155l94 -223h-160z" />
    <glyph glyph-name="dvNukta" unicode="&#x93c;" horiz-adv-x="0" 
d="M-299 -262c-51 0 -84 39 -75 89c9 52 56 93 107 93s84 -41 76 -93c-9 -50 -57 -89 -108 -89z" />
    <glyph glyph-name="dvZero" unicode="&#x966;" horiz-adv-x="652" 
d="M59 364c36 205 136 361 344 361s255 -156 218 -361c-36 -205 -137 -361 -345 -361s-253 156 -217 361zM452 364c19 105 24 201 -77 201s-130 -96 -148 -201c-19 -105 -24 -201 77 -201s130 96 148 201z" />
    <glyph glyph-name="dvOne" unicode="&#x967;" horiz-adv-x="376" 
d="M75 0l97 550h-99l28 159h277l-125 -709h-178z" />
    <glyph glyph-name="dvTwo" unicode="&#x968;" horiz-adv-x="571" 
d="M-10 10l22 127c178 128 362 252 381 364c10 54 -9 85 -59 85c-52 0 -84 -36 -98 -109h-166c37 177 165 253 298 253c166 0 221 -99 201 -215c-27 -152 -191 -277 -322 -366h270l-25 -139h-502z" />
    <glyph glyph-name="dvThree" unicode="&#x969;" horiz-adv-x="605" 
d="M93 524c31 144 139 223 288 223c154 0 221 -88 202 -198c-17 -96 -85 -147 -139 -164v-4c68 -24 108 -80 91 -176c-22 -123 -124 -211 -277 -211c-152 0 -250 72 -226 237h166c-9 -57 15 -95 78 -95c53 0 89 34 97 82c11 65 -24 91 -112 91h-32l25 139h32
c57 0 116 14 128 80c8 49 -15 76 -62 76c-55 0 -82 -40 -93 -80h-166z" />
    <glyph glyph-name="dvFour" unicode="&#x96a;" horiz-adv-x="677" 
d="M334 0l24 130h-336l24 138l395 452h192l-78 -442h82l-26 -148h-82l-23 -130h-172zM228 278h168l45 254z" />
    <glyph glyph-name="dvFive" unicode="&#x96b;" horiz-adv-x="650" 
d="M170 731h467l-26 -150h-312l-24 -138c31 29 84 50 142 50c159 0 199 -121 178 -239c-27 -154 -135 -254 -297 -254c-164 0 -242 91 -226 217h166c1 -38 24 -72 80 -72c65 0 101 47 113 110c11 66 -15 101 -77 101c-48 0 -80 -26 -95 -60h-165z" />
    <glyph glyph-name="dvSix" unicode="&#x96c;" horiz-adv-x="637" 
d="M608 533h-159c-2 48 -21 74 -72 74c-77 0 -118 -65 -145 -206c39 47 103 75 169 75c127 0 202 -83 175 -235c-25 -145 -134 -245 -292 -245c-219 0 -246 156 -207 374c44 250 144 375 332 375c158 0 209 -104 199 -212zM336 341c-53 0 -106 -32 -117 -98
c-11 -64 19 -102 84 -102c59 0 102 37 113 99c10 61 -16 101 -80 101z" />
    <glyph glyph-name="dvSeven" unicode="&#x96d;" horiz-adv-x="535" 
d="M106 721h482l-22 -126l-366 -595h-179l369 576h-310z" />
    <glyph glyph-name="dvEight" unicode="&#x96e;" horiz-adv-x="648" 
d="M184 397c-51 30 -79 80 -66 157c18 100 116 200 288 200s235 -100 217 -200c-13 -75 -62 -128 -121 -157c64 -34 94 -95 79 -181c-26 -148 -161 -230 -311 -230c-149 0 -255 82 -228 230c15 86 67 147 142 181zM381 614c-50 0 -91 -31 -100 -87c-10 -53 21 -85 70 -85
c50 0 92 32 101 85c10 56 -19 87 -71 87zM330 323c-61 0 -111 -35 -122 -98c-10 -58 21 -99 87 -99s112 42 121 99c11 62 -25 98 -86 98z" />
    <glyph glyph-name="dvNine" unicode="&#x96f;" horiz-adv-x="615" 
d="M57 214h159c2 -51 25 -79 78 -79c72 0 108 61 132 200c-35 -41 -94 -65 -156 -65c-126 0 -207 78 -180 231c26 148 137 244 293 244c208 0 241 -141 203 -362c-44 -248 -126 -386 -319 -386c-162 0 -221 105 -210 217zM332 405c57 0 99 36 109 95c12 65 -19 100 -78 100
s-101 -38 -112 -99c-10 -55 15 -96 81 -96z" />
    <glyph glyph-name="dvOm" unicode="&#x950;" horiz-adv-x="1072" 
d="M213 10c-143 0 -219 85 -197 211h147c-8 -42 17 -76 65 -76c47 0 81 32 90 78c7 42 -14 82 -79 82h-46l24 132h45c53 0 92 31 99 73c7 45 -18 72 -58 72c-42 0 -76 -26 -84 -67h-145c21 120 123 201 256 201c127 0 197 -73 177 -185c-13 -74 -61 -131 -133 -153l-1 -4
c6 -2 12 -4 17 -6h57c66 0 100 20 115 98c24 135 92 216 250 216c156 0 202 -92 175 -247l-21 -121c-35 -195 -148 -298 -324 -298c-32 0 -64 3 -100 10l23 130c27 -4 51 -7 72 -7c116 0 159 68 176 170l25 137c10 56 0 94 -50 94s-72 -38 -80 -86
c-27 -153 -88 -215 -245 -218c0 -14 -2 -27 -4 -39c-21 -121 -121 -197 -246 -197zM609 726c-158 0 -235 87 -212 211h124c-9 -54 24 -99 99 -99s120 45 130 99h126c-20 -131 -111 -211 -267 -211zM629 901c-33 0 -55 26 -50 60c6 35 38 62 71 62c35 0 56 -27 50 -62
c-5 -34 -36 -60 -71 -60z" />
    <glyph glyph-name="dvAbbreviationsign" unicode="&#x970;" horiz-adv-x="476" 
d="M269 504c100 0 158 -69 141 -168c-18 -98 -98 -167 -199 -167c-102 0 -162 69 -145 167c18 99 101 168 203 168zM253 411c-46 0 -85 -31 -92 -75c-8 -44 20 -74 66 -74c43 0 79 30 87 74c7 43 -18 75 -61 75z" />
    <glyph glyph-name="danda" unicode="&#x964;" horiz-adv-x="344" 
d="M368 740l-130 -740h-156l130 740h156z" />
    <glyph glyph-name="doubledanda" unicode="&#x965;" horiz-adv-x="617" 
d="M368 740l-130 -740h-156l130 740h156zM640 740l-130 -740h-156l130 740h156z" />
    <glyph glyph-name="rupee" unicode="&#x20a8;" horiz-adv-x="1190" 
d="M466 474c10 53 -15 88 -79 88h-106l-30 -175h105c65 0 100 32 110 87zM135 702h287c172 0 241 -98 219 -220c-15 -90 -80 -174 -198 -204l119 -278h-194l-105 267h-34l-47 -267h-171zM669 393c16 93 112 173 262 173c148 0 220 -78 215 -190h-170c1 40 -27 61 -73 61
c-44 0 -73 -19 -78 -46c-16 -93 327 -22 290 -227c-17 -99 -116 -172 -256 -172c-146 0 -230 67 -224 190h170c-4 -42 30 -61 75 -61c47 0 73 19 78 46c16 96 -325 21 -289 226z" />
    <glyph glyph-name="indianrupee" unicode="&#x20b9;" horiz-adv-x="598" 
d="M90 587l21 115h529l-20 -115h-85l-11 -60h86l-19 -104h-91c-41 -115 -128 -182 -291 -182l-7 -40c-9 -47 0 -82 52 -82c49 0 71 30 80 84h158c-28 -132 -114 -213 -256 -213c-147 0 -218 75 -190 234l23 129c188 0 245 6 272 70h-280l19 104h284l11 60h-285z" />
    <glyph glyph-name="zerowidthnonjoiner" unicode="&#x200c;" horiz-adv-x="0" 
d="M24 -230h-47v1041h47v-1041z" />
    <glyph glyph-name="zerowidthjoiner" unicode="&#x200d;" horiz-adv-x="0" 
d="M128 593l-33 -33l-72 75v-865h-47v865l-69 -73l-33 33l93 93l-95 95l33 33l95 -95l96 95l32 -32l-96 -96z" />
    <glyph glyph-name="dottedcircle" unicode="&#x25cc;" horiz-adv-x="651" 
d="M557 409c0 -25 -18 -42 -43 -42s-43 17 -43 42s18 42 43 42s43 -17 43 -42zM181 123c0 -25 -18 -42 -43 -42s-43 17 -43 42s18 42 43 42s43 -17 43 -42zM279 47c0 -25 -18 -42 -43 -42s-43 17 -43 42s18 42 43 42s43 -17 43 -42zM136 236c0 -25 -18 -42 -43 -42
s-43 17 -43 42s18 42 43 42s43 -17 43 -42zM403 33c0 -25 -18 -42 -43 -42s-43 17 -43 42s18 42 43 42s43 -17 43 -42zM151 357c0 -25 -18 -42 -43 -42s-43 17 -43 42s18 42 43 42s43 -17 43 -42zM518 79c0 -25 -18 -42 -43 -42s-43 17 -43 42s18 42 43 42s43 -17 43 -42z
M227 456c0 -25 -18 -42 -43 -42s-43 17 -43 42s18 42 43 42s43 -17 43 -42zM591 175c0 -25 -18 -42 -43 -42s-43 17 -43 42s18 42 43 42s43 -17 43 -42zM344 498c0 -25 -18 -42 -43 -42s-43 17 -43 42s18 42 43 42s43 -17 43 -42zM601 295c0 -25 -18 -42 -43 -42
s-43 17 -43 42s18 42 43 42s43 -17 43 -42zM465 483c0 -25 -18 -42 -43 -42s-43 17 -43 42s18 42 43 42s43 -17 43 -42z" />
    <glyph glyph-name="dvReph" horiz-adv-x="0" 
d="M-193 715l15 89c18 106 82 217 237 217c130 0 186 -80 157 -205h-137c10 48 -5 75 -39 75c-41 0 -62 -29 -72 -85l-16 -91h-145z" />
    <glyph glyph-name="dvEyelash" horiz-adv-x="353" 
d="M418 345c-45 -27 -112 -47 -177 -47c-124 0 -236 57 -212 217h149c-10 -77 44 -104 105 -104c39 0 66 10 89 20zM-1 609l23 131h459l-22 -131h-460z" />
    <glyph glyph-name="dvRashtrasign" horiz-adv-x="0" 
d="M-578 -97l177 179h210l114 -179h-151l-70 119l-113 -119h-167z" />
    <glyph glyph-name="dvK_RA" horiz-adv-x="965" 
d="M350 0l26 147c-3 -4 -7 -7 -10 -11v0l-187 -182h-169l142 131c-86 24 -131 106 -112 213c25 138 120 233 253 233c71 0 116 -28 138 -70l26 148h-432l23 131h999l-23 -131h-417l-25 -146c34 41 85 68 150 68c126 0 191 -105 167 -236c-27 -145 -127 -221 -246 -221
c-23 0 -43 2 -66 8l22 123c6 -2 16 -3 25 -3c51 0 96 35 107 96c9 54 -19 99 -76 99c-65 0 -103 -50 -114 -111v0l-50 -286h-151zM283 196c65 0 109 50 119 100v0v3v-1c8 51 -17 100 -83 100c-58 0 -108 -40 -119 -101s23 -101 83 -101z" />
    <glyph glyph-name="dvKH_RA" horiz-adv-x="961" 
d="M508 92l-224 -227h-169l2 8l135 129c-152 12 -233 109 -202 274l22 127h25c89 0 142 38 158 130l13 76h-243l24 131h994l-24 -131h-97l-107 -609h-156l28 158c-30 -28 -72 -47 -127 -47c-11 0 -22 1 -32 3c-7 -7 -13 -15 -21 -22h1zM615 231c55 0 91 41 99 87
c8 41 -11 86 -69 86c-48 0 -91 -31 -101 -85c-9 -58 25 -88 71 -88zM309 129c60 0 98 26 122 56c-22 39 -30 91 -20 149c20 118 113 193 220 189c55 -2 90 -20 111 -49l23 135h-339l-17 -98c-24 -134 -103 -205 -200 -217l-7 -37c-13 -73 23 -128 107 -128z" />
    <glyph glyph-name="dvG_RA" horiz-adv-x="815" 
d="M516 0l32 183l-238 -203h-181l444 363l46 266h-127l-26 -157c-21 -121 -94 -214 -238 -214c-127 0 -203 74 -179 207c2 11 4 20 7 31h152l-6 -32c-8 -39 0 -72 40 -72c43 0 59 39 65 73l29 164h-311l24 131h848l-23 -131h-98l-106 -609h-154z" />
    <glyph glyph-name="dvGH_RA" horiz-adv-x="699" 
d="M294 222c77 0 150 52 164 134v-1l45 254h-226l-7 -40c-9 -50 9 -82 77 -82h38l-22 -126h-50c-61 0 -94 -29 -101 -68c-9 -48 27 -71 82 -71zM25 609l23 131h733l-24 -131h-96l-107 -609h-158l30 171c-5 -5 -11 -10 -16 -15l-206 -205h-170l159 146
c-95 14 -162 77 -144 180c14 78 75 128 133 144v3c-51 14 -85 54 -71 138l8 47h-94z" />
    <glyph glyph-name="dvNG_RA" horiz-adv-x="703" 
d="M595 287c-45 0 -75 37 -67 82c8 46 51 82 97 82s76 -36 68 -82c-8 -45 -51 -82 -98 -82zM27 609l23 131h735l-22 -131h-246l-13 -74v0l-19 -110h-185c-33 0 -68 -11 -74 -46c-6 -34 19 -46 52 -46h44c109 0 198 -54 176 -180c-13 -72 -55 -125 -126 -152l93 -146h-151
l-70 119l-113 -119h-167l149 151c-67 31 -106 88 -95 167h156c-6 -50 30 -75 83 -75c50 0 85 24 92 61c8 45 -24 63 -75 63h-35c-75 0 -192 33 -169 162c18 105 109 151 209 151h73l13 74h-338z" />
    <glyph glyph-name="dvC_RA" horiz-adv-x="753" 
d="M25 609l23 131h787l-23 -131h-98l-107 -609h-157l29 165c-9 -10 -19 -18 -29 -26l-186 -185h-169l150 139c-88 16 -142 81 -126 179c8 48 32 88 69 117h-134l22 123h370l-23 -123h-41c-55 0 -102 -34 -111 -88c-10 -58 31 -89 90 -88c80 1 136 63 153 154v-1l43 243h-532
z" />
    <glyph glyph-name="dvCH_RA" horiz-adv-x="822" 
d="M363 154c154 0 251 62 272 179c10 54 -10 91 -48 91c-34 0 -67 -27 -76 -80c-5 -24 -4 -51 -1 -76h-129c-3 24 -4 57 3 94c17 93 77 146 150 167l14 80h-274l-11 -64c-9 -50 7 -82 65 -82h21l-23 -126h-17c-65 0 -102 -36 -110 -80c-11 -64 39 -103 164 -103zM23 609
l23 131h858l-23 -131h-188l-14 -81c74 -26 111 -98 93 -203c-26 -143 -128 -247 -284 -287l92 -143h-160l-70 119l-113 -119h-159l137 138c-124 30 -198 107 -176 218c15 76 67 124 135 145v4c-50 13 -84 54 -70 138l13 71h-94z" />
    <glyph glyph-name="dvJ_RA" horiz-adv-x="860" 
d="M25 609l23 131h894l-23 -131h-98l-107 -609h-146l27 159l-220 -208h-173l418 368l8 47h-130c-30 -117 -114 -197 -243 -197c-152 0 -224 93 -199 225l18 99h158l-18 -95c-10 -57 10 -91 56 -91s78 34 88 91l17 95h275l21 116h-646z" />
    <glyph glyph-name="dvJH_RA" horiz-adv-x="963" 
d="M280 333h441l48 276h-250l-13 -73v0l-20 -111h-186c-31 0 -67 -11 -73 -47c-6 -32 17 -45 53 -45zM666 0l5 27l-145 -141h-157l331 306l4 23h-217c7 -22 9 -48 4 -78c-16 -87 -86 -152 -191 -152c-68 0 -105 31 -120 48l-21 -117h-148l45 253h141c-4 -41 21 -69 73 -69
c47 0 75 25 80 58c6 39 -18 64 -76 64c-20 0 -39 0 -63 2c-79 4 -161 50 -141 165c18 108 111 147 211 147h73l12 73h-334l24 131h989l-23 -131h-98l-107 -609h-151z" />
    <glyph glyph-name="dvNY_RA" horiz-adv-x="879" 
d="M26 609l23 131h912l-23 -131h-98l-108 -609h-153l10 55l-149 -144h-160l338 309l6 34h-125c-38 -114 -132 -185 -256 -185c-131 0 -224 76 -209 196h148c3 -39 34 -63 77 -63c61 0 101 45 110 101c9 52 -14 98 -75 98c-44 0 -81 -25 -98 -63h-148c29 120 129 196 261 196
c111 0 188 -56 204 -148h130l40 223h-657z" />
    <glyph glyph-name="dvTT_RA" horiz-adv-x="644" 
d="M24 609l23 131h680l-24 -131h-173l-36 -208h-137c-79 0 -150 -42 -165 -126c-13 -70 29 -119 107 -119c79 0 138 52 151 127h149c-19 -113 -85 -198 -183 -238l90 -141h-151l-68 116h-5l-110 -116h-167l142 144c-85 41 -131 124 -113 233c28 160 152 249 328 252l14 76
h-352z" />
    <glyph glyph-name="dvTTH_RA" horiz-adv-x="673" 
d="M304 161c76 0 136 51 149 123c12 72 -28 124 -106 124c-74 0 -134 -50 -147 -122s28 -125 104 -125zM361 -99l-70 119l-113 -119h-167l152 154c-87 39 -139 123 -119 237c24 141 129 219 247 241l14 76h-274l23 131h705l-23 -131h-277l-14 -79c110 -28 188 -115 163 -252
c-19 -113 -94 -191 -192 -226l96 -151h-151z" />
    <glyph glyph-name="dvDD_RA" horiz-adv-x="567" 
d="M27 609l23 131h599l-22 -131h-112l-33 -184h-182c-33 0 -68 -11 -74 -46c-6 -34 19 -46 52 -46h44c109 0 198 -54 176 -180c-13 -73 -56 -126 -128 -153l92 -145h-151l-70 119l-113 -119h-167l150 152c-66 31 -104 88 -93 166h156c-6 -50 30 -75 83 -75c50 0 85 24 92 61
c8 45 -24 63 -75 63h-35c-75 0 -192 33 -169 162c18 105 109 151 209 151h71l13 74h-336z" />
    <glyph glyph-name="dvDDH_RA" horiz-adv-x="656" 
d="M26 609l23 131h689l-23 -131h-162l-31 -176h-116c-106 0 -200 -57 -218 -167c-17 -91 27 -162 144 -162c73 0 133 32 144 91c6 33 -13 56 -44 56c-29 0 -53 -17 -59 -46c-1 -6 -2 -15 -2 -18h-110c0 13 1 27 3 38c15 89 93 138 194 138c104 0 169 -70 151 -173
c-17 -93 -82 -159 -185 -186l88 -138h-151l-70 119l-113 -119h-167l154 156c-95 45 -148 137 -127 258c31 171 172 261 336 261h19l12 68h-379z" />
    <glyph glyph-name="dvNN_RA" horiz-adv-x="896" 
d="M305 360c43 0 72 31 79 74l31 175h-135l-31 -175c-7 -43 15 -74 56 -74zM29 609l23 131h926l-23 -131h-99l-107 -609h-147l33 185l-248 -231h-179l450 401l44 254h-133l-28 -160c-22 -126 -101 -221 -249 -221c-144 0 -216 98 -193 221l27 160h-97z" />
    <glyph glyph-name="dvT_RA" horiz-adv-x="710" 
d="M25 609l23 131h744l-23 -131h-97l-107 -609h-152l31 180l-215 -179h-207l1 6l437 333c-20 32 -59 54 -109 54c-76 0 -143 -45 -158 -131h-157c24 153 139 255 297 255c76 0 127 -30 157 -66l28 157h-493z" />
    <glyph glyph-name="dvTH_RA" horiz-adv-x="793" 
d="M490 0l33 190c-11 -16 -26 -32 -44 -46h1l-275 -212h-194l1 8l206 149c-124 27 -191 128 -164 278c4 23 9 47 17 72h87c105 0 190 24 205 110c7 37 -11 66 -50 66c-53 0 -79 -51 -76 -104h-142c4 128 94 238 244 238c122 0 193 -80 171 -204
c-23 -130 -129 -218 -308 -218h-2c-5 -59 32 -114 136 -114c105 0 204 70 227 206l57 321h255l-22 -131h-98l-108 -609h-157z" />
    <glyph glyph-name="dvD_RA" horiz-adv-x="615" 
d="M28 609l23 131h645l-24 -131h-112l-38 -214h-179c-72 0 -129 -38 -140 -106c-11 -60 21 -100 80 -100c49 0 96 33 106 92h146l-55 -314h-154l26 148c-6 -6 -12 -11 -19 -16l-177 -173h-169l162 150c-76 27 -127 103 -106 224c28 155 155 229 308 229h37l14 80h-374z" />
    <glyph glyph-name="dvDH_RA" horiz-adv-x="738" 
d="M454 154l-225 -225h-170l168 154c-113 6 -196 66 -176 177c16 87 87 131 141 143v3c-58 19 -110 76 -93 172c18 108 100 171 208 171c127 0 189 -81 150 -210h-116c11 41 1 79 -44 79c-34 0 -61 -27 -68 -62c-12 -63 31 -85 88 -85h83l-23 -127h-52
c-61 0 -104 -22 -111 -67c-9 -46 30 -71 93 -71c101 0 180 70 198 173v0l42 238l21 123h252l-22 -131h-95l-108 -609h-157l30 168c-5 -5 -9 -10 -14 -14v0z" />
    <glyph glyph-name="dvN_RA" horiz-adv-x="867" 
d="M247 202c48 0 88 34 97 81c8 48 -20 82 -68 82c-50 0 -92 -34 -100 -82c-9 -48 20 -81 71 -81zM25 609l23 131h901l-23 -131h-98l-107 -609h-142l20 113l-205 -202h-171l395 355l17 99h-178c11 -27 15 -61 8 -103c-21 -126 -128 -193 -235 -193c-131 0 -219 94 -196 223
c25 140 137 204 271 204h353l20 113h-653z" />
    <glyph glyph-name="dvP_RA" horiz-adv-x="677" 
d="M318 292c67 0 113 48 127 107l37 210h-215l-33 -191c-13 -74 12 -126 84 -126zM25 609l23 131h711l-22 -131h-98l-108 -609h-157l39 223c-1 -2 -3 -4 -5 -5l-240 -244h-169l209 197c-111 21 -154 120 -131 247l33 191h-85z" />
    <glyph glyph-name="dvPH_RA" horiz-adv-x="984" 
d="M313 292c66 0 106 51 115 112v0l36 205h-197l-35 -199c-13 -69 10 -118 81 -118zM25 609l23 131h1019l-24 -131h-422l-26 -148c38 43 95 70 165 70c126 0 184 -99 162 -225c-26 -147 -127 -232 -247 -232c-25 0 -50 3 -72 10l21 121c10 -3 21 -4 31 -4c55 0 96 39 106 97
c10 56 -18 99 -75 99c-67 0 -108 -51 -123 -118l-49 -279h-157l39 220c-3 -3 -5 -5 -8 -7l-225 -239h-169l205 200c-102 24 -147 117 -124 236l35 199h-85z" />
    <glyph glyph-name="dvB_RA" horiz-adv-x="687" 
d="M407 121l-188 -183h-165l147 132c-116 19 -180 115 -158 242c25 141 142 229 283 229c68 0 118 -24 149 -61l23 129h-473l23 131h721l-23 -131h-97l-107 -609h-151l23 128zM341 440c-33 0 -66 -10 -92 -28l184 -162c11 17 18 36 21 55c12 72 -28 135 -113 135zM294 171
c36 0 66 10 92 27l-186 162c-10 -17 -17 -36 -21 -56c-16 -83 40 -133 115 -133z" />
    <glyph glyph-name="dvBH_RA" horiz-adv-x="873" 
d="M243 212c51 0 80 35 90 88l8 45h-64c-47 0 -86 -24 -94 -66c-8 -41 19 -67 60 -67zM224 83c-130 0 -206 77 -186 195c23 131 136 193 260 193h65l12 69c8 45 -4 76 -46 76c-36 0 -60 -26 -68 -64c-2 -10 -2 -19 -2 -30h-152c0 12 1 26 3 38c17 108 101 189 238 189
c153 0 187 -105 163 -238l-7 -40h155l47 269h248l-23 -131h-99l-107 -609h-141l20 117l-243 -206h-171l432 347l15 87h-155l-6 -37c-24 -134 -114 -225 -252 -225z" />
    <glyph glyph-name="dvM_RA" horiz-adv-x="843" 
d="M235 214c51 0 81 37 90 89l9 50h-65c-47 0 -85 -26 -94 -70c-7 -42 18 -69 60 -69zM638 479l23 130h-140l-23 -130h140zM32 609l23 131h877l-23 -131h-98l-108 -609h-142l22 119l-244 -208h-172l431 346l17 96h-140l-7 -42c-23 -135 -114 -225 -253 -225
c-129 0 -205 78 -184 196c23 134 136 197 259 197h66l24 130h-348z" />
    <glyph glyph-name="dvY_RA" horiz-adv-x="758" 
d="M334 213c93 0 160 60 182 143l45 253h-146l-13 -70c-19 -105 -76 -181 -195 -195c-13 -76 32 -131 127 -131zM25 609l24 131h790l-23 -131h-98l-107 -609h-158l26 150c-10 -10 -22 -19 -35 -27l-240 -186h-191l1 9l204 147c-125 27 -189 128 -164 271c3 20 9 40 15 60h10
c113 0 158 54 173 143l8 42h-235z" />
    <glyph glyph-name="dvL_RA" horiz-adv-x="912" 
d="M842 274c-26 -147 -135 -248 -302 -244c-8 0 -25 1 -35 2l25 136c6 -1 17 -2 26 -2c64 0 115 43 127 115c11 61 -13 105 -70 105c-65 0 -100 -55 -112 -118l-4 -24h-130l4 24c12 62 -3 118 -68 118c-60 0 -98 -43 -109 -105c-13 -70 19 -115 90 -115c8 0 16 1 24 2
l-24 -137c-14 -1 -22 -1 -30 -1c-170 0 -245 114 -218 260c28 164 145 234 264 234c96 0 143 -54 158 -114h3c29 51 77 94 146 108l16 91h-600l23 131h948l-24 -131h-193l-19 -109c65 -36 104 -113 84 -226zM319 -194l177 179h210l114 -179h-151l-70 119l-113 -119h-167z
" />
    <glyph glyph-name="dvV_RA" horiz-adv-x="667" 
d="M289 187c73 0 121 56 131 111c11 59 -19 111 -93 111c-66 0 -121 -45 -133 -110c-11 -66 27 -112 95 -112zM725 609h-97l-107 -609h-153l25 141c-6 -6 -11 -11 -17 -16l-178 -170h-168l139 124c-98 25 -148 112 -124 236c24 133 122 220 260 220c69 0 119 -26 145 -71
l25 145h-450l23 131h701z" />
    <glyph glyph-name="dvSH_RA" horiz-adv-x="862" 
d="M329 439l7 -4c41 27 79 59 87 107c7 40 -15 77 -64 77c-46 0 -81 -34 -87 -73c-8 -49 17 -84 57 -107zM561 0l26 144l-51 29l-224 -184h-184l2 14l298 230l-104 57l-159 -110h-179l3 18l230 157c-69 54 -106 120 -91 206c20 114 117 188 251 188c131 0 207 -87 189 -191
c-13 -73 -46 -123 -123 -183l166 -92l81 457h251l-23 -131h-97l-108 -609h-154z" />
    <glyph glyph-name="dvSS_RA" horiz-adv-x="694" 
d="M319 280c57 0 99 29 123 71l-199 151l-16 -89c-14 -77 17 -133 92 -133zM470 451l27 158h-233zM25 609l23 131h725l-23 -131h-98l-107 -609h-154l37 210c-8 -8 -17 -15 -25 -21l-234 -215h-170l210 180c-109 27 -157 131 -133 264l34 191h-85z" />
    <glyph glyph-name="dvS_RA" horiz-adv-x="916" 
d="M467 543c-7 -44 -23 -83 -45 -115h273l32 181h-249zM25 609l23 131h943l-23 -131h-91l-107 -609h-136l25 140l-189 -204h-150l351 353l3 19h-474l-18 -107c-7 -43 7 -76 48 -76c44 0 61 37 69 81h134c-12 -125 -89 -215 -218 -215c-138 0 -202 95 -181 218l36 203h75
c108 0 152 54 165 131l12 66h-297z" />
    <glyph glyph-name="dvH_RA" horiz-adv-x="585" 
d="M493 38c-27 -108 -122 -181 -257 -181c-151 0 -243 106 -215 253c15 85 62 148 126 186c-39 25 -57 65 -48 116c14 77 83 127 184 127h79l13 70h-341l24 131h619l-24 -131h-128l-12 -70l-20 -111h-174c-33 0 -62 -13 -70 -48c-4 -19 4 -35 21 -43c13 1 27 2 41 2
c120 0 200 -66 199 -156l-97 -93h-140l99 93c-10 18 -33 38 -76 38c-66 0 -115 -51 -129 -124c-13 -72 24 -117 86 -117c50 0 87 29 102 58h138z" />
    <glyph glyph-name="dvLL_RA" horiz-adv-x="957" 
d="M269 187c57 0 105 39 115 98c10 58 -23 100 -80 100c-59 0 -107 -41 -117 -101c-11 -59 24 -97 82 -97zM618 187c58 0 107 38 117 97c10 60 -23 101 -81 101c-59 0 -106 -42 -116 -100c-11 -59 23 -98 80 -98zM700 -72l-70 119l-113 -119h-167l155 157
c-29 20 -51 48 -62 84h-5c-46 -74 -126 -116 -214 -116c-126 0 -216 89 -191 232c26 143 141 233 268 233c80 0 147 -33 179 -114h4c44 62 99 96 158 108l17 97h-638l23 131h995l-24 -131h-204l-20 -110c74 -34 116 -110 98 -214c-16 -92 -69 -161 -139 -199l101 -158h-151z
" />
    <glyph glyph-name="dvKx_RA" horiz-adv-x="1037" 
d="M425 0l26 147c-3 -4 -7 -7 -10 -11v0l-187 -182h-169l142 131c-86 24 -131 106 -112 213c25 138 120 233 253 233c71 0 116 -28 138 -70l26 148h-509l23 131h1076l-23 -131h-417l-25 -146c34 41 85 68 150 68c126 0 191 -105 167 -236c-27 -145 -127 -221 -246 -221
c-23 0 -43 2 -66 8l22 123c6 -2 16 -3 25 -3c51 0 96 35 107 96c9 54 -19 99 -76 99c-65 0 -103 -50 -114 -111v0l-50 -286h-151zM358 196c65 0 109 50 119 100v0v3v-1c8 51 -17 100 -83 100c-58 0 -108 -40 -119 -101s23 -101 83 -101zM10 -17c-45 0 -73 34 -65 77
c7 45 48 81 92 81c45 0 73 -36 66 -81c-7 -43 -49 -77 -93 -77z" />
    <glyph glyph-name="dvKHx_RA" horiz-adv-x="961" 
d="M508 92l-224 -227h-169l2 8l135 129c-152 12 -233 109 -202 274l22 127h25c89 0 142 38 158 130l13 76h-243l24 131h994l-24 -131h-97l-107 -609h-156l28 158c-30 -28 -72 -47 -127 -47c-11 0 -22 1 -32 3c-7 -7 -13 -15 -21 -22h1zM1 -148c-45 0 -73 34 -65 77
c7 45 48 81 92 81c45 0 73 -36 66 -81c-7 -43 -49 -77 -93 -77zM615 231c55 0 91 41 99 87c8 41 -11 86 -69 86c-48 0 -91 -31 -101 -85c-9 -58 25 -88 71 -88zM309 129c60 0 98 26 122 56c-22 39 -30 91 -20 149c20 118 113 193 220 189c55 -2 90 -20 111 -49l23 135h-339
l-17 -98c-24 -134 -103 -205 -200 -217l-7 -37c-13 -73 23 -128 107 -128z" />
    <glyph glyph-name="dvGx_RA" horiz-adv-x="815" 
d="M516 0l32 183l-238 -203h-181l444 363l46 266h-127l-26 -157c-21 -121 -94 -214 -238 -214c-127 0 -203 74 -179 207c2 11 4 20 7 31h152l-6 -32c-8 -39 0 -72 40 -72c43 0 59 39 65 73l29 164h-311l24 131h848l-23 -131h-98l-106 -609h-154zM44 16c-45 0 -73 34 -65 77
c7 45 48 81 92 81c45 0 73 -36 66 -81c-7 -43 -49 -77 -93 -77z" />
    <glyph glyph-name="dvJx_RA" horiz-adv-x="860" 
d="M25 609l23 131h894l-23 -131h-98l-107 -609h-146l27 159l-220 -208h-173l418 368l8 47h-130c-30 -117 -114 -197 -243 -197c-152 0 -224 93 -199 225l18 99h158l-18 -95c-10 -57 10 -91 56 -91s78 34 88 91l17 95h275l21 116h-646zM75 -42c-45 0 -73 34 -65 77
c7 45 48 81 92 81c45 0 73 -36 66 -81c-7 -43 -49 -77 -93 -77z" />
    <glyph glyph-name="dvPHx_RA" horiz-adv-x="1060" 
d="M389 292c66 0 105 51 115 112v0l36 205h-197l-35 -199c-13 -69 10 -118 81 -118zM17 609l23 131h1102l-23 -131h-422l-25 -147c37 42 93 69 163 69c127 0 185 -99 163 -225c-26 -147 -128 -232 -247 -232c-25 0 -50 3 -72 10l21 121c10 -3 21 -4 31 -4c54 0 95 39 106 97
c9 56 -18 99 -75 99c-66 0 -108 -50 -122 -115l-50 -282h-157l39 220c-2 -2 -4 -3 -6 -5l-227 -241h-169l205 200c-103 24 -148 117 -124 236l35 199h-169zM27 49c-45 0 -73 34 -65 77c7 45 48 81 92 81c45 0 73 -36 66 -81c-7 -43 -49 -77 -93 -77z" />
    <glyph glyph-name="dvK_R" horiz-adv-x="702" 
d="M350 0l26 147c-4 -4 -7 -8 -11 -11h1l-187 -182h-169l143 131c-86 23 -132 105 -113 213c25 138 120 233 253 233c71 0 116 -28 138 -70l26 148h-432l23 131h931l-24 -131h-348l-25 -146c34 41 85 68 150 68c126 0 191 -105 167 -233h-158c9 54 -19 99 -76 99
c-65 0 -103 -50 -114 -111v0l-50 -286h-151zM283 196c65 0 109 50 119 100v0v3v-1c8 51 -17 100 -83 100c-58 0 -108 -40 -119 -101s23 -101 83 -101z" />
    <glyph glyph-name="dvKH_R" horiz-adv-x="670" 
d="M618 227c55 0 95 34 105 89c9 53 -19 88 -74 88c-54 0 -96 -35 -105 -88c-10 -55 20 -89 74 -89zM25 609l24 131h886l-23 -131h-486l-17 -98c-24 -134 -103 -205 -200 -217l-7 -37c-13 -73 23 -128 107 -128c59 0 96 24 120 53c-24 34 -34 79 -24 134
c23 128 133 205 265 205s212 -77 190 -205c-23 -133 -136 -207 -263 -207c-20 0 -40 2 -58 6c-23 -32 -52 -61 -89 -82l-166 -168h-168l1 8l129 124c-148 20 -224 124 -196 279l22 127h25c90 0 142 38 158 130l13 76h-243z" />
    <glyph glyph-name="dvG_R" horiz-adv-x="546" 
d="M129 -20l482 394l-27 -161l-274 -233h-181zM25 609l24 131h627l-23 -131h-161l-26 -157c-21 -121 -94 -214 -238 -214c-127 0 -203 74 -179 207c2 11 4 20 7 31h152l-6 -32c-8 -39 0 -72 40 -72c43 0 59 39 65 73l29 164h-311z" />
    <glyph glyph-name="dvGH_R" horiz-adv-x="392" 
d="M25 609l23 131h611l-23 -131h-360l-7 -40c-9 -50 9 -82 75 -82h40l-22 -126h-52c-60 0 -92 -29 -99 -68c-8 -48 28 -71 83 -71c93 0 151 59 164 134h134c-14 -75 -54 -144 -114 -192l-213 -213h-169l156 143c-145 6 -222 80 -202 188c14 78 73 124 131 139l1 3
c-51 14 -86 54 -71 138l8 47h-94z" />
    <glyph glyph-name="dvNG_R" horiz-adv-x="703" 
d="M222 -397l-90 223h156l94 -223h-160zM595 287c-45 0 -75 37 -67 82c8 46 51 82 97 82s76 -36 68 -82c-8 -45 -51 -82 -98 -82zM27 609l23 131h735l-22 -131h-246l-13 -74v0l-19 -110h-185c-33 0 -68 -11 -74 -46c-6 -34 19 -46 52 -46h44c109 0 198 -54 176 -180
c-13 -72 -55 -125 -126 -152l93 -146h-151l-70 119l-113 -119h-167l149 151c-67 31 -106 88 -95 167h156c-6 -50 30 -75 83 -75c50 0 85 24 92 61c8 45 -24 63 -75 63h-35c-75 0 -192 33 -169 162c18 105 109 151 209 151h73l13 74h-338z" />
    <glyph glyph-name="dvC_R" horiz-adv-x="449" 
d="M25 609l23 131h668l-23 -131h-668zM54 389l21 123h370l-22 -123h-41c-55 0 -102 -34 -111 -88c-10 -58 31 -89 90 -88c80 1 137 63 153 155h136c-15 -93 -57 -168 -121 -219l-193 -195h-169l138 127c-127 6 -208 70 -186 191c8 48 33 88 69 117h-134z" />
    <glyph glyph-name="dvCH_R" horiz-adv-x="822" 
d="M23 609l23 131h858l-23 -131h-607l-11 -64c-9 -50 7 -82 65 -82h21l-23 -126h-17c-65 0 -102 -36 -110 -80c-11 -64 39 -103 164 -103c154 0 251 62 272 179c10 54 -10 91 -48 91c-34 0 -67 -27 -76 -80c-5 -24 -4 -51 -1 -76h-129c-3 24 -4 57 3 94
c22 124 121 177 225 177c119 0 186 -79 163 -214c-26 -143 -128 -247 -284 -287l92 -143h-160l-70 119l-113 -119h-159l137 138c-124 30 -198 107 -176 218c15 76 67 124 135 145v4c-50 13 -84 54 -70 138l13 71h-94z" />
    <glyph glyph-name="dvJ_R" horiz-adv-x="553" 
d="M27 609l22 131h722l-22 -131h-722zM375 -49h-172l469 415h-174c-30 -117 -114 -197 -243 -197c-152 0 -224 93 -199 225l18 99h158l-18 -95c-10 -57 10 -91 56 -91s78 34 88 91l17 95h353l-22 -127v0l-22 -123z" />
    <glyph glyph-name="dvJH_R" horiz-adv-x="561" 
d="M32 609l24 131h766l-23 -131h-280l-13 -73v0l-20 -111h-186c-31 0 -67 -11 -73 -47c-6 -32 17 -45 53 -45h470l-20 -118h-1l-26 -154l-179 -175h-158l361 329h-240c7 -22 9 -48 4 -78c-16 -87 -86 -152 -191 -152c-68 0 -105 31 -120 48l-21 -117h-148l45 253h141
c-4 -41 21 -69 73 -69c47 0 75 25 80 58c6 39 -18 64 -76 64c-20 0 -39 0 -63 2c-79 4 -161 50 -141 165c18 108 111 147 211 147h73l12 73h-334z" />
    <glyph glyph-name="dvNY_R" horiz-adv-x="533" 
d="M243 69c-131 0 -224 76 -209 196h148c3 -39 34 -63 77 -63c61 0 101 45 110 101c9 52 -14 98 -75 98c-44 0 -81 -25 -98 -63h-148c29 120 129 196 261 196c111 0 188 -56 204 -148h192l-21 -119l-24 -143l-220 -213h-160l370 343h-151c-38 -114 -132 -185 -256 -185z
M26 609l23 131h719l-23 -131h-719z" />
    <glyph glyph-name="dvTT_R" horiz-adv-x="644" 
d="M268 -347l-90 223h156l94 -223h-160zM24 609l23 131h680l-24 -131h-173l-36 -208h-137c-79 0 -150 -42 -165 -126c-13 -70 29 -119 107 -119c79 0 138 52 151 127h149c-19 -113 -85 -198 -183 -238l90 -141h-151l-68 116h-5l-110 -116h-167l142 144
c-85 41 -131 124 -113 233c28 160 152 249 328 252l14 76h-352z" />
    <glyph glyph-name="dvTTH_R" horiz-adv-x="673" 
d="M270 -352l-90 223h156l94 -223h-160zM304 161c76 0 136 51 149 123c12 72 -28 124 -106 124c-74 0 -134 -50 -147 -122s28 -125 104 -125zM361 -99l-70 119l-113 -119h-167l152 154c-87 39 -139 123 -119 237c24 141 129 219 247 241l14 76h-274l23 131h705l-23 -131
h-277l-14 -79c110 -28 188 -115 163 -252c-19 -113 -94 -191 -192 -226l96 -151h-151z" />
    <glyph glyph-name="dvDD_R" horiz-adv-x="567" 
d="M219 -397l-91 223h156l94 -223h-159zM27 609l23 131h599l-22 -131h-112l-33 -184h-182c-33 0 -68 -11 -74 -46c-6 -34 19 -46 52 -46h44c109 0 198 -54 176 -180c-13 -73 -56 -126 -128 -153l92 -145h-151l-70 119l-113 -119h-167l150 152c-66 31 -104 88 -93 166h156
c-6 -50 30 -75 83 -75c50 0 85 24 92 61c8 45 -24 63 -75 63h-35c-75 0 -192 33 -169 162c18 105 109 151 209 151h71l13 74h-336z" />
    <glyph glyph-name="dvDDH_R" horiz-adv-x="656" 
d="M275 -386l-90 223h156l94 -223h-160zM26 609l23 131h689l-23 -131h-162l-31 -176h-116c-106 0 -200 -57 -218 -167c-17 -91 27 -162 144 -162c73 0 133 32 144 91c6 33 -13 56 -44 56c-29 0 -53 -17 -59 -46c-1 -6 -2 -15 -2 -18h-110c0 13 1 27 3 38
c15 89 93 138 194 138c104 0 169 -70 151 -173c-17 -93 -82 -159 -185 -186l88 -138h-151l-70 119l-113 -119h-167l154 156c-95 45 -148 137 -127 258c31 171 172 261 336 261h19l12 68h-379z" />
    <glyph glyph-name="dvNN_R" horiz-adv-x="584" 
d="M208 -46l474 420l-31 -176l-264 -244h-179zM29 609l23 131h694l-23 -131h-154l-28 -160c-22 -126 -101 -221 -249 -221c-144 0 -216 98 -193 221l27 160h-97zM305 360c43 0 72 31 79 74l31 175h-135l-31 -175c-7 -43 15 -74 56 -74z" />
    <glyph glyph-name="dvT_R" horiz-adv-x="412" 
d="M36 263c25 145 150 257 329 257c133 0 235 -74 248 -200l-385 -319h-206v6l437 334c-19 32 -57 53 -107 53c-76 0 -144 -45 -159 -131h-157zM25 609l23 131h639l-24 -131h-638z" />
    <glyph glyph-name="dvTH_R" horiz-adv-x="475" 
d="M687 361c-15 -91 -64 -162 -130 -209l-302 -233h-194l2 9l217 157c-188 23 -268 170 -208 354h86c106 0 191 24 205 111c6 36 -12 65 -49 65c-53 0 -80 -48 -77 -104h-142c5 134 100 238 245 238c121 0 192 -80 170 -204c-23 -130 -129 -218 -308 -218h-2
c-3 -78 63 -114 145 -114c101 0 191 55 208 148h134z" />
    <glyph glyph-name="dvD_R" horiz-adv-x="615" 
d="M405 -313l-90 223h157l93 -223h-160zM28 609l23 131h645l-24 -131h-112l-38 -214h-179c-72 0 -129 -38 -140 -106c-11 -60 21 -100 80 -100c49 0 96 33 106 92h146l-55 -314h-154l26 148c-6 -6 -12 -11 -19 -16l-177 -173h-169l162 150c-76 27 -127 103 -106 224
c28 155 155 229 308 229h37l14 80h-374z" />
    <glyph glyph-name="dvDH_R" horiz-adv-x="427" 
d="M285 76c-145 0 -255 62 -233 189c16 88 86 127 140 138v3c-59 19 -110 76 -94 172c19 108 100 171 208 171c128 0 189 -81 151 -210h-116c10 41 0 79 -45 79c-34 0 -61 -27 -68 -62c-13 -63 31 -85 88 -85h83l-23 -127h-52c-61 0 -102 -23 -110 -68
c-11 -53 44 -70 101 -70c106 0 168 51 181 122h137c-12 -70 -44 -129 -95 -173l-224 -226h-170l161 147h-20z" />
    <glyph glyph-name="dvN_R" horiz-adv-x="514" 
d="M230 69c-131 0 -219 94 -196 223c25 140 137 204 271 204h400l-23 -131h-225c11 -27 15 -61 8 -103c-22 -126 -128 -193 -235 -193zM247 202c48 0 89 34 97 81c8 48 -20 82 -68 82c-50 0 -91 -34 -100 -82s20 -81 71 -81zM224 -89l449 404l-27 -159l-251 -245h-171z
M25 609l23 131h701l-24 -131h-700z" />
    <glyph glyph-name="dvP_R" horiz-adv-x="353" 
d="M25 609l23 131h586l-23 -131h-344l-34 -191c-13 -74 12 -126 89 -126c71 0 113 54 124 117h129c-13 -79 -44 -146 -98 -191l-237 -244h-169l199 187c-147 14 -217 129 -192 268l32 180h-85z" />
    <glyph glyph-name="dvPH_R" horiz-adv-x="700" 
d="M313 292c66 0 106 51 115 112v0l36 205h-197l-35 -199c-13 -69 10 -118 81 -118zM25 609l23 131h951l-23 -131h-355l-26 -148c38 43 95 70 165 70c126 0 184 -99 162 -233h-161c10 56 -18 99 -75 99c-67 0 -108 -51 -123 -118l-49 -279h-157l39 220c-3 -3 -5 -5 -8 -7
l-225 -239h-169l205 200c-102 24 -147 117 -124 236l35 199h-85z" />
    <glyph glyph-name="dvB_R" horiz-adv-x="389" 
d="M25 609l23 131h601l-23 -131h-601zM281 -62h-157l132 120c-151 6 -235 110 -215 246c20 135 132 239 300 239c173 0 247 -116 228 -238c-11 -69 -44 -133 -97 -178zM333 436c-33 0 -65 -10 -93 -29l185 -162c10 17 18 36 21 55c13 72 -27 136 -113 136zM286 166
c35 0 65 11 90 28l-185 162c-10 -17 -17 -36 -21 -56c-14 -83 41 -134 116 -134z" />
    <glyph glyph-name="dvBH_R" horiz-adv-x="540" 
d="M243 212c51 0 80 35 90 88l8 45h-64c-47 0 -86 -24 -94 -66c-8 -41 19 -67 60 -67zM224 83c-130 0 -206 77 -186 195c23 131 136 193 260 193h65l12 69c8 45 -4 76 -46 76c-36 0 -60 -26 -68 -64c-2 -10 -2 -19 -2 -30h-152c0 12 1 26 3 38c17 108 101 189 238 189
c153 0 187 -105 163 -238l-7 -40h206l-22 -126h-206l-6 -37c-24 -134 -114 -225 -252 -225zM190 -89l491 394l-25 -143l-295 -251h-171z" />
    <glyph glyph-name="dvM_R" horiz-adv-x="533" 
d="M235 214c51 0 81 37 90 89l9 50h-65c-47 0 -85 -26 -94 -70c-7 -42 18 -69 60 -69zM167 -89l518 415l-26 -142l-320 -273h-172zM32 609l23 131h705l-23 -131h-216l-23 -130h213l-22 -126h-214l-7 -42c-23 -135 -114 -225 -253 -225c-129 0 -205 78 -184 196
c23 134 136 197 259 197h66l24 130h-348z" />
    <glyph glyph-name="dvY_R" horiz-adv-x="430" 
d="M25 609l24 131h679l-23 -131h-291l-13 -74c-17 -103 -75 -178 -195 -191c-11 -84 46 -131 133 -131c95 0 162 60 176 139h144c-13 -87 -58 -163 -130 -213l-261 -202h-191l1 9l193 138c-154 19 -247 119 -217 280c3 20 9 40 15 60h10c113 0 158 53 173 140l8 45h-235z
" />
    <glyph glyph-name="dvL_R" horiz-adv-x="912" 
d="M576 -446l-90 223h156l94 -223h-160zM842 274c-26 -147 -135 -248 -302 -244c-8 0 -25 1 -35 2l25 136c6 -1 17 -2 26 -2c64 0 115 43 127 115c11 61 -13 105 -70 105c-65 0 -100 -55 -112 -118l-4 -24h-130l4 24c12 62 -3 118 -68 118c-60 0 -98 -43 -109 -105
c-13 -70 19 -115 90 -115c8 0 16 1 24 2l-24 -137c-14 -1 -22 -1 -30 -1c-170 0 -245 114 -218 260c28 164 145 234 264 234c96 0 143 -54 158 -114h3c29 51 77 94 146 108l16 91h-600l23 131h948l-24 -131h-193l-19 -109c65 -36 104 -113 84 -226zM319 -194l177 179h210
l114 -179h-151l-70 119l-113 -119h-167z" />
    <glyph glyph-name="dvV_R" horiz-adv-x="359" 
d="M25 609l23 131h603l-23 -131h-603zM289 186c74 0 124 55 134 113c11 59 -21 112 -95 112c-68 0 -126 -46 -137 -112c-11 -68 29 -113 98 -113zM289 -62h-165l137 124c-162 4 -246 112 -221 247c23 133 130 226 298 226c181 0 254 -125 232 -247
c-10 -60 -39 -116 -88 -157z" />
    <glyph glyph-name="dvSH_R" horiz-adv-x="522" 
d="M329 439l7 -4c41 27 79 59 87 107c7 40 -15 77 -64 77c-46 0 -81 -34 -87 -73c-8 -49 17 -84 57 -107zM536 173l-224 -184h-184l2 14l298 230l-103 57l-160 -110h-179l3 18l230 157c-69 54 -106 120 -91 206c20 114 117 188 251 188c131 0 203 -87 189 -191
c-9 -73 -45 -123 -123 -183l116 -63z" />
    <glyph glyph-name="dvSS_R" horiz-adv-x="383" 
d="M321 280c61 0 100 31 121 69l-199 153l-16 -89c-14 -81 18 -133 94 -133zM25 609l23 131h605l-22 -131h-368l324 -244c-10 -48 -33 -97 -72 -137v0l-5 -5c-2 -2 -4 -3 -6 -5l-263 -244h-168l202 175c-151 12 -225 123 -199 269l34 191h-85z" />
    <glyph glyph-name="dvS_R" horiz-adv-x="511" 
d="M320 -64l317 316l-29 -166l-138 -150h-150zM26 609l22 131h675l-23 -131h-222l-11 -66c-7 -44 -23 -83 -45 -115h246l-21 -120h-447l-18 -107c-7 -43 7 -76 48 -76c44 0 61 37 69 81h134c-12 -125 -89 -215 -218 -215c-138 0 -202 95 -181 218l36 203h75
c108 0 152 54 165 131l12 66h-296z" />
    <glyph glyph-name="dvH_R" horiz-adv-x="585" 
d="M223 -421l-90 223h156l94 -223h-160zM493 38c-27 -108 -122 -181 -257 -181c-151 0 -243 106 -215 253c15 85 62 148 126 186c-39 25 -57 65 -48 116c14 77 83 127 184 127h79l13 70h-341l24 131h619l-24 -131h-128l-12 -70l-20 -111h-174c-33 0 -62 -13 -70 -48
c-4 -19 4 -35 21 -43c13 1 27 2 41 2c120 0 200 -66 199 -156l-97 -93h-140l99 93c-10 18 -33 38 -76 38c-66 0 -115 -51 -129 -124c-13 -72 24 -117 86 -117c50 0 87 29 102 58h138z" />
    <glyph glyph-name="dvLL_R" horiz-adv-x="957" 
d="M224 53c-126 0 -216 89 -191 232c26 143 141 233 268 233c80 0 147 -33 179 -114h4c57 81 133 114 213 114c127 0 217 -90 192 -233c-16 -92 -69 -161 -139 -199l101 -158h-151l-70 119l-113 -119h-167l155 157c-29 20 -51 48 -62 84h-5c-46 -74 -126 -116 -214 -116z
M269 187c57 0 105 39 115 98c10 58 -23 100 -80 100c-59 0 -107 -41 -117 -101c-11 -59 24 -97 82 -97zM618 187c58 0 107 38 117 97c10 60 -23 101 -81 101c-59 0 -106 -42 -116 -100c-11 -59 23 -98 80 -98zM21 609l23 131h995l-24 -131h-994z" />
    <glyph glyph-name="dvKx_R" horiz-adv-x="777" 
d="M425 0l26 147c-4 -4 -7 -8 -11 -11h1l-187 -182h-169l143 131c-86 23 -132 105 -113 213c25 138 120 233 253 233c71 0 116 -28 138 -70l26 148h-504l23 131h1003l-24 -131h-348l-25 -146c34 41 85 68 150 68c126 0 191 -105 167 -233h-158c9 54 -19 99 -76 99
c-65 0 -103 -50 -114 -111v0l-50 -286h-151zM358 196c65 0 109 50 119 100v0v3v-1c8 51 -17 100 -83 100c-58 0 -108 -40 -119 -101s23 -101 83 -101zM10 -17c-45 0 -73 34 -65 77c7 45 48 81 92 81c45 0 73 -36 66 -81c-7 -43 -49 -77 -93 -77z" />
    <glyph glyph-name="dvKHx_R" horiz-adv-x="670" 
d="M1 -148c-45 0 -73 34 -65 77c7 45 48 81 92 81c45 0 73 -36 66 -81c-7 -43 -49 -77 -93 -77zM618 227c55 0 95 34 105 89c9 53 -19 88 -74 88c-54 0 -96 -35 -105 -88c-10 -55 20 -89 74 -89zM25 609l24 131h886l-23 -131h-486l-17 -98c-24 -134 -103 -205 -200 -217
l-7 -37c-13 -73 23 -128 107 -128c59 0 96 24 120 53c-24 34 -34 79 -24 134c23 128 133 205 265 205s212 -77 190 -205c-23 -133 -136 -207 -263 -207c-20 0 -40 2 -58 6c-23 -32 -52 -61 -89 -82l-166 -168h-168l1 8l129 124c-148 20 -224 124 -196 279l22 127h25
c90 0 142 38 158 130l13 76h-243z" />
    <glyph glyph-name="dvGx_R" horiz-adv-x="546" 
d="M129 -20l482 394l-27 -161l-274 -233h-181zM25 609l24 131h627l-23 -131h-161l-26 -157c-21 -121 -94 -214 -238 -214c-127 0 -203 74 -179 207c2 11 4 20 7 31h152l-6 -32c-8 -39 0 -72 40 -72c43 0 59 39 65 73l29 164h-311zM44 16c-45 0 -73 34 -65 77
c7 45 48 81 92 81c45 0 73 -36 66 -81c-7 -43 -49 -77 -93 -77z" />
    <glyph glyph-name="dvJx_R" horiz-adv-x="553" 
d="M27 609l22 131h722l-22 -131h-722zM375 -49h-172l469 415h-174c-30 -117 -114 -197 -243 -197c-152 0 -224 93 -199 225l18 99h158l-18 -95c-10 -57 10 -91 56 -91s78 34 88 91l17 95h353l-22 -127v0l-22 -123zM75 -42c-45 0 -73 34 -65 77c7 45 48 81 92 81
c45 0 73 -36 66 -81c-7 -43 -49 -77 -93 -77z" />
    <glyph glyph-name="dvPHx_R" horiz-adv-x="776" 
d="M389 292c66 0 105 51 115 112v0l36 205h-197l-35 -199c-13 -69 10 -118 81 -118zM17 609l23 131h1035l-24 -131h-354l-25 -147c37 42 93 69 163 69c127 0 185 -99 163 -233h-161c9 56 -18 99 -75 99c-66 0 -108 -50 -122 -115l-50 -282h-157l39 220c-2 -2 -4 -3 -6 -5
l-227 -241h-169l205 200c-103 24 -148 117 -124 236l35 199h-169zM27 49c-45 0 -73 34 -65 77c7 45 48 81 92 81c45 0 73 -36 66 -81c-7 -43 -49 -77 -93 -77z" />
    <glyph glyph-name="dvK_KA" horiz-adv-x="1660" 
d="M284 196c66 1 108 50 117 96v0l1 4l-1 -1c10 53 -16 103 -82 103c-58 0 -109 -40 -119 -101c-11 -61 26 -101 84 -101zM1153 609h-546l-25 -145c34 41 84 67 148 67c49 0 89 -16 117 -43c40 28 88 43 142 43c71 0 116 -28 138 -70zM1046 0l24 135
c-37 -43 -92 -71 -161 -71c-120 0 -197 99 -173 234v0c9 54 -16 99 -74 99c-65 0 -100 -50 -111 -111v0l-50 -286h-151l24 135c-37 -43 -92 -71 -161 -71c-120 0 -197 99 -172 238c24 138 120 229 252 229c71 0 116 -28 138 -70l26 148h-432l23 131h1695l-23 -131h-417
l-25 -146c34 41 85 68 150 68c126 0 191 -105 167 -236c-27 -145 -127 -221 -246 -221c-23 0 -43 2 -66 8l22 123c6 -2 16 -3 25 -3c51 0 96 35 107 96c9 54 -19 99 -76 99c-65 0 -103 -50 -114 -111v0l-50 -286h-151zM980 196c66 1 108 50 117 96v0l1 4l-1 -1
c10 53 -16 103 -82 103c-58 0 -109 -40 -119 -101c-11 -61 26 -101 84 -101z" />
    <glyph glyph-name="dvKx_KxA" horiz-adv-x="1661" 
d="M284 196c66 1 108 50 117 96v0l1 4l-1 -1c10 53 -16 103 -82 103c-58 0 -108 -40 -119 -101s26 -101 84 -101zM141 -175c-51 0 -84 39 -75 89c9 52 56 93 107 93s84 -41 76 -93c-9 -50 -57 -89 -108 -89zM837 -175c-51 0 -84 39 -75 89c9 52 56 93 107 93s84 -41 76 -93
c-9 -50 -57 -89 -108 -89zM1153 609h-546l-25 -146c34 41 85 68 149 68c49 0 88 -16 116 -43c40 28 88 43 142 43c71 0 116 -28 138 -70zM1046 0l24 135c-37 -43 -92 -71 -161 -71c-120 0 -197 99 -173 234v0c10 54 -17 99 -72 99c-66 0 -102 -50 -113 -111v0l-50 -286h-151
l24 135c-37 -43 -92 -71 -161 -71c-120 0 -196 99 -172 238c24 138 120 229 252 229c71 0 116 -28 138 -70l26 148h-432l23 131h1695l-23 -131h-417l-25 -146c34 41 85 68 150 68c126 0 191 -105 167 -236c-27 -145 -127 -221 -246 -221c-23 0 -43 2 -66 8l22 123
c6 -2 16 -3 25 -3c51 0 96 35 107 96c9 54 -19 99 -76 99c-65 0 -103 -50 -114 -111v0l-50 -286h-151zM980 196c66 1 108 50 117 96v0l1 4l-1 -1c10 53 -16 103 -82 103c-58 0 -109 -40 -119 -101c-11 -61 26 -101 84 -101z" />
    <glyph glyph-name="dvK_KHA" horiz-adv-x="1643" 
d="M730 523c80 0 127 -38 146 -96c32 20 52 55 61 106l13 76h-343l-26 -152c34 40 84 66 149 66zM284 196c66 1 108 50 117 96v0l1 4l-1 -1c10 53 -16 103 -82 103c-58 0 -109 -40 -119 -101c-11 -61 26 -101 84 -101zM1341 0l28 158c-30 -28 -72 -47 -127 -47
c-11 0 -21 1 -30 3c-57 -69 -143 -121 -249 -121c-172 0 -264 102 -231 283l5 28c6 51 -19 93 -75 93c-65 0 -100 -50 -111 -111v0l-50 -286h-151l24 135c-37 -43 -92 -71 -161 -71c-120 0 -197 99 -172 238c24 138 120 229 252 229c71 0 116 -28 138 -70l26 148h-432
l23 131h1677l-24 -131h-97l-107 -609h-156zM1297 231c55 0 91 41 99 87c8 41 -11 86 -69 86c-48 0 -91 -31 -101 -85c-9 -58 25 -88 71 -88zM991 129c60 0 98 26 122 56c-22 39 -30 91 -20 149c20 118 113 193 220 189c55 -2 90 -20 111 -49l23 135h-339l-17 -98
c-24 -134 -103 -205 -200 -217l-7 -37c-13 -73 23 -128 107 -128z" />
    <glyph glyph-name="dvK_CA" horiz-adv-x="1335" 
d="M942 213c79 1 134 60 153 147l44 249h-532l-27 -157c36 40 92 63 163 64h284l-22 -123h-42c-54 0 -100 -35 -111 -91c-11 -58 31 -90 90 -89zM284 196c66 1 108 50 117 96v0l1 4l-1 -1c10 53 -16 103 -82 103c-58 0 -109 -40 -119 -101c-11 -61 26 -101 84 -101zM550 280
v1l-49 -281h-151l24 135c-37 -43 -92 -71 -161 -71c-120 0 -197 99 -172 238c24 138 120 229 252 229c71 0 116 -28 138 -70l26 148h-432l23 131h1369l-24 -131h-97l-108 -609h-157l28 160c-47 -50 -114 -77 -188 -77c-115 0 -193 71 -171 190c8 49 33 91 70 120h-97
c-71 0 -113 -49 -123 -113z" />
    <glyph glyph-name="dvK_JA" horiz-adv-x="1553" 
d="M284 196c66 1 108 50 117 96v0l1 4l-1 -1c10 53 -16 103 -82 103c-58 0 -109 -40 -119 -101c-11 -61 26 -101 84 -101zM951 237c46 0 77 35 88 91l28 160h268l21 121h-749l-26 -148c36 43 88 70 154 70c130 0 179 -98 162 -193l-2 -10c-9 -56 10 -91 56 -91zM552 289v1
l-51 -290h-151l24 135c-37 -43 -92 -71 -161 -71c-120 0 -197 99 -172 238c24 138 120 229 252 229c71 0 116 -28 138 -70l26 148h-432l23 131h1587l-24 -131h-97l-107 -609h-157l62 354h-116l-5 -30c-23 -131 -124 -225 -264 -224c-150 0 -211 93 -193 197l2 11
c6 50 -16 89 -73 89c-65 0 -101 -50 -111 -108z" />
    <glyph glyph-name="dvK_TTA" horiz-adv-x="1340" 
d="M607 609l-25 -145c34 41 84 67 147 67c58 0 101 -20 128 -53c54 35 122 54 201 55l14 76h-465zM284 196c66 1 108 50 117 96v0l1 4l-1 -1c10 53 -16 103 -82 103c-58 0 -109 -40 -119 -101c-11 -61 26 -101 84 -101zM551 286l-50 -286h-151l24 135
c-37 -43 -92 -71 -161 -71c-120 0 -197 99 -172 238c24 138 120 229 252 229c71 0 116 -28 138 -70l26 148h-432l23 131h1375l-24 -131h-173l-36 -208h-137c-79 0 -150 -42 -165 -126c-13 -70 29 -119 107 -119c79 0 138 52 151 127h149c-27 -159 -147 -263 -317 -263
c-167 0 -274 104 -248 261c2 9 3 17 5 26c6 51 -21 90 -73 90c-64 0 -100 -50 -111 -111z" />
    <glyph glyph-name="dvK_NNA" horiz-adv-x="1554" 
d="M607 609l-27 -155c34 38 84 63 149 63c13 0 24 -1 35 -3l17 95h-174zM284 196c66 1 108 50 117 96v0l1 4l-1 -1c10 53 -16 103 -82 103c-58 0 -109 -40 -119 -101c-11 -61 26 -101 84 -101zM944 277c43 0 72 30 80 74l45 258h-134l-45 -258c-9 -44 13 -74 54 -74z
M552 289v1l-51 -290h-151l24 135c-37 -43 -92 -71 -161 -71c-120 0 -197 99 -172 238c24 138 120 229 252 229c71 0 116 -28 138 -70l26 148h-432l23 131h1588l-23 -131h-98l-108 -609h-157l107 609h-133l-44 -244c-21 -125 -101 -220 -245 -220c-128 0 -207 74 -201 187
c-5 38 -28 65 -72 65c-64 0 -100 -51 -110 -108z" />
    <glyph glyph-name="dvK_TA" horiz-adv-x="1088" 
d="M25 609l23 131h1122l-23 -131h-426l-33 -184c36 42 89 69 156 69c128 0 194 -106 170 -237c-27 -148 -127 -226 -251 -226c-26 0 -46 2 -69 9l22 122c6 -2 16 -3 28 -3c55 0 102 38 112 102c9 53 -20 99 -79 99c-68 0 -108 -50 -119 -112v1l-44 -249h-151l62 352h-109
c-81 0 -141 -40 -154 -114c-13 -68 22 -113 106 -113h18l-22 -124h-43c-142 0 -244 79 -219 223c10 55 34 98 65 130h-130l24 132h487l22 123h-545z" />
    <glyph glyph-name="dvKx_TA" horiz-adv-x="1391" 
d="M728 522c63 0 109 -25 132 -69c53 27 116 39 182 39h132l20 117h-587l-26 -150c34 39 84 63 147 63zM284 196c66 1 108 50 117 96v0l1 4l-1 -1c10 53 -16 103 -82 103c-58 0 -109 -40 -119 -101c-11 -61 26 -101 84 -101zM141 -175c-51 0 -84 39 -75 89
c9 52 56 93 107 93s84 -41 76 -93c-9 -50 -57 -89 -108 -89zM552 289v1l-51 -290h-151l24 135c-37 -43 -92 -71 -161 -71c-120 0 -197 99 -172 238c24 138 120 229 252 229c71 0 116 -28 138 -70l26 148h-432l23 131h1425l-23 -131h-99l-106 -609h-157l62 357h-124
c-80 0 -141 -40 -154 -115c-13 -71 21 -117 105 -117h18l-21 -124h-28c-137 0 -260 77 -232 248c2 14 5 27 9 39c12 71 -18 107 -66 107c-60 0 -95 -48 -105 -106z" />
    <glyph glyph-name="dvK_T_YA" horiz-adv-x="1814" 
d="M1020 500c88 0 146 -28 181 -68c66 17 95 64 107 132l8 45h-709l-26 -150c34 40 84 64 147 64c61 0 105 -22 129 -59c48 25 104 36 163 36zM284 196c66 1 108 50 117 96v0l1 4l-1 -1c10 53 -16 103 -82 103c-58 0 -109 -40 -119 -101c-11 -61 26 -101 84 -101zM1391 213
c99 0 169 68 185 161v0l42 235h-147l-13 -74c-17 -103 -76 -177 -195 -191c-12 -76 34 -131 128 -131zM552 289v1l-51 -290h-151l24 135c-37 -43 -92 -71 -161 -71c-120 0 -197 99 -172 238c24 138 120 229 252 229c71 0 116 -28 138 -70l26 148h-432l23 131h1848l-24 -131
h-97l-107 -609h-158l27 154c-46 -43 -112 -72 -193 -72c-149 0 -239 88 -239 223c-10 31 -31 60 -96 60c-70 0 -124 -40 -137 -115c-13 -71 21 -117 105 -117h18l-21 -123h-40c-142 0 -250 82 -220 249c3 15 6 30 10 43c9 59 -17 94 -66 94c-58 0 -96 -49 -106 -107z" />
    <glyph glyph-name="dvK_T_RA" horiz-adv-x="1405" 
d="M1185 452l28 157h-606l-26 -147c35 42 87 69 151 69c54 0 96 -23 121 -65c48 33 107 52 175 52c76 0 127 -30 157 -66zM284 196c66 1 108 50 117 96v0l1 4l-1 -1c10 53 -16 103 -82 103c-58 0 -109 -40 -119 -101c-11 -61 26 -101 84 -101zM552 290v1l-51 -291h-151
l24 135c-37 -43 -92 -71 -161 -71c-120 0 -197 99 -172 238c24 138 120 229 252 229c71 0 116 -28 138 -70l26 148h-432l23 131h1439l-23 -131h-97l-107 -609h-152l31 181l-216 -180h-206l1 6l437 333c-20 32 -59 54 -109 54c-76 0 -143 -45 -158 -131h-157v1v0
c14 87 -15 133 -71 133c-61 0 -98 -49 -108 -107z" />
    <glyph glyph-name="dvK_T_VA" horiz-adv-x="1733" 
d="M732 523c62 0 108 -27 131 -68c52 25 114 37 179 37h176c40 28 90 43 147 43c71 0 121 -27 151 -69l25 143h-934l-26 -150c35 40 86 64 151 64zM284 196c66 1 108 50 117 96v0l1 4l-1 -1c10 53 -16 103 -82 103c-58 0 -109 -40 -119 -101c-11 -61 26 -101 84 -101z
M1355 187c73 0 121 56 131 111c11 59 -19 111 -93 111c-66 0 -121 -45 -133 -110c-11 -66 27 -112 95 -112zM1791 609h-97l-107 -609h-153l23 132c-40 -45 -97 -70 -162 -70c-136 0 -213 99 -184 253c3 15 6 29 10 42h-95c-80 0 -141 -40 -154 -115
c-13 -71 21 -117 105 -117h18l-21 -124h-28c-137 0 -260 77 -232 248c3 20 8 38 14 55c8 56 -22 92 -66 92c-63 0 -100 -49 -110 -107v1l-51 -290h-151l24 135c-37 -43 -92 -71 -161 -71c-120 0 -197 99 -172 238c24 138 120 229 252 229c71 0 116 -28 138 -70l26 148h-432
l23 131h1767z" />
    <glyph glyph-name="dvK_THA" horiz-adv-x="1480" 
d="M284 196c66 1 108 50 117 96v0l1 4l-1 -1c10 53 -16 103 -82 103c-58 0 -109 -40 -119 -101c-11 -61 26 -101 84 -101zM736 523c71 0 116 -32 136 -83c91 4 163 30 178 109c6 37 -12 66 -50 66c-11 0 -20 -2 -28 -6h-11v0h-354l-27 -154c36 41 89 68 156 68zM1176 0
l34 190c-40 -56 -123 -108 -233 -108c-156 0 -252 92 -242 245c-5 43 -31 70 -73 70c-65 0 -101 -52 -111 -111v0l-50 -286h-151l24 135c-37 -43 -92 -71 -161 -71c-120 0 -197 99 -172 238c24 138 120 229 252 229c71 0 116 -28 138 -70l26 148h-432l23 131h911
c21 6 43 9 67 9c122 0 192 -80 170 -204c-23 -130 -128 -218 -307 -218h-3c-4 -60 34 -114 137 -114s203 69 227 206l56 321h256l-22 -131h-99l-107 -609h-158z" />
    <glyph glyph-name="dvK_DA" horiz-adv-x="1306" 
d="M607 609l-25 -146c34 41 85 68 148 68c52 0 93 -19 121 -52c53 34 119 50 191 50h37l14 80h-486zM284 196c66 1 108 50 117 96v0l1 4l-1 -1c10 53 -16 103 -82 103c-58 0 -109 -40 -119 -101c-11 -61 26 -101 84 -101zM1171 -33h-154l26 148c-33 -32 -81 -50 -137 -50
c-110 0 -199 82 -172 235c0 2 1 4 1 7c6 50 -20 90 -72 90c-63 0 -101 -52 -112 -111v1l-50 -287h-151l24 135c-37 -43 -92 -71 -161 -71c-120 0 -197 99 -172 238c24 138 120 229 252 229c71 0 116 -28 138 -70l26 148h-432l23 131h1339l-24 -131h-112l-38 -214h-179
c-72 0 -129 -38 -140 -106c-11 -60 21 -100 80 -100c49 0 96 33 106 92h146z" />
    <glyph glyph-name="dvK_NA" horiz-adv-x="1520" 
d="M607 609l-26 -149c36 43 88 71 154 71c65 0 106 -23 127 -64c42 20 90 29 141 29h302l20 113h-718zM284 196c66 1 108 50 117 96v0l1 4l-1 -1c10 53 -16 103 -82 103c-58 0 -109 -40 -119 -101c-11 -61 26 -101 84 -101zM945 202c48 0 88 34 97 81c8 48 -20 82 -68 82
c-50 0 -92 -34 -100 -82c-9 -48 20 -81 71 -81zM552 290v1l-51 -291h-151l24 135c-37 -43 -92 -71 -161 -71c-120 0 -197 99 -172 238c24 138 120 229 252 229c71 0 116 -28 138 -70l26 148h-432l23 131h1555l-23 -131h-98l-107 -609h-158l64 365h-126c11 -27 15 -61 8 -103
c-21 -126 -128 -193 -235 -193c-131 0 -219 94 -196 223c0 2 1 4 1 6v0c9 56 -15 99 -70 99c-63 0 -101 -51 -111 -107z" />
    <glyph glyph-name="dvK_PA" horiz-adv-x="1333" 
d="M607 609l-26 -151c34 40 85 65 150 65c7 0 13 0 20 -1l15 87h-159zM284 196c66 1 108 50 117 96v0l1 4l-1 -1c10 53 -16 103 -82 103c-58 0 -109 -40 -119 -101c-11 -61 26 -101 84 -101zM979 292c66 0 108 46 122 108l36 209h-214l-34 -191c-13 -74 14 -126 90 -126z
M552 289v1l-51 -290h-151l24 135c-37 -43 -92 -71 -161 -71c-120 0 -197 99 -172 238c24 138 120 229 252 229c71 0 116 -28 138 -70l26 148h-432l23 131h1367l-23 -131h-98l-107 -609h-157l38 214c-37 -34 -85 -54 -147 -54c-121 0 -190 74 -195 184c-6 32 -29 53 -66 53
c-60 0 -98 -51 -108 -108z" />
    <glyph glyph-name="dvK_P_RA" horiz-adv-x="1333" 
d="M607 609l-26 -151c34 40 85 65 150 65c7 0 14 0 20 -1l15 87h-159zM284 196c66 1 108 50 117 96v0l1 4l-1 -1c10 53 -16 103 -82 103c-58 0 -109 -40 -119 -101c-11 -61 26 -101 84 -101zM974 292c67 0 113 48 127 107l37 210h-215l-33 -191c-13 -74 12 -126 84 -126z
M1030 0l39 223c-1 -2 -3 -4 -5 -5l-240 -244h-169l209 197c-84 16 -129 76 -136 160v0c-3 39 -26 66 -68 66c-60 0 -98 -51 -108 -108v1l-51 -290h-151l24 135c-37 -43 -92 -71 -161 -71c-120 0 -197 99 -172 238c24 138 120 229 252 229c71 0 116 -28 138 -70l26 148h-432
l23 131h1367l-22 -131h-98l-108 -609h-157z" />
    <glyph glyph-name="dvK_PHA" horiz-adv-x="1650" 
d="M607 609l-26 -151c34 40 86 65 151 65c10 0 19 -1 28 -2l15 88h-168zM284 196c66 1 108 50 117 96v0l1 4l-1 -1c10 53 -16 103 -82 103c-58 0 -109 -40 -119 -101c-11 -61 26 -101 84 -101zM978 292c66 0 106 51 115 112v0l36 205h-197l-35 -199c-13 -69 10 -118 81 -118
zM551 286l-50 -286h-151l24 135c-37 -43 -92 -71 -161 -71c-120 0 -197 99 -172 238c24 138 120 229 252 229c71 0 116 -28 138 -70l26 148h-432l23 131h1684l-24 -131h-422l-26 -148c38 43 95 70 165 70c126 0 184 -99 162 -225c-26 -147 -127 -232 -247 -232
c-25 0 -50 3 -72 10l21 121c10 -3 21 -4 31 -4c55 0 96 39 106 97c10 56 -18 99 -75 99c-67 0 -108 -51 -123 -118l-49 -279h-157l37 212c-35 -33 -81 -52 -139 -52c-118 0 -183 74 -186 183c-7 32 -31 54 -73 54c-62 0 -100 -52 -110 -111z" />
    <glyph glyph-name="dvKx_PHA" horiz-adv-x="1650" 
d="M607 609l-26 -151c34 40 86 65 151 65c10 0 19 -1 28 -2l15 88h-168zM284 196c66 1 108 50 117 96v0l1 4l-1 -1c10 53 -16 103 -82 103c-58 0 -109 -40 -119 -101c-11 -61 26 -101 84 -101zM978 292c66 0 106 51 115 112v0l36 205h-197l-35 -199c-13 -69 10 -118 81 -118
zM551 286l-50 -286h-151l24 135c-37 -43 -92 -71 -161 -71c-120 0 -197 99 -172 238c24 138 120 229 252 229c71 0 116 -28 138 -70l26 148h-432l23 131h1684l-24 -131h-422l-26 -148c38 43 95 70 165 70c126 0 184 -99 162 -225c-26 -147 -127 -232 -247 -232
c-25 0 -50 3 -72 10l21 121c10 -3 21 -4 31 -4c55 0 96 39 106 97c10 56 -18 99 -75 99c-67 0 -108 -51 -123 -118l-49 -279h-157l37 212c-35 -33 -81 -52 -139 -52c-118 0 -183 74 -186 183c-7 32 -31 54 -73 54c-62 0 -100 -52 -110 -111zM141 -175c-51 0 -84 39 -75 89
c9 52 56 93 107 93s84 -41 76 -93c-9 -50 -57 -89 -108 -89z" />
    <glyph glyph-name="dvKx_PHxA" horiz-adv-x="1650" 
d="M141 -175c-51 0 -84 39 -75 89c9 52 56 93 107 93s84 -41 76 -93c-9 -50 -57 -89 -108 -89zM815 -74c-51 0 -84 39 -75 89c9 52 56 93 107 93s84 -41 76 -93c-9 -50 -57 -89 -108 -89zM607 609l-26 -151c34 40 86 65 151 65c10 0 19 -1 28 -2l15 88h-168zM284 196
c66 1 108 50 117 96v0l1 4l-1 -1c10 53 -16 103 -82 103c-58 0 -109 -40 -119 -101c-11 -61 26 -101 84 -101zM978 292c66 0 106 51 115 112v0l36 205h-197l-35 -199c-13 -69 10 -118 81 -118zM551 286l-50 -286h-151l24 135c-37 -43 -92 -71 -161 -71
c-120 0 -197 99 -172 238c24 138 120 229 252 229c71 0 116 -28 138 -70l26 148h-432l23 131h1684l-24 -131h-422l-26 -148c38 43 95 70 165 70c126 0 184 -99 162 -225c-26 -147 -127 -232 -247 -232c-25 0 -50 3 -72 10l21 121c10 -3 21 -4 31 -4c55 0 96 39 106 97
c10 56 -18 99 -75 99c-67 0 -108 -51 -123 -118l-49 -279h-157l37 212c-35 -33 -81 -52 -139 -52c-118 0 -183 74 -186 183c-7 32 -31 54 -73 54c-62 0 -100 -52 -110 -111z" />
    <glyph glyph-name="dvKx_BA" horiz-adv-x="1382" 
d="M607 609l-26 -148c36 43 88 70 154 70c49 0 84 -17 107 -46c48 36 110 56 178 56c69 0 119 -24 150 -61l23 129h-586zM284 196c66 1 108 50 117 96v0l1 4l-1 -1c10 53 -16 103 -82 103c-58 0 -109 -40 -119 -101c-11 -61 26 -101 84 -101zM141 -175c-51 0 -84 39 -75 89
c9 52 56 93 107 93s84 -41 76 -93c-9 -50 -57 -89 -108 -89zM1086 0l23 127c-40 -42 -101 -68 -172 -68c-135 0 -218 101 -201 239h-1c9 57 -15 99 -73 99c-62 0 -101 -51 -111 -112v1l-50 -286h-151l24 135c-37 -43 -92 -71 -161 -71c-120 0 -197 99 -172 238
c24 138 120 229 252 229c71 0 116 -28 138 -70l26 148h-432l23 131h1417l-23 -131h-98l-107 -609h-151zM1036 440c-33 0 -66 -10 -92 -28l184 -162c10 17 17 36 21 55c12 72 -28 135 -113 135zM989 171c36 0 66 10 91 28l-185 161c-10 -16 -18 -35 -21 -56
c-16 -83 40 -133 115 -133z" />
    <glyph glyph-name="dvK_MA" horiz-adv-x="1545" 
d="M734 523c71 0 115 -30 136 -79c35 13 74 20 114 20h63l26 145h-466l-27 -153c36 41 88 67 154 67zM284 196c66 1 108 50 117 96v0l1 4l-1 -1c10 53 -16 103 -82 103c-58 0 -109 -40 -119 -101c-11 -61 26 -101 84 -101zM929 194c48 0 76 35 86 87l10 55h-59
c-49 0 -88 -25 -96 -72c-9 -45 21 -70 59 -70zM1323 464l25 145h-128l-26 -145h129zM552 289v1l-51 -290h-151l24 135c-37 -43 -92 -71 -161 -71c-120 0 -197 99 -172 238c24 138 120 229 252 229c71 0 116 -28 138 -70l26 148h-432l23 131h1579l-23 -131h-98l-107 -609
h-158l59 336h-129l-8 -47c-25 -141 -114 -228 -255 -228c-132 0 -206 82 -184 203c3 16 6 30 11 44c6 51 -19 89 -73 89c-62 0 -100 -51 -110 -108z" />
    <glyph glyph-name="dvKx_MA" horiz-adv-x="1545" 
d="M734 523c71 0 115 -30 136 -79c35 13 74 20 114 20h63l26 145h-466l-27 -153c36 41 88 67 154 67zM284 196c66 1 108 50 117 96v0l1 4l-1 -1c10 53 -16 103 -82 103c-58 0 -109 -40 -119 -101c-11 -61 26 -101 84 -101zM929 194c48 0 76 35 86 87l10 55h-59
c-49 0 -88 -25 -96 -72c-9 -45 21 -70 59 -70zM1323 464l25 145h-128l-26 -145h129zM552 289v1l-51 -290h-151l24 135c-37 -43 -92 -71 -161 -71c-120 0 -197 99 -172 238c24 138 120 229 252 229c71 0 116 -28 138 -70l26 148h-432l23 131h1579l-23 -131h-98l-107 -609
h-158l59 336h-129l-8 -47c-25 -141 -114 -228 -255 -228c-132 0 -206 82 -184 203c3 16 6 30 11 44c6 51 -19 89 -73 89c-62 0 -100 -51 -110 -108zM141 -175c-51 0 -84 39 -75 89c9 52 56 93 107 93s84 -41 76 -93c-9 -50 -57 -89 -108 -89z" />
    <glyph glyph-name="dvK_YA" horiz-adv-x="1442" 
d="M734 523c68 0 111 -31 132 -77c41 23 62 64 71 118l8 45h-338l-27 -153c35 40 88 67 154 67zM284 196c66 1 108 50 117 96v0l1 4l-1 -1c10 53 -16 103 -82 103c-58 0 -109 -40 -119 -101c-11 -61 26 -101 84 -101zM1020 213c99 0 169 68 185 161v0l42 235h-147l-13 -74
c-17 -103 -76 -177 -195 -191c-12 -76 34 -131 128 -131zM551 286l-50 -286h-151l24 135c-37 -43 -92 -71 -161 -71c-120 0 -197 99 -172 238c24 138 120 229 252 229c71 0 116 -28 138 -70l26 148h-432l23 131h1477l-24 -131h-97l-107 -609h-158l27 154
c-46 -43 -112 -72 -193 -72c-155 0 -247 95 -238 242c-1 35 -18 73 -73 73c-60 -1 -101 -50 -111 -111z" />
    <glyph glyph-name="dvK_LA" horiz-adv-x="1607" 
d="M1157 410c29 51 77 94 146 108l16 91h-712l-27 -153c36 41 88 67 154 67c47 0 83 -17 107 -46c46 32 100 47 155 47c96 0 143 -54 158 -114h3zM284 196c66 1 108 50 117 96v0l1 4l-1 -1c10 53 -16 103 -82 103c-58 0 -109 -40 -119 -101c-11 -61 26 -101 84 -101z
M551 286l-50 -286h-151l24 135c-37 -43 -92 -71 -161 -71c-120 0 -197 99 -172 238c24 138 120 229 252 229c71 0 116 -28 138 -70l26 148h-432l23 131h1642l-24 -131h-193l-19 -109c65 -36 104 -113 84 -226c-26 -147 -135 -248 -302 -244c-8 0 -25 1 -35 2l25 136
c6 -1 17 -2 26 -2c64 0 115 43 127 115c11 61 -13 105 -70 105c-65 0 -100 -55 -112 -118l-4 -24h-130l4 24c12 62 -3 118 -68 118c-60 0 -98 -43 -109 -105c-13 -70 19 -115 90 -115c8 0 16 1 24 2l-24 -137c-14 -1 -22 -1 -30 -1c-170 0 -245 114 -218 260c1 6 2 11 3 17
c6 51 -19 90 -72 90c-63 0 -102 -55 -112 -111z" />
    <glyph glyph-name="dvK_VA" horiz-adv-x="1359" 
d="M607 609l-27 -152c35 40 87 66 154 66c43 0 77 -14 101 -39c42 33 95 51 157 51c71 0 121 -27 151 -69l25 143h-561zM284 196c66 1 108 50 117 96v0l1 4l-1 -1c10 53 -16 103 -82 103c-58 0 -109 -40 -119 -101c-11 -61 26 -101 84 -101zM982 187c73 0 121 56 131 111
c11 59 -19 111 -93 111c-66 0 -121 -45 -133 -110c-11 -66 27 -112 95 -112zM1418 609h-97l-107 -609h-153l23 132c-40 -45 -97 -70 -162 -70c-132 0 -208 93 -186 239h-1c9 52 -16 96 -72 96c-65 0 -102 -55 -112 -111v0l-50 -286h-151l24 135c-37 -43 -92 -71 -161 -71
c-120 0 -197 99 -172 238c24 138 120 229 252 229c71 0 116 -28 138 -70l26 148h-432l23 131h1394z" />
    <glyph glyph-name="dvK_V_YA" horiz-adv-x="1823" 
d="M1033 535c99 0 160 -45 186 -108c59 19 86 65 97 129l10 53h-719l-27 -154c36 42 89 68 156 68c47 0 82 -17 106 -46c50 37 115 58 191 58zM284 196c66 1 108 50 117 96v0l1 4l-1 -1c10 53 -16 103 -82 103c-58 0 -109 -40 -119 -101c-11 -61 26 -101 84 -101zM981 187
c72 0 119 52 132 114c0 1 1 2 1 4c0 9 1 18 2 26c-4 43 -38 78 -95 78c-67 0 -122 -46 -134 -110c-11 -66 27 -112 94 -112zM1399 213c98 0 170 68 186 160v-1l42 237h-146l-15 -81c-17 -108 -77 -188 -196 -202c-7 -65 38 -113 129 -113zM551 286l-50 -286h-151l24 135
c-37 -43 -92 -71 -161 -71c-120 0 -197 99 -172 238c24 138 120 229 252 229c71 0 116 -28 138 -70l26 148h-432l23 131h1857l-23 -131h-97l-108 -609h-157l27 156c-47 -45 -114 -74 -196 -74c-83 0 -148 27 -188 73c-47 -55 -117 -93 -208 -93c-167 0 -245 103 -221 241
c1 4 2 9 3 13c3 45 -20 81 -72 81c-65 0 -104 -53 -114 -111z" />
    <glyph glyph-name="dvK_SHA" horiz-adv-x="1536" 
d="M284 196c66 1 108 50 117 96v0l1 4l-1 -1c10 53 -16 103 -82 103c-58 0 -109 -40 -119 -101c-11 -61 26 -101 84 -101zM734 523c73 0 119 -41 136 -104h25c87 0 177 27 193 116c8 46 -15 78 -56 78c-9 0 -17 -1 -25 -4h-28v0h-372l-27 -152c35 40 87 66 154 66zM928 -7
c-150 0 -233 91 -206 234l13 71h-1c10 56 -15 99 -72 99c-64 0 -101 -54 -111 -111v0l-50 -286h-151l24 135c-37 -43 -92 -71 -161 -71c-120 0 -197 99 -172 238c24 138 120 229 252 229c71 0 116 -28 138 -70l26 148h-432l23 131h929c22 6 47 9 72 9
c129 0 222 -82 197 -225c-30 -164 -164 -237 -316 -237h-39l-12 -70c-9 -48 4 -89 61 -89c50 0 79 37 90 97h152c-18 -143 -102 -232 -254 -232zM1230 0l131 740h257l-23 -131h-98l-107 -609h-160z" />
    <glyph glyph-name="dvK_SS_MA" horiz-adv-x="1412" 
d="M793 186c49 0 78 35 87 86l10 56h-59c-49 0 -88 -26 -96 -72c-9 -45 21 -70 58 -70zM1188 456l27 153h-130l-26 -153h129zM261 543c-8 -48 25 -84 89 -85c36 21 63 47 69 83c8 41 -18 75 -66 75c-43 0 -84 -28 -92 -73zM299 -63l26 150c-27 -28 -75 -55 -137 -55
c-108 0 -173 69 -154 172c18 101 95 151 176 189c-56 26 -100 82 -84 170c20 115 127 186 254 186c112 0 195 -63 174 -179c-8 -49 -32 -85 -64 -114h422l26 153h-287l24 131h819l-24 -131h-98l-107 -609h-158l58 328h-129l-8 -47c-25 -141 -114 -228 -255 -228
c-132 0 -206 82 -185 203c6 33 17 62 32 87h-302c-62 -26 -107 -51 -117 -104c-8 -44 18 -77 66 -77c56 0 93 44 100 88h131l-56 -313h-143z" />
    <glyph glyph-name="dvK_SS_M_YA" horiz-adv-x="1861" 
d="M261 543c-8 -48 25 -84 89 -85c36 21 63 47 69 83c8 41 -18 75 -66 75c-43 0 -84 -28 -92 -73zM299 -63l26 150c-27 -28 -75 -55 -137 -55c-108 0 -173 69 -154 172c18 101 95 151 176 189c-56 26 -100 82 -84 170c20 115 127 186 254 186c112 0 195 -63 174 -179
c-9 -53 -36 -90 -71 -120h428l28 159h-290l23 131h1271l-23 -131h-97l-108 -609h-157l27 156c-47 -47 -113 -78 -197 -78c-152 0 -245 94 -235 243h-119l-8 -47c-25 -141 -114 -228 -256 -228c-131 0 -205 82 -184 203c6 36 19 68 37 94h-305c-62 -26 -107 -51 -117 -104
c-8 -44 18 -77 66 -77c56 0 93 44 100 88h131l-56 -313h-143zM791 179c48 0 78 35 87 87l10 55h-59c-49 0 -89 -26 -97 -71c-8 -46 21 -71 59 -71zM1223 450c80 0 119 34 133 114l8 45h-279l-28 -159h166zM1437 209c99 0 170 76 187 169v0l41 231h-146l-13 -74
c-22 -124 -91 -184 -197 -195c-12 -75 34 -131 128 -131z" />
    <glyph glyph-name="dvK_SS_YA" horiz-adv-x="1310" 
d="M887 213c94 0 162 61 182 147l44 249h-145l-8 -47c-19 -111 -81 -194 -200 -214c-12 -79 33 -135 127 -135zM261 543c-8 -48 25 -84 89 -85c36 21 63 47 69 83c8 41 -18 75 -66 75c-43 0 -84 -28 -92 -73zM299 -63l26 150c-27 -28 -75 -55 -137 -55
c-108 0 -173 69 -154 172c18 101 95 151 176 189c-56 26 -100 82 -84 170c20 115 127 186 254 186c112 0 195 -63 174 -179c-9 -53 -36 -90 -71 -120h176c74 0 132 34 145 112l8 47h-164l23 131h720l-22 -131h-97l-108 -609h-158l27 152c-47 -43 -112 -70 -193 -70
c-165 0 -259 100 -235 261h-287c-62 -26 -107 -51 -117 -104c-8 -44 18 -77 66 -77c56 0 93 44 100 88h131l-56 -313h-143z" />
    <glyph glyph-name="dvK_SS_VA" horiz-adv-x="1223" 
d="M261 543c-8 -48 25 -84 89 -85c37 21 63 47 69 83c8 41 -18 75 -66 75c-43 0 -84 -28 -92 -73zM299 -63l26 150c-27 -28 -75 -55 -137 -55c-108 0 -173 69 -154 172c18 101 96 151 177 189c-57 25 -101 82 -85 170c20 115 127 186 254 186c112 0 195 -63 174 -179
c-8 -49 -32 -85 -64 -114h179c47 50 113 79 193 79c68 0 118 -26 144 -70l25 144h-391l23 131h642l-23 -131h-98l-106 -609h-154l23 131c-40 -44 -97 -69 -162 -69c-136 0 -213 99 -184 253c2 10 4 19 7 28h-290c-62 -26 -107 -51 -117 -104c-8 -44 18 -77 66 -77
c56 0 93 44 100 88h131l-56 -313h-143zM845 187c70 0 115 49 130 101l3 22c5 54 -26 99 -95 99c-65 0 -121 -45 -132 -110c-11 -66 27 -112 94 -112z" />
    <glyph glyph-name="dvK_SA" horiz-adv-x="1514" 
d="M734 517c80 0 125 -41 142 -101c75 13 107 62 119 127l12 66h-400l-28 -159c35 40 88 67 155 67zM284 196c66 1 108 50 117 96v0l1 4l-1 -1c10 53 -16 103 -82 103c-58 0 -109 -40 -119 -101c-11 -61 26 -101 84 -101zM1152 543c-8 -44 -23 -83 -45 -115h179l32 181h-154
zM1154 209c-13 -134 -104 -218 -242 -218c-145 0 -213 100 -191 227l15 87v0c9 51 -16 92 -72 92c-65 0 -104 -56 -113 -111v1l-50 -287h-151l24 135c-37 -43 -92 -71 -161 -71c-120 0 -197 99 -172 238c24 138 120 229 252 229c71 0 116 -28 138 -70l26 148h-432l23 131
h1548l-23 -131h-98l-107 -609h-158l53 300h-371l-18 -98c-7 -44 8 -77 53 -77c44 0 68 34 77 84h150z" />
    <glyph glyph-name="dvK_S_TTA" horiz-adv-x="1851" 
d="M734 517c80 0 125 -41 142 -101c75 13 107 62 119 127l12 66h-400l-28 -159c35 40 88 67 155 67zM284 196c66 1 108 50 117 96v0l1 4l-1 -1c10 53 -16 103 -82 103c-58 0 -109 -40 -119 -101c-11 -61 26 -101 84 -101zM1152 543c-8 -44 -23 -83 -45 -115h202
c58 67 149 103 260 105l14 76h-419zM1154 209c-13 -134 -104 -218 -242 -218c-145 0 -213 100 -191 227l15 87v0c9 51 -16 92 -72 92c-65 0 -104 -56 -113 -111v1l-50 -287h-151l24 135c-37 -43 -92 -71 -161 -71c-120 0 -197 99 -172 238c24 138 120 229 252 229
c71 0 116 -28 138 -70l26 148h-432l23 131h1886l-24 -131h-173l-36 -208h-137c-79 0 -150 -42 -165 -126c-13 -70 29 -119 107 -119c79 0 138 52 151 127h149c-27 -159 -147 -263 -317 -263c-167 0 -274 104 -248 261c1 6 2 13 4 19h-353l-18 -98c-7 -44 8 -77 53 -77
c44 0 68 34 77 84h150z" />
    <glyph glyph-name="dvK_S_DDA" horiz-adv-x="1782" 
d="M734 517c80 0 125 -41 142 -101c75 13 107 62 119 127l12 66h-400l-28 -159c35 40 88 67 155 67zM284 196c66 1 108 50 117 96v0l1 4l-1 -1c10 53 -16 103 -82 103c-58 0 -109 -40 -119 -101c-11 -61 26 -101 84 -101zM1152 543c-8 -44 -24 -83 -46 -115h192
c33 74 111 107 196 107h71l13 74h-414zM1713 153c-19 -107 -104 -173 -250 -173c-144 0 -247 70 -230 193h156c-6 -50 30 -75 83 -75c50 0 85 24 92 61c8 45 -24 63 -75 63h-35c-55 0 -132 18 -161 78h-402l-17 -98c-8 -44 7 -77 53 -77c43 0 68 34 76 84h151
c-13 -134 -105 -218 -242 -218c-146 0 -213 100 -191 227l15 87v0c9 51 -16 92 -72 92c-65 0 -104 -56 -113 -111v1l-50 -287h-151l24 135c-37 -43 -92 -71 -161 -71c-120 0 -197 99 -172 238c24 138 120 229 252 229c71 0 116 -28 138 -70l26 148h-432l23 131h1816
l-22 -131h-112l-33 -184h-182c-33 0 -68 -11 -74 -46c-6 -34 19 -46 52 -46h44c109 0 198 -54 176 -180z" />
    <glyph glyph-name="dvK_S_TA" horiz-adv-x="1912" 
d="M734 517c80 0 125 -41 142 -101c75 13 107 62 119 127l12 66h-400l-28 -159c35 40 88 67 155 67zM284 196c66 1 108 50 117 96v0l1 4l-1 -1c10 53 -16 103 -82 103c-58 0 -109 -40 -119 -101c-11 -61 26 -101 84 -101zM1152 543c-8 -44 -23 -83 -45 -115h233
c60 44 139 64 223 64h132l20 117h-551zM1154 209c-13 -134 -104 -218 -242 -218c-145 0 -213 100 -191 227l15 87v0c9 51 -16 92 -72 92c-65 0 -104 -56 -113 -111v1l-50 -287h-151l24 135c-37 -43 -92 -71 -161 -71c-120 0 -197 99 -172 238c24 138 120 229 252 229
c71 0 116 -28 138 -70l26 148h-432l23 131h1946l-23 -131h-99l-106 -609h-157l62 357h-124c-80 0 -141 -40 -154 -115c-13 -71 21 -117 105 -117h18l-21 -124h-28c-137 0 -260 77 -232 248c3 18 7 35 13 51h-356l-18 -98c-7 -44 8 -77 53 -77c44 0 68 34 77 84h150z" />
    <glyph glyph-name="dvK_S_P_RA" horiz-adv-x="1870" 
d="M734 517c80 0 125 -41 142 -101c75 13 107 62 119 127l12 66h-400l-28 -159c35 40 88 67 155 67zM284 196c66 1 108 50 117 96v0l1 4l-1 -1c10 53 -16 103 -82 103c-58 0 -109 -40 -119 -101c-11 -61 26 -101 84 -101zM1152 543c-8 -44 -24 -83 -46 -115h166l31 181h-139
zM1511 292c67 0 113 48 127 107l37 210h-215l-33 -191c-13 -74 12 -126 84 -126zM1567 0l39 223c-1 -2 -3 -4 -5 -5l-240 -244h-169l209 197c-73 14 -117 62 -131 129h-379l-17 -98c-8 -44 7 -77 53 -77c43 0 68 34 76 84h151c-13 -134 -105 -218 -242 -218
c-146 0 -213 100 -191 227l15 87v0c9 51 -16 92 -72 92c-65 0 -104 -56 -113 -111v1l-50 -287h-151l24 135c-37 -43 -92 -71 -161 -71c-120 0 -197 99 -172 238c24 138 120 229 252 229c71 0 116 -28 138 -70l26 148h-432l23 131h1904l-22 -131h-98l-108 -609h-157z" />
    <glyph glyph-name="dvK_S_P_LA" horiz-adv-x="2459" 
d="M734 517c80 0 125 -41 142 -101c75 13 107 62 119 127l12 66h-400l-28 -159c35 40 88 67 155 67zM284 196c66 1 108 50 117 96v0l1 4l-1 -1c10 53 -16 103 -82 103c-58 0 -109 -40 -119 -101c-11 -61 26 -101 84 -101zM1152 543c-8 -44 -24 -83 -46 -115h166l32 181h-140
zM1506 292c42 0 74 25 94 58c43 121 145 174 248 174c96 0 143 -54 158 -114h3c29 51 77 94 146 108l16 91h-710l-34 -191c-13 -74 7 -126 79 -126zM1154 209c-13 -134 -105 -218 -242 -218c-146 0 -213 100 -191 227l15 87v0c9 51 -16 92 -72 92c-65 0 -104 -56 -113 -111
v1l-50 -287h-151l24 135c-37 -43 -92 -71 -161 -71c-120 0 -197 99 -172 238c24 138 120 229 252 229c71 0 116 -28 138 -70l26 148h-432l23 131h2494l-24 -131h-193l-19 -109c65 -36 104 -113 84 -226c-26 -147 -135 -248 -302 -244c-8 0 -25 1 -35 2l25 136
c6 -1 17 -2 26 -2c64 0 115 43 127 115c11 61 -13 105 -70 105c-65 0 -100 -55 -112 -118l-4 -24h-130l4 24c12 62 -3 118 -68 118c-60 0 -98 -43 -109 -105c-13 -70 19 -115 90 -115c8 0 16 1 24 2l-24 -137c-14 -1 -22 -1 -30 -1c-127 0 -201 63 -219 156
c-32 -17 -69 -26 -111 -26c-111 0 -180 55 -201 140h-380l-17 -98c-8 -44 7 -77 53 -77c43 0 68 34 76 84h151z" />
    <glyph glyph-name="dvKH_KHA" horiz-adv-x="1627" 
d="M1325 0l28 158c-30 -28 -71 -47 -126 -47c-11 0 -21 1 -31 3c-56 -69 -142 -121 -248 -121c-122 0 -203 51 -229 144c-37 -19 -79 -28 -122 -28c-20 0 -40 2 -58 6c-49 -68 -129 -122 -237 -122c-184 0 -283 109 -252 283l22 127h25c90 0 142 38 158 130l13 76h-243
l24 131h1660l-23 -131h-97l-107 -609h-157zM618 227c55 0 95 34 105 89c9 53 -19 88 -74 88c-54 0 -96 -35 -105 -88c-10 -55 20 -89 74 -89zM309 129c59 0 96 24 120 53c-24 34 -34 79 -24 134c23 128 133 205 265 205c91 0 157 -42 177 -114c40 21 65 61 75 126l13 76
h-509l-17 -98c-24 -134 -103 -205 -200 -217l-7 -37c-13 -73 23 -128 107 -128zM976 129c59 0 98 26 122 55c-23 40 -31 92 -21 150c20 118 114 193 221 189c55 -2 90 -21 110 -49l24 135h-340l-16 -98c-23 -134 -103 -204 -201 -217l-6 -37c-13 -73 23 -128 107 -128z
M1282 231c53 0 88 38 98 82l2 12c5 39 -16 79 -71 79c-48 0 -90 -31 -100 -85c-10 -58 25 -88 71 -88z" />
    <glyph glyph-name="dvKH_TA" horiz-adv-x="1368" 
d="M618 227c55 0 95 34 105 89c9 53 -19 88 -74 88c-54 0 -96 -35 -105 -88c-10 -55 20 -89 74 -89zM309 129c58 0 96 24 119 52c-23 34 -32 79 -23 135c23 128 126 205 257 205c83 0 141 -28 169 -79c53 34 119 50 188 50h132l20 117h-745l-17 -98
c-24 -134 -103 -205 -200 -217l-7 -37c-13 -73 23 -128 107 -128zM592 109c-19 0 -37 2 -54 5c-48 -68 -128 -121 -236 -121c-184 0 -283 109 -252 283l22 127h25c90 0 142 38 158 130l13 76h-243l24 131h1401l-23 -131h-98l-107 -609h-157l62 357h-124
c-80 0 -141 -40 -154 -115c-12 -71 21 -117 105 -117h19l-22 -124h-28c-105 0 -186 42 -209 133c-36 -17 -77 -25 -122 -25z" />
    <glyph glyph-name="dvKHx_TA" horiz-adv-x="1368" 
d="M245 -248c-51 0 -84 39 -75 89c9 52 56 93 107 93s84 -41 76 -93c-9 -50 -57 -89 -108 -89zM618 227c55 0 95 34 105 89c9 53 -19 88 -74 88c-54 0 -96 -35 -105 -88c-10 -55 20 -89 74 -89zM309 129c58 0 96 24 119 52c-23 34 -32 79 -23 135c23 128 126 205 257 205
c83 0 141 -28 169 -79c53 34 119 50 188 50h132l20 117h-745l-17 -98c-24 -134 -103 -205 -200 -217l-7 -37c-13 -73 23 -128 107 -128zM592 109c-19 0 -37 2 -54 5c-48 -68 -128 -121 -236 -121c-184 0 -283 109 -252 283l22 127h25c90 0 142 38 158 130l13 76h-243l24 131
h1401l-23 -131h-98l-107 -609h-157l62 357h-124c-80 0 -141 -40 -154 -115c-12 -71 21 -117 105 -117h19l-22 -124h-28c-105 0 -186 42 -209 133c-36 -17 -77 -25 -122 -25z" />
    <glyph glyph-name="dvKH_NA" horiz-adv-x="1505" 
d="M930 202c48 0 89 34 97 81c9 48 -20 82 -69 82c-50 0 -90 -34 -99 -82c-8 -48 20 -81 71 -81zM618 227c55 0 95 34 105 89c9 53 -19 88 -74 88c-54 0 -96 -35 -105 -88c-10 -55 20 -89 74 -89zM309 129c59 0 96 24 120 53c-24 34 -34 79 -24 134c23 128 126 205 257 205
c78 0 135 -27 164 -76c45 34 103 51 167 51h296l20 113h-883l-17 -98c-24 -134 -103 -205 -200 -217l-7 -37c-13 -73 23 -128 107 -128zM597 109c-20 0 -40 2 -58 6c-49 -68 -129 -122 -237 -122c-184 0 -283 109 -252 283l22 127h25c90 0 142 38 158 130l13 76h-243l24 131
h1539l-23 -131h-99l-106 -609h-157l64 365h-128c11 -27 15 -61 8 -103c-21 -127 -126 -193 -237 -193c-74 0 -134 30 -163 85c-41 -30 -92 -45 -150 -45z" />
    <glyph glyph-name="dvKH_MA" horiz-adv-x="1531" 
d="M913 194c48 0 77 33 87 87l10 55h-59c-49 0 -89 -25 -97 -72c-8 -45 21 -70 59 -70zM618 227c55 0 95 34 105 89c9 53 -19 88 -74 88c-54 0 -96 -35 -105 -88c-10 -55 20 -89 74 -89zM1308 464l26 145h-130l-25 -145h129zM309 129c59 0 96 24 120 53
c-24 34 -34 79 -24 134c23 128 126 205 257 205c86 0 146 -32 171 -90c39 22 85 33 136 33h63l25 145h-631l-17 -98c-24 -134 -103 -205 -200 -217l-7 -37c-13 -73 23 -128 107 -128zM597 109c-20 0 -40 2 -58 6c-49 -68 -129 -122 -237 -122c-184 0 -283 109 -252 283
l22 127h25c90 0 142 38 158 130l13 76h-243l24 131h1564l-24 -131h-98l-107 -609h-158l60 336h-130l-8 -47c-23 -144 -108 -228 -240 -228c-82 0 -143 32 -171 85c-40 -24 -87 -37 -140 -37z" />
    <glyph glyph-name="dvKHx_MA" horiz-adv-x="1531" 
d="M217 -243c-51 0 -84 39 -75 89c9 52 56 93 107 93s84 -41 76 -93c-9 -50 -57 -89 -108 -89zM618 227c55 0 95 34 105 89c9 53 -19 88 -74 88c-54 0 -96 -35 -105 -88c-10 -55 20 -89 74 -89zM913 194c48 0 77 33 87 87l10 55h-59c-49 0 -89 -25 -97 -72
c-8 -45 21 -70 59 -70zM1308 464l26 145h-130l-25 -145h129zM309 129c59 0 96 24 120 53c-24 34 -34 79 -24 134c23 128 126 205 257 205c86 0 146 -32 171 -90c39 22 85 33 136 33h63l25 145h-631l-17 -98c-24 -134 -103 -205 -200 -217l-7 -37c-13 -73 23 -128 107 -128z
M597 109c-20 0 -40 2 -58 6c-49 -68 -129 -122 -237 -122c-184 0 -283 109 -252 283l22 127h25c90 0 142 38 158 130l13 76h-243l24 131h1564l-24 -131h-98l-107 -609h-158l60 336h-130l-8 -47c-23 -144 -108 -228 -240 -228c-82 0 -143 32 -171 85
c-40 -24 -87 -37 -140 -37z" />
    <glyph glyph-name="dvKH_YA" horiz-adv-x="1426" 
d="M618 227c55 0 95 34 105 89c9 53 -19 88 -74 88c-54 0 -96 -35 -105 -88c-10 -55 20 -89 74 -89zM309 129c59 0 96 24 120 53c-24 34 -34 79 -24 134c23 128 133 205 265 205c83 0 144 -34 170 -93c47 21 72 67 80 129l9 52h-503l-17 -98c-24 -134 -103 -205 -200 -217
l-7 -37c-13 -73 23 -128 107 -128zM1003 213c99 0 169 68 185 161v0l42 235h-146l-14 -81c-16 -103 -77 -180 -196 -194c-8 -66 35 -121 129 -121zM597 109c-20 0 -40 2 -58 6c-49 -68 -129 -122 -237 -122c-184 0 -283 109 -252 283l22 127h25c90 0 142 38 158 130l13 76
h-243l24 131h1459l-23 -131h-98l-107 -609h-158l27 154c-46 -43 -112 -72 -193 -72c-91 0 -153 32 -187 87c-46 -39 -107 -60 -172 -60z" />
    <glyph glyph-name="dvKHx_YA" horiz-adv-x="1426" 
d="M243 -248c-51 0 -84 39 -75 89c9 52 56 93 107 93s84 -41 76 -93c-9 -50 -57 -89 -108 -89zM618 227c55 0 95 34 105 89c9 53 -19 88 -74 88c-54 0 -96 -35 -105 -88c-10 -55 20 -89 74 -89zM309 129c59 0 96 24 120 53c-24 34 -34 79 -24 134c23 128 133 205 265 205
c83 0 144 -34 170 -93c47 21 72 67 80 129l9 52h-503l-17 -98c-24 -134 -103 -205 -200 -217l-7 -37c-13 -73 23 -128 107 -128zM1003 213c99 0 169 68 185 161v0l42 235h-146l-14 -81c-16 -103 -77 -180 -196 -194c-8 -66 35 -121 129 -121zM597 109c-20 0 -40 2 -58 6
c-49 -68 -129 -122 -237 -122c-184 0 -283 109 -252 283l22 127h25c90 0 142 38 158 130l13 76h-243l24 131h1459l-23 -131h-98l-107 -609h-158l27 154c-46 -43 -112 -72 -193 -72c-91 0 -153 32 -187 87c-46 -39 -107 -60 -172 -60z" />
    <glyph glyph-name="dvKH_VA" horiz-adv-x="1333" 
d="M1035 0l23 132c-40 -45 -97 -70 -162 -70c-76 0 -132 32 -160 87c-41 -26 -91 -40 -147 -40c-18 0 -35 2 -51 5c-49 -68 -129 -121 -236 -121c-184 0 -283 109 -252 283l22 127h25c90 0 142 38 158 130l13 76h-243l24 131h1367l-23 -131h-98l-106 -609h-154zM618 227
c55 0 95 34 105 89c9 53 -19 88 -74 88c-54 0 -96 -35 -105 -88c-10 -55 20 -89 74 -89zM956 187c74 0 121 56 131 111c11 59 -19 111 -93 111c-66 0 -121 -45 -132 -110c-11 -66 27 -112 94 -112zM309 129c57 0 95 23 118 51c-23 34 -32 80 -22 136c23 128 125 205 254 205
c62 0 112 -18 145 -51c42 41 97 65 162 65c71 0 121 -27 151 -68l25 142h-716l-17 -98c-23 -134 -102 -205 -200 -217l-7 -37c-13 -73 23 -128 107 -128z" />
    <glyph glyph-name="dvKHx_VA" horiz-adv-x="1333" 
d="M243 -248c-51 0 -84 39 -75 89c9 52 56 93 107 93s84 -41 76 -93c-9 -50 -57 -89 -108 -89zM618 227c55 0 95 34 105 89c9 53 -19 88 -74 88c-54 0 -96 -35 -105 -88c-10 -55 20 -89 74 -89zM956 187c74 0 121 56 131 111c11 59 -19 111 -93 111
c-66 0 -121 -45 -132 -110c-11 -66 27 -112 94 -112zM1035 0l23 132c-40 -45 -97 -70 -162 -70c-76 0 -132 32 -160 87c-41 -26 -91 -40 -147 -40c-18 0 -35 2 -51 5c-49 -68 -129 -121 -236 -121c-184 0 -283 109 -252 283l22 127h25c90 0 142 38 158 130l13 76h-243
l24 131h1367l-23 -131h-98l-106 -609h-154zM309 129c57 0 95 23 118 51c-23 34 -32 80 -22 136c23 128 125 205 254 205c62 0 112 -18 145 -51c42 41 97 65 162 65c71 0 121 -27 151 -68l25 142h-716l-17 -98c-23 -134 -102 -205 -200 -217l-7 -37c-13 -73 23 -128 107 -128
z" />
    <glyph glyph-name="dvKH_SHA" horiz-adv-x="1505" 
d="M900 -7c-106 0 -188 45 -207 133c-31 -11 -65 -17 -102 -17c-19 0 -36 2 -53 5c-48 -68 -129 -121 -236 -121c-184 0 -283 109 -252 283l22 127h25c90 0 142 38 158 130l13 76h-243l23 131h901c20 5 42 8 66 8c138 3 226 -80 200 -223c-30 -164 -165 -238 -316 -238h-39
l-12 -70c-10 -47 3 -89 61 -89c46 0 78 34 86 81l3 16h153c-1 -10 -2 -16 -3 -18c-22 -135 -111 -214 -248 -214zM309 129c58 0 95 24 119 51c-24 34 -33 80 -23 136c23 128 126 205 257 205c93 0 157 -36 179 -102h23c88 0 177 27 193 116c7 46 -12 78 -59 78
c-9 0 -18 -1 -29 -4h-543l-17 -98c-24 -134 -103 -205 -200 -217l-7 -37c-13 -73 23 -128 107 -128zM618 227c55 0 95 34 105 89c9 53 -20 88 -74 88c-55 0 -96 -35 -105 -88c-10 -55 19 -89 74 -89zM1200 0l130 740h257l-24 -131h-97l-107 -609h-159z" />
    <glyph glyph-name="dvKHx_SHA" horiz-adv-x="1505" 
d="M243 -248c-51 0 -84 39 -75 89c9 52 56 93 107 93s84 -41 76 -93c-9 -50 -57 -89 -108 -89zM618 227c55 0 95 34 105 89c9 53 -20 88 -74 88c-55 0 -96 -35 -105 -88c-10 -55 19 -89 74 -89zM900 -7c-106 0 -188 45 -207 133c-31 -11 -65 -17 -102 -17c-19 0 -36 2 -53 5
c-48 -68 -129 -121 -236 -121c-184 0 -283 109 -252 283l22 127h25c90 0 142 38 158 130l13 76h-243l23 131h901c20 5 42 8 66 8c138 3 226 -80 200 -223c-30 -164 -165 -238 -316 -238h-39l-12 -70c-10 -47 3 -89 61 -89c46 0 78 34 86 81l3 16h153c-1 -10 -2 -16 -3 -18
c-22 -135 -111 -214 -248 -214zM309 129c58 0 95 24 119 51c-24 34 -33 80 -23 136c23 128 126 205 257 205c93 0 157 -36 179 -102h23c88 0 177 27 193 116c7 46 -12 78 -59 78c-9 0 -18 -1 -29 -4h-543l-17 -98c-24 -134 -103 -205 -200 -217l-7 -37
c-13 -73 23 -128 107 -128zM1200 0l130 740h257l-24 -131h-97l-107 -609h-159z" />
    <glyph glyph-name="dvKHx_SA" horiz-adv-x="1502" 
d="M243 -248c-51 0 -84 39 -75 89c9 52 56 93 107 93s84 -41 76 -93c-9 -50 -57 -89 -108 -89zM618 227c55 0 95 34 105 89c9 53 -19 88 -74 88c-54 0 -96 -35 -105 -88c-10 -55 20 -89 74 -89zM309 129c59 0 96 24 120 53c-24 34 -34 79 -24 134c23 128 133 205 265 205
c93 0 161 -39 184 -107c82 11 117 61 129 129l12 66h-569l-17 -98c-24 -134 -103 -205 -200 -217l-7 -37c-13 -73 23 -128 107 -128zM1140 543c-8 -44 -23 -83 -45 -115h179l32 181h-154zM1142 209c-13 -134 -104 -218 -242 -218c-109 0 -175 57 -191 139
c-34 -14 -73 -21 -112 -21c-20 0 -40 2 -58 6c-49 -68 -129 -122 -237 -122c-184 0 -283 109 -252 283l22 127h25c90 0 142 38 158 130l13 76h-243l24 131h1535l-23 -131h-98l-107 -609h-158l53 300h-371l-18 -98c-7 -44 8 -77 53 -77c44 0 68 34 77 84h150z" />
    <glyph glyph-name="dvG_GA" horiz-adv-x="1316" 
d="M1013 0l106 609h-126l-39 -226c-20 -120 -94 -214 -237 -214c-126 0 -203 73 -179 206c2 11 4 22 6 32h153l-6 -31c-7 -40 0 -73 40 -73c43 0 59 39 64 74l42 232h-345l-39 -226c-20 -120 -94 -214 -237 -214c-126 0 -203 73 -179 206c2 11 4 22 6 32h153l-6 -31
c-7 -40 0 -73 40 -73c43 0 59 39 64 74l42 232h-311l23 131h1350l-23 -131h-98l-107 -609h-157z" />
    <glyph glyph-name="dvG_GHA" horiz-adv-x="1190" 
d="M786 222c78 0 150 52 164 134v-1l45 254h-226l-7 -40c-9 -50 9 -82 75 -82h40l-22 -126h-52c-61 0 -93 -29 -99 -68c-9 -48 27 -71 82 -71zM1046 0h-158l30 171c-50 -50 -118 -77 -193 -77c-115 0 -204 66 -184 183c14 78 75 128 133 144v3c-51 14 -85 54 -71 138l8 47
h-119l-39 -226c-20 -120 -94 -214 -237 -214c-126 0 -203 73 -179 206c2 11 4 22 6 32h153l-6 -31c-7 -40 0 -73 40 -73c43 0 59 39 64 74l42 232h-311l23 131h1225l-24 -131h-96z" />
    <glyph glyph-name="dvG_JA" horiz-adv-x="1359" 
d="M1213 0h-157l62 354h-115l-5 -30c-23 -131 -120 -225 -261 -224c-138 0 -218 93 -193 229l28 159h158l-29 -160c-10 -56 10 -91 56 -91s78 35 88 91l28 160h269l21 121h-671l-39 -226c-20 -120 -94 -214 -237 -214c-126 0 -203 73 -179 206c2 11 4 22 6 32h153l-6 -31
c-7 -40 0 -73 40 -73c43 0 59 39 64 74l42 232h-311l23 131h1393l-24 -131h-97z" />
    <glyph glyph-name="dvG_NNA" horiz-adv-x="1385" 
d="M775 277c43 0 72 30 80 74l45 258h-134l-45 -258c-9 -44 13 -74 54 -74zM1238 0h-157l107 609h-133l-44 -244c-21 -125 -101 -220 -245 -220c-140 0 -221 89 -197 220l43 244h-120l-39 -226c-20 -120 -94 -214 -237 -214c-126 0 -203 73 -179 206c2 11 4 22 6 32h153
l-6 -31c-7 -40 0 -73 40 -73c43 0 59 39 64 74l42 232h-311l23 131h1419l-23 -131h-98z" />
    <glyph glyph-name="dvG_DA" horiz-adv-x="1111" 
d="M976 -33h-154l26 148c-33 -32 -81 -50 -137 -50c-110 0 -199 82 -172 235c28 155 155 229 308 229h37l14 80h-406l-39 -226c-20 -120 -94 -214 -237 -214c-126 0 -203 73 -179 206c2 11 4 22 6 32h153l-6 -31c-7 -40 0 -73 40 -73c43 0 59 39 64 74l42 232h-311l23 131
h1144l-24 -131h-112l-38 -214h-179c-72 0 -129 -38 -140 -106c-11 -60 21 -100 80 -100c49 0 96 33 106 92h146z" />
    <glyph glyph-name="dvG_DHA" horiz-adv-x="1222" 
d="M728 78c-122 0 -214 63 -193 182c16 87 87 131 141 143v3c-58 19 -110 76 -93 172c2 11 4 21 7 31h-98l-39 -226c-20 -120 -94 -214 -237 -214c-126 0 -203 73 -179 206c2 11 4 22 6 32h153l-6 -31c-7 -40 0 -73 40 -73c43 0 59 39 64 74l42 232h-311l23 131h676
c21 6 43 9 67 9c127 0 189 -81 150 -210h-116c11 41 1 79 -44 79c-34 0 -61 -27 -68 -62c-12 -63 31 -85 88 -85h83l-23 -127h-52c-61 0 -104 -22 -111 -67c-9 -46 30 -71 93 -71c101 0 180 70 198 173v0l42 238l21 123h252l-22 -131h-95l-108 -609h-157l30 167
c-53 -57 -129 -89 -224 -89z" />
    <glyph glyph-name="dvG_DH_YA" horiz-adv-x="1686" 
d="M1264 213c99 0 169 68 185 161v0l42 235h-147l-13 -74c-18 -103 -76 -177 -195 -191c-12 -76 34 -131 128 -131zM770 76c-143 0 -255 64 -233 190c16 87 86 126 140 137v3c-59 19 -110 76 -94 172c2 11 4 21 8 31h-99l-39 -226c-20 -120 -94 -214 -237 -214
c-126 0 -203 73 -179 206c2 11 4 22 6 32h153l-6 -31c-7 -40 0 -73 40 -73c43 0 59 39 64 74l42 232h-311l23 131h676c21 6 43 9 67 9c128 0 189 -81 151 -210h-116c10 41 0 79 -45 79c-34 0 -61 -27 -68 -62c-13 -63 31 -85 88 -85h83l-23 -127h-52
c-61 0 -104 -23 -110 -68c-8 -51 44 -70 100 -70c94 0 164 53 183 143c0 5 1 10 2 15c3 20 9 40 15 60h10c113 0 156 53 172 140l8 45h-139l23 131h696l-24 -131h-97l-108 -609h-157l27 155c-46 -44 -112 -73 -194 -73c-95 0 -166 36 -205 97c-52 -65 -133 -103 -241 -103z
" />
    <glyph glyph-name="dvG_DH_VA" horiz-adv-x="1602" 
d="M768 76c-145 0 -255 62 -233 189c16 88 86 127 140 138v3c-59 19 -110 76 -94 172c2 11 4 21 8 31h-97l-39 -226c-20 -120 -94 -214 -237 -214c-126 0 -203 73 -179 206c2 11 4 22 6 32h153l-6 -31c-7 -40 0 -73 40 -73c43 0 59 39 64 74l42 232h-311l23 131h674
c21 6 43 9 67 9c128 0 189 -81 151 -210h-116c10 41 0 79 -45 79c-34 0 -61 -27 -68 -62c-13 -63 31 -85 88 -85h83l-23 -127h-52c-61 0 -102 -23 -110 -68c-11 -53 44 -70 101 -70c105 0 161 44 187 131c30 120 125 198 255 198c69 0 119 -26 145 -70l25 144h-362l23 131
h613l-23 -131h-98l-107 -609h-153l23 132c-40 -45 -97 -70 -162 -70c-81 0 -141 35 -170 96c-53 -52 -128 -82 -226 -82zM1223 187c74 0 122 56 132 111c11 59 -19 111 -93 111c-66 0 -121 -45 -133 -110c-11 -66 27 -112 94 -112z" />
    <glyph glyph-name="dvG_NA" horiz-adv-x="1325" 
d="M749 202c48 0 88 34 97 81c8 48 -20 82 -68 82c-50 0 -92 -34 -100 -82c-9 -48 20 -81 71 -81zM1179 0h-158l64 365h-126c11 -27 15 -61 8 -103c-21 -126 -128 -193 -235 -193c-131 0 -219 94 -196 223c25 140 137 204 271 204h302l20 113h-637l-39 -226
c-20 -120 -94 -214 -237 -214c-126 0 -203 73 -179 206c2 11 4 22 6 32h153l-6 -31c-7 -40 0 -73 40 -73c43 0 59 39 64 74l42 232h-311l23 131h1359l-23 -131h-98z" />
    <glyph glyph-name="dvG_N_YA" horiz-adv-x="1774" 
d="M742 167c49 0 89 34 97 82c9 47 -19 81 -68 81c-50 0 -91 -34 -99 -82c-9 -48 20 -81 70 -81zM1352 213c99 0 169 68 185 161v0l42 235h-147l-13 -74c-17 -95 -83 -169 -196 -188c-1 -75 43 -134 129 -134zM1628 0h-157l26 148c-44 -41 -106 -66 -188 -66
c-152 0 -243 97 -240 249h-118c11 -27 17 -62 10 -104c-22 -126 -122 -193 -236 -193c-130 0 -218 94 -196 223c26 140 138 204 271 204h301c115 0 156 37 168 103l8 45h-785l-39 -226c-20 -120 -94 -214 -237 -214c-126 0 -203 73 -179 206c2 11 4 22 6 32h153l-6 -31
c-7 -40 0 -73 40 -73c43 0 59 39 64 74l42 232h-311l23 131h1809l-24 -131h-97z" />
    <glyph glyph-name="dvG_BA" horiz-adv-x="1185" 
d="M888 0l23 127c-40 -42 -101 -68 -172 -68c-139 0 -224 108 -199 253c25 141 138 229 282 229c69 0 119 -24 150 -61l23 129h-503l-39 -226c-20 -120 -94 -214 -237 -214c-126 0 -203 73 -179 206c2 11 4 22 6 32h153l-6 -31c-7 -40 0 -73 40 -73c43 0 59 39 64 74l42 232
h-311l23 131h1219l-23 -131h-98l-107 -609h-151zM791 171c36 0 66 10 91 28l-185 161c-10 -16 -18 -35 -21 -56c-16 -83 40 -133 115 -133zM838 440c-33 0 -66 -10 -92 -28l184 -162c10 17 17 36 21 55c12 72 -28 135 -113 135z" />
    <glyph glyph-name="dvG_BHA" horiz-adv-x="1348" 
d="M736 194c48 0 77 35 86 87l10 55h-58c-49 0 -89 -25 -97 -72c-8 -45 19 -70 59 -70zM715 61c-130 0 -206 80 -184 203c24 136 137 200 261 200h63l13 76c8 44 -2 75 -41 75c-9 0 -18 -2 -25 -6h-310l-39 -226c-20 -120 -94 -214 -237 -214c-126 0 -204 73 -179 206
c2 11 4 22 6 32h153l-6 -31c-8 -40 0 -73 40 -73c43 0 59 39 64 74l42 232h-311l23 131h724c21 6 46 9 72 9c156 0 189 -105 165 -238l-8 -47h124l48 276h257l-23 -131h-99l-108 -609h-157l59 336h-123l-8 -47c-25 -141 -113 -228 -256 -228z" />
    <glyph glyph-name="dvG_BH_YA" horiz-adv-x="1777" 
d="M1354 213c99 0 169 68 185 161v0l42 235h-147l-13 -74c-17 -103 -75 -176 -194 -189c-15 -78 30 -133 127 -133zM736 194c48 0 77 35 86 87l10 55h-58c-50 0 -89 -25 -97 -72c-9 -45 19 -70 59 -70zM716 61c-132 0 -207 80 -185 203c24 136 136 200 261 200h63l13 76
c7 44 -2 75 -41 75c-33 0 -59 -25 -66 -64c-2 -10 -3 -21 -2 -32h-157c-1 11 0 25 2 38c3 18 8 36 15 52h-127l-39 -226c-20 -120 -94 -214 -237 -214c-126 0 -203 73 -179 206c2 11 4 22 6 32h153l-6 -31c-7 -40 0 -73 40 -73c43 0 59 39 64 74l42 232h-311l23 131h721
c23 6 47 9 74 9c155 0 190 -105 166 -238l-8 -47h141c77 0 116 20 129 100l8 45h-157l23 131h714l-23 -131h-98l-107 -609h-158l27 152c-46 -43 -110 -70 -191 -70c-163 0 -257 98 -239 254h-91l-8 -47c-25 -141 -114 -228 -255 -228z" />
    <glyph glyph-name="dvG_MA" horiz-adv-x="1350" 
d="M1128 464l25 145h-128l-26 -145h129zM734 194c48 0 76 35 86 87l10 55h-59c-49 0 -88 -25 -96 -72c-9 -45 21 -70 59 -70zM1204 0h-158l59 336h-129l-8 -47c-25 -141 -114 -228 -255 -228c-132 0 -206 82 -184 203c23 136 136 200 260 200h63l26 145h-386l-39 -226
c-20 -120 -94 -214 -237 -214c-126 0 -203 73 -179 206c2 11 4 22 6 32h153l-6 -31c-7 -40 0 -73 40 -73c43 0 59 39 64 74l42 232h-311l23 131h1384l-23 -131h-98z" />
    <glyph glyph-name="dvG_YA" horiz-adv-x="1253" 
d="M830 213c99 0 169 68 185 161v0l42 235h-147l-13 -74c-17 -103 -76 -177 -195 -191c-12 -76 34 -131 128 -131zM1107 0h-158l27 154c-46 -43 -112 -72 -193 -72c-169 0 -263 113 -233 282c3 20 9 40 15 60h10c113 0 157 53 172 140l8 45h-263l-39 -226
c-20 -120 -94 -214 -237 -214c-126 0 -203 73 -179 206c2 11 4 22 6 32h153l-6 -31c-7 -40 0 -73 40 -73c43 0 59 39 64 74l42 232h-311l23 131h1287l-24 -131h-97z" />
    <glyph glyph-name="dvG_R_YA" horiz-adv-x="1254" 
d="M831 213c99 0 169 68 185 161v0l42 235h-147l-13 -74c-17 -103 -76 -177 -195 -191c-12 -76 34 -131 128 -131zM784 82c-105 0 -182 44 -217 118l-257 -220h-181l417 339c1 15 2 30 5 45c3 20 9 40 15 60h10c113 0 157 53 172 140l8 45h-264l-26 -157
c-21 -121 -94 -214 -238 -214c-127 0 -203 74 -179 207c2 11 4 20 7 31h152l-6 -32c-8 -39 0 -72 40 -72c43 0 59 39 65 73l29 164h-311l24 131h1287l-24 -131h-97l-107 -609h-158l27 154c-46 -43 -112 -72 -193 -72z" />
    <glyph glyph-name="dvG_LA" horiz-adv-x="1412" 
d="M1342 274c-26 -147 -135 -248 -302 -244c-8 0 -25 1 -35 2l25 136c6 -1 17 -2 26 -2c64 0 115 43 127 115c11 61 -13 105 -70 105c-65 0 -100 -55 -112 -118l-4 -24h-130l4 24c12 62 -3 118 -68 118c-60 0 -98 -43 -109 -105c-13 -70 19 -115 90 -115c8 0 16 1 24 2
l-24 -137c-14 -1 -22 -1 -30 -1c-170 0 -245 114 -218 260c28 164 145 234 264 234c96 0 143 -54 158 -114h3c29 51 77 94 146 108l16 91h-631l-39 -226c-20 -120 -94 -214 -237 -214c-126 0 -203 73 -179 206c2 11 4 22 6 32h153l-6 -31c-7 -40 0 -73 40 -73
c43 0 59 39 64 74l42 232h-311l23 131h1446l-24 -131h-193l-19 -109c65 -36 104 -113 84 -226z" />
    <glyph glyph-name="dvG_VA" horiz-adv-x="1163" 
d="M785 187c73 0 121 56 131 111c11 59 -19 111 -93 111c-66 0 -121 -45 -133 -110c-11 -66 27 -112 95 -112zM1221 609h-97l-107 -609h-153l23 132c-40 -45 -97 -70 -162 -70c-136 0 -213 99 -184 253c23 133 119 220 254 220c71 0 121 -27 151 -69l25 143h-479l-39 -226
c-20 -120 -94 -214 -237 -214c-126 0 -203 73 -179 206c2 11 4 22 6 32h153l-6 -31c-7 -40 0 -73 40 -73c43 0 59 39 64 74l42 232h-311l23 131h1197z" />
    <glyph glyph-name="dvG_SA" horiz-adv-x="1324" 
d="M962 543c-8 -44 -23 -83 -45 -115h179l32 181h-154zM964 209c-13 -134 -104 -218 -242 -218c-145 0 -213 100 -191 227l34 194h75c108 0 151 54 165 131l12 66h-325l-39 -226c-20 -120 -94 -214 -237 -214c-126 0 -203 73 -179 206c2 11 4 22 6 32h153l-6 -31
c-7 -40 0 -73 40 -73c43 0 59 39 64 74l42 232h-311l23 131h1358l-23 -131h-98l-107 -609h-158l53 300h-371l-18 -98c-7 -44 8 -77 53 -77c44 0 68 34 77 84h150z" />
    <glyph glyph-name="dvGH_NA" horiz-adv-x="1220" 
d="M645 202c48 0 88 34 97 81c8 48 -20 82 -68 82c-50 0 -92 -34 -100 -82c-9 -48 20 -81 71 -81zM294 222c61 0 112 30 144 106l10 20v0c42 101 140 148 255 148h302l20 113h-748l-7 -40c-9 -50 9 -82 75 -82h40l-22 -126h-52c-61 0 -93 -28 -99 -67c-10 -48 30 -72 82 -72
zM1280 609h-98l-107 -609h-158l64 365h-126c11 -27 15 -61 8 -103c-21 -126 -128 -193 -235 -193c-86 0 -153 40 -183 104c-46 -52 -114 -79 -192 -79c-134 0 -226 66 -204 187c14 79 75 125 133 140v3c-51 14 -85 54 -71 138l8 47h-94l23 131h1255z" />
    <glyph glyph-name="dvGH_MA" horiz-adv-x="1242" 
d="M1020 464l25 145h-128l-26 -145h129zM626 194c48 0 76 35 86 87l10 55h-59c-49 0 -88 -25 -96 -72c-9 -45 21 -70 59 -70zM294 222c60 0 109 30 141 96l8 15c44 89 137 131 238 131h63l26 145h-493l-7 -40c-9 -50 9 -82 75 -82h40l-22 -126h-52c-61 0 -93 -28 -99 -67
c-9 -48 30 -72 82 -72zM1301 609h-98l-107 -609h-158l59 336h-129l-8 -47c-25 -141 -114 -228 -255 -228c-87 0 -149 36 -174 94c-46 -40 -108 -61 -178 -61c-134 0 -226 66 -204 187c14 79 75 125 133 140v3c-51 14 -85 54 -71 138l8 47h-94l23 131h1276z" />
    <glyph glyph-name="dvGH_YA" horiz-adv-x="1162" 
d="M294 222c93 0 148 60 164 138l1 4c3 20 9 40 15 60h10c113 0 157 53 172 140l8 45h-388l-7 -40c-9 -50 9 -82 75 -82h40l-22 -126h-52c-60 0 -92 -29 -99 -68c-8 -48 28 -71 83 -71zM739 213c99 0 169 68 185 161v0l42 235h-147l-13 -74c-17 -103 -76 -177 -195 -191
c-12 -76 34 -131 128 -131zM1220 609h-97l-107 -609h-158l27 154c-46 -43 -112 -72 -193 -72c-93 0 -164 34 -203 94c-55 -51 -130 -82 -218 -82c-157 0 -242 75 -221 188c14 78 73 124 131 139l1 3c-51 14 -86 54 -71 138l8 47h-94l23 131h1196z" />
    <glyph glyph-name="dvC_CA" horiz-adv-x="1117" 
d="M358 213c62 0 106 37 132 86c11 36 33 67 62 90h-170c-55 0 -101 -34 -111 -88c-10 -58 30 -88 87 -88zM1176 609h-97l-108 -609h-157l28 160c-47 -50 -113 -77 -188 -77c-74 0 -133 29 -159 82c-51 -53 -116 -84 -195 -84c-116 0 -203 73 -181 191c8 48 33 88 69 117
h-134l21 123h734l-22 -123h-42c-54 0 -100 -34 -110 -88c-10 -58 31 -89 89 -88c82 1 137 63 154 149l44 247h-897l23 131h1151z" />
    <glyph glyph-name="dvC_CHA" horiz-adv-x="1257" 
d="M798 154c154 0 251 62 272 179c10 54 -10 91 -48 91c-34 0 -67 -27 -76 -80c-5 -24 -4 -51 -1 -76h-129c-3 24 -4 57 3 94c17 93 77 146 150 167l14 80h-274l-11 -64c-9 -50 7 -82 65 -82h21l-23 -126h-17c-65 0 -102 -36 -110 -80c-11 -64 39 -103 164 -103zM1207 325
c-33 -185 -194 -305 -434 -305c-137 0 -244 43 -285 119c-46 -37 -104 -58 -167 -58c-122 0 -225 67 -202 191c8 48 33 88 69 117h-134l21 123h370l-22 -123h-41c-55 0 -101 -34 -111 -88c-10 -58 31 -88 89 -87c54 0 100 36 128 81c24 51 67 84 121 101v4
c-50 13 -84 54 -70 138l13 71h-527l23 131h1291l-23 -131h-188l-14 -81c74 -26 111 -98 93 -203z" />
    <glyph glyph-name="dvC_CH_VA" horiz-adv-x="1258" 
d="M735 -179c64 0 107 46 115 93l20 113c-31 -5 -63 -7 -94 -7v0c-68 -1 -112 -45 -123 -100c-11 -59 23 -99 82 -99zM798 154c154 0 251 62 272 179c10 54 -10 91 -48 91c-34 0 -67 -27 -76 -80c-5 -24 -4 -51 -1 -76h-129c-3 24 -4 57 3 94c17 93 77 146 150 167l14 80
h-274l-11 -64c-9 -50 7 -82 65 -82h21l-23 -126h-17c-65 0 -102 -36 -110 -80c-11 -64 39 -103 164 -103zM1207 325c-20 -111 -86 -199 -188 -252l-75 -425h-140l19 110c-36 -38 -87 -60 -150 -58c-120 4 -186 98 -167 206c11 64 43 113 89 145c-49 20 -86 50 -107 88
c-46 -37 -104 -58 -167 -58c-122 0 -225 67 -202 191c8 48 33 88 69 117h-134l21 123h370l-22 -123h-41c-55 0 -101 -34 -111 -88c-10 -58 31 -88 89 -87c54 0 100 36 128 81c24 51 67 84 121 101v4c-50 13 -84 54 -70 138l13 71h-527l23 131h1291l-23 -131h-188l-14 -81
c74 -26 111 -98 93 -203z" />
    <glyph glyph-name="dvC_NA" horiz-adv-x="1274" 
d="M699 202c48 0 88 34 97 81c8 48 -20 82 -68 82c-50 0 -92 -34 -100 -82c-9 -48 20 -81 71 -81zM1334 609h-98l-107 -609h-158l64 365h-126c11 -27 15 -61 8 -103c-21 -126 -128 -193 -235 -193c-79 0 -142 34 -175 89c-48 -49 -113 -77 -186 -77c-120 0 -225 67 -202 191
c8 48 33 88 69 117h-134l21 123h370l-22 -123h-41c-55 0 -101 -34 -111 -88c-10 -58 31 -88 89 -87c64 0 109 40 130 99c32 125 140 183 267 183h302l20 113h-1054l23 131h1309z" />
    <glyph glyph-name="dvC_MA" horiz-adv-x="1299" 
d="M1076 464l25 145h-128l-26 -145h129zM682 194c48 0 76 35 86 87l10 55h-59c-49 0 -88 -25 -96 -72c-9 -45 21 -70 59 -70zM1357 609h-98l-107 -609h-158l59 336h-129l-8 -47c-25 -141 -114 -228 -255 -228c-82 0 -142 32 -170 85c-47 -42 -107 -65 -178 -65
c-121 0 -217 67 -194 191c8 48 33 88 69 117h-134l21 123h370l-22 -123h-41c-55 0 -101 -34 -111 -88c-10 -58 30 -88 86 -88c60 0 106 38 130 90c36 109 139 161 250 161h63l26 145h-801l23 131h1332z" />
    <glyph glyph-name="dvC_YA" horiz-adv-x="1217" 
d="M794 213c99 0 169 68 185 161v0l42 235h-147l-13 -74c-17 -103 -76 -177 -195 -191c-12 -76 34 -131 128 -131zM1275 609h-97l-107 -609h-158l27 154c-46 -43 -112 -72 -193 -72c-97 0 -169 37 -207 100c-53 -64 -127 -101 -219 -101c-121 0 -225 64 -202 191
c8 48 33 88 69 117h-134l21 123h370l-22 -123h-41c-55 0 -101 -34 -111 -88c-10 -58 31 -89 89 -88c81 1 130 60 155 154c3 19 8 38 14 57h10c113 0 157 53 172 140l8 45h-694l23 131h1251z" />
    <glyph glyph-name="dvCH_YA" horiz-adv-x="1345" 
d="M363 154c154 0 251 62 272 179c10 54 -10 91 -48 91c-34 0 -67 -27 -76 -80c-5 -24 -4 -51 -1 -76h-129c-3 24 -4 57 3 94c22 124 121 177 225 177c68 0 119 -26 146 -73c53 11 77 42 86 92l9 51h-576l-11 -64c-9 -50 7 -82 65 -82h21l-23 -126h-17
c-65 0 -102 -36 -110 -80c-11 -64 39 -103 164 -103zM922 213c93 0 168 66 185 161v0l42 235h-147l-13 -74c-18 -105 -97 -181 -213 -192c8 -80 51 -130 146 -130zM1403 609h-97l-107 -609h-158l27 150c-45 -42 -106 -68 -182 -68c-88 0 -152 29 -190 80
c-75 -89 -199 -142 -358 -142c-195 0 -328 87 -299 231c15 76 67 124 135 145v4c-50 13 -84 54 -70 138l13 71h-94l23 131h1380z" />
    <glyph glyph-name="dvCH_R_YA" horiz-adv-x="1345" 
d="M363 154c154 0 251 62 272 179c10 54 -10 91 -48 91c-34 0 -67 -27 -76 -80c-5 -24 -4 -51 -1 -76h-129c-3 24 -4 57 3 94c22 124 121 177 225 177c68 0 119 -26 146 -73c53 11 77 42 86 92l9 51h-576l-11 -64c-9 -50 7 -82 65 -82h21l-23 -126h-17
c-65 0 -102 -36 -110 -80c-11 -64 39 -103 164 -103zM922 213c93 0 168 66 185 161v0l42 235h-147l-13 -74c-18 -105 -97 -181 -213 -192c8 -80 51 -130 146 -130zM422 -105l-71 119l-113 -119h-158l136 138c-125 29 -199 107 -177 218c15 76 67 124 135 145v4
c-50 13 -84 54 -70 138l13 71h-94l23 131h1380l-23 -131h-97l-107 -609h-158l27 150c-45 -42 -106 -68 -182 -68c-88 0 -152 29 -190 80c-49 -59 -119 -101 -207 -124l92 -143h-159z" />
    <glyph glyph-name="dvJ_KA" horiz-adv-x="1522" 
d="M907 0l24 135c-37 -43 -92 -71 -161 -71c-120 0 -197 99 -172 238c3 18 8 36 13 52h-107l-5 -30c-23 -131 -120 -225 -261 -224c-138 0 -218 93 -193 229l28 159h158l-29 -160c-10 -56 10 -91 56 -91s78 35 88 91l28 160h334c40 28 88 43 142 43c71 0 116 -28 138 -70
l26 148h-988l23 131h1555l-23 -131h-417l-25 -146c34 41 85 68 150 68c126 0 191 -105 167 -236c-27 -145 -127 -221 -246 -221c-23 0 -43 2 -66 8l22 123c6 -2 16 -3 25 -3c51 0 96 35 107 96c9 54 -19 99 -76 99c-65 0 -103 -50 -114 -111v0l-50 -286h-151zM841 196
c66 1 108 50 117 96v0l1 4l-1 -1c10 53 -16 103 -82 103c-58 0 -109 -40 -119 -101c-11 -61 26 -101 84 -101z" />
    <glyph glyph-name="dvJ_JA" horiz-adv-x="1426" 
d="M1280 0h-157l62 354h-115l-5 -30c-23 -131 -120 -225 -261 -224c-138 0 -218 93 -193 229l4 25h-111l-5 -30c-23 -131 -120 -225 -261 -224c-138 0 -218 93 -193 229l28 159h158l-29 -160c-10 -56 10 -91 56 -91s78 35 88 91l28 160h423l-29 -160c-10 -56 10 -91 56 -91
s78 35 88 91l28 160h269l21 121h-1204l23 131h1459l-24 -131h-97z" />
    <glyph glyph-name="dvJx_JxA" horiz-adv-x="1426" 
d="M1280 0h-157l62 354h-115l-5 -30c-23 -131 -120 -225 -261 -224c-138 0 -218 93 -193 229l4 25h-111l-5 -30c-23 -131 -120 -225 -261 -224c-138 0 -218 93 -193 229l28 159h158l-29 -160c-10 -56 10 -91 56 -91s78 35 88 91l28 160h423l-29 -160c-10 -56 10 -91 56 -91
s78 35 88 91l28 160h269l21 121h-1204l23 131h1459l-24 -131h-97zM192 -139c-51 0 -84 39 -75 89c9 52 56 93 107 93s84 -41 76 -93c-9 -50 -57 -89 -108 -89zM758 -139c-51 0 -84 39 -75 89c9 52 56 93 107 93s84 -41 76 -93c-9 -50 -57 -89 -108 -89z" />
    <glyph glyph-name="dvJ_J_NYA" horiz-adv-x="1386" 
d="M1084 0l64 362h-146c33 -28 52 -72 43 -134c-15 -108 -102 -180 -212 -175c-61 2 -108 23 -133 57l-22 -127h-152l50 286h147c-4 -54 30 -87 84 -87c57 0 94 37 102 84c11 60 -28 96 -86 96h-317l-7 -38c-23 -131 -120 -225 -261 -224c-138 0 -218 93 -193 229l28 159
h158l-29 -160c-10 -56 10 -91 56 -91s78 35 88 91l28 160h796l21 121h-1165l23 131h1419l-23 -131h-99l-107 -609h-155z" />
    <glyph glyph-name="dvJ_J_YA" horiz-adv-x="1880" 
d="M1457 213c100 0 169 68 185 161v0l42 235h-146l-13 -74c-16 -96 -84 -171 -195 -190c-9 -74 35 -132 127 -132zM1735 0h-159l27 153c-47 -43 -113 -71 -197 -71c-148 0 -237 95 -231 239c-21 -1 -46 -1 -75 -1h-36c-25 -129 -120 -221 -261 -220c-133 0 -214 85 -193 224
h-111c-24 -131 -120 -225 -261 -224c-138 0 -218 92 -193 229l23 129h158l-24 -130c-10 -56 10 -91 56 -91s78 35 88 91l23 130h423l-24 -130c-10 -56 10 -91 56 -91s78 34 88 91l22 122h274c113 0 155 44 167 114l8 45h-1357l23 131h1913l-23 -131h-97z" />
    <glyph glyph-name="dvJ_J_VA" horiz-adv-x="1788" 
d="M1410 187c73 0 121 56 131 111c11 59 -19 111 -93 111c-66 0 -121 -45 -133 -110c-11 -66 27 -112 95 -112zM1846 609h-97l-107 -609h-153l23 132c-40 -45 -97 -70 -162 -70c-136 0 -213 99 -184 253c2 14 5 27 9 39h-105l-5 -30c-23 -131 -120 -225 -261 -224
c-138 0 -218 93 -193 229l4 25h-111l-5 -30c-23 -131 -120 -225 -261 -224c-138 0 -218 93 -193 229l28 159h158l-29 -160c-10 -56 10 -91 56 -91s78 35 88 91l28 160h423l-29 -160c-10 -56 10 -91 56 -91s78 35 88 91l28 160h327c42 30 94 47 153 47c71 0 121 -27 151 -69
l25 143h-1570l23 131h1821z" />
    <glyph glyph-name="dvJ_JHA" horiz-adv-x="1421" 
d="M823 333h355l48 276h-164l-13 -73v0l-20 -111h-186c-31 0 -67 -11 -73 -47c-6 -32 17 -45 53 -45zM1119 0l38 215h-127c7 -22 9 -48 4 -78c-16 -87 -86 -152 -191 -152c-68 0 -105 31 -120 48l-21 -117h-148l45 253h141c-4 -41 21 -69 73 -69c47 0 75 25 80 58
c6 39 -18 64 -76 64c-20 0 -39 0 -63 2c-70 4 -143 40 -144 130h-106l-5 -30c-23 -131 -120 -225 -261 -224c-138 0 -218 93 -193 229l28 159h158l-29 -160c-10 -56 10 -91 56 -91s78 35 88 91l28 160h293c40 34 97 48 157 48h73l12 73h-883l23 131h1453l-23 -131h-99
l-106 -609h-155z" />
    <glyph glyph-name="dvJ_NY_YA" horiz-adv-x="1323" 
d="M900 213c99 0 169 68 185 161v0l42 235h-147l-13 -74c-17 -103 -76 -177 -195 -191c-12 -76 34 -131 128 -131zM1177 0h-158l27 154c-46 -43 -112 -72 -193 -72c-156 0 -248 96 -238 244c-5 36 -35 51 -82 51h-62c29 -28 45 -71 37 -130c-15 -109 -102 -178 -211 -174
c-62 2 -109 23 -134 56l-22 -127h-152l50 287h146c-3 -54 30 -88 84 -88c57 0 95 38 103 84c11 63 -34 92 -86 92h-40l22 125h289c86 0 142 -23 171 -65c53 21 78 66 89 127l8 45h-799l23 131h1356l-24 -131h-97z" />
    <glyph glyph-name="dvJ_TTA" horiz-adv-x="1198" 
d="M835 20c-167 0 -274 104 -248 261c5 26 12 51 21 73h-104l-5 -30c-23 -131 -120 -225 -261 -224c-138 0 -218 93 -193 229l28 159h158l-29 -160c-10 -56 10 -91 56 -91s78 35 88 91l28 160h356c51 29 114 44 185 45l14 76h-903l23 131h1231l-24 -131h-173l-36 -208h-137
c-79 0 -150 -42 -165 -126c-13 -70 29 -119 107 -119c79 0 138 52 151 127h149c-27 -159 -147 -263 -317 -263z" />
    <glyph glyph-name="dvJ_DDA" horiz-adv-x="1097" 
d="M778 -20c-144 0 -247 70 -230 193h156c-6 -50 30 -75 83 -75c50 0 85 24 92 61c8 45 -24 63 -75 63h-35c-69 0 -174 28 -172 132h-93l-5 -30c-23 -131 -120 -225 -261 -224c-138 0 -218 93 -193 229l28 159h158l-29 -160c-10 -56 10 -91 56 -91s78 35 88 91l28 160h285
c39 32 93 47 150 47h71l13 74h-867l23 131h1130l-22 -131h-112l-33 -184h-182c-33 0 -68 -11 -74 -46c-6 -34 19 -46 52 -46h44c109 0 198 -54 176 -180c-19 -107 -104 -173 -250 -173z" />
    <glyph glyph-name="dvJ_TA" horiz-adv-x="1266" 
d="M1120 0h-157l62 357h-124c-80 0 -141 -40 -154 -115c-13 -71 21 -117 105 -117h18l-21 -124h-28c-137 0 -260 77 -232 248c7 42 21 79 40 109h-124l-6 -34c-24 -131 -120 -225 -261 -224c-138 0 -218 93 -193 229l29 164h158l-30 -165c-10 -56 10 -91 56 -91s78 35 88 91
l29 164h674l20 117h-1043l23 131h1299l-23 -131h-99z" />
    <glyph glyph-name="dvJ_DA" horiz-adv-x="1166" 
d="M1031 -33h-154l26 148c-33 -32 -81 -50 -137 -50c-110 0 -199 82 -172 235c3 19 8 37 15 54h-105l-5 -30c-23 -131 -120 -225 -261 -224c-138 0 -218 93 -193 229l28 159h158l-29 -160c-10 -56 10 -91 56 -91s78 35 88 91l28 160h352c50 28 111 41 176 41h37l14 80h-927
l23 131h1198l-24 -131h-112l-38 -214h-179c-72 0 -129 -38 -140 -106c-11 -60 21 -100 80 -100c49 0 96 33 106 92h146z" />
    <glyph glyph-name="dvJ_NA" horiz-adv-x="1378" 
d="M802 194c48 0 89 35 97 82s-20 81 -68 81c-50 0 -91 -34 -100 -82s20 -81 71 -81zM1231 0h-157l63 357h-126c12 -27 17 -61 9 -103c-23 -126 -128 -193 -236 -193c-130 0 -219 94 -195 223c5 26 12 49 22 70h-107l-5 -30c-23 -131 -120 -225 -261 -224
c-138 0 -218 93 -193 229l28 159h158l-29 -160c-10 -56 10 -91 56 -91s78 35 88 91l28 160h786l22 121h-1156l23 131h1411l-24 -131h-97z" />
    <glyph glyph-name="dvJ_BA" horiz-adv-x="1237" 
d="M843 171c36 0 66 10 91 28l-185 161c-10 -16 -18 -35 -21 -56c-16 -83 40 -133 115 -133zM940 0l23 127c-40 -42 -101 -68 -172 -68c-139 0 -224 108 -199 253c3 15 6 29 11 42h-99l-5 -30c-23 -131 -120 -225 -261 -224c-138 0 -218 93 -193 229l28 159h158l-29 -160
c-10 -56 10 -91 56 -91s78 35 88 91l28 160h326c47 34 107 53 174 53c69 0 119 -24 150 -61l23 129h-1021l23 131h1270l-23 -131h-98l-107 -609h-151zM890 440c-33 0 -66 -10 -92 -28l184 -162c10 17 17 36 21 55c12 72 -28 135 -113 135z" />
    <glyph glyph-name="dvJ_MA" horiz-adv-x="1405" 
d="M791 205c48 0 77 37 86 87l10 55h-59c-49 0 -88 -25 -96 -71c-9 -45 19 -71 59 -71zM1185 477l23 132h-128l-24 -132h129zM1259 0h-158l61 347h-129l-8 -46c-25 -142 -112 -229 -255 -229c-126 0 -205 78 -184 195c6 33 16 61 32 85h-114l-5 -28
c-23 -131 -120 -225 -259 -224c-148 0 -219 98 -195 230l27 152h157l-27 -154c-10 -56 10 -91 56 -91s78 35 88 91l26 149h538l23 132h-908l23 131h1439l-23 -131h-98z" />
    <glyph glyph-name="dvJ_YA" horiz-adv-x="1314" 
d="M891 213c100 0 169 68 185 161v0l42 235h-146l-13 -74c-16 -96 -84 -171 -195 -190c-9 -74 35 -132 127 -132zM1169 0h-159l27 153c-47 -43 -113 -71 -197 -71c-148 0 -237 95 -231 239c-21 -1 -46 -1 -75 -1h-36c-25 -129 -120 -221 -261 -220c-136 0 -218 90 -191 235
l22 123h158l-24 -130c-10 -56 10 -91 56 -91s78 34 88 91l22 122h274c113 0 155 44 167 114l8 45h-792l23 131h1348l-23 -131h-97z" />
    <glyph glyph-name="dvJx_YA" horiz-adv-x="1314" 
d="M891 213c100 0 169 68 185 161v0l42 235h-146l-13 -74c-16 -96 -84 -171 -195 -190c-9 -74 35 -132 127 -132zM1169 0h-159l27 153c-47 -43 -113 -71 -197 -71c-148 0 -237 95 -231 239c-21 -1 -46 -1 -75 -1h-36c-25 -129 -120 -221 -261 -220c-136 0 -218 90 -191 235
l22 123h158l-24 -130c-10 -56 10 -91 56 -91s78 34 88 91l22 122h274c113 0 155 44 167 114l8 45h-792l23 131h1348l-23 -131h-97zM192 -139c-51 0 -84 39 -75 89c9 52 56 93 107 93s84 -41 76 -93c-9 -50 -57 -89 -108 -89z" />
    <glyph glyph-name="dvJ_VA" horiz-adv-x="1222" 
d="M844 187c73 0 121 56 131 111c11 59 -19 111 -93 111c-66 0 -121 -45 -133 -110c-11 -66 27 -112 95 -112zM1280 609h-97l-107 -609h-153l23 132c-40 -45 -97 -70 -162 -70c-136 0 -213 99 -184 253c2 14 5 27 9 39h-105l-5 -30c-23 -131 -120 -225 -261 -224
c-138 0 -218 93 -193 229l28 159h158l-29 -160c-10 -56 10 -91 56 -91s78 35 88 91l28 160h327c42 30 94 47 153 47c71 0 121 -27 151 -69l25 143h-1004l23 131h1255z" />
    <glyph glyph-name="dvJH_NA" horiz-adv-x="1373" 
d="M280 333h314c38 112 141 163 261 163h302l20 113h-658l-13 -73v0l-20 -111h-186c-31 0 -67 -11 -73 -47c-6 -32 17 -45 53 -45zM797 202c48 0 88 34 97 81c8 48 -20 82 -68 82c-50 0 -92 -34 -100 -82c-9 -48 20 -81 71 -81zM180 33l-21 -117h-148l45 253h141
c-4 -41 21 -69 73 -69c47 0 75 25 80 58c6 39 -18 64 -76 64c-20 0 -39 0 -63 2c-79 4 -161 50 -141 165c18 108 111 147 211 147h73l12 73h-334l24 131h1399l-23 -131h-98l-107 -609h-158l64 365h-126c11 -27 15 -61 8 -103c-21 -126 -128 -193 -235 -193
c-103 0 -180 58 -196 146h-97c7 -22 9 -48 4 -78c-16 -87 -86 -152 -191 -152c-68 0 -105 31 -120 48z" />
    <glyph glyph-name="dvJH_MA" horiz-adv-x="1404" 
d="M1182 464l25 145h-128l-26 -145h129zM788 194c48 0 76 35 86 87l10 55h-59c-49 0 -88 -25 -96 -72c-9 -45 21 -70 59 -70zM280 333h325c44 89 137 131 238 131h63l26 145h-413l-13 -73v0l-20 -111h-186c-31 0 -67 -11 -73 -47c-6 -32 17 -45 53 -45zM180 33l-21 -117
h-148l45 253h141c-4 -41 21 -69 73 -69c47 0 75 25 80 58c6 39 -18 64 -76 64c-20 0 -39 0 -63 2c-79 4 -161 50 -141 165c18 108 111 147 211 147h73l12 73h-334l24 131h1430l-23 -131h-98l-107 -609h-158l59 336h-129l-8 -47c-25 -141 -114 -228 -255 -228
c-113 0 -184 60 -188 154h-92c7 -22 9 -48 4 -78c-16 -87 -86 -152 -191 -152c-68 0 -105 31 -120 48z" />
    <glyph glyph-name="dvJH_YA" horiz-adv-x="1301" 
d="M280 333h314c1 10 2 20 4 31c3 20 9 40 15 60h10c113 0 157 53 172 140l8 45h-284l-13 -73v0l-20 -111h-186c-31 0 -67 -11 -73 -47c-6 -32 17 -45 53 -45zM878 213c99 0 169 68 185 161v0l42 235h-147l-13 -74c-17 -103 -76 -177 -195 -191c-12 -76 34 -131 128 -131z
M180 33l-21 -117h-148l45 253h141c-4 -41 21 -69 73 -69c47 0 75 25 80 58c6 39 -18 64 -76 64c-20 0 -39 0 -63 2c-79 4 -161 50 -141 165c18 108 111 147 211 147h73l12 73h-334l24 131h1327l-24 -131h-97l-107 -609h-158l27 154c-46 -43 -112 -72 -193 -72
c-112 0 -191 50 -223 133h-121c7 -22 9 -48 4 -78c-16 -87 -86 -152 -191 -152c-68 0 -105 31 -120 48z" />
    <glyph glyph-name="dvNY_CA" horiz-adv-x="1268" 
d="M1122 0h-157l28 160c-47 -50 -115 -77 -189 -77c-87 0 -153 41 -170 113h-160c-48 -89 -137 -142 -243 -142c-131 0 -212 75 -200 195h148c5 -39 34 -63 76 -63c61 0 102 48 112 108c10 57 -12 107 -73 107c-44 0 -82 -25 -99 -63h-148c30 121 137 196 269 196
c133 0 210 -84 196 -216h136c12 28 31 52 55 71h-134l21 123h370l-22 -123h-41c-55 0 -101 -34 -111 -88c-10 -58 31 -89 90 -88c80 1 137 63 153 154v0l43 242h-1047l23 131h1302l-23 -131h-97z" />
    <glyph glyph-name="dvNY_CHA" horiz-adv-x="1352" 
d="M892 154c154 0 251 62 272 179c10 54 -10 91 -48 91c-34 0 -67 -27 -76 -80c-5 -24 -4 -51 -1 -76h-129c-3 24 -4 57 3 94c17 93 77 146 150 167l14 80h-274l-11 -64c-9 -50 7 -82 65 -82h21l-23 -126h-17c-65 0 -102 -36 -110 -80c-11 -64 39 -103 164 -103zM867 20
c-187 0 -317 80 -302 214h-73c-42 -112 -140 -180 -261 -180c-131 0 -212 75 -200 195h148c5 -39 34 -63 76 -63c61 0 102 48 112 108c10 57 -12 107 -73 107c-44 0 -82 -25 -99 -63h-148c30 121 137 196 269 196c116 0 190 -64 197 -168h128c18 13 39 23 62 30v4
c-50 13 -84 54 -70 138l13 71h-621l23 131h1385l-23 -131h-188l-14 -81c74 -26 111 -98 93 -203c-33 -185 -194 -305 -434 -305z" />
    <glyph glyph-name="dvNY_JA" horiz-adv-x="1401" 
d="M1255 0h-157l62 354h-115l-5 -30c-23 -131 -120 -225 -261 -224c-103 0 -173 52 -192 134h-95c-42 -112 -140 -180 -261 -180c-131 0 -212 75 -200 195h148c5 -39 34 -63 76 -63c61 0 102 48 112 108c10 57 -12 107 -73 107c-44 0 -82 -25 -99 -63h-148
c30 121 137 196 269 196c116 0 190 -64 197 -168h80l21 122h158l-29 -160c-10 -56 10 -91 56 -91s78 35 88 91l28 160h269l21 121h-1180l23 131h1435l-24 -131h-97z" />
    <glyph glyph-name="dvNY_SHA" horiz-adv-x="1389" 
d="M781 -7c-150 0 -233 91 -207 234l1 7h-83c-42 -112 -140 -180 -261 -180c-131 0 -212 75 -200 195h148c4 -39 34 -63 76 -63c61 0 102 48 112 108c10 57 -13 107 -74 107c-43 0 -81 -25 -98 -63h-148c30 121 137 196 269 196c116 0 188 -63 196 -167h87l9 52h140
c87 0 177 27 193 116c7 46 -15 78 -56 78c-58 0 -89 -53 -89 -113h-157c3 41 13 77 27 109h-641l23 131h779c23 6 48 9 75 9c129 0 222 -82 196 -225c-29 -164 -164 -237 -315 -237h-39l-12 -70c-9 -48 4 -89 61 -89c50 0 79 37 89 97h153c-18 -143 -103 -232 -254 -232z
M1083 0l131 740h257l-24 -131h-97l-108 -609h-159z" />
    <glyph glyph-name="dvTT_TTA" horiz-adv-x="668" 
d="M25 609l23 131h703l-24 -131h-188l-36 -203h-152c-69 0 -130 -36 -143 -103c-12 -59 25 -103 105 -103c84 0 136 46 147 113h150c-26 -150 -138 -243 -317 -248c-68 -2 -132 -31 -145 -104c-11 -59 25 -103 105 -103c84 0 135 46 147 114h150
c-27 -151 -143 -249 -317 -249c-170 0 -270 94 -245 235c14 77 62 136 127 172c-53 39 -78 101 -64 180c24 137 143 228 314 228h6l13 71h-359z" />
    <glyph glyph-name="dvTT_TTHA" horiz-adv-x="670" 
d="M25 609l23 131h704l-23 -131h-190l-36 -203h-151c-69 0 -133 -34 -144 -103c-11 -59 26 -103 105 -103c82 0 136 47 148 113h150c-14 -79 -58 -142 -126 -181c52 -36 80 -95 65 -177c-26 -147 -163 -231 -321 -231s-265 84 -239 231c14 82 61 140 126 176
c-59 41 -77 106 -64 179c24 137 143 228 313 228h7l12 71h-359zM252 -144c77 0 131 41 142 106c12 65 -27 106 -104 106c-76 0 -132 -42 -143 -106c-11 -65 27 -106 105 -106z" />
    <glyph glyph-name="dvTT_YA" horiz-adv-x="1305" 
d="M1005 0l20 115c-40 -44 -95 -72 -173 -72c-119 0 -212 73 -182 240c1 8 3 16 4 24h55c45 0 77 11 82 45c7 41 -31 49 -67 49h-387c-79 0 -150 -42 -165 -126c-13 -70 29 -119 107 -119c79 0 138 52 151 127h149c-27 -159 -147 -263 -317 -263c-167 0 -274 104 -248 261
c28 160 152 249 328 252l14 76h-352l23 131h1340l-23 -131h-98l-107 -609h-154zM904 161c71 0 133 48 153 137l55 311h-582l-15 -84h257c143 0 212 -56 194 -156c-12 -65 -67 -114 -153 -125c-1 -43 23 -83 91 -83z" />
    <glyph glyph-name="dvTT_VA" horiz-adv-x="659" 
d="M236 -126c60 0 102 41 115 88l20 111c-28 -5 -58 -8 -90 -8c-72 0 -116 -44 -127 -97c-10 -56 23 -94 82 -94zM25 609l23 131h693l-23 -131h-176l-36 -203h-155c-71 0 -135 -34 -147 -103c-10 -59 27 -103 111 -103c87 0 143 47 154 113h149c-12 -69 -43 -125 -90 -167
l-79 -445h-144l20 115c-39 -40 -93 -63 -156 -63c-127 0 -186 92 -166 205c12 69 53 129 112 165c-57 40 -81 106 -67 186c25 138 144 229 314 229h13l13 71h-363z" />
    <glyph glyph-name="dvTTH_TTHA" horiz-adv-x="673" 
d="M248 -146c76 0 130 42 142 108c11 66 -28 107 -104 107c-75 0 -129 -41 -141 -107s27 -108 103 -108zM309 199c76 0 129 41 141 108c12 65 -27 107 -103 107s-130 -42 -141 -107c-12 -66 27 -108 103 -108zM225 -276c-155 0 -262 84 -237 231c14 78 58 135 117 171
c-47 41 -69 102 -55 182c23 132 124 206 240 228l12 73h-277l23 131h707l-23 -131h-275l-12 -73c108 -22 183 -97 160 -229c-14 -80 -57 -141 -118 -181c47 -37 71 -93 57 -171c-26 -147 -162 -231 -319 -231z" />
    <glyph glyph-name="dvTTH_YA" horiz-adv-x="1314" 
d="M296 161c78 0 137 51 150 123c12 73 -29 124 -106 124c-76 0 -135 -51 -147 -123c-13 -72 29 -124 103 -124zM914 173c69 0 131 47 152 135l53 301h-667l-14 -79h342c143 0 212 -55 195 -153c-12 -65 -67 -114 -155 -125c0 -42 27 -79 94 -79zM1012 0l22 126
c-40 -43 -95 -71 -172 -71c-119 0 -211 71 -183 237c1 8 3 15 5 22h54c45 0 75 13 82 46c7 41 -31 49 -64 49h-183c22 -35 30 -81 20 -135c-27 -156 -159 -244 -313 -244c-153 0 -272 99 -243 261c23 140 127 219 246 242l14 76h-274l23 131h1348l-23 -131h-98l-107 -609
h-154z" />
    <glyph glyph-name="dvTTH_VA" horiz-adv-x="673" 
d="M314 204c75 0 129 42 141 108s-27 107 -102 107c-78 0 -133 -40 -145 -106s28 -109 106 -109zM237 -116c57 0 100 39 114 82l20 117c-27 -5 -56 -8 -86 -8c-67 0 -116 -38 -127 -97c-10 -56 21 -94 79 -94zM453 -288h-147l20 114c-38 -40 -91 -63 -151 -63
c-127 0 -187 89 -166 209c12 69 50 126 105 161c-50 39 -74 102 -60 183c24 131 124 203 241 226l12 67h-282l23 131h707l-23 -131h-271l-11 -67c108 -23 183 -98 159 -230c-10 -60 -37 -109 -77 -147z" />
    <glyph glyph-name="dvDD_DDA" horiz-adv-x="578" 
d="M25 609l23 131h612l-23 -131h-121l-17 -97v0l-13 -71h-184c-35 0 -63 -9 -69 -38c-6 -33 26 -40 77 -40c136 0 219 -35 199 -152c-18 -100 -114 -157 -268 -157c-52 0 -80 -11 -84 -38c-7 -36 29 -40 80 -40c139 0 226 -32 204 -152c-19 -101 -111 -158 -254 -158
c-139 0 -236 59 -222 170h149c-5 -44 31 -68 89 -68c51 0 83 20 89 55c9 51 -38 56 -89 56c-129 0 -211 32 -192 133c8 45 37 77 78 96c-41 25 -65 64 -56 116h149c-2 -38 30 -67 90 -67c51 0 83 22 89 55c9 49 -42 54 -90 54c-128 0 -209 38 -191 141
c17 95 103 136 204 136h74l12 66h-345z" />
    <glyph glyph-name="dvDD_DDHA" horiz-adv-x="587" 
d="M43 609l23 131h601l-23 -131h-115l-17 -97v0l-13 -71h-184c-32 0 -63 -9 -69 -40c-6 -33 26 -38 77 -38c135 0 219 -35 198 -152c-17 -95 -98 -143 -243 -158c-91 -8 -169 -56 -185 -146c-15 -75 25 -132 133 -132c71 0 128 26 138 75c5 29 -10 50 -43 50
c-30 0 -51 -18 -56 -42c-1 -5 -1 -10 1 -15h-102c-1 13 0 26 2 36c15 79 83 123 177 123c108 0 161 -63 146 -150c-18 -111 -116 -180 -277 -180s-279 81 -251 239c17 93 73 159 149 192c-47 24 -74 66 -65 121h150c-3 -38 29 -67 90 -67c51 0 83 22 88 55
c10 49 -41 54 -90 54c-128 0 -208 35 -190 139c17 95 103 138 203 138h75l12 66h-340z" />
    <glyph glyph-name="dvDD_YA" horiz-adv-x="1210" 
d="M911 0l23 127c-40 -43 -96 -72 -173 -72c-120 0 -213 71 -183 238c1 7 2 15 4 23h50c43 0 82 14 89 53c8 45 -36 56 -71 56h-350c-33 0 -68 -11 -74 -46c-6 -34 19 -46 52 -46h44c109 0 198 -54 176 -180c-19 -107 -104 -173 -250 -173c-144 0 -247 70 -230 193h156
c-6 -50 30 -75 83 -75c50 0 85 24 92 61c8 45 -24 63 -75 63h-35c-75 0 -192 33 -169 162c18 105 109 151 209 151h71l13 74h-336l23 131h1243l-23 -131h-97l-108 -609h-154zM813 173c72 0 137 52 155 149v0l51 287h-504l-14 -78h179c149 0 211 -55 194 -151
c-12 -68 -67 -116 -153 -127c-1 -43 25 -80 92 -80z" />
    <glyph glyph-name="dvDD_VA" horiz-adv-x="589" 
d="M382 -326h-132l20 115c-35 -32 -82 -49 -136 -49c-110 0 -173 75 -154 183c12 69 55 125 115 154c-50 30 -75 78 -66 131h150c-3 -37 30 -65 90 -65c51 0 83 21 90 57c8 53 -41 59 -101 59c-81 0 -201 18 -178 148c16 94 102 136 203 136h74l12 66h-344l23 131h623
l-23 -131h-133l-17 -97v0l-12 -71h-184c-30 0 -64 -9 -70 -44c-9 -42 38 -40 100 -42c119 -5 192 -46 173 -156c-6 -38 -23 -69 -48 -94zM190 -150c55 0 95 37 105 76l21 117c-20 -3 -41 -4 -63 -4c-69 0 -124 -34 -136 -100c-10 -55 24 -89 73 -89z" />
    <glyph glyph-name="dvDDH_DDHA" horiz-adv-x="676" 
d="M25 609l23 131h710l-23 -131h-197l-28 -158h-117c-95 0 -177 -50 -194 -146c-15 -80 26 -140 137 -140c75 0 136 26 143 76c5 29 -10 50 -44 50c-33 0 -58 -19 -61 -43c0 -4 0 -10 1 -14h-102c0 12 0 25 2 35c14 81 86 124 182 124c113 0 164 -63 148 -151
c-20 -112 -131 -179 -278 -179c-95 0 -180 -51 -197 -147c-15 -80 26 -139 137 -139c76 0 134 26 143 75c6 29 -9 50 -45 50c-31 0 -54 -18 -59 -42c-1 -5 0 -10 1 -15h-102c-1 12 0 25 2 35c14 80 85 124 180 124c110 0 165 -63 150 -150c-19 -112 -122 -180 -292 -180
c-168 0 -286 85 -258 242c17 91 72 158 149 195c-63 42 -95 110 -79 201c27 152 155 236 307 236h29l11 61h-379z" />
    <glyph glyph-name="dvDDH_YA" horiz-adv-x="1324" 
d="M1024 0l22 127c-40 -43 -95 -72 -173 -72c-119 0 -212 71 -183 238c2 7 4 16 5 23h45c47 0 87 15 95 57c7 49 -38 60 -77 60h-352c-106 0 -200 -57 -218 -167c-17 -91 27 -162 144 -162c73 0 133 32 144 91c6 33 -13 56 -44 56c-29 0 -53 -17 -59 -46
c-1 -6 -2 -15 -2 -18h-110c0 13 1 27 3 38c15 89 93 138 194 138c104 0 169 -70 151 -173c-23 -122 -128 -199 -293 -199c-184 0 -309 114 -278 289c31 171 172 261 336 261h19l12 68h-379l23 131h1357l-23 -131h-98l-107 -609h-154zM926 173c73 0 137 52 154 148v0l51 288
h-578l-13 -73h252c149 0 212 -53 195 -153c-13 -79 -75 -119 -154 -129c-1 -42 25 -81 93 -81z" />
    <glyph glyph-name="dvDDH_VA" horiz-adv-x="658" 
d="M25 609l23 131h692l-23 -131h-182l-27 -158h-114c-95 0 -178 -50 -195 -146c-15 -80 25 -140 136 -140c73 0 130 27 139 76c5 29 -10 50 -41 50s-53 -18 -58 -43c-1 -4 -1 -10 1 -14h-102c-1 12 0 25 2 35c14 81 85 124 180 124c109 0 159 -63 144 -150
c-10 -53 -39 -97 -85 -127l-78 -442h-131l25 142c-37 -39 -88 -62 -147 -62c-128 0 -190 83 -170 193c13 70 56 127 117 160c-60 40 -90 110 -74 205c27 152 156 236 307 236h26l11 61h-376zM243 -126c61 0 101 42 114 89l18 104c-20 -3 -40 -4 -62 -4
c-76 0 -136 -31 -149 -98c-10 -53 23 -91 79 -91z" />
    <glyph glyph-name="dvNN_TTA" horiz-adv-x="1204" 
d="M286 277c43 0 72 30 80 74l45 258h-134l-45 -258c-9 -44 13 -74 54 -74zM1159 283c-27 -159 -147 -263 -317 -263c-167 0 -274 104 -248 261c28 160 152 249 328 252l14 76h-370l-44 -244c-21 -125 -101 -220 -245 -220c-140 0 -221 89 -197 220l43 244h-98l23 131h1239
l-24 -131h-173l-36 -208h-137c-79 0 -150 -42 -165 -126c-13 -70 29 -119 107 -119c79 0 138 52 151 127h149z" />
    <glyph glyph-name="dvNN_TTHA" horiz-adv-x="1240" 
d="M867 161c76 0 136 51 149 123c12 72 -28 124 -106 124c-74 0 -134 -50 -147 -122s28 -125 104 -125zM286 277c43 0 72 30 80 74l45 258h-134l-45 -258c-9 -44 13 -74 54 -74zM850 30c-154 0 -272 100 -243 262c24 141 129 219 247 241l14 76h-302l-44 -244
c-21 -125 -101 -220 -245 -220c-140 0 -221 89 -197 220l43 244h-98l23 131h1274l-23 -131h-277l-14 -79c110 -28 188 -115 163 -252c-27 -159 -163 -248 -321 -248z" />
    <glyph glyph-name="dvNN_DDA" horiz-adv-x="1135" 
d="M286 277c43 0 72 30 80 74l45 258h-134l-45 -258c-9 -44 13 -74 54 -74zM816 -20c-144 0 -247 70 -230 193h156c-6 -50 30 -75 83 -75c50 0 85 24 92 61c8 45 -24 63 -75 63h-35c-75 0 -192 33 -169 162c18 105 109 151 209 151h71l13 74h-365l-44 -244
c-21 -125 -101 -220 -245 -220c-140 0 -221 89 -197 220l43 244h-98l23 131h1169l-22 -131h-112l-33 -184h-182c-33 0 -68 -11 -74 -46c-6 -34 19 -46 52 -46h44c109 0 198 -54 176 -180c-19 -107 -104 -173 -250 -173z" />
    <glyph glyph-name="dvNN_DDHA" horiz-adv-x="1226" 
d="M286 277c43 0 72 30 80 74l45 258h-134l-45 -258c-9 -44 13 -74 54 -74zM1179 190c-23 -122 -128 -199 -293 -199c-184 0 -309 114 -278 289c31 171 172 261 336 261h19l12 68h-409l-44 -244c-21 -125 -101 -220 -245 -220c-140 0 -221 89 -197 220l43 244h-98l23 131
h1260l-23 -131h-162l-31 -176h-116c-106 0 -200 -57 -218 -167c-17 -91 27 -162 144 -162c73 0 133 32 144 91c6 33 -13 56 -44 56c-29 0 -53 -17 -59 -46c-1 -6 -2 -15 -2 -18h-110c0 13 1 27 3 38c15 89 93 138 194 138c104 0 169 -70 151 -173z" />
    <glyph glyph-name="dvNN_NNA" horiz-adv-x="1451" 
d="M286 277c43 0 72 30 80 74l45 258h-134l-45 -258c-9 -44 13 -74 54 -74zM841 277c43 0 72 30 80 74l45 258h-134l-45 -258c-9 -44 13 -74 54 -74zM1510 609h-98l-108 -609h-157l107 609h-133l-44 -244c-21 -125 -101 -220 -245 -220c-140 0 -221 89 -197 220l43 244h-112
l-44 -244c-21 -125 -101 -220 -245 -220c-140 0 -221 89 -197 220l43 244h-98l23 131h1485z" />
    <glyph glyph-name="dvNN_MA" horiz-adv-x="1406" 
d="M1184 464l25 145h-128l-26 -145h129zM790 194c48 0 76 35 86 87l10 55h-59c-49 0 -88 -25 -96 -72c-9 -45 21 -70 59 -70zM286 277c43 0 72 30 80 74l45 258h-134l-45 -258c-9 -44 13 -74 54 -74zM1465 609h-98l-107 -609h-158l59 336h-129l-8 -47
c-25 -141 -114 -228 -255 -228c-132 0 -206 82 -184 203c23 136 136 200 260 200h63l26 145h-368l-44 -244c-21 -125 -101 -220 -245 -220c-140 0 -221 89 -197 220l43 244h-98l23 131h1440z" />
    <glyph glyph-name="dvNN_YA" horiz-adv-x="1312" 
d="M1370 609h-97l-107 -609h-158l27 154c-46 -43 -112 -72 -193 -72c-169 0 -263 113 -233 282c3 20 9 40 15 60h10c113 0 157 53 172 140l8 45h-248l-44 -244c-21 -125 -101 -220 -245 -220c-140 0 -221 89 -197 220l43 244h-98l23 131h1346zM286 277c43 0 72 30 80 74
l45 258h-134l-45 -258c-9 -44 13 -74 54 -74zM889 213c99 0 169 68 185 161v0l42 235h-147l-13 -74c-17 -103 -76 -177 -195 -191c-12 -76 34 -131 128 -131z" />
    <glyph glyph-name="dvNN_VA" horiz-adv-x="1238" 
d="M860 187c73 0 121 56 131 111c11 59 -19 111 -93 111c-66 0 -121 -45 -133 -110c-11 -66 27 -112 95 -112zM286 277c43 0 72 30 80 74l45 258h-134l-45 -258c-9 -44 13 -74 54 -74zM1296 609h-97l-107 -609h-153l23 132c-40 -45 -97 -70 -162 -70
c-136 0 -213 99 -184 253c23 133 119 220 254 220c71 0 121 -27 151 -69l25 143h-480l-44 -244c-21 -125 -101 -220 -245 -220c-140 0 -221 89 -197 220l43 244h-98l23 131h1272z" />
    <glyph glyph-name="dvT_KA" horiz-adv-x="1347" 
d="M732 0l24 135c-37 -43 -92 -71 -161 -71c-120 0 -197 99 -172 238c3 19 8 38 14 55h-94c-80 0 -141 -40 -154 -115c-13 -71 21 -117 105 -117h18l-21 -124h-28c-137 0 -260 77 -232 248c29 174 171 243 328 243h180c38 25 84 39 136 39c71 0 116 -28 138 -70l26 148h-814
l23 131h1381l-23 -131h-417l-25 -146c34 41 85 68 150 68c126 0 191 -105 167 -236c-27 -145 -127 -221 -246 -221c-23 0 -43 2 -66 8l22 123c6 -2 16 -3 25 -3c51 0 96 35 107 96c9 54 -19 99 -76 99c-65 0 -103 -50 -114 -111v0l-50 -286h-151zM666 196
c66 1 108 50 117 96v0l1 4l-1 -1c10 53 -16 103 -82 103c-58 0 -109 -40 -119 -101c-11 -61 26 -101 84 -101z" />
    <glyph glyph-name="dvT_K_YA" horiz-adv-x="1824" 
d="M1116 523c68 0 111 -31 132 -77c41 23 62 64 71 118l8 45h-338l-27 -153c35 40 88 67 154 67zM666 196c66 1 108 50 117 96v0l1 4l-1 -1c10 53 -16 103 -82 103c-58 0 -109 -40 -119 -101c-11 -61 26 -101 84 -101zM1402 213c99 0 169 68 185 161v0l42 235h-147l-13 -74
c-17 -103 -76 -177 -195 -191c-12 -76 34 -131 128 -131zM933 286l-50 -286h-151l24 135c-37 -43 -92 -71 -161 -71c-120 0 -197 99 -172 238c3 19 8 38 14 55h-94c-80 0 -141 -40 -154 -115c-13 -71 21 -117 105 -117h18l-21 -124h-28c-137 0 -260 77 -232 248
c29 174 171 243 328 243h180c38 25 84 39 136 39c71 0 116 -28 138 -70l26 148h-814l23 131h1859l-24 -131h-97l-107 -609h-158l27 154c-46 -43 -112 -72 -193 -72c-155 0 -247 95 -238 242c-1 35 -18 73 -73 73c-60 -1 -101 -50 -111 -111z" />
    <glyph glyph-name="dvT_K_RA" horiz-adv-x="1347" 
d="M732 0l26 147c-3 -4 -7 -7 -10 -11v0l-187 -182h-169l142 131c-86 24 -131 106 -112 213c4 21 9 40 16 59h-95c-80 0 -141 -40 -154 -115c-13 -71 21 -117 105 -117h18l-21 -124h-28c-137 0 -260 77 -232 248c29 174 171 243 328 243h182c38 25 83 39 134 39
c71 0 116 -28 138 -70l26 148h-814l23 131h1381l-23 -131h-417l-25 -146c34 41 85 68 150 68c126 0 191 -105 167 -236c-27 -145 -127 -221 -246 -221c-23 0 -43 2 -66 8l22 123c6 -2 16 -3 25 -3c51 0 96 35 107 96c9 54 -19 99 -76 99c-65 0 -103 -50 -114 -111v0
l-50 -286h-151zM665 196c65 0 109 50 119 100v0v3v-1c8 51 -17 100 -83 100c-58 0 -108 -40 -119 -101s23 -101 83 -101z" />
    <glyph glyph-name="dvT_K_VA" horiz-adv-x="1742" 
d="M989 609l-27 -152c35 40 87 66 154 66c43 0 77 -14 101 -39c42 33 95 51 157 51c71 0 121 -27 151 -69l25 143h-561zM666 196c66 1 108 50 117 96v0l1 4l-1 -1c10 53 -16 103 -82 103c-58 0 -109 -40 -119 -101c-11 -61 26 -101 84 -101zM1364 187c73 0 121 56 131 111
c11 59 -19 111 -93 111c-66 0 -121 -45 -133 -110c-11 -66 27 -112 95 -112zM1800 609h-97l-107 -609h-153l23 132c-40 -45 -97 -70 -162 -70c-132 0 -208 93 -186 239h-1c9 52 -16 96 -72 96c-65 0 -102 -55 -112 -111v0l-50 -286h-151l24 135c-37 -43 -92 -71 -161 -71
c-120 0 -197 99 -172 238c3 19 8 38 14 55h-94c-80 0 -141 -40 -154 -115c-13 -71 21 -117 105 -117h18l-21 -124h-28c-137 0 -260 77 -232 248c29 174 171 243 328 243h180c38 25 84 39 136 39c71 0 116 -28 138 -70l26 148h-814l23 131h1776z" />
    <glyph glyph-name="dvT_K_SSA" horiz-adv-x="1262" 
d="M657 543c-8 -48 25 -84 89 -85c36 21 63 47 69 83c8 41 -18 75 -66 75c-43 0 -84 -28 -92 -73zM695 -63l26 150c-27 -28 -75 -55 -137 -55c-108 0 -173 69 -154 172l3 22c12 72 -21 131 -100 131c-71 0 -128 -41 -140 -115c-13 -71 21 -117 105 -117h18l-22 -124h-35
c-135 0 -253 76 -222 256c28 164 146 235 280 235c119 0 184 -65 203 -149c27 20 56 36 86 50c-56 26 -100 82 -84 170c3 16 7 32 14 46h-507l23 131h648c24 6 50 9 76 9c112 0 195 -63 174 -179c-8 -49 -32 -85 -64 -114h159l50 284h249l-23 -131h-98l-108 -609h-150
l60 343h-311c-62 -26 -107 -51 -117 -104c-8 -44 18 -77 66 -77c56 0 93 44 100 88h131l-56 -313h-143z" />
    <glyph glyph-name="dvT_KHA" horiz-adv-x="1358" 
d="M707 129c60 0 98 26 122 56c-22 39 -30 91 -20 149c20 118 113 193 220 189c55 -2 90 -20 111 -49l23 135h-339l-17 -98c-24 -134 -103 -205 -200 -217l-7 -37c-13 -73 23 -128 107 -128zM1057 0l28 158c-30 -28 -72 -47 -127 -47c-11 0 -21 1 -30 3
c-57 -69 -143 -121 -249 -121c-172 0 -264 102 -231 283c-2 37 -22 81 -106 81c-82 0 -139 -40 -152 -115c-13 -71 21 -117 105 -117h18l-22 -124h-43c-141 0 -247 73 -217 244c30 170 173 250 326 250c106 0 172 -32 205 -82c49 16 80 54 91 120l13 76h-641l24 131h1392
l-24 -131h-97l-107 -609h-156zM1013 231c55 0 91 41 99 87c8 41 -11 86 -69 86c-48 0 -91 -31 -101 -85c-9 -58 25 -88 71 -88z" />
    <glyph glyph-name="dvT_KH_RA" horiz-adv-x="1358" 
d="M707 129c60 0 98 26 122 56c-22 39 -30 91 -20 149c20 118 113 193 220 189c55 -2 90 -20 111 -49l23 135h-339l-17 -98c-24 -134 -103 -205 -200 -217l-7 -37c-13 -73 23 -128 107 -128zM1057 0l28 158c-30 -28 -72 -47 -127 -47c-11 0 -22 1 -32 3
c-7 -7 -13 -15 -21 -22h1l-224 -227h-169l2 8l135 129c-152 12 -233 109 -202 274c-2 37 -22 81 -106 81c-82 0 -139 -40 -152 -115c-13 -71 21 -117 105 -117h18l-22 -124h-43c-141 0 -247 73 -217 244c30 170 173 250 326 250c106 0 172 -32 205 -82c49 16 80 54 91 120
l13 76h-641l24 131h1392l-24 -131h-97l-107 -609h-156zM1013 231c55 0 91 41 99 87c8 41 -11 86 -69 86c-48 0 -91 -31 -101 -85c-9 -58 25 -88 71 -88z" />
    <glyph glyph-name="dvT_TA" horiz-adv-x="765" 
d="M25 609l23 131h799l-24 -131h-98l-106 -609h-158l63 357h-123c-81 0 -142 -39 -156 -119c-11 -68 24 -113 107 -113h17l-22 -124h-38c-144 0 -248 89 -222 233c9 55 30 96 59 126h-124l23 132h503l20 117h-543z" />
    <glyph glyph-name="dvT_T_YA" horiz-adv-x="1184" 
d="M760 213c99 0 169 68 185 161v0l42 235h-147l-13 -74c-17 -103 -76 -177 -195 -191c-12 -76 34 -131 128 -131zM1037 0h-158l27 154c-46 -43 -112 -72 -193 -72c-149 0 -240 88 -239 223c-11 33 -34 60 -98 60c-72 0 -123 -42 -135 -115c-13 -64 19 -114 105 -114h18
l-22 -123h-43c-141 0 -243 81 -218 223c11 56 33 100 63 132h-128l23 132h328c109 0 175 -27 211 -66c60 19 88 65 99 130l8 45h-667l23 131h1224l-24 -131h-97z" />
    <glyph glyph-name="dvT_T_VA" horiz-adv-x="1106" 
d="M728 187c73 0 121 56 131 111c11 59 -19 111 -93 111c-66 0 -121 -45 -133 -110c-11 -66 27 -112 95 -112zM1164 609h-97l-107 -609h-153l23 132c-40 -45 -97 -70 -162 -70c-136 0 -213 99 -184 253c3 15 6 29 10 42h-93c-81 0 -142 -39 -156 -119
c-11 -68 24 -113 107 -113h17l-22 -124h-38c-144 0 -248 89 -222 233c9 55 30 96 59 126h-124l23 132h546c40 28 90 43 147 43c71 0 121 -27 151 -69l25 143h-889l23 131h1140z" />
    <glyph glyph-name="dvT_THA" horiz-adv-x="1184" 
d="M881 0l33 190c-38 -55 -122 -108 -233 -108c-151 0 -246 87 -242 234h-113c-78 0 -130 -34 -141 -95c-11 -58 22 -96 98 -96h28l-21 -124h-48c-139 0 -244 73 -216 231c27 153 159 212 312 212h211c105 0 190 23 205 105c7 37 -11 66 -50 66c-53 0 -78 -51 -76 -104h-142
c1 35 8 68 22 98h-483l22 131h612c22 6 46 9 71 9c122 0 194 -80 171 -204c-23 -126 -126 -213 -306 -213h-4c-5 -63 32 -119 136 -119c105 0 204 70 227 206l57 321h255l-22 -131h-98l-108 -609h-157z" />
    <glyph glyph-name="dvT_NA" horiz-adv-x="1200" 
d="M624 200c49 0 89 34 98 82c8 47 -20 81 -69 81c-50 0 -91 -34 -100 -82c-8 -48 21 -81 71 -81zM1054 0h-157l64 364h-128c12 -27 17 -61 10 -104c-22 -126 -129 -193 -236 -193c-131 0 -218 94 -196 223c5 26 12 48 22 69h-90c-80 0 -141 -42 -154 -117
c-13 -71 21 -117 105 -117h18l-21 -124h-28c-137 0 -260 77 -232 248c29 175 171 245 328 245h625l21 115h-980l23 131h1235l-24 -131h-97z" />
    <glyph glyph-name="dvT_N_YA" horiz-adv-x="1651" 
d="M618 167c49 0 89 34 97 82c9 47 -19 81 -68 81c-50 0 -91 -34 -99 -82c-9 -48 20 -81 70 -81zM1228 213c99 0 169 68 185 161v0l42 235h-147l-13 -74c-17 -95 -83 -169 -196 -188c-1 -75 43 -134 129 -134zM1504 0h-157l26 148c-44 -41 -106 -66 -188 -66
c-152 0 -243 97 -240 249h-118c11 -27 17 -62 10 -104c-22 -126 -122 -193 -236 -193c-130 0 -218 94 -196 223c5 26 12 48 22 69h-102c-71 0 -124 -34 -136 -89c-14 -68 21 -112 105 -112h18l-21 -124h-28c-137 0 -262 76 -232 243c27 153 161 216 310 216h307
c9 1 18 1 28 1h301c115 0 156 37 168 103l8 45h-1128l23 131h1685l-24 -131h-97z" />
    <glyph glyph-name="dvT_PA" horiz-adv-x="1032" 
d="M678 292c66 0 108 46 122 108l36 209h-214l-34 -191c-13 -74 14 -126 90 -126zM886 0h-157l38 214c-37 -34 -85 -54 -147 -54c-126 0 -196 81 -195 197h-82c-80 0 -141 -40 -154 -115c-13 -71 21 -117 105 -117h18l-21 -124h-28c-137 0 -260 77 -232 248
c29 174 171 243 328 243h85l21 117h-440l23 131h1066l-23 -131h-98z" />
    <glyph glyph-name="dvT_P_RA" horiz-adv-x="1032" 
d="M673 292c67 0 113 48 127 107l37 210h-215l-33 -191c-13 -74 12 -126 84 -126zM729 0l39 223c-1 -2 -3 -4 -5 -5l-240 -244h-169l209 197c-92 18 -138 89 -137 186h-83c-80 0 -141 -40 -154 -115c-13 -71 21 -117 105 -117h18l-21 -124h-28c-137 0 -260 77 -232 248
c29 174 171 243 328 243h86l20 117h-440l23 131h1066l-22 -131h-98l-108 -609h-157z" />
    <glyph glyph-name="dvT_P_LA" horiz-adv-x="1621" 
d="M667 292c42 0 74 25 94 58c43 121 145 174 248 174c96 0 143 -54 158 -114h3c29 51 77 94 146 108l16 91h-710l-34 -191c-13 -74 7 -126 79 -126zM291 1h-28c-137 0 -260 77 -232 248c29 174 171 243 328 243h85l21 117h-440l23 131h1655l-24 -131h-193l-19 -109
c65 -36 104 -113 84 -226c-26 -147 -135 -248 -302 -244c-8 0 -25 1 -35 2l25 136c6 -1 17 -2 26 -2c64 0 115 43 127 115c11 61 -13 105 -70 105c-65 0 -100 -55 -112 -118l-4 -24h-130l4 24c12 62 -3 118 -68 118c-60 0 -98 -43 -109 -105c-13 -70 19 -115 90 -115
c8 0 16 1 24 2l-24 -137c-14 -1 -22 -1 -30 -1c-127 0 -201 63 -219 156c-32 -17 -69 -26 -111 -26c-134 0 -207 80 -208 197h-82c-80 0 -141 -40 -154 -115c-13 -71 21 -117 105 -117h18z" />
    <glyph glyph-name="dvT_PHA" horiz-adv-x="1340" 
d="M668 292c66 0 106 51 115 112v0l36 205h-197l-35 -199c-13 -69 10 -118 81 -118zM869 0h-157l37 212c-35 -33 -81 -52 -139 -52c-123 0 -189 81 -186 197h-81c-80 0 -141 -40 -154 -115c-13 -71 21 -117 105 -117h18l-21 -124h-28c-137 0 -260 77 -232 248
c29 174 171 243 328 243h85l21 117h-440l23 131h1374l-24 -131h-422l-26 -148c38 43 95 70 165 70c126 0 184 -99 162 -225c-26 -147 -127 -232 -247 -232c-25 0 -50 3 -72 10l21 121c10 -3 21 -4 31 -4c55 0 96 39 106 97c10 56 -18 99 -75 99c-67 0 -108 -51 -123 -118z
" />
    <glyph glyph-name="dvT_MA" horiz-adv-x="1227" 
d="M611 199c49 0 77 35 87 86l10 56h-60c-48 0 -87 -26 -96 -71c-8 -46 22 -71 59 -71zM1005 470l25 139h-129l-24 -139h128zM1080 0h-158l60 341h-128l-8 -47c-25 -141 -114 -228 -256 -228c-131 0 -205 82 -184 203c4 24 11 46 21 66h-79c-81 0 -146 -32 -159 -101
c-13 -67 21 -109 105 -109h18l-21 -124h-28c-137 0 -260 74 -232 241c28 168 175 227 333 227l288 1h15h63l25 139h-730l23 131h1261l-23 -131h-98z" />
    <glyph glyph-name="dvT_M_YA" horiz-adv-x="1677" 
d="M609 182c48 0 77 35 86 87l10 55h-59c-49 0 -88 -25 -96 -71c-9 -46 21 -71 59 -71zM1040 453c80 0 119 39 132 111l8 45h-279l-27 -156h166zM1255 213c98 0 169 68 184 161v-1l42 236h-146l-13 -74c-21 -117 -89 -179 -195 -191c-13 -76 34 -131 128 -131zM1531 0h-157
l27 155c-46 -45 -112 -73 -196 -73c-151 0 -246 94 -235 242h-119l-8 -47c-25 -141 -114 -228 -255 -228c-132 0 -206 82 -184 203c4 25 11 47 21 67h-96c-71 0 -128 -24 -140 -85c-13 -67 21 -109 105 -109h18l-21 -124h-28c-137 0 -260 74 -232 241
c27 159 166 211 315 211h381l27 156h-729l23 131h1711l-23 -131h-98z" />
    <glyph glyph-name="dvT_YA" horiz-adv-x="1131" 
d="M708 213c99 0 169 68 185 161v0l42 235h-147l-13 -74c-17 -103 -76 -177 -195 -191c-12 -76 34 -131 128 -131zM985 0h-158l27 154c-46 -43 -112 -72 -193 -72c-149 0 -239 88 -239 223c-10 31 -31 60 -96 60c-70 0 -124 -40 -137 -115c-13 -71 21 -117 105 -117h18
l-21 -123h-40c-142 0 -250 82 -220 249c30 172 160 241 306 241c88 0 146 -28 181 -68c66 17 95 64 107 132l8 45h-608l23 131h1165l-24 -131h-97z" />
    <glyph glyph-name="dvT_R_YA" horiz-adv-x="1166" 
d="M738 196c94 0 163 60 184 143l48 270h-146l-17 -96c-18 -102 -76 -177 -194 -191v-2l-3 -3c-8 -69 35 -121 128 -121zM1020 0h-158l24 133c-44 -41 -105 -67 -181 -67c-118 0 -204 50 -237 134l-240 -199h-206v6l437 334v0c-19 32 -57 53 -107 53
c-76 0 -144 -45 -159 -131h-157c25 145 150 257 329 257c92 0 169 -36 212 -99c47 22 70 64 80 121l12 67h-644l23 131h1200l-23 -131h-98z" />
    <glyph glyph-name="dvT_LA" horiz-adv-x="1294" 
d="M291 1h-28c-137 0 -260 77 -232 248c29 174 171 243 328 243h192c40 22 86 32 131 32c96 0 143 -54 158 -114h3c29 51 77 94 146 108l16 91h-980l23 131h1328l-24 -131h-193l-19 -109c65 -36 104 -113 84 -226c-26 -147 -135 -248 -302 -244c-8 0 -25 1 -35 2l25 136
c6 -1 17 -2 26 -2c64 0 115 43 127 115c11 61 -13 105 -70 105c-65 0 -100 -55 -112 -118l-4 -24h-130l4 24c12 62 -3 118 -68 118c-60 0 -98 -43 -109 -105c-13 -70 19 -115 90 -115c8 0 16 1 24 2l-24 -137c-14 -1 -22 -1 -30 -1c-170 0 -245 114 -218 260
c4 24 10 47 18 67h-93c-80 0 -141 -40 -154 -115c-13 -71 21 -117 105 -117h18z" />
    <glyph glyph-name="dvT_VA" horiz-adv-x="1050" 
d="M672 187c73 0 121 56 131 111c11 59 -19 111 -93 111c-66 0 -121 -45 -133 -110c-11 -66 27 -112 95 -112zM1108 609h-97l-107 -609h-153l23 132c-40 -45 -97 -70 -162 -70c-136 0 -213 99 -184 253c3 15 6 29 10 42h-95c-80 0 -141 -40 -154 -115
c-13 -71 21 -117 105 -117h18l-21 -124h-28c-137 0 -260 77 -232 248c29 174 171 243 328 243h176c40 28 90 43 147 43c71 0 121 -27 151 -69l25 143h-833l23 131h1084z" />
    <glyph glyph-name="dvT_SA" horiz-adv-x="1235" 
d="M872 538c-8 -44 -23 -82 -44 -114h178l32 185h-153zM875 209c-13 -134 -104 -218 -242 -218c-145 0 -213 100 -191 227l8 45c4 38 -16 94 -108 94c-84 0 -139 -40 -152 -115c-13 -71 21 -117 105 -117h18l-22 -124h-35c-141 0 -255 83 -224 255c29 169 162 239 318 239
c109 0 178 -34 212 -88c99 4 141 57 153 131l13 71h-703l24 131h1268l-24 -131h-97l-108 -609h-157l52 295h-371l-17 -93c-7 -44 7 -77 53 -77c44 0 68 34 76 84h151z" />
    <glyph glyph-name="dvT_S_NA" horiz-adv-x="1748" 
d="M872 538c-8 -44 -23 -82 -44 -114h198c51 49 123 72 204 72h302l20 113h-667zM1172 202c48 0 88 34 97 81c8 48 -20 82 -68 82c-50 0 -92 -34 -100 -82c-9 -48 20 -81 71 -81zM875 209c-13 -134 -104 -218 -242 -218c-145 0 -213 100 -191 227l8 45c4 38 -16 94 -108 94
c-84 0 -139 -40 -152 -115c-13 -71 21 -117 105 -117h18l-22 -124h-35c-141 0 -255 83 -224 255c29 169 162 239 318 239c109 0 178 -34 212 -88c99 4 141 57 153 131l13 71h-703l24 131h1781l-23 -131h-98l-107 -609h-158l64 365h-126c11 -27 15 -61 8 -103
c-21 -126 -128 -193 -235 -193c-131 0 -219 94 -196 223c0 1 0 2 1 3h-348l-17 -93c-7 -44 7 -77 53 -77c44 0 68 34 76 84h151z" />
    <glyph glyph-name="dvT_S_YA" horiz-adv-x="1675" 
d="M998 424c111 0 155 45 169 128l10 57h-293l-12 -66c-8 -47 -24 -87 -45 -119h171zM1249 210c92 0 161 58 184 141l45 258h-146l-15 -85c-19 -108 -75 -183 -194 -197c-11 -64 33 -117 126 -117zM874 209c-13 -134 -104 -218 -242 -218c-145 0 -212 100 -190 227l7 39h-1
c7 39 -11 100 -106 100c-84 0 -139 -40 -152 -115c-13 -71 21 -117 105 -117h18l-22 -124h-35c-141 0 -254 83 -224 255c29 169 162 239 318 239c108 0 177 -34 212 -88c99 4 140 57 153 136l12 66h-702l24 131h1708l-24 -131h-97l-108 -609h-157l27 152
c-48 -44 -114 -73 -196 -73c-149 0 -234 87 -235 216h-356l-17 -93c-7 -44 8 -77 53 -77c44 0 68 34 77 84h150z" />
    <glyph glyph-name="dvT_S_VA" horiz-adv-x="1586" 
d="M873 543c-8 -47 -24 -87 -45 -119h178c45 69 120 111 213 111c71 0 121 -27 151 -69l25 143h-510zM1209 187c73 0 121 56 131 111c11 59 -19 111 -93 111c-66 0 -121 -45 -133 -110c-11 -66 27 -112 95 -112zM1645 609h-97l-107 -609h-153l23 132
c-40 -45 -97 -70 -162 -70c-130 0 -206 90 -187 233h-350l-17 -93c-7 -44 7 -77 53 -77c44 0 68 34 76 84h151c-13 -134 -104 -218 -242 -218c-145 0 -213 100 -191 227l8 45c4 38 -16 94 -108 94c-84 0 -139 -40 -152 -115c-13 -71 21 -117 105 -117h18l-22 -124h-35
c-141 0 -255 83 -224 255c29 169 162 239 318 239c109 0 178 -34 212 -88c99 4 140 57 154 136l12 66h-703l24 131h1620z" />
    <glyph glyph-name="dvTH_NA" horiz-adv-x="1319" 
d="M334 82c-227 0 -327 156 -262 357h86c106 0 191 24 205 111c6 36 -12 65 -49 65c-53 0 -80 -48 -77 -104h-142c5 134 100 238 245 238c121 0 192 -80 170 -204c-23 -130 -129 -218 -308 -218h-2c-3 -78 63 -114 145 -114s163 40 191 107c35 121 140 176 265 176h302
l20 113h-522l23 131h777l-23 -131h-98l-107 -609h-158l64 365h-126c11 -27 15 -61 8 -103c-22 -126 -128 -193 -235 -193c-80 0 -144 35 -176 92c-61 -52 -139 -79 -216 -79zM743 202c48 0 89 34 97 81c8 48 -20 82 -68 82c-50 0 -91 -34 -100 -82s20 -81 71 -81z" />
    <glyph glyph-name="dvTH_YA" horiz-adv-x="1255" 
d="M1313 609h-97l-108 -609h-157l27 154c-47 -44 -112 -72 -194 -72c-99 0 -173 39 -210 107c-63 -70 -152 -107 -240 -107c-227 0 -327 156 -262 357h86c106 0 191 24 205 111c6 36 -12 65 -49 65c-53 0 -80 -48 -77 -104h-142c5 134 100 238 245 238
c121 0 192 -80 170 -204c-23 -130 -129 -218 -308 -218h-2c-3 -78 62 -114 144 -114c91 0 182 57 209 159c3 18 8 36 11 52h13c113 0 156 53 172 140l8 45h-157l23 131h714zM832 213c94 0 162 61 182 147l44 249h-146l-13 -74c-18 -103 -76 -177 -195 -191
c-12 -76 34 -131 128 -131z" />
    <glyph glyph-name="dvTH_VA" horiz-adv-x="1160" 
d="M334 82c-227 0 -327 156 -262 357h86c106 0 191 24 205 111c6 36 -12 65 -49 65c-53 0 -80 -48 -77 -104h-142c5 134 100 238 245 238c121 0 192 -80 170 -204c-23 -130 -129 -218 -308 -218h-2c-3 -78 63 -114 145 -114c84 0 161 48 199 127c32 119 134 199 254 195
c70 -2 119 -29 144 -74l26 148h-380l23 131h631l-23 -131h-98l-107 -609h-153l23 132c-40 -45 -97 -70 -162 -70c-83 0 -144 37 -173 101c-60 -53 -136 -81 -215 -81zM781 187c74 0 122 56 132 111c11 59 -19 111 -93 111c-66 0 -121 -45 -132 -110c-12 -66 26 -112 93 -112
z" />
    <glyph glyph-name="dvD_GA" horiz-adv-x="675" 
d="M44 609l23 131h710l-23 -131h-107l-37 -210h-183c-74 0 -124 -35 -134 -95c-10 -53 19 -90 75 -90c49 0 99 35 108 89h136l-98 -559h-144l70 400c-26 -23 -60 -40 -99 -47l-13 -76c-19 -113 -85 -199 -217 -199c-112 0 -182 65 -162 177c2 10 4 20 7 30h133l-5 -25
c-5 -29 3 -60 40 -60c43 0 58 39 64 71l18 104c-58 35 -82 104 -68 188c26 151 145 222 298 222h40l14 80h-446z" />
    <glyph glyph-name="dvD_G_RA" horiz-adv-x="675" 
d="M25 609l23 131h709l-23 -131h-106l-38 -210h-184c-74 0 -123 -35 -134 -95c-9 -53 20 -90 76 -90c49 0 99 35 109 89h136l-99 -559h-136l21 114l-193 -172h-154l361 304l27 155c-26 -24 -60 -41 -99 -48l-3 -20c-19 -114 -93 -199 -226 -199c-116 0 -163 63 -152 177
c1 10 3 20 6 30h132l-4 -25c-6 -30 2 -60 39 -60c44 0 59 38 64 71l9 48c-58 36 -82 104 -68 187c26 152 145 223 297 223h41l14 80h-445z" />
    <glyph glyph-name="dvD_GHA" horiz-adv-x="924" 
d="M246 -3c63 0 116 47 144 124c-34 40 -51 100 -37 179c5 27 12 51 23 73c-23 10 -46 14 -68 14c-50 0 -87 -25 -94 -64c-7 -43 24 -65 74 -65h11l-22 -123h-9c-50 0 -86 -28 -93 -68c-9 -47 23 -70 71 -70zM28 609l23 131h955l-24 -131h-112l-39 -214h-178
c-73 0 -129 -38 -141 -106c-11 -60 21 -100 80 -100c50 0 97 33 107 92h145l-55 -314h-154l26 148c-33 -32 -81 -50 -136 -50c-12 0 -24 1 -35 3c-43 -123 -150 -200 -289 -200c-118 0 -208 66 -188 185c16 87 83 131 140 141l1 5c-54 16 -106 61 -90 151
c16 94 95 168 242 168c57 0 113 -17 157 -43c53 36 122 54 197 54h37l14 80h-683z" />
    <glyph glyph-name="dvD_DA" horiz-adv-x="572" 
d="M297 -88l22 125c-30 -30 -77 -54 -146 -54c-89 0 -173 48 -154 155c11 65 62 116 130 130l1 4c-57 12 -99 59 -87 126c19 106 118 141 225 141h46l12 70h-318l23 131h611l-24 -131h-138l-31 -174h-155c-48 0 -89 -14 -95 -54c-7 -33 20 -53 69 -53h54l-19 -112h-57
c-49 0 -75 -24 -81 -54c-6 -37 17 -63 72 -63c63 0 102 35 110 86h131l-48 -273h-153z" />
    <glyph glyph-name="dvD_DHA" horiz-adv-x="925" 
d="M36 609l23 131h948l-24 -131h-113l-38 -214h-179c-72 0 -129 -38 -141 -106c-11 -60 22 -100 81 -100c49 0 96 33 107 92h145l-55 -314h-154l26 147c-33 -31 -81 -49 -135 -49c-13 0 -25 1 -37 3c-44 -123 -156 -200 -289 -200c-118 0 -209 61 -188 180
c16 87 82 134 141 146v5c-52 16 -106 60 -90 152c18 100 108 177 280 165l-22 -129c-61 2 -101 -23 -108 -64c-7 -42 24 -65 74 -65h11l-22 -123h-9c-49 0 -86 -28 -93 -68c-9 -47 22 -70 70 -70c64 0 117 47 145 124c-34 39 -51 99 -37 180c28 150 148 228 307 228h38
l14 80h-676z" />
    <glyph glyph-name="dvD_NA" horiz-adv-x="1411" 
d="M406 -313l-89 223h156l94 -223h-161zM835 202c48 0 88 34 97 81c8 48 -20 82 -68 82c-50 0 -92 -34 -100 -82c-9 -48 20 -81 71 -81zM480 -33h-154l26 148c-33 -32 -81 -50 -137 -50c-110 0 -199 82 -172 235c28 155 155 229 308 229h37l14 80h-374l23 131h1442l-23 -131
h-98l-107 -609h-158l64 365h-126c11 -27 15 -61 8 -103c-21 -126 -128 -193 -235 -193c-131 0 -219 94 -196 223c25 140 137 204 271 204h302l20 113h-655l-38 -214h-179c-72 0 -129 -38 -140 -106c-11 -60 21 -100 80 -100c49 0 96 33 106 92h146z" />
    <glyph glyph-name="dvD_BA" horiz-adv-x="622" 
d="M25 609l23 131h656l-23 -131h-111l-37 -210h-183c-75 0 -125 -34 -136 -92c-10 -53 23 -93 76 -93c51 0 100 34 109 89h136l-102 -579h-138l24 132c-40 -49 -97 -74 -160 -74c-129 0 -193 92 -173 206c13 74 60 136 128 170c-41 33 -64 87 -51 164
c23 133 142 207 295 207h40l14 80h-387zM216 -112c31 0 60 14 82 34l-156 118c-10 -14 -17 -30 -20 -48c-12 -63 29 -105 94 -104zM251 94c-24 -2 -45 -8 -64 -17l146 -109c5 12 10 25 12 38v0l26 142c-29 -30 -70 -50 -120 -54z" />
    <glyph glyph-name="dvD_B_RA" horiz-adv-x="622" 
d="M25 609l23 131h656l-23 -131h-111l-38 -210h-183c-75 0 -124 -34 -135 -92c-10 -53 23 -93 75 -93c51 0 100 34 110 89h136l-102 -579h-138l23 132c-3 -4 -7 -8 -10 -12v0l-2 -2l-8 -8l-165 -160h-162l128 116c-88 24 -130 103 -113 198c13 74 60 136 128 171
c-41 32 -64 87 -51 163c23 133 142 207 295 207h40l14 80h-387zM216 -112c31 0 60 14 82 34l-156 118c-10 -14 -17 -30 -20 -48c-12 -63 29 -105 94 -104zM251 94c-24 -2 -45 -8 -64 -17l146 -109c4 9 7 19 10 28l27 152c-29 -31 -70 -50 -119 -54z" />
    <glyph glyph-name="dvD_BHA" horiz-adv-x="1447" 
d="M407 -313l-90 223h156l94 -223h-160zM28 609l23 131h645l-24 -131h-112l-38 -214h-179c-72 0 -129 -38 -140 -106c-11 -60 21 -100 80 -100c49 0 96 33 106 92h146l-55 -314h-154l26 148c-33 -32 -81 -50 -137 -50c-110 0 -199 82 -172 235c28 155 155 229 308 229h37
l14 80h-374zM836 194c48 0 77 35 86 87l10 55h-58c-50 0 -89 -25 -97 -72c-9 -45 19 -70 59 -70zM816 61c-132 0 -207 80 -185 203c24 136 136 200 261 200h63l13 76c7 44 -2 75 -41 75c-33 0 -59 -25 -66 -64c-2 -10 -3 -21 -2 -32h-157c-1 11 0 25 2 38
c19 109 102 192 239 192c155 0 190 -105 166 -238l-8 -47h124l48 276h256l-22 -131h-99l-108 -609h-157l59 336h-123l-8 -47c-25 -141 -114 -228 -255 -228z" />
    <glyph glyph-name="dvD_MA" horiz-adv-x="867" 
d="M189 -175c44 0 72 33 82 86l8 47h-53c-40 0 -84 -19 -93 -69c-7 -37 16 -64 56 -64zM445 86h133l92 523h-153l-38 -213h-184c-44 0 -78 -21 -84 -57c-8 -39 19 -60 63 -60h206zM29 609l23 131h900l-23 -131h-103l-166 -943h-156l51 292h-131l-6 -33
c-25 -141 -102 -229 -237 -229c-121 0 -207 78 -184 201c25 144 145 189 264 189h42l12 68h-79c-116 0 -202 70 -180 195c24 135 123 180 243 180h50l14 80h-334z" />
    <glyph glyph-name="dvD_YA" horiz-adv-x="712" 
d="M271 147c82 0 167 43 194 152l54 310h-122l-22 -121h-63c-41 0 -78 -16 -85 -51c-7 -37 22 -54 66 -54h57l-21 -118h-56c-46 0 -79 -20 -85 -56c-7 -40 25 -62 83 -62zM33 609l23 131h739l-24 -131h-98l-107 -609h-154l21 120c-49 -57 -123 -89 -219 -89
c-119 0 -206 58 -187 162c12 75 70 113 126 126l1 5c-57 10 -98 47 -86 111c15 83 95 109 152 109h16l11 65h-214z" />
    <glyph glyph-name="dvD_VA" horiz-adv-x="611" 
d="M25 609l23 131h645l-22 -131h-110l-37 -210h-185c-74 0 -122 -35 -134 -95c-9 -53 20 -90 76 -90c50 0 97 34 108 89h136l-99 -564h-144l21 119c-39 -40 -92 -60 -149 -60c-120 0 -177 89 -159 197c12 69 53 127 111 160c-43 32 -66 87 -53 164c25 136 143 210 295 210
h41l14 80h-378zM217 -85c55 0 97 38 110 83l25 143c-27 -26 -65 -43 -111 -47c-53 -5 -94 -41 -103 -91c-8 -52 23 -89 79 -88z" />
    <glyph glyph-name="dvDH_NA" horiz-adv-x="1275" 
d="M285 76c-145 0 -255 62 -233 189c16 88 86 127 140 138v3c-59 19 -110 76 -94 172c19 108 100 171 208 171c128 0 189 -81 151 -210h-116c10 41 0 79 -45 79c-34 0 -61 -27 -68 -62c-13 -63 31 -85 88 -85h83l-23 -127h-52c-61 0 -102 -23 -110 -68
c-11 -53 44 -70 101 -70c100 0 156 42 179 120v0c36 116 140 170 263 170h302l20 113h-515l23 131h770l-24 -131h-97l-107 -609h-158l64 365h-127c11 -27 16 -61 9 -103c-22 -126 -128 -193 -236 -193c-79 0 -143 35 -175 91c-51 -53 -125 -84 -221 -84zM698 202
c49 0 89 34 98 81c8 48 -20 82 -68 82c-50 0 -92 -34 -100 -82c-9 -48 20 -81 70 -81z" />
    <glyph glyph-name="dvDH_N_YA" horiz-adv-x="1720" 
d="M285 76c-145 0 -255 62 -233 189c16 88 86 127 140 138v3c-59 19 -110 76 -94 172c19 108 100 171 208 171c128 0 189 -81 151 -210h-116c10 41 0 79 -45 79c-34 0 -61 -27 -68 -62c-13 -63 31 -85 88 -85h83l-23 -127h-52c-61 0 -102 -23 -110 -68
c-11 -53 44 -70 101 -70c91 0 147 40 172 96c39 109 140 159 259 159h301c115 0 156 37 168 103l8 45h-659l23 131h1215l-23 -131h-98l-107 -609h-158l26 147c-44 -40 -106 -65 -188 -65c-152 0 -242 97 -239 249h-118c11 -27 16 -62 9 -104c-23 -126 -122 -193 -236 -193
c-87 0 -156 42 -184 109c-49 -43 -117 -67 -201 -67zM688 167c48 0 89 34 97 82c8 47 -20 81 -68 81c-50 0 -91 -34 -100 -82s20 -81 71 -81zM1297 213c99 0 169 68 185 161v0l42 235h-146l-13 -74c-18 -95 -83 -169 -196 -188c0 -76 44 -134 128 -134z" />
    <glyph glyph-name="dvDH_MA" horiz-adv-x="1300" 
d="M683 194c49 0 77 35 87 87l10 55h-60c-48 0 -88 -25 -96 -72c-8 -45 22 -70 59 -70zM285 76c-145 0 -255 62 -233 189c16 88 86 127 140 138v3c-59 19 -110 76 -94 172c19 108 100 171 208 171c128 0 189 -81 151 -210h-116c10 41 0 79 -45 79c-34 0 -61 -27 -68 -62
c-13 -63 31 -85 88 -85h83l-23 -127h-52c-61 0 -102 -23 -110 -68c-11 -53 44 -70 101 -70c88 0 140 32 172 95c37 111 140 163 251 163h64l25 145h-262l23 131h794l-23 -131h-98l-108 -609h-157l59 336h-129l-8 -47c-25 -141 -114 -228 -256 -228c-80 0 -138 30 -167 82
c-51 -43 -121 -67 -210 -67zM1078 464l25 145h-129l-25 -145h129z" />
    <glyph glyph-name="dvDH_YA" horiz-adv-x="1201" 
d="M285 76c-143 0 -255 64 -233 190c16 87 86 126 140 137v3c-59 19 -110 76 -94 172c19 108 100 171 208 171c128 0 189 -81 151 -210h-116c10 41 0 79 -45 79c-34 0 -61 -27 -68 -62c-13 -63 31 -85 88 -85h83l-23 -127h-52c-61 0 -104 -23 -110 -68
c-8 -51 44 -70 100 -70c94 0 164 53 183 143c0 5 1 10 2 15c3 20 9 40 15 60h10c113 0 156 53 172 140l8 45h-139l23 131h696l-24 -131h-97l-108 -609h-157l27 155c-46 -44 -112 -73 -194 -73c-95 0 -166 36 -205 97c-52 -65 -133 -103 -241 -103zM779 213
c99 0 169 68 185 161v0l42 235h-147l-13 -74c-18 -103 -76 -177 -195 -191c-12 -76 34 -131 128 -131z" />
    <glyph glyph-name="dvDH_VA" horiz-adv-x="1119" 
d="M285 76c-145 0 -255 62 -233 189c16 88 86 127 140 138v3c-59 19 -110 76 -94 172c19 108 100 171 208 171c128 0 189 -81 151 -210h-116c10 41 0 79 -45 79c-34 0 -61 -27 -68 -62c-13 -63 31 -85 88 -85h83l-23 -127h-52c-61 0 -102 -23 -110 -68
c-11 -53 44 -70 101 -70c105 0 161 44 187 131c30 120 125 198 255 198c69 0 119 -26 145 -70l25 144h-362l23 131h613l-23 -131h-98l-107 -609h-153l23 132c-40 -45 -97 -70 -162 -70c-81 0 -141 35 -170 96c-53 -52 -128 -82 -226 -82zM740 187c74 0 122 56 132 111
c11 59 -19 111 -93 111c-66 0 -121 -45 -133 -110c-11 -66 27 -112 94 -112z" />
    <glyph glyph-name="dvN_KA" horiz-adv-x="1480" 
d="M247 202c48 0 88 34 97 81c8 48 -20 82 -68 82c-50 0 -92 -34 -100 -82c-9 -48 20 -81 71 -81zM865 0l24 135c-37 -43 -92 -71 -161 -71c-120 0 -197 99 -172 238c4 22 10 43 17 63h-117c11 -27 16 -62 9 -103c-21 -126 -122 -193 -235 -193c-131 0 -219 94 -196 223
c25 140 137 204 271 204h373c37 23 81 35 130 35c71 0 116 -28 138 -70l26 148h-947l23 131h1514l-23 -131h-417l-25 -146c34 41 85 68 150 68c126 0 191 -105 167 -236c-27 -145 -127 -221 -246 -221c-23 0 -43 2 -66 8l22 123c6 -2 16 -3 25 -3c51 0 96 35 107 96
c9 54 -19 99 -76 99c-65 0 -103 -50 -114 -111v0l-50 -286h-151zM799 196c66 1 108 50 117 96v0l1 4l-1 -1c10 53 -16 103 -82 103c-58 0 -109 -40 -119 -101c-11 -61 26 -101 84 -101z" />
    <glyph glyph-name="dvN_K_SA" horiz-adv-x="2029" 
d="M247 202c48 0 88 34 97 81c8 48 -20 82 -68 82c-50 0 -92 -34 -100 -82c-9 -48 20 -81 71 -81zM1249 517c80 0 125 -41 142 -101c75 13 107 62 119 127l12 66h-400l-28 -159c35 40 88 67 155 67zM799 196c66 1 108 50 117 96v0l1 4l-1 -1c10 53 -16 103 -82 103
c-58 0 -109 -40 -119 -101c-11 -61 26 -101 84 -101zM1667 543c-8 -44 -23 -83 -45 -115h179l32 181h-154zM1669 209c-13 -134 -104 -218 -242 -218c-145 0 -213 100 -191 227l15 87v0c9 51 -16 92 -72 92c-65 0 -104 -56 -113 -111v1l-50 -287h-151l24 135
c-37 -43 -92 -71 -161 -71c-120 0 -197 99 -172 238c4 22 10 43 17 63h-117c11 -27 16 -62 9 -103c-21 -126 -122 -193 -235 -193c-131 0 -219 94 -196 223c25 140 137 204 271 204h373c37 23 81 35 130 35c71 0 116 -28 138 -70l26 148h-947l23 131h2063l-23 -131h-98
l-107 -609h-158l53 300h-371l-18 -98c-7 -44 8 -77 53 -77c44 0 68 34 77 84h150z" />
    <glyph glyph-name="dvN_CA" horiz-adv-x="1199" 
d="M1258 609h-98l-107 -609h-157l28 161c-47 -51 -114 -78 -189 -78c-122 0 -194 69 -172 185c7 39 28 74 59 101h-166c11 -28 16 -62 9 -104c-22 -126 -122 -193 -235 -193c-131 0 -218 94 -196 223c25 141 137 204 271 204h584l-22 -123h-41c-58 0 -102 -34 -110 -80
c-10 -55 30 -83 86 -83c88 0 141 63 158 154v0l43 242h-978l23 131h1233zM247 204c48 0 88 36 97 82c8 48 -20 82 -68 82c-50 0 -92 -34 -100 -82c-9 -48 20 -82 71 -82z" />
    <glyph glyph-name="dvN_CHA" horiz-adv-x="1354" 
d="M246 202c49 0 90 33 98 82s-20 81 -69 81c-50 0 -90 -34 -99 -82s21 -81 70 -81zM895 154c154 0 251 62 272 179c10 54 -10 91 -48 91c-34 0 -67 -27 -76 -80c-5 -24 -4 -51 -1 -76h-129c-3 24 -4 57 3 94c17 93 77 146 150 167l14 80h-274l-11 -64c-9 -50 7 -82 65 -82
h21l-23 -126h-17c-65 0 -102 -36 -110 -80c-11 -64 39 -103 164 -103zM870 20c-178 0 -305 73 -303 195c-16 64 -49 124 -110 143c10 -26 15 -58 8 -98c-22 -127 -124 -191 -238 -191c-123 0 -215 90 -193 224c24 142 143 203 271 203h54c137 0 233 -46 276 -137
c20 16 44 29 71 37v4c-50 13 -84 54 -70 138l13 71h-624l23 131h1388l-23 -131h-188l-14 -81c74 -26 111 -98 93 -203c-33 -185 -194 -305 -434 -305z" />
    <glyph glyph-name="dvN_TTA" horiz-adv-x="1154" 
d="M247 202c48 0 88 34 97 81c8 48 -20 82 -68 82c-50 0 -92 -34 -100 -82c-9 -48 20 -81 71 -81zM792 20c-167 0 -274 104 -248 261c5 31 14 59 26 84h-114c11 -27 16 -62 9 -103c-21 -126 -122 -193 -235 -193c-131 0 -219 94 -196 223c25 140 137 204 271 204h397
c48 23 106 36 170 37l14 76h-861l23 131h1189l-24 -131h-173l-36 -208h-137c-79 0 -150 -42 -165 -126c-13 -70 29 -119 107 -119c79 0 138 52 151 127h149c-27 -159 -147 -263 -317 -263z" />
    <glyph glyph-name="dvN_DDA" horiz-adv-x="1071" 
d="M247 202c48 0 88 34 97 81c8 48 -20 82 -68 82c-50 0 -92 -34 -100 -82c-9 -48 20 -81 71 -81zM1001 153c-19 -107 -104 -173 -250 -173c-144 0 -247 70 -230 193h156c-6 -50 30 -75 83 -75c50 0 85 24 92 61c8 45 -24 63 -75 63h-35c-71 0 -180 30 -171 143h-115
c11 -27 16 -62 9 -103c-21 -126 -122 -193 -235 -193c-131 0 -219 94 -196 223c25 140 137 204 271 204h338c38 27 87 39 139 39h71l13 74h-841l23 131h1104l-22 -131h-112l-33 -184h-182c-33 0 -68 -11 -74 -46c-6 -34 19 -46 52 -46h44c109 0 198 -54 176 -180z" />
    <glyph glyph-name="dvN_TA" horiz-adv-x="1223" 
d="M247 200c48 0 88 34 97 82c8 47 -20 81 -68 81c-50 0 -92 -34 -100 -82c-9 -48 20 -81 71 -81zM1077 0h-157l62 357h-124c-80 0 -141 -40 -154 -115c-13 -71 21 -117 105 -117h18l-21 -124h-28c-137 0 -260 77 -232 248c8 45 23 83 44 115h-134c11 -27 16 -62 9 -104
c-22 -126 -122 -193 -235 -193c-131 0 -218 94 -196 223c25 139 137 202 271 202h701l20 117h-1001l23 131h1257l-23 -131h-99z" />
    <glyph glyph-name="dvN_T_YA" horiz-adv-x="1648" 
d="M247 208c48 0 89 35 97 82s-20 82 -68 82c-50 0 -91 -35 -100 -83s20 -81 71 -81zM1225 213c99 0 169 68 185 161v0l42 235h-147l-13 -74c-17 -103 -76 -177 -195 -191c-12 -76 34 -131 128 -131zM1502 0h-158l27 154c-46 -43 -112 -72 -193 -72c-149 0 -239 88 -239 223
c-10 31 -31 60 -96 60c-70 0 -124 -40 -137 -115c-13 -71 21 -117 105 -117h18l-21 -123h-40c-142 0 -250 82 -220 249c8 44 22 82 42 113h-134c11 -27 16 -62 9 -104c-22 -125 -122 -193 -235 -193c-131 0 -220 94 -196 223c25 139 137 202 271 202h545v0h4
c88 0 146 -28 181 -68c66 17 95 64 107 132l8 45h-1125l23 131h1682l-24 -131h-97z" />
    <glyph glyph-name="dvN_T_RA" horiz-adv-x="1192" 
d="M237 148c47 0 88 34 97 82c9 47 -19 82 -68 82c-50 0 -91 -35 -100 -83c-8 -47 20 -81 71 -81zM1047 0h-152l32 181l-216 -180h-206l1 6l435 333c-19 32 -59 54 -108 54c-55 0 -108 -25 -139 -82h-247c11 -28 16 -63 9 -104c-21 -117 -122 -192 -243 -192
c-123 0 -209 91 -187 218c25 141 145 205 274 205h315c51 49 120 79 199 79c77 0 128 -31 158 -66l28 157h-975l23 131h1226l-23 -131h-97z" />
    <glyph glyph-name="dvN_T_SA" horiz-adv-x="1750" 
d="M247 200c48 0 88 34 97 82c8 47 -20 81 -68 81c-50 0 -92 -34 -100 -82c-9 -48 20 -81 71 -81zM1387 538c-8 -44 -23 -82 -44 -114h178l32 185h-153zM1390 209c-13 -134 -104 -218 -242 -218c-145 0 -213 100 -191 227l8 45c4 38 -16 94 -108 94
c-84 0 -139 -40 -152 -115c-13 -71 21 -117 105 -117h18l-22 -124h-35c-141 0 -255 83 -224 255c7 43 22 80 41 111h-134c13 -28 19 -64 11 -107c-22 -126 -122 -193 -235 -193c-131 0 -218 94 -196 223c25 141 137 205 271 205h563v0c107 -1 175 -34 209 -88
c99 4 141 57 153 131l13 71h-1218l23 131h1784l-24 -131h-97l-108 -609h-157l52 295h-371l-17 -93c-7 -44 7 -77 53 -77c44 0 68 34 76 84h151z" />
    <glyph glyph-name="dvN_THA" horiz-adv-x="1308" 
d="M241 150c48 0 88 36 97 82c9 47 -20 82 -68 82c-50 0 -91 -34 -100 -82s20 -82 71 -82zM1004 0l34 190c-39 -55 -123 -108 -233 -108c-151 0 -245 90 -243 233h-112c11 -27 17 -62 9 -105c-23 -127 -123 -192 -240 -192c-120 0 -215 89 -190 224c24 144 145 202 275 202
h369c104 0 189 19 204 105c7 37 -11 66 -49 66c-54 0 -79 -51 -77 -104h-141c1 35 8 68 21 98h-606l23 131h734c22 6 46 9 71 9c123 0 194 -80 171 -204c-23 -130 -128 -213 -308 -213h-2c-4 -59 33 -119 137 -119c105 0 203 70 227 206l56 321h256l-23 -131h-98l-107 -609
h-158z" />
    <glyph glyph-name="dvN_TH_YA" horiz-adv-x="1769" 
d="M241 145c48 0 88 36 97 82c9 47 -20 82 -68 82c-50 0 -91 -35 -100 -83c-9 -47 20 -81 71 -81zM1347 213c94 0 162 61 182 147l44 249h-146l-13 -74c-18 -103 -76 -177 -195 -191c-12 -76 34 -131 128 -131zM1828 609h-97l-108 -609h-157l27 154
c-47 -44 -112 -72 -194 -72c-99 0 -173 39 -210 107c-63 -70 -152 -107 -240 -107c-175 0 -275 93 -281 228h-118c11 -28 17 -63 9 -106c-23 -127 -123 -191 -240 -191c-120 0 -215 88 -190 224c24 143 145 202 275 202h369c106 0 191 24 205 111c6 36 -12 65 -49 65
c-53 0 -80 -48 -77 -104h-142c1 35 9 68 22 98h-607l23 131h736c22 6 46 9 71 9c121 0 192 -80 170 -204c-23 -130 -129 -218 -308 -218h-2c-3 -78 62 -114 144 -114c91 0 182 57 209 159c3 18 8 36 11 52h13c113 0 156 53 172 140l8 45h-157l23 131h714z" />
    <glyph glyph-name="dvN_TH_VA" horiz-adv-x="1674" 
d="M241 145c48 0 88 36 97 82c9 47 -20 82 -68 82c-50 0 -91 -35 -100 -83c-9 -47 20 -81 71 -81zM1296 187c74 0 122 56 132 111c11 59 -19 111 -93 111c-66 0 -121 -45 -132 -110c-12 -66 26 -112 93 -112zM849 82c-175 0 -275 93 -281 228h-118c11 -28 17 -63 9 -106
c-23 -127 -123 -191 -240 -191c-120 0 -215 88 -190 224c24 143 145 202 275 202h369c106 0 191 24 205 111c6 36 -12 65 -49 65c-53 0 -80 -48 -77 -104h-142c1 35 9 68 22 98h-607l23 131h736c22 6 46 9 71 9c121 0 192 -80 170 -204c-23 -130 -129 -218 -308 -218h-2
c-3 -78 63 -114 145 -114c84 0 161 48 199 127c32 119 134 199 254 195c70 -2 119 -29 144 -74l26 148h-380l23 131h631l-23 -131h-98l-107 -609h-153l23 132c-40 -45 -97 -70 -162 -70c-83 0 -144 37 -173 101c-60 -53 -136 -81 -215 -81z" />
    <glyph glyph-name="dvN_DA" horiz-adv-x="1121" 
d="M247 202c48 0 88 34 97 81c8 48 -20 82 -68 82c-50 0 -92 -34 -100 -82c-9 -48 20 -81 71 -81zM990 -33h-154l26 148c-33 -32 -81 -50 -137 -50c-110 0 -199 82 -172 235c4 24 11 45 19 65h-116c11 -27 16 -62 9 -103c-21 -126 -122 -193 -235 -193
c-131 0 -219 94 -196 223c25 140 137 204 271 204h396c47 22 101 33 160 33h37l14 80h-887l23 131h1158l-24 -131h-112l-38 -214h-179c-72 0 -129 -38 -140 -106c-11 -60 21 -100 80 -100c49 0 96 33 106 92h146z" />
    <glyph glyph-name="dvN_D_RA" horiz-adv-x="1128" 
d="M247 202c48 0 88 34 97 81c8 48 -20 82 -68 82c-50 0 -92 -34 -100 -82c-9 -48 20 -81 71 -81zM840 -33l26 148c-6 -6 -12 -11 -19 -16l-177 -173h-169l162 150c-76 27 -127 103 -106 224c4 24 11 45 19 65h-120c11 -27 16 -62 9 -103c-21 -126 -122 -193 -235 -193
c-131 0 -219 94 -196 223c25 140 137 204 271 204h400c47 22 101 33 160 33h37l14 80h-891l23 131h1162l-24 -131h-112l-38 -214h-179c-72 0 -129 -38 -140 -106c-11 -60 21 -100 80 -100c49 0 96 33 106 92h146l-55 -314h-154z" />
    <glyph glyph-name="dvN_D_VA" horiz-adv-x="1116" 
d="M247 202c48 0 89 34 97 81c8 48 -20 82 -68 82c-50 0 -91 -34 -100 -82s20 -81 71 -81zM721 -85c55 0 97 38 110 83l25 143c-27 -26 -65 -43 -111 -47c-53 -5 -94 -41 -103 -91c-8 -52 23 -89 79 -88zM930 -261h-144l21 119c-39 -40 -92 -60 -149 -60
c-120 0 -177 89 -159 197c12 69 53 127 111 160c-43 32 -66 87 -53 164c3 16 7 32 13 46h-113c11 -27 15 -61 8 -103c-22 -127 -130 -193 -244 -193c-118 0 -211 78 -187 213c25 144 146 214 276 214h383c46 22 100 33 159 33h41l14 80h-882l23 131h1149l-22 -131h-110
l-37 -210h-185c-74 0 -122 -35 -134 -95c-9 -53 20 -90 76 -90c50 0 97 34 108 89h136z" />
    <glyph glyph-name="dvN_DHA" horiz-adv-x="1250" 
d="M246 202c48 0 90 33 98 81c9 48 -20 82 -69 82c-50 0 -90 -34 -99 -82s20 -81 70 -81zM756 78c-112 0 -199 54 -196 155c-14 54 -45 107 -106 125c13 -27 19 -62 11 -105c-22 -121 -124 -184 -237 -184c-125 0 -217 90 -194 224c25 142 143 203 272 203h47
c142 0 235 -46 276 -128c25 18 51 30 75 35v3c-58 19 -110 76 -93 172c2 11 4 21 7 31h-593l22 131h705c21 6 43 9 67 9c127 0 189 -81 150 -210h-116c11 41 1 79 -44 79c-34 0 -61 -27 -68 -62c-12 -63 31 -85 88 -85h83l-23 -127h-52c-61 0 -104 -22 -111 -67
c-9 -46 30 -71 93 -71c101 0 180 70 198 173v0l42 238l21 123h252l-22 -131h-95l-108 -609h-157l30 167c-53 -57 -129 -89 -224 -89z" />
    <glyph glyph-name="dvN_DH_YA" horiz-adv-x="1710" 
d="M246 202c47 0 89 33 98 81s-20 82 -69 82c-50 0 -90 -34 -99 -82s20 -81 70 -81zM1287 213c99 0 169 68 185 161v0l42 235h-147l-13 -74c-18 -103 -76 -177 -195 -191c-12 -76 34 -131 128 -131zM793 76c-134 0 -241 56 -236 167c-13 45 -45 96 -102 114
c12 -27 18 -61 10 -104c-22 -121 -124 -184 -237 -184c-125 0 -217 90 -194 224c25 142 143 203 272 203h47c139 0 232 -45 274 -124c24 16 50 26 73 31v3c-59 19 -110 76 -94 172c2 11 4 21 8 31h-589l22 131h700c21 6 43 9 67 9c128 0 189 -81 151 -210h-116
c10 41 0 79 -45 79c-34 0 -61 -27 -68 -62c-13 -63 31 -85 88 -85h83l-23 -127h-52c-61 0 -104 -23 -110 -68c-8 -51 44 -70 100 -70c94 0 164 53 183 143c0 5 1 10 2 15c3 20 9 40 15 60h10c113 0 156 53 172 140l8 45h-139l23 131h696l-24 -131h-97l-108 -609h-157l27 155
c-46 -44 -112 -73 -194 -73c-95 0 -166 36 -205 97c-52 -65 -133 -103 -241 -103z" />
    <glyph glyph-name="dvN_DH_RA" horiz-adv-x="1252" 
d="M247 202c49 0 88 33 97 81s-20 82 -68 82c-50 0 -92 -34 -100 -82s21 -81 71 -81zM968 154l-225 -225h-170l168 154c-105 5 -183 57 -179 151c-8 60 -41 104 -102 122c9 -25 12 -57 5 -94c-21 -126 -123 -193 -236 -193c-116 0 -219 83 -195 222c24 138 137 205 266 205
h60c141 0 234 -45 275 -125c23 16 49 27 71 32v3c-58 19 -110 76 -93 172c2 11 4 21 7 31h-594l23 131h705c21 6 43 9 67 9c127 0 189 -81 150 -210h-116c11 41 1 79 -44 79c-34 0 -61 -27 -68 -62c-12 -63 31 -85 88 -85h83l-23 -127h-52c-61 0 -104 -22 -111 -67
c-9 -46 30 -71 93 -71c101 0 180 70 198 173v0l42 238l21 123h252l-22 -131h-95l-108 -609h-157l30 168c-5 -5 -9 -10 -14 -14v0z" />
    </font>
</defs>
</svg>
