<?xml version="1.0" standalone="no"?>
<!DOCTYPE svg PUBLIC "-//W3C//DTD SVG 1.1//EN" "http://www.w3.org/Graphics/SVG/1.1/DTD/svg11.dtd" >
<svg xmlns="http://www.w3.org/2000/svg" xmlns:xlink="http://www.w3.org/1999/xlink" version="1.1">
<metadata>
Created by FontForge 20170910 at Fri Dec 22 02:56:11 2017
 By Jimmy Wärting
Copyright 2014-2017 Indian Type Foundry (info@indiantypefoundry.com)
</metadata>
<defs>
<font id="Poppins-ExtraLightItalic" horiz-adv-x="279" >
  <font-face 
    font-family="Poppins ExtraLight"
    font-weight="275"
    font-style="italic"
    font-stretch="normal"
    units-per-em="1000"
    panose-1="0 0 3 0 0 0 0 0 0 0"
    ascent="800"
    descent="-200"
    x-height="543"
    cap-height="702"
    bbox="-504.29 -553 2679 1040"
    underline-thickness="50"
    underline-position="-100"
    slope="-10"
    unicode-range="U+000D-FB02"
  />
<missing-glyph horiz-adv-x="500" 
d="M0 0v700h500v-700h-500zM250 395l170 255h-340zM280 350l170 -255v510zM80 50h340l-170 255zM50 605v-510l170 255z" />
    <glyph glyph-name=".notdef" horiz-adv-x="500" 
d="M0 0v700h500v-700h-500zM250 395l170 255h-340zM280 350l170 -255v510zM80 50h340l-170 255zM50 605v-510l170 255z" />
    <glyph glyph-name="NULL" horiz-adv-x="0" 
 />
    <glyph glyph-name="NULL" horiz-adv-x="0" 
 />
    <glyph glyph-name="CR" unicode="&#xd;" horiz-adv-x="293" 
 />
    <glyph glyph-name="space" unicode=" " horiz-adv-x="293" 
 />
    <glyph glyph-name="dvA" unicode="&#x905;" horiz-adv-x="820" 
d="M300 433c108 0 168 71 179 135c16 93 -45 146 -129 146c-89 0 -172 -53 -186 -142h-39c20 111 118 177 232 177c109 0 179 -68 161 -175c-14 -77 -68 -140 -160 -157v-1c20 -3 37 -9 51 -17h257l60 341h191l-6 -35h-151l-125 -705h-40l64 365l-212 1
c25 -33 33 -78 25 -125c-20 -115 -113 -191 -234 -191c-122 0 -200 80 -179 198h39c-17 -96 45 -162 144 -162c101 0 176 64 192 157c13 72 -17 155 -140 155h-36l6 35h36z" />
    <glyph glyph-name="dvAA" unicode="&#x906;" horiz-adv-x="1098" 
d="M300 433c108 0 168 71 179 135c16 93 -45 146 -129 146c-89 0 -172 -53 -186 -142h-39c20 111 118 177 232 177c109 0 179 -68 161 -175c-14 -77 -68 -140 -160 -157v-1c20 -3 37 -9 51 -17h257l60 341h469l-6 -35h-151l-124 -705h-41l124 705h-237l-125 -705h-40l64 365
l-212 1c25 -33 33 -78 25 -125c-20 -115 -113 -191 -234 -191c-122 0 -200 80 -179 198h39c-17 -96 45 -162 144 -162c101 0 176 64 192 157c13 72 -17 155 -140 155h-36l6 35h36z" />
    <glyph glyph-name="dvI" unicode="&#x907;" horiz-adv-x="583" 
d="M21 705l5 35h672l-6 -35h-164l-27 -147h1l-6 -32h-172c-69 0 -158 -17 -173 -106c-14 -76 46 -103 118 -103h45c100 0 198 -40 175 -168c-16 -87 -85 -160 -211 -160c-130 1 -172 81 -177 117l-31 -178h-38l44 254h36c-5 -90 47 -160 164 -160c103 0 162 61 174 129
c19 107 -65 135 -148 135h-48c-89 0 -160 42 -143 136c18 106 119 136 206 136h145l27 147h-468z" />
    <glyph glyph-name="dvII" unicode="&#x908;" horiz-adv-x="581" 
d="M101 106l-31 -178h-38l44 254h36c-5 -90 47 -160 164 -160c103 0 162 61 174 129c19 107 -65 135 -148 135h-48c-89 0 -160 42 -143 136c18 106 119 136 206 136h145l27 147h-468l5 35h469l14 80c20 112 81 179 180 179c89 0 131 -62 115 -148h-36c11 65 -20 112 -85 112
c-74 0 -121 -49 -136 -144l-13 -79h164l-5 -35h-164l-30 -166h-1l-2 -13h-172c-69 0 -158 -17 -173 -106c-14 -76 46 -103 118 -103h45c100 0 198 -40 175 -168c-16 -87 -85 -160 -211 -160c-130 1 -172 81 -177 117z" />
    <glyph glyph-name="dvU" unicode="&#x909;" horiz-adv-x="581" 
d="M27 705l6 35h645l-7 -35h-141l-22 -129c-15 -83 -78 -144 -149 -155l-1 -1c94 -18 137 -104 120 -203c-22 -124 -118 -215 -253 -215c-134 0 -216 94 -194 218h39c-18 -102 52 -181 161 -181c108 0 190 75 209 180c14 83 -18 181 -152 181h-38l6 37h35
c106 0 165 67 178 143l22 125h-464z" />
    <glyph glyph-name="dvUU" unicode="&#x90a;" horiz-adv-x="872" 
d="M27 705l6 35h936l-6 -35h-433l-22 -129c-15 -83 -78 -144 -149 -155v-1h223c123 0 221 -53 196 -197c-25 -139 -125 -191 -229 -191c-13 0 -27 2 -40 3l6 32c13 -1 24 -2 35 -2c86 0 168 41 189 159c22 121 -62 162 -162 162h-149c44 -38 61 -101 49 -171
c-21 -122 -117 -213 -252 -213c-134 0 -216 94 -194 218h39c-18 -102 52 -181 161 -181c108 0 190 75 209 180c14 83 -18 181 -152 181h-38l6 37h35c106 0 165 67 178 143l22 125h-464z" />
    <glyph glyph-name="dvvR" unicode="&#x90b;" horiz-adv-x="1004" 
d="M446 0l60 341l-384 -341h-48l1 5l438 381c6 93 -53 164 -158 164c-119 0 -220 -81 -243 -214h-41c28 153 145 249 281 249c97 0 156 -48 176 -119l42 239h-543l6 35h1068l-7 -35h-486l-48 -275h199c62 0 94 28 107 69l16 90h37l-63 -356h-14c-88 0 -146 -57 -158 -126
c-15 -89 41 -123 112 -123c21 0 44 5 59 9l-7 -34c-13 -5 -40 -9 -62 -9c-90 0 -161 48 -141 155c15 83 82 148 180 156l29 168c-26 -21 -61 -33 -106 -33h-194l-70 -396h-38z" />
    <glyph glyph-name="dvvRR" unicode="&#x960;" horiz-adv-x="1004" 
d="M445 0l61 341l-384 -341h-49l1 5l439 381c6 93 -54 164 -158 164c-120 0 -221 -81 -244 -214h-41c28 153 145 249 281 249c97 0 156 -48 177 -120l42 240h-543l6 35h1068l-6 -35h-487l-48 -275h198c67 0 99 33 110 79l6 32l3 21v0l5 27h37l-63 -357h-42
c-54 0 -111 -21 -123 -89c-11 -62 35 -87 98 -87h40l-6 -33h-45c-54 0 -112 -21 -124 -89c-11 -64 36 -88 99 -88c37 0 78 9 98 16l-6 -32c-22 -9 -63 -17 -102 -17c-80 0 -144 34 -129 118c11 61 57 98 104 107l1 2c-48 12 -77 46 -67 105c15 84 89 115 156 115h17l29 170
c-26 -22 -62 -34 -107 -34h-193l-70 -396h-39z" />
    <glyph glyph-name="dvvL" unicode="&#x90c;" horiz-adv-x="897" 
d="M26 705l6 35h961l-7 -35h-278l-27 -151c104 -11 149 -101 129 -222c-6 -36 -17 -70 -34 -100h-8c-91 0 -149 -56 -161 -126c-16 -89 41 -123 112 -123c21 0 44 5 59 10l-6 -34c-15 -5 -41 -10 -63 -10c-90 0 -161 48 -142 156c15 82 84 149 180 155c10 22 18 47 22 72
c19 103 -17 186 -118 186c-105 0 -180 -85 -198 -220l-2 -12h-35l1 12c17 132 -11 220 -111 220c-107 0 -175 -80 -193 -186c-21 -117 27 -203 152 -203c10 0 20 1 32 2l-7 -37c-12 -1 -23 -1 -34 -1c-151 0 -208 103 -184 239c23 133 109 223 233 223
c109 0 144 -89 143 -163h2c26 71 83 154 191 162l27 151h-642z" />
    <glyph glyph-name="dvvLL" unicode="&#x961;" horiz-adv-x="905" 
d="M33 705l6 35h962l-6 -35h-286l-28 -151c104 -11 149 -101 129 -222c-6 -36 -18 -70 -33 -100h-42c-54 0 -111 -21 -123 -89c-11 -62 36 -87 98 -87h40l-6 -33h-45c-54 0 -112 -21 -124 -89c-11 -64 37 -88 99 -88c37 0 78 9 98 16l-5 -32c-23 -9 -64 -17 -103 -17
c-80 0 -144 34 -129 119c11 60 58 97 104 106l1 2c-48 12 -77 46 -67 105c16 84 89 115 156 115h18c10 23 18 47 22 72c19 103 -17 186 -118 186c-105 0 -181 -85 -198 -220l-2 -12h-35l1 12c17 132 -11 220 -111 220c-107 0 -175 -80 -193 -186c-21 -117 27 -203 152 -203
c10 0 20 1 32 2l-7 -37c-12 -1 -23 -1 -34 -1c-151 0 -208 103 -184 239c23 133 109 223 233 223c109 0 144 -89 143 -163h2c26 71 83 155 192 162l27 151h-636z" />
    <glyph glyph-name="dvE" unicode="&#x90f;" horiz-adv-x="650" 
d="M26 705l6 35h715l-6 -35h-126l-24 -137c-26 -147 -90 -207 -224 -196l6 36c107 -8 157 40 178 161l24 136h-363l-76 -429c-26 -135 31 -221 163 -221c116 0 188 71 209 194h39c-24 -144 -111 -230 -253 -230c-161 0 -226 104 -198 257l75 429h-145z" />
    <glyph glyph-name="dvAI" unicode="&#x910;" horiz-adv-x="650" 
d="M294 19c-161 0 -226 104 -198 257l75 429h-145l6 35h547c-84 184 -123 196 -225 196h-35l6 34h35c118 0 165 -12 259 -230h128l-6 -35h-126l-24 -137c-26 -147 -90 -207 -224 -196l6 36c107 -8 157 40 178 161l24 136h-363l-76 -429c-26 -135 31 -221 163 -221
c116 0 188 71 209 194h39c-24 -144 -111 -230 -253 -230z" />
    <glyph glyph-name="dvO" unicode="&#x913;" horiz-adv-x="1098" 
d="M635 0h-40l64 365l-212 1c25 -33 33 -78 25 -125c-20 -115 -113 -191 -234 -191c-122 0 -200 80 -179 198h39c-17 -96 45 -162 144 -162c101 0 176 64 192 157c13 72 -17 155 -140 155h-36l6 35h36c108 0 168 71 179 135c16 93 -45 146 -129 146
c-89 0 -172 -53 -186 -142h-39c20 111 118 177 232 177c109 0 179 -68 161 -175c-14 -77 -68 -140 -160 -157v-1c20 -3 37 -9 51 -17h257l60 341h351c-86 184 -123 196 -225 196h-36l6 34h35c119 0 164 -12 259 -230h79l-6 -35h-151l-124 -705h-41l124 705h-237z" />
    <glyph glyph-name="dvAU" unicode="&#x914;" horiz-adv-x="1098" 
d="M635 0h-40l64 365l-212 1c25 -33 33 -78 25 -125c-20 -115 -113 -191 -234 -191c-122 0 -200 80 -179 198h39c-17 -96 45 -162 144 -162c101 0 176 64 192 157c13 72 -17 155 -140 155h-36l6 35h36c108 0 168 71 179 135c16 93 -45 146 -129 146
c-89 0 -172 -53 -186 -142h-39c20 111 118 177 232 177c109 0 179 -68 161 -175c-14 -77 -68 -140 -160 -157v-1c20 -3 37 -9 51 -17h257l60 341h354c-102 104 -139 110 -244 110h-36l5 29h36c102 0 142 -3 234 -99c-74 204 -116 214 -213 214h-36l4 30h36
c118 0 160 -12 251 -284h78l-6 -35h-151l-124 -705h-41l124 705h-237z" />
    <glyph glyph-name="dvEcandra" unicode="&#x90d;" horiz-adv-x="651" 
d="M389 848c-128 0 -168 82 -155 156h36c-10 -57 22 -123 125 -123c102 0 158 66 168 123h35c-12 -74 -82 -156 -209 -156zM2 705l6 35h715l-6 -35h-126l-24 -137c-26 -147 -90 -207 -224 -196l6 36c107 -8 157 40 178 161l24 136h-363l-76 -429c-26 -135 31 -221 163 -221
c116 0 188 71 209 194h39c-24 -144 -111 -230 -253 -230c-161 0 -226 104 -198 257l75 429h-145z" />
    <glyph glyph-name="dvAcandra" unicode="&#x972;" horiz-adv-x="820" 
d="M300 433c108 0 168 71 179 135c16 93 -45 146 -129 146c-89 0 -172 -53 -186 -142h-39c20 111 118 177 232 177c109 0 179 -68 161 -175c-14 -77 -68 -140 -160 -157v-1c20 -3 37 -9 51 -17h257l60 341h191l-6 -35h-151l-125 -705h-40l64 365l-212 1
c25 -33 33 -78 25 -125c-20 -115 -113 -191 -234 -191c-122 0 -200 80 -179 198h39c-17 -96 45 -162 144 -162c101 0 176 64 192 157c13 72 -17 155 -140 155h-36l6 35h36zM859 849c-128 0 -173 82 -160 156h36c-10 -57 21 -123 125 -123c102 0 158 66 168 123h36
c-14 -74 -78 -156 -205 -156z" />
    <glyph glyph-name="dvOcandra" unicode="&#x911;" horiz-adv-x="1098" 
d="M300 433c108 0 168 71 179 135c16 93 -45 146 -129 146c-89 0 -172 -53 -186 -142h-39c20 111 118 177 232 177c109 0 179 -68 161 -175c-14 -77 -68 -140 -160 -157v-1c20 -3 37 -9 51 -17h257l60 341h469l-6 -35h-151l-124 -705h-41l124 705h-237l-125 -705h-40l64 365
l-212 1c25 -33 33 -78 25 -125c-20 -115 -113 -191 -234 -191c-122 0 -200 80 -179 198h39c-17 -96 45 -162 144 -162c101 0 176 64 192 157c13 72 -17 155 -140 155h-36l6 35h36zM990 848c-128 0 -173 82 -160 156h36c-10 -57 21 -123 125 -123c102 0 158 66 168 123h36
c-14 -74 -78 -156 -205 -156z" />
    <glyph glyph-name="dvmAA" unicode="&#x93e;" 
d="M54 0l124 705h-151l6 35h343l-6 -35h-151l-124 -705h-41z" />
    <glyph glyph-name="dvmI" unicode="&#x93f;" 
d="M219 705l-125 -705h-41l125 705h-151l6 35h151v2c31 191 237 234 407 234c169 0 355 -56 324 -231l-3 -17h-41l3 17c28 157 -154 196 -289 196c-138 0 -334 -26 -361 -199v-2h152l-6 -35h-151z" />
    <glyph glyph-name="dvmII" unicode="&#x940;" horiz-adv-x="278" 
d="M-97 729l10 54c19 105 76 193 194 193c119 0 145 -86 125 -193l-8 -43h151l-5 -35h-151l-125 -705h-40l124 705h-151l5 35h153l8 45c15 80 0 156 -92 156c-93 0 -132 -76 -148 -156l-11 -56h-39z" />
    <glyph glyph-name="dvmU" unicode="&#x941;" horiz-adv-x="0" 
d="M-302 -277c-117 0 -208 61 -179 197h37c-26 -113 46 -163 146 -163c90 0 159 44 172 124c10 53 -18 106 -83 106h-18l6 34h18c85 0 126 -68 114 -142c-17 -99 -97 -156 -213 -156z" />
    <glyph glyph-name="dvmUU" unicode="&#x942;" horiz-adv-x="0" 
d="M-268 -272c-81 0 -148 53 -132 142c15 92 91 150 196 150c137 0 224 -100 190 -265c-1 -6 -3 -14 -4 -20h-35l5 28c28 140 -44 224 -157 224c-86 0 -149 -48 -160 -118c-12 -66 33 -109 101 -109c10 0 22 1 33 3l-5 -33c-10 -2 -20 -2 -32 -2z" />
    <glyph glyph-name="dvmvR" unicode="&#x943;" horiz-adv-x="0" 
d="M-255 -295c-84 0 -163 59 -145 165c15 88 89 150 200 150h19l-5 -31h-18c-87 0 -146 -49 -157 -119c-14 -84 47 -131 116 -131c27 0 54 5 71 10l-7 -33c-17 -6 -48 -11 -74 -11z" />
    <glyph glyph-name="dvmvRR" unicode="&#x944;" horiz-adv-x="0" 
d="M-296 -427c-79 0 -145 40 -129 123c11 59 57 93 104 102v3c-48 12 -77 45 -66 104c15 84 89 115 156 115h50l-5 -27h-40c-53 0 -110 -22 -122 -89c-11 -63 35 -88 97 -88h41l-6 -32h-44c-55 0 -114 -21 -125 -86c-12 -62 37 -91 100 -91c37 0 77 8 98 15l-6 -32
c-23 -9 -64 -17 -103 -17z" />
    <glyph glyph-name="dvmvL" unicode="&#x962;" horiz-adv-x="0" 
d="M-42 -455c-67 0 -119 35 -106 112c10 61 60 108 130 114c7 15 11 31 14 47c13 74 -10 131 -82 131c-74 0 -119 -62 -137 -154l-2 -8h-30l2 8c18 93 -9 154 -79 154c-74 0 -121 -56 -134 -131c-15 -80 20 -140 107 -140c6 0 16 0 22 2l-6 -31c-6 -1 -17 -1 -24 -1
c-108 0 -150 74 -134 170c18 97 83 162 171 162c80 0 103 -63 102 -117h2c20 54 65 117 150 117c86 0 122 -68 106 -162c-4 -24 -12 -48 -23 -70h-6c-65 0 -108 -40 -116 -88c-11 -62 32 -87 81 -87c16 0 32 3 43 7l-6 -30c-11 -3 -28 -5 -45 -5z" />
    <glyph glyph-name="dvmvLL" unicode="&#x963;" horiz-adv-x="0" 
d="M-1 -542c-16 -6 -45 -11 -73 -11c-58 0 -104 25 -93 85c8 45 41 70 74 77v1c-34 9 -54 35 -47 77c11 60 63 84 112 84h11c6 15 10 31 13 47c13 74 -10 131 -82 131c-74 0 -119 -62 -137 -154l-1 -8h-31l2 8c18 93 -9 154 -79 154c-74 0 -121 -56 -134 -131
c-15 -80 20 -140 107 -140c6 0 16 0 22 2l-6 -31c-6 -1 -17 -1 -24 -1c-108 0 -150 74 -133 170c17 97 82 162 170 162c80 0 103 -63 102 -117h2c20 54 65 117 150 117c86 0 122 -68 106 -162c-4 -24 -12 -48 -23 -70h-31c-37 0 -77 -16 -84 -62c-8 -45 24 -62 67 -62h28
l-4 -28h-29c-39 0 -81 -13 -90 -62c-7 -43 26 -60 70 -60c27 0 55 6 69 11z" />
    <glyph glyph-name="dvmE" unicode="&#x947;" horiz-adv-x="0" 
d="M-93 737c-87 187 -123 199 -226 199h-36l6 34h35c119 0 164 -12 260 -233h-39z" />
    <glyph glyph-name="dvmAI" unicode="&#x948;" horiz-adv-x="0" 
d="M-91 737c-104 107 -141 113 -247 113h-36l5 29h36c102 0 142 -3 234 -99c-74 204 -116 214 -213 214h-36l4 30h36c118 0 160 -12 252 -287h-35z" />
    <glyph glyph-name="dvmO" unicode="&#x94b;" 
d="M94 0h-40l124 705h-151l6 35h151c-85 184 -123 196 -225 196h-36l7 34h35c118 0 164 -12 258 -230h153l-6 -35h-151z" />
    <glyph glyph-name="dvmAU" unicode="&#x94c;" 
d="M70 0h-41l124 705h-151l6 35h153c-102 104 -139 110 -244 110h-36l6 29h35c102 0 142 -3 234 -99c-74 204 -116 214 -213 214h-36l4 30h36c118 0 160 -12 252 -284h152l-6 -35h-152z" />
    <glyph glyph-name="dvmEcandra" unicode="&#x945;" horiz-adv-x="0" 
d="M-56 822c-128 0 -173 82 -160 156h36c-10 -57 21 -123 125 -123c102 0 158 66 168 123h36c-14 -74 -78 -156 -205 -156z" />
    <glyph glyph-name="dvmOcandra" unicode="&#x949;" 
d="M224 822c-128 0 -173 82 -160 156h36c-10 -57 21 -123 125 -123c102 0 158 66 168 123h36c-14 -74 -78 -156 -205 -156zM54 0l124 705h-151l6 35h343l-6 -35h-151l-124 -705h-41z" />
    <glyph glyph-name="dvKA" unicode="&#x915;" horiz-adv-x="1012" 
d="M427 0l42 242c-38 -68 -111 -125 -214 -125c-123 0 -205 87 -179 232c25 140 134 226 256 226c105 0 158 -58 173 -127l45 257h-523l6 35h1076l-7 -35h-513l-45 -257c38 70 107 127 210 127c117 0 199 -88 174 -227c-26 -146 -130 -230 -251 -230c-21 0 -43 3 -57 6l6 34
c14 -3 33 -5 50 -5c98 0 190 71 212 196c20 118 -48 191 -146 191c-125 0 -194 -97 -214 -184l-63 -356h-38zM267 152c132 0 202 105 219 185l3 20c11 85 -24 183 -153 183c-100 0 -198 -72 -219 -191c-22 -126 47 -197 150 -197z" />
    <glyph glyph-name="dvKHA" unicode="&#x916;" horiz-adv-x="918" 
d="M693 0l46 259c-35 -59 -99 -108 -189 -108c-15 0 -29 2 -42 4c-48 -83 -134 -156 -249 -156c-138 0 -215 85 -191 225l31 172h40c69 0 153 27 176 162l26 147h-314l6 35h982l-7 -35h-151l-124 -705h-40zM562 184c116 0 180 95 193 170c14 78 -18 171 -138 171
c-91 0 -175 -62 -194 -167c-19 -111 46 -174 139 -174zM267 35c93 0 169 61 208 131c-66 29 -104 99 -88 195c21 123 119 198 229 197c94 0 142 -49 156 -108l45 255h-436l-26 -151c-27 -152 -118 -190 -210 -190h-12l-25 -143c-20 -112 41 -186 159 -186z" />
    <glyph glyph-name="dvGA" unicode="&#x917;" horiz-adv-x="705" 
d="M480 0l124 705h-208l-52 -296c-14 -82 -64 -153 -165 -153c-96 0 -132 70 -118 150l6 30h40l-6 -31c-10 -54 5 -114 81 -114c79 0 111 60 121 117l52 297h-328l6 35h769l-6 -35h-152l-123 -705h-41z" />
    <glyph glyph-name="dvGHA" unicode="&#x918;" horiz-adv-x="717" 
d="M288 147c127 0 245 88 268 215v0l60 343h-404l-17 -92c-16 -92 23 -143 138 -143h52l-6 -34h-54c-128 0 -191 -62 -205 -138c-18 -103 58 -151 168 -151zM27 705l6 35h781l-6 -35h-151l-124 -705h-40l45 255c-54 -87 -152 -143 -263 -143c-130 0 -217 63 -196 183
c17 93 96 148 176 157v2c-68 9 -119 53 -101 158l17 93h-144z" />
    <glyph glyph-name="dvNGA" unicode="&#x919;" horiz-adv-x="636" 
d="M577 374c-20 0 -32 14 -28 33c3 20 20 34 40 34s31 -14 28 -34c-4 -19 -21 -33 -40 -33zM28 705l6 35h699l-6 -35h-203l-29 -160l-3 -19h-172c-69 0 -155 -17 -172 -105c-13 -78 47 -104 117 -104h44c101 0 198 -44 176 -166c-17 -92 -95 -162 -230 -162
c-153 0 -224 86 -205 193h40c-15 -88 35 -160 169 -160c107 0 174 58 187 130c18 105 -65 134 -148 134h-43c-84 0 -164 39 -147 136c19 106 117 135 203 135h146l27 148h-456z" />
    <glyph glyph-name="dvCA" unicode="&#x91a;" horiz-adv-x="724" 
d="M27 705l6 35h788l-7 -35h-150l-124 -705h-41l41 235c-46 -73 -131 -125 -224 -125c-116 0 -203 76 -180 205c15 87 72 155 154 187h-218l6 34h360l-7 -34h-31c-120 0 -206 -80 -225 -182c-20 -113 55 -175 154 -175c114 0 209 89 229 189l65 371h-596z" />
    <glyph glyph-name="dvCHA" unicode="&#x91b;" horiz-adv-x="810" 
d="M25 705l5 35h877l-5 -35h-237l-26 -149c81 -8 142 -73 120 -205c-36 -201 -213 -320 -426 -320c-177 0 -302 78 -276 220c18 103 99 159 185 169v2c-67 9 -119 54 -100 158l23 125h-140zM339 67c188 0 351 108 382 284c22 120 -40 174 -107 174c-58 0 -136 -34 -154 -137
c-6 -30 -5 -65 1 -102h-36c-6 37 -6 72 0 105c20 113 101 159 176 165l26 149h-422l-22 -123c-16 -93 21 -143 136 -143h23l-5 -35h-23c-131 0 -202 -69 -217 -152c-21 -123 88 -185 242 -185z" />
    <glyph glyph-name="dvJA" unicode="&#x91c;" horiz-adv-x="829" 
d="M27 705l6 35h893l-6 -35h-151l-124 -705h-41l83 470h-232l-24 -133c-20 -110 -97 -189 -210 -188c-102 1 -157 81 -138 189l30 168h40l-29 -169c-16 -89 23 -152 104 -152c84 0 147 63 163 152l30 169h273l35 199h-702z" />
    <glyph glyph-name="dvJHA" unicode="&#x91d;" horiz-adv-x="844" 
d="M269 317h406l69 388h-216l-27 -147h1l-6 -32h-172c-66 0 -158 -17 -173 -106c-14 -76 46 -103 118 -103zM619 0l51 285l-243 1c45 -23 74 -69 61 -138c-15 -81 -81 -150 -203 -150c-126 0 -169 78 -176 105l-32 -176h-39l45 245h36c-2 -74 46 -142 164 -142
c103 0 156 57 167 121c15 84 -36 135 -147 135h-48c-90 0 -161 41 -144 136c18 107 119 136 206 136h145l27 147h-455l6 35h901l-6 -35h-151l-125 -705h-40z" />
    <glyph glyph-name="dvNYA" unicode="&#x91e;" horiz-adv-x="795" 
d="M27 705l6 35h859l-6 -35h-152l-123 -705h-41l58 328h-121c-26 -115 -116 -218 -258 -218c-133 0 -184 85 -187 161h39c5 -59 45 -125 152 -125c124 0 201 92 219 198c18 102 -25 195 -149 195c-109 0 -173 -69 -197 -126h-39c28 80 108 162 242 162
c142 0 196 -101 184 -211h121l60 341h-667z" />
    <glyph glyph-name="dvTTA" unicode="&#x91f;" horiz-adv-x="648" 
d="M22 705l7 35h716l-6 -35h-235l-32 -174h-79c-139 0 -262 -72 -289 -225c-23 -125 58 -214 187 -214c131 0 231 92 253 222h39c-26 -152 -139 -258 -298 -258c-149 0 -249 104 -222 252c32 177 170 258 334 258h42l25 139h-442z" />
    <glyph glyph-name="dvTTHA" unicode="&#x920;" horiz-adv-x="674" 
d="M285 93c122 0 234 86 257 210c22 125 -54 217 -181 217c-122 0 -234 -84 -256 -210c-23 -124 55 -217 180 -217zM280 57c-145 0 -242 106 -216 254c26 143 144 237 282 244l27 150h-351l6 35h743l-6 -35h-352l-27 -150c133 -9 222 -111 196 -253
c-27 -147 -154 -245 -302 -245z" />
    <glyph glyph-name="dvDDA" unicode="&#x921;" horiz-adv-x="580" 
d="M28 705l6 35h643l-6 -35h-155l-32 -179h-164c-69 0 -155 -17 -172 -105c-13 -78 47 -104 117 -104h44c101 0 198 -44 176 -166c-17 -92 -95 -162 -230 -162c-153 0 -224 86 -205 193h40c-15 -88 35 -160 169 -160c107 0 174 58 187 130c18 105 -65 134 -148 134h-43
c-84 0 -164 39 -147 136c19 106 117 135 203 135h139l27 148h-449z" />
    <glyph glyph-name="dvDDHA" unicode="&#x922;" horiz-adv-x="631" 
d="M25 705l6 35h697l-6 -35h-197l-30 -169h-82c-147 0 -280 -80 -309 -246c-25 -142 62 -240 207 -240c111 0 201 66 218 158c13 75 -30 130 -104 130c-64 0 -123 -42 -133 -111c-1 -6 -2 -14 -2 -21h-32c0 7 1 18 2 26c15 86 86 138 172 138c91 0 149 -68 133 -162
c-20 -112 -123 -190 -259 -190c-163 0 -270 111 -241 274c33 189 181 276 345 276h52l24 137h-461z" />
    <glyph glyph-name="dvNNA" unicode="&#x923;" horiz-adv-x="833" 
d="M247 241c84 0 144 62 159 149l55 315h-265l-56 -315c-15 -87 25 -149 107 -149zM27 705l6 35h897l-7 -35h-151l-124 -705h-40l124 705h-231l-55 -312c-19 -109 -91 -187 -200 -187c-108 0 -166 77 -145 187l55 312h-129z" />
    <glyph glyph-name="dvTA" unicode="&#x924;" horiz-adv-x="686" 
d="M27 705l6 35h750l-7 -35h-151l-124 -705h-40l82 465h-159c-149 0 -259 -67 -285 -214c-24 -137 43 -215 186 -215h23l-6 -34h-25c-155 0 -247 89 -219 250c31 173 160 249 330 249h161l36 204h-558z" />
    <glyph glyph-name="dvTHA" unicode="&#x925;" horiz-adv-x="749" 
d="M524 0l45 252c-31 -65 -123 -143 -250 -143c-164 0 -256 105 -227 265c3 14 6 27 10 42h104c101 0 224 27 247 160c14 76 -25 137 -111 137c-106 0 -169 -82 -168 -190h-38c1 129 82 226 210 226c108 0 164 -76 146 -174c-26 -144 -150 -191 -280 -191h-78
c-31 -146 44 -240 195 -240c120 0 235 86 257 212l68 384h192l-6 -35h-151l-125 -705h-40z" />
    <glyph glyph-name="dvDA" unicode="&#x926;" horiz-adv-x="608" 
d="M27 705l6 35h672l-6 -35h-161l-29 -163h-130c-123 0 -238 -62 -262 -195c-20 -116 44 -195 158 -195c75 0 180 46 200 162h37l-56 -320h-40l39 223c-35 -58 -110 -99 -193 -99c-130 0 -210 93 -186 230c29 162 163 230 306 230h93l22 127h-470z" />
    <glyph glyph-name="dvDHA" unicode="&#x927;" horiz-adv-x="700" 
d="M262 110c-113 0 -201 62 -181 172c17 91 88 136 152 143v3c-65 13 -120 65 -102 163c15 91 89 158 187 158c105 0 156 -72 126 -182h-34c25 91 -13 147 -96 147c-75 0 -136 -56 -147 -127c-16 -85 31 -142 138 -142h59l-6 -34h-54c-109 0 -170 -56 -182 -126
c-15 -92 57 -140 153 -140c126 0 243 90 266 221v0l60 339v0l5 35h192l-6 -35h-151l-124 -705h-41l45 254c-52 -88 -148 -144 -259 -144z" />
    <glyph glyph-name="dvNA" unicode="&#x928;" horiz-adv-x="770" 
d="M229 180c87 0 159 65 175 147c16 86 -37 146 -124 146c-90 0 -163 -59 -179 -148c-16 -85 36 -145 128 -145zM27 705l6 35h834l-6 -35h-151l-124 -705h-40l84 474h-248c42 -26 69 -79 56 -150c-18 -107 -108 -179 -215 -179c-111 0 -179 76 -160 182
c19 112 110 182 229 182h344l34 196h-643z" />
    <glyph glyph-name="dvPA" unicode="&#x92a;" horiz-adv-x="642" 
d="M291 254c105 0 177 72 199 160l51 291h-347l-44 -245c-22 -128 25 -206 141 -206zM27 705l6 35h706l-6 -35h-152l-123 -705h-41l57 323c-40 -63 -107 -104 -193 -104c-135 0 -197 93 -171 241l44 245h-127z" />
    <glyph glyph-name="dvPHA" unicode="&#x92b;" horiz-adv-x="986" 
d="M281 254c105 0 176 82 193 178v0l48 273h-328l-44 -246c-22 -127 16 -205 131 -205zM27 705l6 35h1050l-7 -35h-514l-46 -260c38 71 110 130 215 130c117 0 196 -87 172 -225c-26 -147 -132 -232 -251 -232c-22 0 -45 3 -59 7l6 33c15 -3 34 -5 52 -5
c100 0 189 71 211 196c21 118 -48 191 -146 191c-132 0 -202 -108 -218 -200v0l-60 -340h-40l57 325c-39 -64 -104 -106 -187 -106c-132 0 -184 92 -158 240l44 246h-127z" />
    <glyph glyph-name="dvBA" unicode="&#x92c;" horiz-adv-x="690" 
d="M466 0l43 242c-41 -72 -121 -132 -231 -132c-132 0 -228 90 -202 236c25 148 144 238 278 238c113 0 174 -63 191 -136l45 257h-563l6 35h754l-7 -35h-151l-124 -705h-39zM357 554c-56 0 -111 -19 -155 -54l257 -286c38 39 62 89 69 133c18 97 -30 207 -171 207zM287 142
c63 0 115 22 154 55l-257 287c-36 -35 -62 -82 -72 -139c-22 -129 61 -203 175 -203z" />
    <glyph glyph-name="dvBHA" unicode="&#x92d;" horiz-adv-x="760" 
d="M215 159c76 0 133 57 150 158l17 97h-110c-81 0 -147 -50 -161 -128c-14 -77 32 -127 104 -127zM212 124c-98 0 -156 65 -139 162c18 101 101 162 203 162h112l19 105c17 98 -6 160 -86 160c-65 0 -120 -47 -135 -128c-2 -13 -3 -27 -3 -42h-40c0 14 1 29 3 43
c17 100 87 163 178 163c106 0 142 -78 121 -200l-18 -101h187l51 292h192l-5 -35h-151l-125 -705h-41l73 414h-187l-17 -95c-22 -129 -92 -195 -192 -195z" />
    <glyph glyph-name="dvMA" unicode="&#x92e;" horiz-adv-x="753" 
d="M180 159c77 0 132 57 151 158l17 97h-112c-81 0 -146 -50 -160 -128c-14 -77 32 -127 104 -127zM607 448l45 257h-215l-45 -257h215zM27 705l6 35h817l-6 -35h-151l-124 -705h-41l73 414h-215l-17 -95c-22 -129 -92 -195 -192 -195c-98 0 -156 66 -139 162
c17 101 101 162 203 162h113l45 257h-372z" />
    <glyph glyph-name="dvYA" unicode="&#x92f;" horiz-adv-x="726" 
d="M314 164c121 0 231 82 252 207v-3l59 337h-233l-15 -87c-27 -148 -124 -195 -251 -195c-1 -6 -2 -11 -3 -15c-28 -152 48 -244 191 -244zM27 705l6 35h790l-6 -35h-152l-123 -705h-41l45 256c-41 -66 -124 -127 -243 -127c-163 0 -250 111 -219 282c2 12 6 27 9 39h17
c109 0 203 34 228 173l14 82h-325z" />
    <glyph glyph-name="dvRA" unicode="&#x930;" horiz-adv-x="539" 
d="M28 705l6 35h602l-7 -35h-139l-20 -120c-27 -150 -120 -223 -259 -223h-77l-28 -159c-20 -103 22 -176 120 -176c90 0 150 65 167 162l3 14h39c-1 -5 -2 -10 -2 -13c-20 -121 -95 -199 -209 -199c-124 0 -183 88 -158 215l33 190h108c118 0 199 60 222 189l20 120h-421z
" />
    <glyph glyph-name="dvLA" unicode="&#x932;" horiz-adv-x="890" 
d="M538 92c-11 0 -25 1 -36 2l6 36c10 -1 21 -2 30 -2c126 0 205 88 225 203c18 103 -17 187 -119 187c-105 0 -174 -87 -198 -221l-2 -11h-35l1 11c25 131 -11 221 -114 221c-107 0 -172 -81 -190 -187c-21 -115 26 -203 153 -203c10 0 19 1 30 2l-7 -36
c-10 -1 -18 -2 -29 -2c-151 0 -213 105 -188 240c23 133 107 222 231 222c113 0 148 -89 148 -163h2c26 71 83 155 191 162l27 152h-645l6 35h962l-6 -35h-277l-27 -152c103 -12 148 -105 127 -223c-24 -136 -115 -239 -266 -238z" />
    <glyph glyph-name="dvVA" unicode="&#x935;" horiz-adv-x="679" 
d="M280 149c143 0 219 110 235 196c17 94 -22 200 -166 200c-108 0 -211 -74 -233 -196c-22 -127 52 -200 164 -200zM769 705h-151l-124 -705h-39l42 242c-41 -70 -118 -127 -227 -127c-132 0 -220 88 -193 237c24 140 139 227 267 227c112 0 171 -57 190 -128l44 254h-551
l6 35h743z" />
    <glyph glyph-name="dvSHA" unicode="&#x936;" horiz-adv-x="790" 
d="M238 -9c-131 0 -187 88 -164 218l29 165h151c113 0 215 59 235 174c18 103 -38 165 -127 165c-114 0 -187 -92 -187 -213h-41c2 146 96 249 231 249c114 0 187 -81 163 -207c-25 -135 -136 -203 -271 -203h-119l-23 -133c-19 -104 19 -179 124 -179c93 0 162 69 178 176
h40c-18 -120 -92 -212 -219 -212zM565 0l130 740h192l-6 -35h-151l-124 -705h-41z" />
    <glyph glyph-name="dvSSA" unicode="&#x937;" horiz-adv-x="644" 
d="M295 253c83 0 148 49 180 116l-289 300l-37 -209c-23 -129 35 -207 146 -207zM496 433l48 272h-350l294 -305c3 11 6 22 8 33zM27 705l6 35h708l-6 -35h-151l-124 -705h-40l57 323c-40 -64 -107 -106 -194 -106c-128 0 -200 93 -173 243l44 245h-127z" />
    <glyph glyph-name="dvSA" unicode="&#x938;" horiz-adv-x="814" 
d="M465 600c-18 -102 -73 -160 -131 -188h328l51 293h-229zM27 705l6 35h878l-6 -35h-152l-123 -705h-41l67 378h-521l-30 -174c-18 -104 21 -177 123 -177c96 0 153 75 168 174h39c-17 -119 -88 -210 -210 -210c-124 0 -182 89 -160 216l36 203h104c118 0 199 74 221 190
l19 105h-418z" />
    <glyph glyph-name="dvHA" unicode="&#x939;" horiz-adv-x="596" 
d="M473 53c-27 -71 -107 -152 -236 -152c-147 0 -208 101 -188 216c15 85 71 159 155 193c-41 16 -88 55 -75 126c16 89 94 125 185 125h159l26 144h-463l6 35h651l-6 -35h-149l-26 -144l-6 -32h-188c-69 0 -138 -25 -151 -99c-10 -58 27 -92 81 -106c19 4 40 6 61 6
c132 0 184 -84 187 -152h-40c-4 52 -46 118 -153 118c-119 0 -198 -87 -215 -181c-18 -97 29 -179 152 -179c102 0 169 63 194 117h39z" />
    <glyph glyph-name="dvLLA" unicode="&#x933;" horiz-adv-x="1009" 
d="M256 155c110 0 197 78 216 185c20 112 -39 191 -150 191c-106 0 -198 -75 -218 -191c-20 -110 46 -185 152 -185zM665 155c106 0 199 75 218 185c20 116 -44 191 -151 191c-111 0 -197 -79 -217 -191c-20 -107 40 -185 150 -185zM664 120c-112 0 -176 71 -181 153h-3
c-33 -82 -120 -153 -232 -153c-128 0 -207 91 -184 220c24 137 133 226 259 226c119 0 172 -74 183 -151h2c35 75 108 147 221 151l25 139h-737l6 35h1083l-7 -35h-306l-25 -141c110 -12 177 -97 155 -224c-22 -129 -131 -220 -259 -220z" />
    <glyph glyph-name="dvK_SSA" horiz-adv-x="767" 
d="M183 581c-16 -94 52 -148 152 -151c64 35 118 78 131 151c14 84 -43 133 -119 133c-73 0 -150 -48 -164 -133zM323 -50l29 168c-13 -29 -67 -88 -161 -88c-102 0 -155 69 -139 160c21 121 133 166 235 216c-87 13 -159 75 -141 178c18 107 112 166 206 166
s169 -61 150 -164c-13 -75 -61 -121 -117 -157h237l55 311h190l-6 -35h-152l-124 -705h-39l70 397h-284c-104 -52 -217 -89 -238 -201c-13 -73 27 -132 112 -132c88 0 151 64 164 142h36l-45 -256h-38z" />
    <glyph glyph-name="dvJ_NYA" horiz-adv-x="784" 
d="M560 0l88 504h-260c71 -28 113 -91 98 -186c-20 -113 -109 -190 -222 -189c-99 0 -157 56 -169 110l-33 -185h-40l47 266h38c-8 -105 67 -157 153 -157c99 0 173 70 190 163c20 114 -57 178 -175 178h-8l6 34h381l29 167h-656l6 35h848l-6 -35h-152l-123 -705h-40z" />
    <glyph glyph-name="dvKxA" unicode="&#x958;" horiz-adv-x="1012" 
d="M427 0l42 242c-38 -68 -111 -125 -214 -125c-123 0 -205 87 -179 232c25 140 134 226 256 226c105 0 158 -58 173 -127l45 257h-523l6 35h1076l-7 -35h-513l-45 -257c38 70 107 127 210 127c117 0 199 -88 174 -227c-26 -146 -130 -230 -251 -230c-21 0 -43 3 -57 6l6 34
c14 -3 33 -5 50 -5c98 0 190 71 212 196c20 118 -48 191 -146 191c-125 0 -194 -97 -214 -184l-63 -356h-38zM267 152c132 0 202 105 219 185l3 20c11 85 -24 183 -153 183c-100 0 -198 -72 -219 -191c-22 -126 47 -197 150 -197zM214 -47c-20 0 -33 15 -30 35s21 35 42 35
c19 0 32 -15 29 -35s-21 -35 -41 -35z" />
    <glyph glyph-name="dvKHxA" unicode="&#x959;" horiz-adv-x="918" 
d="M693 0l46 259c-35 -59 -99 -108 -189 -108c-15 0 -29 2 -42 4c-48 -83 -134 -156 -249 -156c-138 0 -215 85 -191 225l31 172h40c69 0 153 27 176 162l26 147h-314l6 35h982l-7 -35h-151l-124 -705h-40zM217 -164c-20 0 -33 15 -30 35s21 35 42 35c19 0 32 -15 29 -35
s-21 -35 -41 -35zM562 184c116 0 180 95 193 170c14 78 -18 171 -138 171c-91 0 -175 -62 -194 -167c-19 -111 46 -174 139 -174zM267 35c93 0 169 61 208 131c-66 29 -104 99 -88 195c21 123 119 198 229 197c94 0 142 -49 156 -108l45 255h-436l-26 -151
c-27 -152 -118 -190 -210 -190h-12l-25 -143c-20 -112 41 -186 159 -186z" />
    <glyph glyph-name="dvGxA" unicode="&#x95a;" horiz-adv-x="705" 
d="M480 0l124 705h-208l-52 -296c-14 -82 -64 -153 -165 -153c-96 0 -132 70 -118 150l6 30h40l-6 -31c-10 -54 5 -114 81 -114c79 0 111 60 121 117l52 297h-328l6 35h769l-6 -35h-152l-123 -705h-41zM153 87c-20 0 -33 15 -30 35s21 35 42 35c19 0 32 -15 29 -35
s-21 -35 -41 -35z" />
    <glyph glyph-name="dvJxA" unicode="&#x95b;" horiz-adv-x="829" 
d="M27 705l6 35h893l-6 -35h-151l-124 -705h-41l83 470h-232l-24 -133c-20 -110 -97 -189 -210 -188c-102 1 -157 81 -138 189l30 168h40l-29 -169c-16 -89 23 -152 104 -152c84 0 147 63 163 152l30 169h273l35 199h-702zM198 -14c-20 0 -33 15 -30 35s21 35 42 35
c19 0 32 -15 29 -35s-21 -35 -41 -35z" />
    <glyph glyph-name="dvDDxA" unicode="&#x95c;" horiz-adv-x="580" 
d="M28 705l6 35h643l-6 -35h-155l-32 -179h-164c-69 0 -155 -17 -172 -105c-13 -78 47 -104 117 -104h44c101 0 198 -44 176 -166c-17 -92 -95 -162 -230 -162c-153 0 -224 86 -205 193h40c-15 -88 35 -160 169 -160c107 0 174 58 187 130c18 105 -65 134 -148 134h-43
c-84 0 -164 39 -147 136c19 106 117 135 203 135h139l27 148h-449zM219 -174c-20 0 -33 15 -30 35s21 35 42 35c19 0 32 -15 29 -35s-21 -35 -41 -35z" />
    <glyph glyph-name="dvDDHxA" unicode="&#x95d;" horiz-adv-x="631" 
d="M25 705l6 35h697l-6 -35h-197l-30 -169h-82c-147 0 -280 -80 -309 -246c-25 -142 62 -240 207 -240c111 0 201 66 218 158c13 75 -30 130 -104 130c-64 0 -123 -42 -133 -111c-1 -6 -2 -14 -2 -21h-32c0 7 1 18 2 26c15 86 86 138 172 138c91 0 149 -68 133 -162
c-20 -112 -123 -190 -259 -190c-163 0 -270 111 -241 274c33 189 181 276 345 276h52l24 137h-461zM249 -145c-20 0 -33 15 -30 35s21 35 42 35c19 0 32 -15 29 -35s-21 -35 -41 -35z" />
    <glyph glyph-name="dvPHxA" unicode="&#x95e;" horiz-adv-x="986" 
d="M281 254c105 0 176 82 193 178v0l48 273h-328l-44 -246c-22 -127 16 -205 131 -205zM27 705l6 35h1050l-7 -35h-514l-46 -260c38 71 110 130 215 130c117 0 196 -87 172 -225c-26 -147 -132 -232 -251 -232c-22 0 -45 3 -59 7l6 33c15 -3 34 -5 52 -5
c100 0 189 71 211 196c21 118 -48 191 -146 191c-132 0 -202 -108 -218 -200v0l-60 -340h-40l57 325c-39 -64 -104 -106 -187 -106c-132 0 -184 92 -158 240l44 246h-127zM224 57c-20 0 -33 15 -30 35s21 35 42 35c19 0 32 -15 29 -35s-21 -35 -41 -35z" />
    <glyph glyph-name="dvRxA" unicode="&#x931;" horiz-adv-x="539" 
d="M28 705l6 35h602l-7 -35h-139l-20 -120c-27 -150 -120 -223 -259 -223h-77l-28 -159c-20 -103 22 -176 120 -176c90 0 150 65 167 162l3 14h39c-1 -5 -2 -10 -2 -13c-20 -121 -95 -199 -209 -199c-124 0 -183 88 -158 215l33 190h108c118 0 199 60 222 189l20 120h-421z
M41 -129c-20 0 -33 15 -30 35s21 35 42 35c19 0 32 -15 29 -35s-21 -35 -41 -35z" />
    <glyph glyph-name="dvK" horiz-adv-x="760" 
d="M427 0l42 242c-38 -68 -111 -125 -214 -125c-123 0 -205 87 -179 232c25 140 134 226 256 226c105 0 158 -58 173 -127l45 257h-523l6 35h964l-6 -35h-402l-45 -257c38 70 107 127 210 127c117 0 199 -88 174 -226h-40c20 118 -48 191 -146 191
c-125 0 -194 -97 -214 -184l-63 -356h-38zM267 152c132 0 202 105 219 185l3 20c11 85 -24 183 -153 183c-100 0 -198 -72 -219 -191c-22 -126 47 -197 150 -197z" />
    <glyph glyph-name="dvKH" horiz-adv-x="677" 
d="M565 185c104 0 184 67 202 169c18 104 -38 171 -142 171c-103 0 -184 -67 -202 -171c-18 -102 38 -169 142 -169zM27 705l6 35h839l-7 -35h-484l-26 -151c-27 -152 -118 -190 -210 -190h-12l-25 -143c-20 -112 41 -186 159 -186c98 0 169 61 208 131
c-70 29 -105 96 -89 188c22 126 119 204 244 204s196 -78 174 -204s-122 -203 -245 -203c-18 0 -35 2 -50 5c-44 -83 -128 -157 -243 -157c-141 0 -223 86 -198 225l31 172h40c73 0 153 27 176 162l26 147h-314z" />
    <glyph glyph-name="dvG" horiz-adv-x="463" 
d="M27 705l6 35h505l-6 -35h-136l-52 -296c-14 -82 -64 -153 -165 -153c-96 0 -132 70 -118 150l6 30h40l-6 -31c-10 -54 5 -114 81 -114c79 0 111 60 121 117l52 297h-328z" />
    <glyph glyph-name="dvGH" horiz-adv-x="454" 
d="M27 705l6 35h624l-6 -35h-440l-16 -92c-17 -92 22 -143 138 -143h52l-6 -34h-54c-128 0 -191 -62 -205 -138c-18 -103 58 -151 168 -151c130 0 246 89 268 216h35c-26 -144 -153 -251 -309 -251c-141 0 -224 64 -203 184c17 93 96 148 175 156l1 2
c-68 9 -119 53 -101 158l16 93h-143z" />
    <glyph glyph-name="dvNG" horiz-adv-x="635" 
d="M577 374c-20 0 -33 14 -29 33c4 20 20 34 40 34s31 -14 28 -34c-3 -19 -20 -33 -39 -33zM298 -289l-84 185h42l85 -185h-43zM28 705l6 35h699l-6 -35h-204l-27 -148h1l-6 -31h-171c-69 0 -155 -17 -172 -105c-13 -78 47 -104 117 -104h44c101 0 198 -44 176 -166
c-17 -92 -95 -162 -230 -162c-153 0 -224 86 -205 193h40c-15 -88 35 -160 169 -160c107 0 174 58 187 130c18 105 -65 134 -148 134h-43c-84 0 -164 39 -147 136c19 106 117 135 203 135h145l27 148h-455z" />
    <glyph glyph-name="dvC" horiz-adv-x="472" 
d="M72 502l6 34h360l-7 -34h-31c-120 0 -207 -80 -225 -182c-20 -113 55 -175 154 -175c114 0 211 90 229 194h34c-17 -124 -133 -230 -271 -230c-117 0 -209 74 -185 206c16 87 72 155 153 187h-217zM27 705l6 35h630l-6 -35h-630z" />
    <glyph glyph-name="dvCH" horiz-adv-x="810" 
d="M25 705l5 35h877l-5 -35h-697l-22 -123c-16 -93 21 -143 136 -143h23l-5 -35h-23c-131 0 -202 -69 -217 -152c-21 -123 88 -185 242 -185c188 0 351 108 382 284c22 120 -40 174 -107 174c-58 0 -136 -34 -154 -137c-6 -30 -5 -65 1 -102h-36c-6 37 -6 72 0 105
c22 123 116 166 195 166c90 0 163 -64 139 -206c-36 -201 -213 -320 -426 -320c-177 0 -302 78 -276 220c18 103 99 159 185 169v2c-67 9 -119 54 -100 158l23 125h-140z" />
    <glyph glyph-name="dvJ" horiz-adv-x="556" 
d="M221 149c-102 1 -157 81 -138 189l30 168h40l-29 -169c-16 -89 23 -152 104 -152c84 0 147 63 163 152l30 169h290l-5 -36h-251l-24 -133c-20 -110 -97 -189 -210 -188zM27 705l6 35h720l-7 -35h-719z" />
    <glyph glyph-name="dvJH" horiz-adv-x="568" 
d="M34 705l6 35h711l-7 -35h-216l-27 -147h1l-6 -32h-172c-66 0 -158 -17 -173 -106c-14 -76 46 -103 118 -103h406l-5 -32l-243 1c45 -23 74 -69 61 -138c-15 -81 -81 -150 -203 -150c-126 0 -169 78 -176 105l-32 -176h-39l45 245h36c-2 -74 46 -142 164 -142
c103 0 156 57 167 121c15 84 -36 135 -147 135h-48c-90 0 -161 41 -144 136c18 107 119 136 206 136h145l27 147h-455z" />
    <glyph glyph-name="dvNY" horiz-adv-x="558" 
d="M249 110c-133 0 -184 85 -187 161h39c5 -59 45 -125 152 -125c124 0 201 92 219 198c18 102 -25 195 -149 195c-109 0 -173 -69 -197 -126h-39c28 80 108 162 242 162c142 0 196 -101 184 -211h140l-6 -36h-140c-26 -115 -116 -218 -258 -218zM27 705l6 35h687l-6 -35
h-687z" />
    <glyph glyph-name="dvTT" horiz-adv-x="648" 
d="M330 -222l-85 185h41l87 -185h-43zM22 705l7 35h716l-6 -35h-235l-32 -174h-79c-139 0 -262 -72 -289 -225c-23 -125 58 -214 187 -214c131 0 231 92 253 222h39c-26 -152 -139 -258 -298 -258c-149 0 -249 104 -222 252c32 177 170 258 334 258h42l25 139h-442z" />
    <glyph glyph-name="dvTTH" horiz-adv-x="674" 
d="M329 -221l-85 186h41l86 -186h-42zM285 93c122 0 234 86 257 210c22 125 -54 217 -181 217c-122 0 -234 -84 -256 -210c-23 -124 55 -217 180 -217zM280 57c-145 0 -242 106 -216 254c26 143 144 237 282 244l27 150h-351l6 35h743l-6 -35h-352l-27 -150
c133 -9 222 -111 196 -253c-27 -147 -154 -245 -302 -245z" />
    <glyph glyph-name="dvDD" horiz-adv-x="580" 
d="M302 -289l-84 185h41l85 -185h-42zM28 705l6 35h643l-6 -35h-155l-32 -179h-164c-69 0 -155 -17 -172 -105c-13 -78 47 -104 117 -104h44c101 0 198 -44 176 -166c-17 -92 -95 -162 -230 -162c-153 0 -224 86 -205 193h40c-15 -88 35 -160 169 -160c107 0 174 58 187 130
c18 105 -65 134 -148 134h-43c-84 0 -164 39 -147 136c19 106 117 135 203 135h139l27 148h-449z" />
    <glyph glyph-name="dvDDH" horiz-adv-x="631" 
d="M338 -261l-85 186h41l86 -186h-42zM25 705l6 35h697l-6 -35h-197l-30 -169h-82c-147 0 -280 -80 -309 -246c-25 -142 62 -240 207 -240c111 0 201 66 218 158c13 75 -30 130 -104 130c-64 0 -123 -42 -133 -111c-1 -6 -2 -14 -2 -21h-32c0 7 1 18 2 26
c15 86 86 138 172 138c91 0 149 -68 133 -162c-20 -112 -123 -190 -259 -190c-163 0 -270 111 -241 274c33 189 181 276 345 276h52l24 137h-461z" />
    <glyph glyph-name="dvNN" horiz-adv-x="569" 
d="M27 705l6 35h616l-6 -35h-142l-55 -312c-19 -109 -91 -187 -200 -187c-108 0 -166 77 -145 187l55 312h-129zM247 241c84 0 144 62 159 149l55 315h-265l-56 -315c-15 -87 25 -149 107 -149z" />
    <glyph glyph-name="dvT" horiz-adv-x="397" 
d="M277 2c-155 0 -247 89 -219 250c31 173 160 249 330 249h174l-6 -36h-172c-149 0 -259 -67 -285 -214c-24 -137 43 -215 186 -215h23l-6 -34h-25zM27 705l6 35h572l-7 -35h-571z" />
    <glyph glyph-name="dvTH" horiz-adv-x="479" 
d="M620 346c-23 -140 -154 -237 -295 -237c-186 0 -272 127 -222 307h104c101 0 223 27 246 160c14 76 -24 137 -110 137c-107 0 -170 -80 -169 -190h-38c1 129 81 226 213 226c105 0 160 -76 143 -174c-25 -143 -149 -191 -279 -191h-79c-30 -150 48 -240 196 -240
c115 0 233 82 255 202h35z" />
    <glyph glyph-name="dvD" horiz-adv-x="608" 
d="M484 -284l-84 186h41l86 -186h-43zM27 705l6 35h672l-6 -35h-161l-29 -163h-130c-123 0 -238 -62 -262 -195c-20 -116 44 -195 158 -195c75 0 180 46 200 162h37l-56 -320h-40l39 223c-35 -58 -110 -99 -193 -99c-130 0 -210 93 -186 230c29 162 163 230 306 230h93
l22 127h-470z" />
    <glyph glyph-name="dvDH" horiz-adv-x="437" 
d="M269 109c-122 0 -208 58 -188 172c17 92 88 138 152 144v3c-65 13 -120 65 -102 163c15 91 89 158 187 158c105 0 156 -72 126 -182h-34c25 91 -13 147 -96 147c-75 0 -136 -56 -147 -127c-16 -85 31 -142 138 -142h59l-6 -34h-54c-109 0 -169 -57 -182 -128
c-17 -96 59 -138 155 -138c135 0 239 77 258 188h36c-24 -131 -137 -224 -302 -224z" />
    <glyph glyph-name="dvN" horiz-adv-x="519" 
d="M223 145c-111 0 -179 76 -160 182c19 112 110 182 229 182h382l-6 -35h-285c41 -26 68 -80 55 -150c-18 -107 -108 -179 -215 -179zM229 180c87 0 159 65 175 147c16 86 -37 146 -124 146c-90 0 -163 -59 -179 -148c-16 -85 36 -145 128 -145zM27 705l6 35h682l-7 -35
h-681z" />
    <glyph glyph-name="dvP" horiz-adv-x="391" 
d="M27 705l6 35h549l-6 -35h-382l-44 -245c-22 -128 25 -206 141 -206c110 0 184 80 202 174h34c-21 -119 -109 -209 -240 -209c-138 0 -203 94 -176 244l43 242h-127z" />
    <glyph glyph-name="dvPH" horiz-adv-x="759" 
d="M281 254c105 0 176 82 193 178v0l48 273h-328l-44 -246c-22 -127 16 -205 131 -205zM27 705l6 35h938l-6 -35h-403l-46 -260c38 71 110 130 215 130c117 0 196 -87 172 -226h-41c21 118 -48 191 -146 191c-132 0 -202 -108 -218 -200v0l-60 -340h-40l57 325
c-39 -64 -104 -106 -187 -106c-132 0 -184 92 -158 240l44 246h-127z" />
    <glyph glyph-name="dvB" horiz-adv-x="439" 
d="M282 110c-135 0 -232 90 -208 235c26 147 146 240 284 240c167 0 221 -130 203 -238c-22 -126 -128 -237 -279 -237zM355 554c-56 0 -111 -19 -155 -55l257 -286c39 39 62 89 70 133c17 98 -30 208 -172 208zM27 705l6 35h598l-7 -35h-597zM285 141c64 0 115 22 154 55
l-257 287c-36 -35 -62 -82 -72 -139c-22 -129 63 -203 175 -203z" />
    <glyph glyph-name="dvBH" horiz-adv-x="503" 
d="M215 159c76 0 133 57 150 158l17 97h-110c-81 0 -147 -50 -161 -128c-14 -77 32 -127 104 -127zM212 124c-98 0 -156 65 -139 162c18 101 101 162 203 162h112l19 105c17 98 -6 160 -86 160c-65 0 -120 -47 -135 -128c-2 -13 -3 -27 -3 -42h-40c0 14 1 29 3 43
c17 100 87 163 178 163c106 0 142 -78 121 -200l-18 -101h195l-6 -34h-195l-17 -95c-22 -129 -92 -195 -192 -195z" />
    <glyph glyph-name="dvM" horiz-adv-x="499" 
d="M180 159c77 0 132 57 151 158l17 97h-112c-81 0 -146 -50 -160 -128c-14 -77 32 -127 104 -127zM27 705l6 35h637l-6 -35h-227l-45 -257h227l-6 -34h-227l-17 -95c-22 -129 -92 -195 -192 -195c-98 0 -156 66 -139 162c17 101 101 162 203 162h113l45 257h-372z" />
    <glyph glyph-name="dvY" horiz-adv-x="464" 
d="M27 705l6 35h636l-6 -35h-271l-15 -87c-27 -148 -124 -195 -251 -195c-1 -6 -2 -11 -3 -15c-28 -154 50 -244 192 -244c120 0 230 81 251 203h37c-22 -136 -138 -239 -294 -239c-165 0 -256 110 -225 283c2 12 6 27 9 39h17c109 0 203 34 228 173l14 82h-325z" />
    <glyph glyph-name="dvR" horiz-adv-x="538" 
d="M257 -289l-84 185h41l86 -185h-43zM28 705l6 35h602l-7 -35h-139l-20 -120c-27 -150 -120 -223 -259 -223h-77l-28 -159c-20 -103 22 -176 120 -176c90 0 150 65 167 162l3 14h39c-1 -5 -2 -10 -2 -13c-20 -121 -95 -199 -209 -199c-124 0 -183 88 -158 215l33 190h108
c118 0 199 60 222 189l20 120h-421z" />
    <glyph glyph-name="dvL" horiz-adv-x="688" 
d="M253 92c-151 0 -213 105 -188 240c23 133 107 222 231 222c113 0 148 -89 148 -163h2c27 75 89 163 208 163s171 -97 150 -223h-41c18 103 -17 187 -119 187c-105 0 -174 -87 -198 -221l-2 -11h-35l1 11c25 131 -11 221 -114 221c-107 0 -172 -81 -190 -187
c-21 -115 26 -203 153 -203c10 0 19 1 30 2l-7 -36c-10 -1 -18 -2 -29 -2zM19 705l6 35h851l-7 -35h-850z" />
    <glyph glyph-name="dvV" horiz-adv-x="425" 
d="M278 115c-138 0 -228 89 -202 236c25 140 142 228 278 228c169 0 219 -129 200 -235c-18 -106 -109 -229 -276 -229zM282 148c142 0 218 111 233 198c17 93 -23 199 -163 199c-110 0 -215 -73 -237 -196c-22 -127 53 -201 167 -201zM27 705l6 35h591l-6 -35h-591z" />
    <glyph glyph-name="dvSH" horiz-adv-x="530" 
d="M238 -9c-131 0 -187 88 -164 218l29 165h151c113 0 215 59 235 174c18 101 -38 165 -127 165c-114 0 -187 -92 -187 -213h-41c2 146 96 249 231 249c115 0 187 -81 163 -207c-25 -135 -138 -203 -271 -203h-119l-23 -133c-19 -104 19 -179 124 -179c93 0 162 69 178 176
h40c-18 -120 -92 -212 -219 -212z" />
    <glyph glyph-name="dvSS" horiz-adv-x="389" 
d="M291 253c104 0 160 66 184 116l-289 300l-37 -209c-23 -130 37 -207 142 -207zM27 705l6 35h547l-7 -35h-380l322 -331c-25 -71 -96 -157 -225 -157c-132 0 -207 93 -180 243l44 245h-127z" />
    <glyph glyph-name="dvS" horiz-adv-x="532" 
d="M27 705l6 35h667l-7 -35h-209l-19 -105c-18 -102 -73 -160 -131 -188h308l-6 -34h-501l-30 -174c-18 -104 21 -177 123 -177c96 0 153 75 168 174h39c-17 -119 -88 -210 -210 -210c-124 0 -182 89 -160 216l36 203h104c118 0 199 74 221 190l19 105h-418z" />
    <glyph glyph-name="dvH" horiz-adv-x="587" 
d="M279 -377l-85 186h41l86 -186h-42zM473 53c-27 -71 -107 -152 -236 -152c-147 0 -208 101 -188 216c15 85 71 159 155 193c-41 16 -88 55 -75 126c16 89 94 125 185 125h159l26 144h-463l6 35h651l-6 -35h-149l-26 -144l-6 -32h-188c-69 0 -138 -25 -151 -99
c-10 -58 27 -92 81 -106c19 4 40 6 61 6c132 0 184 -84 187 -152h-40c-4 52 -46 118 -153 118c-119 0 -198 -87 -215 -181c-18 -97 29 -179 152 -179c102 0 169 63 194 117h39z" />
    <glyph glyph-name="dvLL" horiz-adv-x="1009" 
d="M248 120c-128 0 -207 91 -184 220c24 137 133 226 259 226c119 0 172 -74 183 -151h2c36 77 113 151 232 151c126 0 207 -89 183 -226c-22 -129 -131 -220 -259 -220c-112 0 -176 71 -181 153h-3c-33 -82 -120 -153 -232 -153zM256 155c110 0 197 78 216 185
c20 112 -39 191 -150 191c-106 0 -198 -75 -218 -191c-20 -110 46 -185 152 -185zM665 155c106 0 199 75 218 185c20 116 -44 191 -151 191c-111 0 -197 -79 -217 -191c-20 -107 40 -185 150 -185zM17 705l6 35h1083l-7 -35h-1082z" />
    <glyph glyph-name="dvK_SS" horiz-adv-x="512" 
d="M183 581c-16 -94 52 -148 152 -151c64 35 118 78 131 151c14 84 -43 133 -119 133c-73 0 -150 -48 -164 -133zM323 -50l29 168c-13 -29 -67 -88 -161 -88c-102 0 -155 69 -139 160c21 121 133 166 235 216c-87 13 -159 75 -141 178c18 107 112 166 206 166
s169 -61 150 -164c-13 -75 -61 -121 -117 -157h246l-6 -32h-293c-104 -52 -217 -89 -238 -201c-13 -73 27 -132 112 -132c88 0 151 64 164 142h36l-45 -256h-38z" />
    <glyph glyph-name="dvJ_NY" horiz-adv-x="528" 
d="M27 705l6 35h731l-6 -35h-731zM267 504l6 34h455l-6 -34h-334c71 -28 113 -91 98 -186c-20 -113 -109 -190 -222 -189c-99 0 -157 56 -169 110l-33 -185h-40l47 266h38c-8 -105 67 -157 153 -157c99 0 173 70 190 163c20 114 -57 178 -175 178h-8z" />
    <glyph glyph-name="dvKx" horiz-adv-x="760" 
d="M427 0l42 242c-38 -68 -111 -125 -214 -125c-123 0 -205 87 -179 232c25 140 134 226 256 226c105 0 158 -58 173 -127l45 257h-523l6 35h964l-6 -35h-402l-45 -257c38 70 107 127 210 127c117 0 199 -88 174 -226h-40c20 118 -48 191 -146 191
c-125 0 -194 -97 -214 -184l-63 -356h-38zM267 152c132 0 202 105 219 185l3 20c11 85 -24 183 -153 183c-100 0 -198 -72 -219 -191c-22 -126 47 -197 150 -197zM214 -47c-20 0 -33 15 -30 35s21 35 42 35c19 0 32 -15 29 -35s-21 -35 -41 -35z" />
    <glyph glyph-name="dvKHx" horiz-adv-x="677" 
d="M217 -164c-20 0 -33 15 -30 35s21 35 42 35c19 0 32 -15 29 -35s-21 -35 -41 -35zM565 185c104 0 184 67 202 169c18 104 -38 171 -142 171c-103 0 -184 -67 -202 -171c-18 -102 38 -169 142 -169zM27 705l6 35h839l-7 -35h-484l-26 -151c-27 -152 -118 -190 -210 -190
h-12l-25 -143c-20 -112 41 -186 159 -186c98 0 169 61 208 131c-70 29 -105 96 -89 188c22 126 119 204 244 204s196 -78 174 -204s-122 -203 -245 -203c-18 0 -35 2 -50 5c-44 -83 -128 -157 -243 -157c-141 0 -223 86 -198 225l31 172h40c73 0 153 27 176 162l26 147h-314
z" />
    <glyph glyph-name="dvGx" horiz-adv-x="463" 
d="M27 705l6 35h505l-6 -35h-136l-52 -296c-14 -82 -64 -153 -165 -153c-96 0 -132 70 -118 150l6 30h40l-6 -31c-10 -54 5 -114 81 -114c79 0 111 60 121 117l52 297h-328zM153 87c-20 0 -33 15 -30 35s21 35 42 35c19 0 32 -15 29 -35s-21 -35 -41 -35z" />
    <glyph glyph-name="dvJx" horiz-adv-x="556" 
d="M221 149c-102 1 -157 81 -138 189l30 168h40l-29 -169c-16 -89 23 -152 104 -152c84 0 147 63 163 152l30 169h290l-5 -36h-251l-24 -133c-20 -110 -97 -189 -210 -188zM27 705l6 35h720l-7 -35h-719zM198 -14c-20 0 -33 15 -30 35s21 35 42 35c19 0 32 -15 29 -35
s-21 -35 -41 -35z" />
    <glyph glyph-name="dvPHx" horiz-adv-x="759" 
d="M281 254c105 0 176 82 193 178v0l48 273h-328l-44 -246c-22 -127 16 -205 131 -205zM27 705l6 35h938l-6 -35h-403l-46 -260c38 71 110 130 215 130c117 0 196 -87 172 -226h-41c21 118 -48 191 -146 191c-132 0 -202 -108 -218 -200v0l-60 -340h-40l57 325
c-39 -64 -104 -106 -187 -106c-132 0 -184 92 -158 240l44 246h-127zM224 57c-20 0 -33 15 -30 35s21 35 42 35c19 0 32 -15 29 -35s-21 -35 -41 -35z" />
    <glyph glyph-name="dvAnusvara" unicode="&#x902;" horiz-adv-x="0" 
d="M-54 848c-20 0 -33 15 -30 35s21 35 41 35c21 0 33 -15 30 -35s-21 -35 -41 -35z" />
    <glyph glyph-name="dvCandrabindu" unicode="&#x901;" horiz-adv-x="0" 
d="M-56 822c-124 0 -174 81 -160 156h34c-9 -57 23 -124 126 -124s161 67 171 124h34c-14 -75 -80 -156 -205 -156zM-33 979c-18 0 -28 13 -25 30c3 18 18 31 36 31s29 -13 25 -31c-3 -17 -18 -30 -36 -30z" />
    <glyph glyph-name="dvVisarga" unicode="&#x903;" horiz-adv-x="204" 
d="M124 470c-21 0 -34 15 -30 36c3 20 21 35 42 35c20 0 32 -15 29 -35c-4 -21 -21 -36 -41 -36zM69 159c-21 0 -33 15 -30 35c4 20 21 35 42 35c20 0 33 -15 29 -35c-3 -20 -21 -35 -41 -35z" />
    <glyph glyph-name="dvAvagraha" unicode="&#x93d;" horiz-adv-x="564" 
d="M34 70l6 36h241c62 0 99 35 105 78c23 128 -238 223 -209 381c14 82 85 107 159 107h189l-6 -35h-180c-51 0 -111 -15 -122 -77c-23 -132 237 -228 209 -381c-8 -55 -51 -109 -145 -109h-247z" />
    <glyph glyph-name="dvVirama" unicode="&#x94d;" horiz-adv-x="0" 
d="M-148 -250l-84 186h41l85 -186h-42z" />
    <glyph glyph-name="dvNukta" unicode="&#x93c;" horiz-adv-x="0" 
d="M-409 -81c-20 0 -33 15 -30 35s21 35 42 35c19 0 32 -15 29 -35s-21 -35 -41 -35z" />
    <glyph glyph-name="dvZero" unicode="&#x966;" horiz-adv-x="602" 
d="M82 357c36 203 104 359 297 359c191 0 206 -156 170 -359c-36 -205 -106 -362 -298 -362s-205 157 -169 362zM504 357c32 178 30 318 -132 318c-163 0 -215 -140 -246 -318c-32 -179 -30 -321 132 -321c163 0 214 142 246 321z" />
    <glyph glyph-name="dvOne" unicode="&#x967;" horiz-adv-x="259" 
d="M76 0l118 665h-103l8 41h148l-125 -706h-46z" />
    <glyph glyph-name="dvTwo" unicode="&#x968;" horiz-adv-x="570" 
d="M2 3l5 30c254 157 462 325 490 481c15 86 -10 164 -135 164c-121 0 -193 -84 -220 -193h-44c35 147 138 232 271 232c113 0 198 -61 173 -201c-33 -185 -289 -374 -460 -475h399l-7 -38h-472z" />
    <glyph glyph-name="dvThree" unicode="&#x969;" horiz-adv-x="580" 
d="M107 525c33 121 133 195 269 195c133 0 190 -78 173 -178c-14 -77 -71 -153 -188 -166v-6c95 -15 157 -76 138 -185c-19 -105 -102 -191 -252 -191c-133 0 -214 74 -209 207h44c-1 -95 55 -167 172 -167c119 0 187 68 202 154c20 112 -61 164 -212 164h-19l7 39h21
c156 1 235 54 251 148c15 83 -31 142 -136 142c-94 0 -184 -48 -216 -156h-45z" />
    <glyph glyph-name="dvFour" unicode="&#x96a;" horiz-adv-x="593" 
d="M366 0l32 180h-388l6 35l468 493h52l-87 -489h114l-7 -39h-114l-32 -180h-44zM70 219h336l77 435z" />
    <glyph glyph-name="dvFive" unicode="&#x96b;" horiz-adv-x="605" 
d="M160 711h427l-7 -40h-384l-51 -287c44 50 125 87 208 87c169 0 209 -116 189 -230c-23 -130 -112 -246 -281 -246c-132 0 -208 77 -205 198h44c3 -104 69 -158 168 -158c134 0 210 88 231 205c20 118 -33 192 -158 192c-86 0 -161 -41 -207 -105h-42z" />
    <glyph glyph-name="dvSix" unicode="&#x96c;" horiz-adv-x="621" 
d="M578 532h-42c2 94 -41 151 -141 151c-139 0 -237 -97 -275 -361c38 94 140 150 246 150c144 0 213 -92 187 -243c-21 -121 -108 -234 -272 -234c-216 0 -231 163 -197 355c40 226 133 371 318 371c129 0 182 -80 176 -189zM352 433c-97 0 -215 -59 -237 -188
c-19 -107 23 -212 171 -212c113 0 201 73 223 195c23 132 -36 205 -157 205z" />
    <glyph glyph-name="dvSeven" unicode="&#x96d;" horiz-adv-x="517" 
d="M95 710h460l-7 -36l-399 -674h-50l405 671h-416z" />
    <glyph glyph-name="dvEight" unicode="&#x96e;" horiz-adv-x="616" 
d="M232 370c-92 25 -124 89 -110 168c19 107 116 184 265 184c148 0 218 -77 199 -184c-14 -79 -69 -144 -170 -168c95 -21 145 -87 128 -185c-23 -128 -133 -208 -289 -208s-237 80 -214 208c17 98 90 164 191 185zM380 683c-112 0 -197 -51 -215 -149
c-16 -93 48 -148 163 -148c114 0 197 55 214 148c17 98 -50 149 -162 149zM321 350c-112 0 -216 -46 -236 -164c-20 -109 52 -171 177 -171s218 62 237 171c21 117 -65 164 -178 164z" />
    <glyph glyph-name="dvNine" unicode="&#x96f;" horiz-adv-x="620" 
d="M75 186h42c-2 -95 44 -153 145 -153c135 0 231 94 268 357c-37 -90 -136 -144 -239 -144c-143 0 -216 90 -189 241c21 123 109 233 272 233c210 0 227 -157 193 -352c-40 -230 -126 -374 -314 -374c-131 0 -184 82 -178 192zM303 284c99 0 211 62 233 187
c19 108 -23 211 -168 211c-113 0 -201 -74 -223 -195c-22 -129 37 -203 158 -203z" />
    <glyph glyph-name="dvOm" unicode="&#x950;" horiz-adv-x="1047" 
d="M215 13c-123 0 -199 80 -178 199h39c-18 -96 44 -163 144 -163c98 0 176 68 194 167c13 73 -18 158 -141 158h-36l7 36h36c107 0 168 76 180 143c17 99 -45 155 -130 155c-88 0 -167 -54 -183 -141h-39c20 110 116 176 229 176c111 0 182 -71 163 -183
c-15 -82 -69 -149 -161 -166v-2c19 -3 36 -9 50 -17h62c69 0 129 29 147 128c19 106 77 186 207 186c136 0 164 -101 138 -248l-26 -145c-30 -173 -111 -266 -292 -266c-28 0 -60 4 -95 10l7 35c33 -6 65 -9 90 -9c162 0 225 87 250 231l27 147c22 126 2 209 -105 209
c-102 0 -148 -68 -163 -151c-21 -119 -88 -161 -187 -161h-22c25 -34 33 -79 25 -128c-22 -120 -116 -200 -237 -200zM640 755c-132 0 -179 82 -165 156h34c-10 -57 24 -124 132 -124c106 0 154 67 165 124h34c-12 -75 -72 -156 -200 -156zM658 913c-17 0 -28 12 -26 30
c3 17 18 30 36 30c17 0 28 -13 25 -30c-2 -18 -17 -30 -35 -30z" />
    <glyph glyph-name="dvAbbreviationsign" unicode="&#x970;" horiz-adv-x="503" 
d="M280 514c94 0 150 -66 134 -160c-16 -91 -91 -156 -185 -156c-97 0 -156 66 -140 158c17 92 95 158 191 158zM277 485c-79 0 -145 -53 -158 -129s33 -129 112 -129c77 0 139 52 153 127c13 77 -30 131 -107 131z" />
    <glyph glyph-name="danda" unicode="&#x964;" horiz-adv-x="246" 
d="M267 742l-130 -742h-40l130 742h40z" />
    <glyph glyph-name="doubledanda" unicode="&#x965;" horiz-adv-x="421" 
d="M267 742l-130 -742h-40l130 742h40zM442 742l-130 -742h-41l130 742h41z" />
    <glyph glyph-name="rupee" unicode="&#x20a8;" horiz-adv-x="1032" 
d="M501 500c18 100 -21 163 -156 163h-149l-58 -324h150c134 0 196 67 213 161zM158 702h194c162 0 215 -86 195 -202c-20 -112 -98 -189 -234 -199l153 -301h-55l-150 300h-129l-54 -300h-45zM609 403c15 87 96 147 204 147c112 0 173 -64 165 -168h-46
c5 70 -31 131 -127 131c-84 0 -140 -45 -152 -109c-29 -167 324 -57 287 -266c-16 -85 -96 -146 -198 -146c-118 0 -188 64 -181 169h46c-6 -72 39 -131 142 -131c82 0 136 47 147 109c30 172 -322 64 -287 264z" />
    <glyph glyph-name="indianrupee" unicode="&#x20b9;" horiz-adv-x="660" 
d="M128 667l7 35h544l-7 -35h-154l-21 -122c-1 -8 -3 -16 -4 -23h154l-6 -35h-157c-38 -144 -116 -180 -325 -180l-19 -112c-19 -104 16 -168 119 -168c96 0 152 58 170 160h43c-24 -131 -105 -197 -220 -197c-129 0 -177 80 -155 202l26 149c230 0 288 21 320 146h-346
l6 35h347c2 8 3 16 5 25l21 120h-348z" />
    <glyph glyph-name="zerowidthnonjoiner" unicode="&#x200c;" horiz-adv-x="0" 
d="M24 -230h-47v1041h47v-1041z" />
    <glyph glyph-name="zerowidthjoiner" unicode="&#x200d;" horiz-adv-x="0" 
d="M128 593l-33 -33l-72 75v-865h-47v865l-69 -73l-33 33l93 93l-95 95l33 33l95 -95l96 95l32 -32l-96 -96z" />
    <glyph glyph-name="dottedcircle" unicode="&#x25cc;" horiz-adv-x="651" 
d="M557 409c0 -25 -18 -42 -43 -42s-43 17 -43 42s18 42 43 42s43 -17 43 -42zM181 123c0 -25 -18 -42 -43 -42s-43 17 -43 42s18 42 43 42s43 -17 43 -42zM279 47c0 -25 -18 -42 -43 -42s-43 17 -43 42s18 42 43 42s43 -17 43 -42zM136 236c0 -25 -18 -42 -43 -42
s-43 17 -43 42s18 42 43 42s43 -17 43 -42zM403 33c0 -25 -18 -42 -43 -42s-43 17 -43 42s18 42 43 42s43 -17 43 -42zM151 357c0 -25 -18 -42 -43 -42s-43 17 -43 42s18 42 43 42s43 -17 43 -42zM518 79c0 -25 -18 -42 -43 -42s-43 17 -43 42s18 42 43 42s43 -17 43 -42z
M227 456c0 -25 -18 -42 -43 -42s-43 17 -43 42s18 42 43 42s43 -17 43 -42zM591 175c0 -25 -18 -42 -43 -42s-43 17 -43 42s18 42 43 42s43 -17 43 -42zM344 498c0 -25 -18 -42 -43 -42s-43 17 -43 42s18 42 43 42s43 -17 43 -42zM601 295c0 -25 -18 -42 -43 -42
s-43 17 -43 42s18 42 43 42s43 -17 43 -42zM465 483c0 -25 -18 -42 -43 -42s-43 17 -43 42s18 42 43 42s43 -17 43 -42z" />
    <glyph glyph-name="dvReph" horiz-adv-x="0" 
d="M-171 730l15 90c20 112 82 179 180 179c89 0 132 -62 115 -148h-36c12 65 -20 112 -85 112c-73 0 -118 -49 -135 -144l-16 -89h-38z" />
    <glyph glyph-name="dvEyelash" horiz-adv-x="259" 
d="M318 412c-18 -7 -54 -13 -90 -13c-106 0 -219 46 -195 184h38c-20 -115 78 -151 168 -151c34 0 54 4 72 7zM-8 705l6 35h353l-6 -35h-353z" />
    <glyph glyph-name="dvRashtrasign" horiz-adv-x="0" 
d="M-420 -97l211 179h54l146 -179h-42l-132 161l-188 -161h-49z" />
    <glyph glyph-name="dvK_RA" horiz-adv-x="1012" 
d="M427 0l43 244c-16 -28 -38 -54 -65 -75v0l-273 -215h-48l216 169c-15 -3 -30 -4 -46 -4c-123 0 -204 86 -178 230c25 140 134 226 256 226c105 0 158 -58 173 -127l45 257h-523l6 35h1076l-7 -35h-513l-45 -257c38 70 107 127 210 127c117 0 199 -88 174 -227
c-26 -146 -130 -230 -251 -230c-21 0 -43 3 -57 6l6 34c14 -3 33 -5 50 -5c98 0 190 71 212 196c20 118 -48 191 -146 191c-125 0 -194 -97 -214 -184l-63 -356h-38zM267 152c39 0 72 9 100 24l12 9l2 -1c60 37 94 101 105 153l3 17c12 85 -22 186 -153 186
c-100 0 -198 -72 -219 -191c-22 -126 46 -197 150 -197z" />
    <glyph glyph-name="dvKH_RA" horiz-adv-x="918" 
d="M693 0l46 259c-35 -59 -99 -108 -189 -108c-15 0 -29 2 -42 4c-22 -38 -52 -74 -90 -102l-252 -201h-48l1 3l188 149c-15 -3 -31 -4 -47 -4c-139 0 -216 85 -192 224l31 172h40c69 0 153 27 176 162l26 147h-314l6 35h982l-7 -35h-151l-124 -705h-40zM562 184
c116 0 180 95 193 170c14 78 -18 171 -138 171c-91 0 -175 -62 -194 -167c-19 -111 46 -174 139 -174zM267 35c93 0 169 61 208 131c-66 29 -104 99 -88 195c21 123 119 198 229 197c94 0 142 -49 156 -108l45 255h-436l-26 -151c-27 -152 -118 -190 -210 -190h-12l-25 -143
c-20 -112 41 -186 159 -186z" />
    <glyph glyph-name="dvG_RA" horiz-adv-x="705" 
d="M481 0l51 287l-360 -307h-51l418 354l65 371h-208l-44 -251c-14 -82 -63 -153 -165 -153c-99 0 -132 75 -117 154c2 10 3 16 5 26h40l-6 -31c-11 -54 5 -114 80 -114c80 0 112 60 122 116l44 253h-328l6 35h769l-6 -35h-152l-123 -705h-40z" />
    <glyph glyph-name="dvGH_RA" horiz-adv-x="717" 
d="M288 147c123 0 245 88 268 215v0l60 343h-404l-17 -92c-16 -92 23 -143 143 -143h47l-6 -34h-47c-131 0 -197 -62 -212 -138c-18 -103 58 -151 168 -151zM27 705l6 35h781l-6 -35h-151l-124 -705h-40l45 255c-20 -32 -47 -61 -78 -83l-288 -228h-48l226 177
c-24 -6 -49 -9 -75 -9c-128 0 -217 63 -196 183c17 93 96 148 176 157v2c-68 9 -119 53 -101 158l17 93h-144z" />
    <glyph glyph-name="dvNG_RA" horiz-adv-x="636" 
d="M577 374c-20 0 -32 14 -28 33c3 20 20 34 40 34s31 -14 28 -34c-4 -19 -21 -33 -40 -33zM28 705l6 35h699l-6 -35h-203l-29 -160l-3 -19h-172c-69 0 -155 -17 -172 -105c-13 -78 47 -104 117 -104h44c101 0 198 -44 176 -166c-15 -83 -81 -148 -193 -160l134 -164h-42
l-132 161l-188 -161h-49l194 165c-121 15 -176 94 -159 190h40c-15 -88 35 -160 169 -160c107 0 174 58 187 130c18 105 -65 134 -148 134h-43c-84 0 -164 39 -147 136c19 106 117 135 203 135h146l27 148h-456z" />
    <glyph glyph-name="dvC_RA" horiz-adv-x="724" 
d="M27 705l6 35h788l-7 -35h-150l-124 -705h-41l42 236c-19 -30 -45 -57 -75 -77l-258 -205h-47l206 162c-17 -3 -34 -5 -51 -5c-116 0 -203 76 -180 204c15 87 72 155 154 187h-218l6 34h360l-7 -34h-31c-120 0 -207 -80 -225 -182c-20 -113 55 -175 154 -175
c42 0 82 12 116 33l8 6l1 -1c53 36 92 92 104 152v0l66 370h-597z" />
    <glyph glyph-name="dvCH_RA" horiz-adv-x="810" 
d="M339 67c188 0 351 108 382 284c22 120 -40 174 -107 174c-58 0 -136 -34 -154 -137c-6 -30 -5 -65 1 -102h-36c-6 37 -6 72 0 105c20 113 101 159 176 165l26 149h-422l-22 -123c-16 -93 21 -143 136 -143h23l-5 -35h-23c-131 0 -202 -69 -217 -152
c-21 -123 88 -185 242 -185zM25 705l5 35h877l-5 -35h-237l-26 -149c81 -8 142 -73 120 -205c-32 -177 -173 -291 -352 -315l137 -167h-46l-131 162l-188 -162h-46l190 162c-172 3 -292 81 -266 220c18 103 99 159 185 169v2c-67 9 -119 54 -100 158l23 125h-140z" />
    <glyph glyph-name="dvJ_RA" horiz-adv-x="829" 
d="M27 705l6 35h893l-6 -35h-151l-124 -705h-39l49 283l-356 -308h-50l414 355l25 142h-235l-11 -65c-19 -110 -97 -188 -203 -188c-108 0 -164 78 -144 188l18 99h41l-18 -99c-16 -89 22 -152 104 -152c84 0 148 63 163 152l17 99h274l36 199h-703z" />
    <glyph glyph-name="dvJH_RA" horiz-adv-x="894" 
d="M269 317h455l69 388h-265l-27 -147h1l-6 -32h-172c-66 0 -158 -17 -173 -106c-14 -76 46 -103 118 -103zM669 0l32 183l-249 -285h-45l304 339l1 11l7 37l-292 1c45 -23 74 -69 61 -138c-15 -81 -81 -150 -203 -150c-126 0 -169 78 -176 105l-32 -176h-39l45 245h36
c-2 -74 46 -142 164 -142c103 0 156 57 167 121c15 84 -36 135 -147 135h-48c-90 0 -161 41 -144 136c18 107 119 136 206 136h145l27 147h-455l6 35h951l-7 -35h-151l-124 -705h-40z" />
    <glyph glyph-name="dvNY_RA" horiz-adv-x="844" 
d="M28 705l5 35h908l-5 -35h-153l-123 -705h-40l39 223l-342 -296h-46l396 341l14 80h-170c-24 -111 -110 -211 -255 -211c-133 0 -193 86 -189 162h39c-1 -58 46 -125 153 -125c124 0 199 86 216 185c16 94 -27 180 -150 180c-111 0 -173 -69 -199 -126h-39
c29 78 105 162 241 162c139 0 195 -90 188 -191h171l56 321h-715z" />
    <glyph glyph-name="dvTT_RA" horiz-adv-x="648" 
d="M22 705l7 35h716l-6 -35h-235l-32 -174h-79c-139 0 -262 -72 -289 -225c-23 -125 58 -214 187 -214c131 0 231 92 253 222h39c-24 -141 -123 -243 -265 -256l133 -163h-42l-132 161v0l-188 -161h-49l195 165c-121 21 -196 117 -172 248c32 177 170 258 334 258h42l25 139
h-442z" />
    <glyph glyph-name="dvTTH_RA" horiz-adv-x="675" 
d="M286 93c122 0 234 86 257 210c22 125 -54 217 -181 217c-122 0 -234 -84 -256 -210c-23 -124 55 -217 180 -217zM415 -106l-132 161l-188 -161h-49l195 166c-122 17 -200 117 -176 251c26 143 144 237 282 244l27 150h-351l6 35h743l-6 -35h-352l-27 -150
c133 -9 222 -111 196 -253c-24 -133 -131 -226 -261 -242l135 -166h-42z" />
    <glyph glyph-name="dvDD_RA" horiz-adv-x="580" 
d="M28 705l6 35h643l-6 -35h-155l-32 -179h-164c-69 0 -155 -17 -172 -105c-13 -78 47 -104 117 -104h44c101 0 198 -44 176 -166c-16 -85 -83 -151 -199 -161l133 -163h-42l-132 161l-188 -161h-49l195 166c-117 17 -170 95 -153 189h40c-15 -88 35 -160 169 -160
c107 0 174 58 187 130c18 105 -65 134 -148 134h-43c-84 0 -164 39 -147 136c19 106 117 135 203 135h139l27 148h-449z" />
    <glyph glyph-name="dvDDH_RA" horiz-adv-x="631" 
d="M25 705l6 35h697l-6 -35h-197l-30 -169h-82c-147 0 -280 -80 -309 -246c-25 -142 62 -240 207 -240c111 0 201 66 218 158c13 75 -30 130 -104 130c-64 0 -123 -42 -133 -111c-1 -6 -2 -14 -2 -21h-32c0 7 1 18 2 26c15 86 86 138 172 138c91 0 149 -68 133 -162
c-19 -105 -111 -181 -236 -189l134 -164h-42l-132 161l-188 -161h-49l198 168c-131 22 -211 126 -185 269c33 189 181 276 345 276h52l24 137h-461z" />
    <glyph glyph-name="dvNN_RA" horiz-adv-x="833" 
d="M260 311c84 0 144 62 159 149l43 245h-266l-43 -245c-15 -87 25 -149 107 -149zM27 705l7 35h896l-7 -35h-151l-124 -705h-39l51 287l-360 -311h-51l418 359l65 370h-230l-43 -242c-19 -109 -90 -188 -201 -188c-108 0 -164 79 -144 188l42 242h-129z" />
    <glyph glyph-name="dvT_RA" horiz-adv-x="686" 
d="M27 705l6 35h750l-7 -35h-150l-124 -705h-40l56 317l-373 -317h-54v3l435 363c-15 79 -79 139 -182 139c-111 0 -213 -72 -235 -200h-40c25 149 142 234 274 234c113 0 170 -63 192 -120l51 286h-559z" />
    <glyph glyph-name="dvTH_RA" horiz-adv-x="749" 
d="M524 0l45 252c-14 -30 -41 -62 -79 -89h1l-344 -239h-52v3l269 185c-15 -2 -30 -3 -45 -3c-164 0 -256 105 -227 265c3 14 6 27 10 42h104c101 0 224 27 247 160c14 76 -25 137 -111 137c-106 0 -169 -82 -168 -190h-38c1 129 82 226 210 226c108 0 164 -76 146 -174
c-26 -144 -150 -191 -280 -191h-78c-31 -146 44 -240 195 -240c120 0 235 86 257 212l68 384h192l-6 -35h-151l-125 -705h-40z" />
    <glyph glyph-name="dvD_RA" horiz-adv-x="608" 
d="M27 705l6 35h672l-6 -35h-161l-29 -163h-130c-123 0 -238 -62 -262 -195c-20 -116 44 -195 158 -195c31 0 68 8 101 26l8 6l2 -1c42 26 78 68 89 131h37l-56 -320h-40l39 223c-14 -24 -36 -45 -62 -61l-258 -204h-47l216 170c-13 -3 -28 -4 -42 -4
c-130 0 -210 93 -186 230c29 162 163 230 306 230h93l22 127h-470z" />
    <glyph glyph-name="dvDH_RA" horiz-adv-x="700" 
d="M262 110c-113 0 -201 62 -181 172c17 91 88 136 152 143v3c-65 13 -119 65 -102 163c15 91 89 158 187 158c105 0 156 -72 126 -182h-34c25 91 -13 147 -96 147c-75 0 -135 -56 -147 -127c-16 -85 31 -142 138 -142h59l-6 -34h-54c-109 0 -170 -56 -182 -126
c-16 -92 57 -140 153 -140c126 0 243 90 266 221v0l60 339v0l5 35h192l-6 -35h-151l-124 -705h-41l45 254c-22 -36 -51 -67 -85 -91l-280 -223h-50l229 178c-23 -5 -48 -8 -73 -8z" />
    <glyph glyph-name="dvN_RA" horiz-adv-x="795" 
d="M229 180c87 0 159 65 175 147c16 86 -37 146 -124 146c-90 0 -163 -59 -179 -148c-16 -85 36 -145 128 -145zM27 705l7 35h858l-6 -35h-152l-124 -705h-38l43 241l-353 -306h-48l408 350l33 189h-273c42 -26 69 -79 56 -150c-18 -107 -108 -179 -215 -179
c-111 0 -179 76 -160 182c19 112 110 182 229 182h369l34 196h-668z" />
    <glyph glyph-name="dvP_RA" horiz-adv-x="642" 
d="M291 254c99 0 176 72 199 159l51 292h-347l-43 -245c-22 -128 24 -206 140 -206zM27 705l6 35h706l-6 -35h-151l-124 -705h-41l57 325c-16 -26 -37 -48 -61 -65l-319 -264h-48l279 228c-15 -3 -31 -4 -47 -4c-132 0 -194 92 -168 240l44 245h-127z" />
    <glyph glyph-name="dvPH_RA" horiz-adv-x="986" 
d="M281 254c105 0 176 82 193 178v0l48 273h-328l-44 -246c-22 -127 16 -205 131 -205zM27 705l6 35h1050l-7 -35h-514l-46 -260c38 71 110 130 215 130c117 0 196 -87 172 -225c-26 -147 -132 -232 -251 -232c-22 0 -45 3 -59 7l6 33c15 -3 34 -5 52 -5
c100 0 189 71 211 196c21 118 -48 191 -146 191c-132 0 -202 -108 -218 -200v0l-60 -340h-40l57 326c-13 -22 -30 -42 -50 -58v0l-327 -272h-47l278 229c-13 -3 -27 -4 -41 -4c-132 0 -184 91 -158 238l44 246h-127z" />
    <glyph glyph-name="dvB_RA" horiz-adv-x="689" 
d="M449 170l-278 -219h-48l214 167c-19 -5 -39 -7 -61 -7c-129 0 -226 89 -200 235c25 148 143 238 281 238c110 0 171 -63 188 -136l45 257h-563l6 35h754l-7 -35h-151l-124 -705h-39l42 239c-14 -24 -33 -47 -59 -69zM358 554c-56 0 -112 -19 -156 -54l257 -286
c38 39 62 89 69 133c18 97 -29 207 -170 207zM287 142c63 0 115 22 154 55l-257 287c-36 -35 -62 -82 -72 -139c-22 -129 61 -203 175 -203z" />
    <glyph glyph-name="dvBH_RA" horiz-adv-x="781" 
d="M219 179c77 0 133 57 151 158l14 78h-113c-79 0 -142 -42 -156 -110c-14 -76 31 -126 104 -126zM216 144c-98 0 -156 65 -140 161c18 90 100 144 200 144h114l18 104c17 98 -7 160 -87 160c-68 0 -121 -47 -136 -128c-2 -13 -3 -26 -3 -41h-39c0 14 1 29 3 43
c17 99 87 162 178 162c105 0 142 -78 120 -200l-17 -100h209l52 291h190l-6 -35h-152l-124 -705h-38l42 240l-357 -305h-51l415 350l23 130h-209l-13 -76c-23 -128 -93 -195 -192 -195z" />
    <glyph glyph-name="dvM_RA" horiz-adv-x="753" 
d="M185 187c77 0 133 58 151 158l17 96h-113c-80 0 -145 -49 -159 -127c-14 -76 31 -127 104 -127zM614 476l40 229h-216l-41 -229h217zM28 705l6 35h817l-6 -35h-152l-124 -705h-38l43 242l-361 -307h-50l417 351l27 155h-216l-17 -93c-23 -129 -92 -195 -192 -195
c-98 0 -156 65 -139 161c18 100 101 162 203 162h113l41 229h-372z" />
    <glyph glyph-name="dvY_RA" horiz-adv-x="726" 
d="M314 164c116 0 221 75 250 191l61 350h-233l-15 -86c-27 -149 -124 -196 -251 -196c-1 -6 -2 -11 -3 -15c-28 -152 48 -244 191 -244zM27 705l6 35h790l-6 -35h-152l-123 -705h-41l45 256c-20 -32 -49 -63 -88 -86l-327 -229h-51v3l272 188c-15 -2 -31 -3 -48 -3
c-163 0 -251 111 -220 282c2 12 6 27 9 39h17c109 0 203 35 228 174l14 81h-325z" />
    <glyph glyph-name="dvL_RA" horiz-adv-x="890" 
d="M538 92c-11 0 -25 1 -36 2l6 36c10 -1 21 -2 30 -2c126 0 205 88 225 203c18 103 -17 187 -119 187c-105 0 -174 -87 -198 -221l-2 -11h-35l1 11c25 131 -11 221 -114 221c-107 0 -172 -81 -190 -187c-21 -115 26 -203 153 -203c10 0 19 1 30 2l-7 -36
c-10 -1 -18 -2 -29 -2c-151 0 -213 105 -188 240c23 133 107 222 231 222c113 0 148 -89 148 -163h2c26 71 83 155 191 162l27 152h-645l6 35h962l-6 -35h-277l-27 -152c103 -12 148 -105 127 -223c-24 -136 -115 -239 -266 -238zM280 -145l211 179h54l146 -179h-42
l-132 161l-188 -161h-49z" />
    <glyph glyph-name="dvV_RA" horiz-adv-x="679" 
d="M280 149c143 0 219 110 235 196c17 94 -22 200 -166 200c-108 0 -211 -74 -233 -196c-22 -127 52 -200 164 -200zM769 705h-151l-124 -705h-39l42 243c-18 -32 -44 -61 -77 -83l-261 -203h-47l212 164c-17 -3 -35 -5 -54 -5c-132 0 -220 88 -193 236
c25 140 139 227 268 227c113 0 172 -58 188 -131l45 257h-551l6 35h743z" />
    <glyph glyph-name="dvSH_RA" horiz-adv-x="773" 
d="M285 401l21 -13l23 16c72 49 123 98 136 176c13 69 -28 134 -117 134c-79 0 -146 -62 -157 -129c-14 -82 24 -141 94 -184zM548 0l31 178l-78 48l-287 -228h-49v4l307 242l-170 104l-224 -151h-49l1 5l243 164l-3 2c-90 56 -133 128 -116 220c16 90 95 161 200 161
c109 0 165 -80 150 -168c-15 -86 -67 -143 -154 -201l-15 -10l251 -155l93 525h191l-6 -35h-151l-125 -705h-40z" />
    <glyph glyph-name="dvSS_RA" horiz-adv-x="645" 
d="M295 253c83 0 148 49 180 116l-289 300l-37 -209c-23 -129 35 -207 146 -207zM496 433l48 272h-350l294 -305c3 11 6 22 8 33zM27 705l6 35h708l-6 -35h-151l-124 -705h-40l57 323c-17 -28 -40 -51 -66 -69l-315 -258h-50l278 224c-13 -2 -27 -3 -41 -3
c-128 0 -200 93 -173 243l44 245h-127z" />
    <glyph glyph-name="dvS_RA" horiz-adv-x="854" 
d="M465 600c-18 -102 -73 -160 -131 -188h369l51 293h-270zM27 705l6 35h891l-6 -35h-124l-125 -705h-37l47 264l-287 -316h-44l338 366l11 66h-562l-31 -177c-16 -103 18 -176 108 -176c89 0 125 73 139 165h36c-15 -112 -65 -201 -178 -201c-111 0 -164 88 -144 215
l36 204h104c118 0 199 74 221 190l19 105h-418z" />
    <glyph glyph-name="dvH_RA" horiz-adv-x="587" 
d="M469 28c-27 -71 -111 -151 -235 -151c-149 0 -210 108 -188 229c16 89 73 169 159 204c-42 15 -89 57 -76 126c16 89 94 125 185 125h159l25 144h-462l6 35h651l-7 -35h-148l-26 -144l-6 -32h-189c-69 0 -136 -25 -150 -99c-10 -60 30 -95 81 -107c18 4 36 6 55 6
c102 0 161 -55 174 -113l-151 -127h-43l156 129c-17 39 -61 78 -139 78c-116 0 -197 -90 -216 -192c-18 -104 29 -192 152 -192c103 0 171 63 196 116h37z" />
    <glyph glyph-name="dvLL_RA" horiz-adv-x="1009" 
d="M256 155c110 0 197 78 216 185c20 112 -39 191 -150 191c-106 0 -198 -75 -218 -191c-20 -110 46 -185 152 -185zM665 155c106 0 199 75 218 185c20 116 -44 191 -151 191c-111 0 -197 -79 -217 -191c-20 -107 40 -185 150 -185zM799 -43l-132 161l-188 -161h-49l196 166
c-89 14 -139 78 -143 150h-3c-33 -82 -120 -153 -232 -153c-128 0 -207 91 -184 220c24 137 133 226 259 226c119 0 172 -74 183 -151h2c35 75 108 147 221 151l25 139h-737l6 35h1083l-7 -35h-306l-25 -141c110 -12 177 -97 155 -224c-20 -115 -108 -200 -218 -217
l136 -166h-42z" />
    <glyph glyph-name="dvKx_RA" horiz-adv-x="1024" 
d="M439 0l43 244c-16 -28 -37 -54 -65 -75h1l-274 -215h-47l216 169c-15 -3 -31 -4 -47 -4c-122 0 -203 86 -178 230c25 140 134 226 257 226c106 0 158 -58 173 -128l45 258h-553l6 35h1105l-6 -35h-514l-45 -258c38 70 107 128 210 128c118 0 199 -88 175 -227
c-27 -146 -131 -230 -251 -230c-22 0 -43 3 -58 6l6 34c14 -3 34 -5 51 -5c98 0 189 71 211 196c21 118 -48 191 -146 191c-131 0 -200 -106 -216 -197v0l-60 -343h-39zM280 152c39 0 73 9 102 25l10 8l2 -1c56 35 90 94 103 146l3 19v0c14 86 -18 191 -152 191
c-99 0 -198 -72 -219 -191c-22 -126 46 -197 151 -197zM10 33c-20 0 -32 14 -29 34s20 34 41 34c18 0 31 -14 28 -34s-20 -34 -40 -34z" />
    <glyph glyph-name="dvKHx_RA" horiz-adv-x="918" 
d="M693 0l46 259c-35 -59 -99 -108 -189 -108c-15 0 -29 2 -42 4c-22 -38 -52 -74 -90 -102l-252 -201h-48l1 3l188 149c-15 -3 -31 -4 -47 -4c-139 0 -216 85 -192 224l31 172h40c69 0 153 27 176 162l26 147h-314l6 35h982l-7 -35h-151l-124 -705h-40zM23 -98
c-20 0 -32 14 -29 34s20 34 41 34c18 0 31 -14 28 -34s-20 -34 -40 -34zM562 184c116 0 180 95 193 170c14 78 -18 171 -138 171c-91 0 -175 -62 -194 -167c-19 -111 46 -174 139 -174zM267 35c93 0 169 61 208 131c-66 29 -104 99 -88 195c21 123 119 198 229 197
c94 0 142 -49 156 -108l45 255h-436l-26 -151c-27 -152 -118 -190 -210 -190h-12l-25 -143c-20 -112 41 -186 159 -186z" />
    <glyph glyph-name="dvGx_RA" horiz-adv-x="705" 
d="M481 0l51 287l-360 -307h-51l418 354l65 371h-208l-44 -251c-14 -82 -63 -153 -165 -153c-99 0 -132 75 -117 154c2 10 3 16 5 26h40l-6 -31c-11 -54 5 -114 80 -114c80 0 112 60 122 116l44 253h-328l6 35h769l-6 -35h-152l-123 -705h-40zM41 88c-20 0 -32 14 -29 34
s20 34 41 34c18 0 31 -14 28 -34s-20 -34 -40 -34z" />
    <glyph glyph-name="dvJx_RA" horiz-adv-x="829" 
d="M27 705l6 35h893l-6 -35h-151l-124 -705h-39l49 283l-356 -308h-50l414 355l25 142h-235l-11 -65c-19 -110 -97 -188 -203 -188c-108 0 -164 78 -144 188l18 99h41l-18 -99c-16 -89 22 -152 104 -152c84 0 148 63 163 152l17 99h274l36 199h-703zM77 20
c-20 0 -32 14 -29 34s20 34 41 34c18 0 31 -14 28 -34s-20 -34 -40 -34z" />
    <glyph glyph-name="dvPHx_RA" horiz-adv-x="999" 
d="M294 254c105 0 176 82 192 178v0l48 273h-327l-44 -246c-22 -127 16 -205 131 -205zM-8 705l6 35h1097l-6 -35h-514l-45 -258c38 70 109 128 213 128c118 0 197 -87 172 -225c-26 -147 -132 -232 -251 -232c-21 0 -44 3 -58 7l6 33c15 -3 34 -5 52 -5
c99 0 189 71 211 196c20 118 -49 191 -146 191c-132 0 -202 -108 -218 -200v0l-60 -340h-40l57 326c-14 -23 -31 -42 -50 -58v0l-327 -272h-48l278 228c-13 -2 -26 -3 -40 -3c-133 0 -185 91 -158 238l43 246h-174zM-7 119c-20 0 -32 14 -29 34s20 34 41 34
c18 0 31 -14 28 -34s-20 -34 -40 -34z" />
    <glyph glyph-name="dvK_R" horiz-adv-x="760" 
d="M427 0l43 244c-16 -28 -38 -54 -65 -75v0l-273 -215h-48l217 169c-15 -3 -30 -4 -47 -4c-123 0 -204 86 -178 230c25 140 134 226 256 226c105 0 158 -58 173 -127l45 257h-523l6 35h964l-6 -35h-402l-45 -257c38 70 107 127 210 127c117 0 199 -88 174 -226h-40
c20 118 -48 191 -146 191c-125 0 -194 -97 -214 -184l-63 -356h-38zM267 152c41 0 76 10 106 27v0v0c65 36 101 103 113 158l3 17c12 85 -22 186 -153 186c-100 0 -198 -72 -219 -191c-22 -126 46 -197 150 -197z" />
    <glyph glyph-name="dvKH_R" horiz-adv-x="677" 
d="M565 185c104 0 184 67 202 169c18 104 -38 171 -142 171c-103 0 -184 -67 -202 -171c-18 -102 38 -169 142 -169zM27 705l6 35h839l-7 -35h-484l-26 -151c-27 -152 -118 -190 -210 -190h-12l-25 -143c-20 -112 41 -186 159 -186c98 0 169 61 208 131
c-70 29 -105 96 -89 188c22 126 119 204 244 204s196 -78 174 -204s-122 -203 -245 -203c-18 0 -35 2 -50 5c-25 -46 -61 -89 -108 -119l-233 -185h-48v3l186 147c-13 -2 -26 -3 -40 -3c-141 0 -223 86 -198 225l31 172h40c73 0 153 27 176 162l26 147h-314z" />
    <glyph glyph-name="dvG_R" horiz-adv-x="441" 
d="M121 -20l426 361l-7 -46l-368 -315h-51zM27 705l6 35h583l-6 -35h-214l-44 -251c-14 -82 -63 -153 -165 -153c-99 0 -133 75 -117 154c2 10 3 16 5 26h40l-6 -31c-11 -54 5 -114 80 -114c80 0 112 60 122 116l44 253h-328z" />
    <glyph glyph-name="dvGH_R" horiz-adv-x="454" 
d="M27 705l6 35h624l-6 -35h-440l-16 -92c-17 -92 22 -143 138 -143h52l-6 -34h-54c-128 0 -191 -62 -205 -138c-18 -103 58 -151 168 -151c130 0 246 89 268 216h35c-15 -81 -61 -150 -127 -195l-282 -224h-48l228 178c-25 -7 -52 -10 -80 -10c-141 0 -224 64 -203 184
c17 93 96 148 175 156l1 2c-68 9 -119 53 -101 158l16 93h-143z" />
    <glyph glyph-name="dvNG_R" horiz-adv-x="636" 
d="M288 -364l-84 186h41l85 -186h-42zM577 374c-20 0 -32 14 -28 33c3 20 20 34 40 34s31 -14 28 -34c-4 -19 -21 -33 -40 -33zM28 705l6 35h699l-6 -35h-203l-29 -160l-3 -19h-172c-69 0 -155 -17 -172 -105c-13 -78 47 -104 117 -104h44c101 0 198 -44 176 -166
c-15 -83 -81 -148 -193 -160l134 -164h-42l-132 161l-188 -161h-49l194 165c-121 15 -176 94 -159 190h40c-15 -88 35 -160 169 -160c107 0 174 58 187 130c18 105 -65 134 -148 134h-43c-84 0 -164 39 -147 136c19 106 117 135 203 135h146l27 148h-456z" />
    <glyph glyph-name="dvC_R" horiz-adv-x="472" 
d="M27 705l6 35h630l-6 -35h-630zM72 502l6 34h360l-7 -34h-31c-120 0 -207 -80 -225 -182c-20 -113 55 -175 154 -175c114 0 211 90 229 194h34c-10 -75 -56 -143 -121 -185l-251 -200h-47l205 161c-18 -4 -38 -6 -57 -6c-117 0 -209 74 -185 206c16 87 72 155 153 187
h-217z" />
    <glyph glyph-name="dvCH_R" horiz-adv-x="810" 
d="M25 705l5 35h877l-5 -35h-697l-22 -123c-16 -93 21 -143 136 -143h23l-5 -35h-23c-131 0 -202 -69 -217 -152c-21 -123 88 -185 242 -185c188 0 351 108 382 284c22 120 -40 174 -107 174c-58 0 -136 -34 -154 -137c-6 -30 -5 -65 1 -102h-36c-6 37 -6 72 0 105
c22 123 116 166 195 166c90 0 163 -64 139 -206c-32 -177 -173 -291 -352 -315l137 -167h-46l-131 162l-188 -162h-46l190 162c-172 3 -292 81 -266 220c18 103 99 159 185 169v2c-67 9 -119 54 -100 158l23 125h-140z" />
    <glyph glyph-name="dvJ_R" horiz-adv-x="555" 
d="M250 -25l436 375l-9 -47l-378 -328h-49zM29 705l6 35h719l-6 -35h-719zM239 219c-108 0 -164 78 -144 188l18 99h41l-18 -99c-16 -89 22 -152 104 -152c84 0 148 63 163 152l17 99h294l-6 -34h-255l-11 -65c-19 -110 -97 -188 -203 -188z" />
    <glyph glyph-name="dvJH_R" horiz-adv-x="574" 
d="M407 -102l255 281l-10 -51l-200 -230h-45zM34 705l6 35h721l-7 -35h-226l-27 -147h1l-6 -32h-172c-66 0 -158 -17 -173 -106c-14 -76 46 -103 118 -103h417l-5 -32l-254 1c45 -23 74 -69 61 -138c-15 -81 -81 -150 -203 -150c-126 0 -169 78 -176 105l-32 -176h-39
l45 245h36c-2 -74 46 -142 164 -142c103 0 156 57 167 121c15 84 -36 135 -147 135h-48c-90 0 -161 41 -144 136c18 107 119 136 206 136h145l27 147h-455z" />
    <glyph glyph-name="dvNY_R" horiz-adv-x="549" 
d="M256 137c-133 0 -193 86 -189 162h39c-1 -58 46 -125 153 -125c124 0 199 86 216 185c16 94 -27 180 -150 180c-111 0 -173 -69 -199 -126h-39c29 78 105 162 241 162c139 0 195 -90 188 -191h145l-6 -36h-144c-24 -111 -110 -211 -255 -211zM628 196l-311 -269h-46
l365 316zM28 705l5 35h691l-6 -35h-690z" />
    <glyph glyph-name="dvTT_R" horiz-adv-x="648" 
d="M315 -295l-85 185h41l86 -185h-42zM22 705l7 35h716l-6 -35h-235l-32 -174h-79c-139 0 -262 -72 -289 -225c-23 -125 58 -214 187 -214c131 0 231 92 253 222h39c-24 -141 -123 -243 -265 -256l133 -163h-42l-132 161v0l-188 -161h-49l195 165c-121 21 -196 117 -172 248
c32 177 170 258 334 258h42l25 139h-442z" />
    <glyph glyph-name="dvTTH_R" horiz-adv-x="675" 
d="M314 -296l-85 185h41l87 -185h-43zM286 93c122 0 234 86 257 210c22 125 -54 217 -181 217c-122 0 -234 -84 -256 -210c-23 -124 55 -217 180 -217zM415 -106l-132 161l-188 -161h-49l195 166c-122 17 -200 117 -176 251c26 143 144 237 282 244l27 150h-351l6 35h743
l-6 -35h-352l-27 -150c133 -9 222 -111 196 -253c-24 -133 -131 -226 -261 -242l135 -166h-42z" />
    <glyph glyph-name="dvDD_R" horiz-adv-x="580" 
d="M277 -364l-84 186h41l86 -186h-43zM28 705l6 35h643l-6 -35h-155l-32 -179h-164c-69 0 -155 -17 -172 -105c-13 -78 47 -104 117 -104h44c101 0 198 -44 176 -166c-16 -85 -83 -151 -199 -161l133 -163h-42l-132 161l-188 -161h-49l195 166c-117 17 -170 95 -153 189h40
c-15 -88 35 -160 169 -160c107 0 174 58 187 130c18 105 -65 134 -148 134h-43c-84 0 -164 39 -147 136c19 106 117 135 203 135h139l27 148h-449z" />
    <glyph glyph-name="dvDDH_R" horiz-adv-x="631" 
d="M329 -335l-85 185h41l87 -185h-43zM25 705l6 35h697l-6 -35h-197l-30 -169h-82c-147 0 -280 -80 -309 -246c-25 -142 62 -240 207 -240c111 0 201 66 218 158c13 75 -30 130 -104 130c-64 0 -123 -42 -133 -111c-1 -6 -2 -14 -2 -21h-32c0 7 1 18 2 26
c15 86 86 138 172 138c91 0 149 -68 133 -162c-19 -105 -111 -181 -236 -189l134 -164h-42l-132 161l-188 -161h-49l198 168c-131 22 -211 126 -185 269c33 189 181 276 345 276h52l24 137h-461z" />
    <glyph glyph-name="dvNN_R" horiz-adv-x="552" 
d="M249 -24l395 339l-9 -50l-335 -289h-51zM27 705l7 35h685l-7 -35h-210l-43 -242c-19 -109 -90 -188 -201 -188c-108 0 -164 79 -144 188l42 242h-129zM260 311c84 0 144 62 159 149l43 245h-266l-43 -245c-15 -87 25 -149 107 -149z" />
    <glyph glyph-name="dvT_R" horiz-adv-x="434" 
d="M69 305c25 148 145 234 283 234c133 0 204 -82 212 -181l-422 -358h-53v3l436 365c-14 78 -75 137 -177 137c-113 0 -217 -72 -239 -200h-40zM27 705l6 35h598l-6 -35h-598z" />
    <glyph glyph-name="dvTH_R" horiz-adv-x="470" 
d="M620 346c-12 -76 -56 -139 -117 -181h1l-348 -244h-53l1 4l272 188c-17 -3 -34 -4 -51 -4c-186 0 -272 127 -222 307h104c101 0 223 27 246 160c14 76 -24 137 -110 137c-107 0 -170 -80 -169 -190h-38c1 129 81 226 213 226c105 0 160 -76 143 -174
c-25 -143 -149 -191 -279 -191h-79c-30 -150 48 -240 196 -240c115 0 233 82 255 202h35z" />
    <glyph glyph-name="dvD_R" horiz-adv-x="608" 
d="M483 -284l-84 186h41l86 -186h-43zM27 705l6 35h672l-6 -35h-161l-29 -163h-130c-123 0 -238 -62 -262 -195c-20 -116 44 -195 158 -195c31 0 68 8 101 26l8 6l2 -1c42 26 78 68 89 131h37l-56 -320h-40l39 223c-14 -24 -36 -45 -62 -61l-258 -204h-47l216 170
c-13 -3 -28 -4 -42 -4c-130 0 -210 93 -186 230c29 162 163 230 306 230h93l22 127h-470z" />
    <glyph glyph-name="dvDH_R" horiz-adv-x="429" 
d="M269 109c-122 0 -208 58 -188 172c17 92 88 138 152 144v3c-65 13 -120 65 -102 163c15 91 89 158 187 158c105 0 156 -72 126 -182h-34c25 91 -13 147 -96 147c-75 0 -136 -56 -147 -127c-16 -85 31 -142 138 -142h59l-6 -34h-54c-109 0 -169 -57 -182 -128
c-17 -96 59 -138 155 -138c135 0 239 77 258 188h36c-13 -71 -52 -131 -111 -171l-280 -222h-49l231 180c-29 -7 -60 -11 -93 -11z" />
    <glyph glyph-name="dvN_R" horiz-adv-x="507" 
d="M223 145c-111 0 -179 76 -160 182c19 112 110 182 229 182h382l-6 -35h-286c42 -26 69 -79 56 -150c-18 -107 -108 -179 -215 -179zM229 180c87 0 160 65 175 147c16 86 -37 146 -124 146c-90 0 -163 -59 -179 -148c-16 -85 36 -145 128 -145zM214 -65l423 364l-6 -45
l-368 -319h-49zM27 705l7 35h682l-7 -35h-682z" />
    <glyph glyph-name="dvP_R" horiz-adv-x="374" 
d="M27 705l6 35h549l-6 -35h-382l-44 -245c-22 -128 19 -206 141 -206c110 0 185 81 202 177h35c-12 -67 -44 -124 -93 -163l-328 -272h-48l280 229c-17 -4 -36 -6 -55 -6c-143 0 -200 95 -173 243l43 243h-127z" />
    <glyph glyph-name="dvPH_R" horiz-adv-x="759" 
d="M281 254c105 0 176 82 193 178v0l48 273h-328l-44 -246c-22 -127 16 -205 131 -205zM27 705l6 35h939l-7 -35h-403l-46 -260c38 71 110 130 215 130c117 0 196 -87 172 -226h-41c21 118 -48 191 -146 191c-132 0 -202 -108 -218 -200v0l-60 -340h-40l57 326
c-13 -22 -30 -42 -50 -58v0l-327 -272h-47l278 229c-13 -3 -27 -4 -41 -4c-132 0 -184 91 -158 238l44 246h-127z" />
    <glyph glyph-name="dvB_R" horiz-adv-x="439" 
d="M27 705l6 35h598l-7 -35h-597zM282 110c-135 0 -232 90 -208 235c26 147 146 240 284 240c167 0 221 -130 203 -238c-13 -75 -56 -145 -121 -189l-257 -207h-46l212 167c-21 -5 -43 -8 -67 -8zM355 554c-56 0 -111 -19 -155 -55l257 -286c39 39 62 89 70 133
c17 98 -30 208 -172 208zM285 141c64 0 115 22 154 55l-257 287c-36 -35 -62 -82 -72 -139c-22 -129 63 -203 175 -203z" />
    <glyph glyph-name="dvBH_R" horiz-adv-x="493" 
d="M219 179c77 0 133 57 151 158l14 78h-113c-79 0 -142 -42 -156 -110c-14 -76 31 -126 104 -126zM216 144c-98 0 -156 65 -140 161c18 90 100 144 200 144h114l18 104c17 98 -7 160 -87 160c-68 0 -121 -47 -136 -128c-2 -13 -3 -26 -3 -41h-39c0 14 1 29 3 43
c17 99 87 162 178 162c105 0 142 -78 120 -200l-17 -100h196l-7 -34h-195l-13 -76c-23 -128 -93 -195 -192 -195zM192 -65l399 335l-7 -44l-341 -291h-51z" />
    <glyph glyph-name="dvM_R" horiz-adv-x="489" 
d="M185 187c77 0 133 58 151 158l17 96h-113c-80 0 -145 -49 -159 -127c-14 -76 31 -127 104 -127zM163 -65l428 359l-8 -43l-370 -316h-50zM28 705l6 35h638l-7 -35h-227l-41 -229h227l-7 -35h-226l-17 -93c-23 -129 -92 -195 -192 -195c-98 0 -156 65 -139 161
c18 100 101 162 203 162h113l41 229h-372z" />
    <glyph glyph-name="dvY_R" horiz-adv-x="453" 
d="M27 705l6 35h636l-6 -35h-271l-15 -87c-27 -148 -124 -195 -251 -195c-1 -6 -2 -11 -3 -15c-28 -154 50 -244 192 -244c120 0 230 81 251 203h37c-13 -82 -60 -152 -130 -194l-332 -232h-51l1 3l271 188c-17 -3 -35 -4 -53 -4c-165 0 -256 110 -225 283c2 12 6 27 9 39
h17c109 0 203 34 228 173l14 82h-325z" />
    <glyph glyph-name="dvL_R" horiz-adv-x="890" 
d="M551 -335l-84 185h41l85 -185h-42zM538 92c-11 0 -25 1 -36 2l6 36c10 -1 21 -2 30 -2c126 0 205 88 225 203c18 103 -17 187 -119 187c-105 0 -174 -87 -198 -221l-2 -11h-35l1 11c25 131 -11 221 -114 221c-107 0 -172 -81 -190 -187c-21 -115 26 -203 153 -203
c10 0 19 1 30 2l-7 -36c-10 -1 -18 -2 -29 -2c-151 0 -213 105 -188 240c23 133 107 222 231 222c113 0 148 -89 148 -163h2c26 71 83 155 191 162l27 152h-645l6 35h962l-6 -35h-277l-27 -152c103 -12 148 -105 127 -223c-24 -136 -115 -239 -266 -238zM280 -145l211 179
h54l146 -179h-42l-132 161l-188 -161h-49z" />
    <glyph glyph-name="dvV_R" horiz-adv-x="415" 
d="M27 705l6 35h591l-6 -35h-591zM282 148c142 0 218 111 233 198c17 93 -23 199 -163 199c-110 0 -215 -73 -237 -196c-22 -127 53 -201 167 -201zM278 115c-138 0 -228 89 -202 236c25 140 142 228 278 228c169 0 219 -129 200 -235c-11 -65 -50 -137 -118 -183l-259 -207
h-47l216 168c-21 -4 -44 -7 -68 -7z" />
    <glyph glyph-name="dvSH_R" horiz-adv-x="484" 
d="M285 401l21 -13l23 16c72 49 123 98 136 176c13 69 -28 134 -117 134c-79 0 -146 -62 -157 -129c-14 -82 24 -141 94 -184zM500 226l-286 -228h-49v4l306 242l-169 104l-224 -151h-49l1 5l243 164l-3 2c-90 56 -133 128 -116 220c16 90 95 161 200 161
c109 0 165 -80 150 -168c-14 -86 -67 -143 -154 -201l-15 -10l172 -106z" />
    <glyph glyph-name="dvSS_R" horiz-adv-x="389" 
d="M291 253c104 0 160 66 184 116l-289 300l-37 -209c-23 -130 37 -207 142 -207zM27 705l6 35h547l-7 -35h-380l322 -331c-13 -38 -40 -81 -82 -112l-322 -266h-47l276 226c-16 -3 -32 -5 -50 -5c-132 0 -207 93 -180 243l44 245h-127z" />
    <glyph glyph-name="dvS_R" horiz-adv-x="532" 
d="M348 -52l267 288l-9 -52l-214 -236h-44zM28 705l6 35h671l-7 -35h-214l-19 -105c-18 -102 -73 -160 -131 -188h312l-5 -32h-506l-31 -177c-16 -103 18 -176 108 -176c89 0 125 73 139 165h36c-15 -112 -65 -201 -178 -201c-111 0 -164 88 -144 215l36 204h104
c118 0 199 74 221 190l19 105h-417z" />
    <glyph glyph-name="dvH_R" horiz-adv-x="587" 
d="M275 -401l-85 185h41l86 -185h-42zM469 28c-27 -71 -111 -151 -235 -151c-149 0 -210 108 -188 229c16 89 73 169 159 204c-42 15 -89 57 -76 126c16 89 94 125 185 125h159l25 144h-462l6 35h651l-7 -35h-148l-26 -144l-6 -32h-189c-69 0 -136 -25 -150 -99
c-10 -60 30 -95 81 -107c18 4 36 6 55 6c102 0 161 -55 174 -113l-151 -127h-43l156 129c-17 39 -61 78 -139 78c-116 0 -197 -90 -216 -192c-18 -104 29 -192 152 -192c103 0 171 63 196 116h37z" />
    <glyph glyph-name="dvLL_R" horiz-adv-x="1009" 
d="M248 120c-128 0 -207 91 -184 220c24 137 133 226 259 226c119 0 172 -74 183 -151h2c36 77 113 151 232 151c126 0 207 -89 183 -226c-20 -115 -108 -200 -218 -217l136 -166h-42l-132 161l-188 -161h-49l196 166c-89 14 -139 78 -143 150h-3
c-33 -82 -120 -153 -232 -153zM256 155c110 0 197 78 216 185c20 112 -39 191 -150 191c-106 0 -198 -75 -218 -191c-20 -110 46 -185 152 -185zM665 155c106 0 199 75 218 185c20 116 -44 191 -151 191c-111 0 -197 -79 -217 -191c-20 -107 40 -185 150 -185zM17 705l6 35
h1083l-7 -35h-1082z" />
    <glyph glyph-name="dvKx_R" horiz-adv-x="772" 
d="M439 0l43 244c-16 -28 -38 -54 -65 -75h1l-274 -215h-47l217 169c-15 -3 -31 -4 -48 -4c-122 0 -203 86 -178 230c25 140 134 226 257 226c106 0 158 -58 173 -128l45 258h-536l6 35h977l-7 -35h-402l-45 -258c38 70 107 128 210 128c118 0 199 -88 175 -226h-41
c21 118 -48 191 -146 191c-131 0 -200 -106 -216 -197v0l-60 -343h-39zM280 152c40 0 75 10 104 26l1 1v0c62 35 98 97 112 151l3 19v0c14 86 -18 191 -152 191c-99 0 -198 -72 -219 -191c-22 -126 46 -197 151 -197zM10 33c-20 0 -32 14 -29 34s20 34 41 34
c18 0 31 -14 28 -34s-20 -34 -40 -34z" />
    <glyph glyph-name="dvKHx_R" horiz-adv-x="677" 
d="M23 -98c-20 0 -32 14 -29 34s20 34 41 34c18 0 31 -14 28 -34s-20 -34 -40 -34zM565 185c104 0 184 67 202 169c18 104 -38 171 -142 171c-103 0 -184 -67 -202 -171c-18 -102 38 -169 142 -169zM27 705l6 35h839l-7 -35h-484l-26 -151c-27 -152 -118 -190 -210 -190h-12
l-25 -143c-20 -112 41 -186 159 -186c98 0 169 61 208 131c-70 29 -105 96 -89 188c22 126 119 204 244 204s196 -78 174 -204s-122 -203 -245 -203c-18 0 -35 2 -50 5c-25 -46 -61 -89 -108 -119l-233 -185h-48v3l186 147c-13 -2 -26 -3 -40 -3c-141 0 -223 86 -198 225
l31 172h40c73 0 153 27 176 162l26 147h-314z" />
    <glyph glyph-name="dvGx_R" horiz-adv-x="441" 
d="M121 -20l426 361l-7 -46l-368 -315h-51zM27 705l6 35h583l-6 -35h-214l-44 -251c-14 -82 -63 -153 -165 -153c-99 0 -133 75 -117 154c2 10 3 16 5 26h40l-6 -31c-11 -54 5 -114 80 -114c80 0 112 60 122 116l44 253h-328zM41 88c-20 0 -32 14 -29 34s20 34 41 34
c18 0 31 -14 28 -34s-20 -34 -40 -34z" />
    <glyph glyph-name="dvJx_R" horiz-adv-x="555" 
d="M250 -25l436 375l-9 -47l-378 -328h-49zM29 705l6 35h719l-6 -35h-719zM239 219c-108 0 -164 78 -144 188l18 99h41l-18 -99c-16 -89 22 -152 104 -152c84 0 148 63 163 152l17 99h294l-6 -34h-255l-11 -65c-19 -110 -97 -188 -203 -188zM77 20c-20 0 -32 14 -29 34
s20 34 41 34c18 0 31 -14 28 -34s-20 -34 -40 -34z" />
    <glyph glyph-name="dvPHx_R" horiz-adv-x="772" 
d="M294 254c105 0 176 82 192 178v0l48 273h-327l-44 -246c-22 -127 16 -205 131 -205zM-8 705l6 35h986l-6 -35h-403l-45 -258c38 70 109 128 213 128c118 0 197 -87 172 -226h-40c20 118 -49 191 -146 191c-132 0 -202 -108 -218 -200v0l-60 -340h-40l57 326
c-14 -23 -31 -42 -50 -58v0l-327 -272h-48l278 228c-13 -2 -26 -3 -40 -3c-133 0 -185 91 -158 238l43 246h-174zM-7 119c-20 0 -32 14 -29 34s20 34 41 34c18 0 31 -14 28 -34s-20 -34 -40 -34z" />
    <glyph glyph-name="dvK_KA" horiz-adv-x="1806" 
d="M267 152c132 0 202 105 219 185l3 20c11 85 -24 183 -153 183c-100 0 -198 -72 -219 -191c-22 -126 47 -197 150 -197zM1344 705h-755l-44 -251c36 66 101 121 201 121c84 0 145 -45 164 -121c48 77 128 121 216 121c105 0 158 -58 173 -127zM1221 0l42 242
c-38 -68 -111 -125 -214 -125c-123 0 -205 87 -179 232c21 118 -38 191 -136 191c-124 0 -187 -96 -206 -183l-63 -357h-38l42 242c-38 -68 -111 -125 -214 -125c-123 0 -205 87 -179 232c25 140 134 226 256 226c105 0 158 -58 173 -127l45 257h-523l6 35h1870l-7 -35h-513
l-45 -257c38 70 107 127 210 127c117 0 199 -88 174 -227c-26 -146 -130 -230 -251 -230c-21 0 -43 3 -57 6l6 34c14 -3 33 -5 50 -5c98 0 190 71 212 196c20 118 -48 191 -146 191c-125 0 -194 -97 -214 -184l-63 -356h-38zM1061 152c132 0 202 105 219 185l3 20
c11 85 -24 183 -153 183c-100 0 -198 -72 -219 -191c-22 -126 47 -197 150 -197z" />
    <glyph glyph-name="dvKx_KxA" horiz-adv-x="1808" 
d="M267 152c132 0 202 105 219 185l3 20c11 85 -24 183 -153 183c-100 0 -198 -72 -219 -191c-22 -126 47 -197 150 -197zM214 -47c-20 0 -33 15 -30 35s21 35 42 35c19 0 32 -15 29 -35s-21 -35 -41 -35zM1010 -47c-20 0 -33 15 -30 35s21 35 42 35c19 0 32 -15 29 -35
s-21 -35 -41 -35zM1346 705h-757l-45 -253c37 67 104 123 206 123c82 0 143 -45 161 -122c48 77 129 122 217 122c105 0 158 -58 173 -127zM1223 0l42 242c-38 -68 -111 -125 -214 -125c-123 0 -205 87 -179 232c21 118 -42 191 -134 191c-126 0 -191 -96 -210 -184
l-63 -356h-38l42 242c-38 -68 -111 -125 -214 -125c-123 0 -205 87 -179 232c25 140 134 226 256 226c105 0 158 -58 173 -127l45 257h-523l6 35h1872l-7 -35h-513l-45 -257c38 70 107 127 210 127c117 0 199 -88 174 -227c-26 -146 -130 -230 -251 -230c-21 0 -43 3 -57 6
l6 34c14 -3 33 -5 50 -5c98 0 190 71 212 196c20 118 -48 191 -146 191c-125 0 -194 -97 -214 -184l-63 -356h-38zM1063 152c132 0 202 105 219 185l3 20c11 85 -24 183 -153 183c-100 0 -198 -72 -219 -191c-22 -126 47 -197 150 -197z" />
    <glyph glyph-name="dvK_KHA" horiz-adv-x="1697" 
d="M919 396c69 0 153 27 176 162l26 147h-532l-44 -252c36 66 101 121 201 121c104 0 170 -68 167 -178h6zM267 152c132 0 202 105 219 185l3 20c11 85 -24 183 -153 183c-100 0 -198 -72 -219 -191c-22 -126 47 -197 150 -197zM1473 0l46 259c-35 -59 -99 -108 -189 -108
c-15 0 -29 2 -42 4c-48 -83 -134 -156 -249 -156c-138 0 -215 85 -191 225l23 125h-1c21 118 -38 191 -136 191c-124 0 -187 -96 -206 -183l-63 -357h-38l42 242c-38 -68 -111 -125 -214 -125c-123 0 -205 87 -179 232c25 140 134 226 256 226c105 0 158 -58 173 -127
l45 257h-523l6 35h1762l-7 -35h-151l-124 -705h-40zM1342 184c116 0 180 95 193 170c14 78 -18 171 -138 171c-91 0 -175 -62 -194 -167c-19 -111 46 -174 139 -174zM1047 35c93 0 169 61 208 131c-66 29 -104 99 -88 195c21 123 119 198 229 197c94 0 142 -49 156 -108
l45 255h-436l-26 -151c-27 -152 -118 -190 -210 -190h-12l-25 -143c-20 -112 41 -186 159 -186z" />
    <glyph glyph-name="dvK_CA" horiz-adv-x="1396" 
d="M1001 145c114 0 209 89 229 189l65 371h-706l-49 -277c38 67 111 120 224 121h348l-6 -34h-31c-120 0 -207 -81 -228 -191c-22 -113 54 -179 154 -179zM267 152c132 0 202 105 219 185l3 20c11 85 -24 183 -153 183c-100 0 -198 -72 -219 -191c-22 -126 47 -197 150 -197
zM522 322l-57 -322h-38l42 242c-38 -68 -111 -125 -214 -125c-123 0 -205 87 -179 232c25 140 134 226 256 226c105 0 158 -58 173 -127l45 257h-523l6 35h1460l-7 -35h-150l-125 -705h-40l41 235c-46 -73 -131 -125 -224 -125c-118 0 -204 80 -181 209
c18 93 77 164 160 196h-217c-144 0 -212 -99 -228 -193z" />
    <glyph glyph-name="dvK_JA" horiz-adv-x="1614" 
d="M267 152c132 0 202 105 219 185l3 20c11 85 -24 183 -153 183c-100 0 -198 -72 -219 -191c-22 -126 47 -197 150 -197zM1013 185c84 0 147 63 163 152l29 169h273l35 199h-924l-44 -253c36 68 102 123 203 123c123 0 187 -95 163 -219l-3 -19c-13 -89 24 -152 105 -152z
M465 0h-38l42 242c-38 -68 -111 -125 -214 -125c-123 0 -205 87 -179 232c25 140 134 226 256 226c105 0 158 -58 173 -127l45 257h-523l6 35h1678l-7 -35h-150l-125 -705h-40l83 470h-233l-24 -133c-20 -110 -97 -189 -210 -188c-104 1 -154 80 -138 184l4 23v0
c18 106 -35 184 -136 184c-124 0 -188 -96 -207 -184z" />
    <glyph glyph-name="dvK_TTA" horiz-adv-x="1445" 
d="M745 575c86 0 153 -48 167 -138c61 88 165 129 282 129h42l25 139h-672l-45 -253c37 68 103 123 201 123zM267 152c132 0 202 105 219 185l3 20c11 85 -24 183 -153 183c-100 0 -198 -72 -219 -191c-22 -126 47 -197 150 -197zM733 540c-122 0 -186 -96 -205 -184
l-63 -356h-38l42 242c-38 -68 -111 -125 -214 -125c-123 0 -205 87 -179 232c25 140 134 226 256 226c105 0 158 -58 173 -127l45 257h-523l6 35h1509l-6 -35h-235l-32 -174h-79c-139 0 -262 -72 -289 -225c-23 -125 58 -214 187 -214c131 0 231 92 253 222h39
c-26 -152 -139 -258 -298 -258c-149 0 -249 104 -222 252c3 15 6 30 11 43c19 125 -48 189 -138 189z" />
    <glyph glyph-name="dvK_NNA" horiz-adv-x="1607" 
d="M589 705l-45 -256c36 68 101 124 203 124c66 0 119 -30 145 -83l38 215h-341zM267 152c132 0 202 105 219 185l3 20c11 85 -24 183 -153 183c-100 0 -198 -72 -219 -191c-22 -126 47 -197 150 -197zM1021 241c84 0 144 62 159 149l55 315h-265l-56 -315
c-15 -87 25 -149 107 -149zM733 540c-125 0 -187 -101 -206 -186l-62 -354h-38l42 242c-38 -68 -111 -125 -214 -125c-123 0 -205 87 -179 232c25 140 134 226 256 226c105 0 158 -58 173 -127l45 257h-523l6 35h1671l-7 -35h-151l-124 -705h-40l124 705h-231l-55 -312
c-19 -109 -91 -187 -200 -187c-108 0 -166 77 -146 181c4 96 -53 153 -141 153z" />
    <glyph glyph-name="dvK_TA" horiz-adv-x="1097" 
d="M27 705l6 35h1161l-6 -35h-544l-62 -350c41 72 117 132 230 132c122 0 208 -90 185 -228c-26 -157 -134 -247 -271 -247c-30 0 -51 3 -66 6l6 34c14 -4 33 -5 60 -5c113 0 209 78 231 212c19 119 -54 193 -157 193c-135 0 -213 -96 -233 -186l-47 -266h-39l79 448h-148
c-149 0 -258 -65 -282 -206c-24 -131 43 -206 186 -206h23l-6 -34h-27c-160 0 -244 86 -217 238c20 114 91 181 175 209h-214l7 35h510l39 221h-579z" />
    <glyph glyph-name="dvKx_TA" horiz-adv-x="1449" 
d="M739 569c91 0 156 -52 150 -169c60 69 153 101 263 101h161l36 204h-760l-45 -258c36 67 101 122 195 122zM267 152c132 0 202 105 219 185l3 20c11 85 -24 183 -153 183c-100 0 -198 -72 -219 -191c-22 -126 47 -197 150 -197zM214 -47c-20 0 -33 15 -30 35s21 35 42 35
c19 0 32 -15 29 -35s-21 -35 -41 -35zM724 535c-114 0 -177 -96 -197 -184l-62 -351h-38l42 242c-38 -68 -111 -125 -214 -125c-123 0 -205 87 -179 232c25 140 134 226 256 226c105 0 158 -58 173 -127l45 257h-523l6 35h1514l-7 -35h-151l-124 -705h-40l82 465h-159
c-149 0 -259 -67 -285 -214c-24 -137 43 -215 186 -215h23l-6 -34h-25c-155 0 -247 89 -219 250c4 24 11 46 18 67c39 151 -24 216 -116 216z" />
    <glyph glyph-name="dvK_T_YA" horiz-adv-x="1892" 
d="M741 574c92 0 152 -51 153 -138c55 63 133 91 218 91c111 0 152 -40 167 -77c108 1 200 35 225 173l14 82h-929l-45 -256c37 69 104 125 197 125zM267 152c132 0 202 105 219 185l3 20c11 85 -24 183 -153 183c-100 0 -198 -72 -219 -191c-22 -126 47 -197 150 -197z
M1480 164c121 0 231 82 252 207v-3l59 337h-233l-15 -87c-27 -148 -124 -195 -251 -195c-1 -6 -2 -11 -3 -15c-28 -152 48 -244 191 -244zM728 539c-109 0 -180 -96 -201 -184l-62 -355h-38l42 242c-38 -68 -111 -125 -214 -125c-123 0 -205 87 -179 232
c25 140 134 226 256 226c105 0 158 -58 173 -127l45 257h-523l6 35h1956l-6 -35h-152l-123 -705h-41l45 256c-41 -66 -124 -127 -243 -127c-163 0 -250 111 -219 282c-2 26 -19 81 -141 81c-117 0 -219 -68 -244 -215c-24 -136 42 -215 185 -215h23l-6 -34h-26
c-157 0 -245 91 -217 251c5 29 12 55 22 78c32 114 -20 182 -118 182z" />
    <glyph glyph-name="dvK_T_RA" horiz-adv-x="1488" 
d="M750 575c86 0 153 -54 163 -160c51 80 137 124 233 124c113 0 169 -63 191 -120l52 286h-800l-45 -256c38 69 106 126 206 126zM267 152c132 0 202 105 219 185l3 20c11 85 -24 183 -153 183c-100 0 -198 -72 -219 -191c-22 -126 47 -197 150 -197zM735 540
c-117 0 -187 -97 -208 -185l-62 -355h-38l42 242c-38 -68 -111 -125 -214 -125c-123 0 -205 87 -179 232c25 140 134 226 256 226c105 0 158 -58 173 -127l45 257h-523l6 35h1552l-6 -35h-150l-125 -705h-39l56 320l-376 -320h-51v3l434 362c-14 79 -79 140 -182 140
c-110 0 -212 -72 -235 -200h-40c1 4 1 8 2 12c24 150 -46 223 -138 223z" />
    <glyph glyph-name="dvK_T_VA" horiz-adv-x="1840" 
d="M754 574c89 0 154 -66 149 -161c60 60 148 88 251 88h161c50 50 118 78 191 78c112 0 171 -57 190 -128l44 254h-1151l-45 -257c38 69 107 126 210 126zM267 152c132 0 202 105 219 185l3 20c11 85 -24 183 -153 183c-100 0 -198 -72 -219 -191
c-22 -126 47 -197 150 -197zM1442 149c143 0 219 110 235 196c17 94 -22 200 -166 200c-108 0 -211 -74 -233 -196c-22 -127 52 -200 164 -200zM1931 705h-151l-124 -705h-39l42 242c-41 -70 -118 -127 -227 -127c-132 0 -220 88 -193 237c7 43 23 81 46 113h-135
c-149 0 -259 -67 -285 -214c-24 -137 43 -215 186 -215h23l-6 -34h-25c-155 0 -247 89 -219 250c6 34 16 64 29 90c38 114 -22 197 -112 197c-124 0 -194 -96 -213 -184l-63 -355h-38l42 242c-38 -68 -111 -125 -214 -125c-123 0 -205 87 -179 232c25 140 134 226 256 226
c105 0 158 -58 173 -127l45 257h-523l6 35h1905z" />
    <glyph glyph-name="dvK_THA" horiz-adv-x="1530" 
d="M267 152c132 0 202 105 219 185l3 20c11 85 -24 183 -153 183c-100 0 -198 -72 -219 -191c-22 -126 47 -197 150 -197zM755 574c92 0 156 -63 158 -158h74c100 0 223 27 246 160c14 76 -25 137 -110 137c-21 0 -38 -2 -55 -8h-2v0h-477l-45 -258c37 69 106 127 211 127z
M1304 0l45 252c-36 -71 -126 -143 -249 -143c-160 0 -256 103 -228 265c1 4 2 7 2 11c7 92 -51 155 -134 155c-128 0 -194 -105 -213 -188l-62 -352h-38l42 242c-38 -68 -111 -125 -214 -125c-123 0 -205 87 -179 232c25 140 134 226 256 226c105 0 158 -58 173 -127l45 257
h-523l6 35h1041c17 6 35 9 55 9c107 0 161 -76 143 -174c-26 -144 -150 -191 -280 -191h-79c-29 -152 51 -240 197 -240c114 0 234 82 257 212l67 384h192l-5 -35h-152l-124 -705h-41z" />
    <glyph glyph-name="dvK_DA" horiz-adv-x="1402" 
d="M589 705l-45 -257c37 70 106 127 203 127c85 0 145 -46 162 -124c57 88 159 127 267 127h93l22 127h-702zM267 152c132 0 202 105 219 185l3 20c11 85 -24 183 -153 183c-100 0 -198 -72 -219 -191c-22 -126 47 -197 150 -197zM1250 -6h-40l39 223
c-35 -58 -110 -99 -193 -99c-130 0 -210 93 -186 230v1v0c21 118 -40 191 -135 191c-118 0 -189 -106 -208 -188l-62 -352h-38l42 242c-38 -68 -111 -125 -214 -125c-123 0 -205 87 -179 232c25 140 134 226 256 226c105 0 158 -58 173 -127l45 257h-523l6 35h1466l-6 -35
h-161l-29 -163h-130c-123 0 -238 -62 -262 -195c-20 -116 44 -195 158 -195c75 0 180 46 200 162h37z" />
    <glyph glyph-name="dvK_NA" horiz-adv-x="1572" 
d="M748 575c93 0 153 -54 162 -145c42 50 107 79 183 79h344l34 196h-882l-45 -258c37 70 105 128 204 128zM267 152c132 0 202 105 219 185l3 20c11 85 -24 183 -153 183c-100 0 -198 -72 -219 -191c-22 -126 47 -197 150 -197zM1030 180c87 0 159 65 175 147
c16 86 -37 146 -124 146c-90 0 -163 -59 -179 -148c-16 -85 36 -145 128 -145zM735 540c-122 0 -189 -106 -208 -188l-62 -352h-38l42 242c-38 -68 -111 -125 -214 -125c-123 0 -205 87 -179 232c25 140 134 226 256 226c105 0 158 -58 173 -127l45 257h-523l6 35h1635
l-6 -35h-151l-124 -705h-40l84 474h-248c42 -26 69 -79 56 -150c-18 -107 -108 -179 -215 -179c-111 0 -179 76 -160 182c2 11 4 21 7 31c16 113 -43 182 -136 182z" />
    <glyph glyph-name="dvK_PA" horiz-adv-x="1385" 
d="M589 705l-45 -257c36 69 101 126 194 126c55 0 99 -23 124 -63l35 194h-308zM267 152c132 0 202 105 219 185l3 20c11 85 -24 183 -153 183c-100 0 -198 -72 -219 -191c-22 -126 47 -197 150 -197zM1034 254c105 0 177 72 199 160l51 291h-347l-44 -245
c-22 -128 25 -206 141 -206zM727 540c-113 0 -181 -105 -200 -188l-62 -352h-38l42 242c-38 -68 -111 -125 -214 -125c-123 0 -205 87 -179 232c25 140 134 226 256 226c105 0 158 -58 173 -127l45 257h-523l6 35h1449l-6 -35h-152l-123 -705h-41l57 323
c-40 -63 -107 -104 -193 -104c-120 0 -183 74 -176 194c-5 79 -53 127 -121 127z" />
    <glyph glyph-name="dvK_P_RA" horiz-adv-x="1385" 
d="M589 705l-45 -257c36 69 101 126 194 126c55 0 99 -23 124 -63l35 194h-308zM267 152c132 0 202 105 219 185l3 20c11 85 -24 183 -153 183c-100 0 -198 -72 -219 -191c-22 -126 47 -197 150 -197zM1034 254c99 0 176 72 199 159l51 292h-347l-43 -245
c-22 -128 24 -206 140 -206zM1160 0l57 325c-16 -26 -37 -48 -61 -65l-319 -264h-48l279 228c-15 -3 -31 -4 -47 -4c-118 0 -180 73 -173 194c-5 78 -53 126 -121 126c-113 0 -181 -105 -200 -188l-62 -352h-38l42 242c-38 -68 -111 -125 -214 -125c-123 0 -205 87 -179 232
c25 140 134 226 256 226c105 0 158 -58 173 -127l45 257h-523l6 35h1449l-6 -35h-151l-124 -705h-41z" />
    <glyph glyph-name="dvK_PHA" horiz-adv-x="1754" 
d="M589 705l-45 -257c36 69 102 126 197 126c66 0 117 -25 145 -69l36 200h-333zM267 152c132 0 202 105 219 185l3 20c11 85 -24 183 -153 183c-100 0 -198 -72 -219 -191c-22 -126 47 -197 150 -197zM1049 254c105 0 176 82 193 178v0l48 273h-328l-44 -246
c-22 -127 16 -205 131 -205zM729 540c-115 0 -183 -105 -202 -188l-62 -352h-38l42 242c-38 -68 -111 -125 -214 -125c-123 0 -205 87 -179 232c25 140 134 226 256 226c105 0 158 -58 173 -127l45 257h-523l6 35h1818l-7 -35h-514l-46 -260c38 71 110 130 215 130
c117 0 196 -87 172 -225c-26 -147 -132 -232 -251 -232c-22 0 -45 3 -59 7l6 33c15 -3 34 -5 52 -5c100 0 189 71 211 196c21 118 -48 191 -146 191c-132 0 -202 -108 -218 -200v0l-60 -340h-40l57 325c-39 -64 -104 -106 -187 -106c-118 0 -172 74 -164 195
c-6 79 -61 126 -143 126z" />
    <glyph glyph-name="dvKx_PHA" horiz-adv-x="1754" 
d="M589 705l-45 -257c36 69 102 126 197 126c66 0 117 -25 145 -69l36 200h-333zM267 152c132 0 202 105 219 185l3 20c11 85 -24 183 -153 183c-100 0 -198 -72 -219 -191c-22 -126 47 -197 150 -197zM1049 254c105 0 176 82 193 178v0l48 273h-328l-44 -246
c-22 -127 16 -205 131 -205zM729 540c-115 0 -183 -105 -202 -188l-62 -352h-38l42 242c-38 -68 -111 -125 -214 -125c-123 0 -205 87 -179 232c25 140 134 226 256 226c105 0 158 -58 173 -127l45 257h-523l6 35h1818l-7 -35h-514l-46 -260c38 71 110 130 215 130
c117 0 196 -87 172 -225c-26 -147 -132 -232 -251 -232c-22 0 -45 3 -59 7l6 33c15 -3 34 -5 52 -5c100 0 189 71 211 196c21 118 -48 191 -146 191c-132 0 -202 -108 -218 -200v0l-60 -340h-40l57 325c-39 -64 -104 -106 -187 -106c-118 0 -172 74 -164 195
c-6 79 -61 126 -143 126zM214 -47c-20 0 -33 15 -30 35s21 35 42 35c19 0 32 -15 29 -35s-21 -35 -41 -35z" />
    <glyph glyph-name="dvKx_PHxA" horiz-adv-x="1754" 
d="M214 -47c-20 0 -33 15 -30 35s21 35 42 35c19 0 32 -15 29 -35s-21 -35 -41 -35zM995 57c-20 0 -33 15 -30 35s21 35 42 35c19 0 32 -15 29 -35s-21 -35 -41 -35zM589 705l-45 -257c36 69 102 126 197 126c66 0 117 -25 145 -69l36 200h-333zM267 152
c132 0 202 105 219 185l3 20c11 85 -24 183 -153 183c-100 0 -198 -72 -219 -191c-22 -126 47 -197 150 -197zM1049 254c105 0 176 82 193 178v0l48 273h-328l-44 -246c-22 -127 16 -205 131 -205zM729 540c-115 0 -183 -105 -202 -188l-62 -352h-38l42 242
c-38 -68 -111 -125 -214 -125c-123 0 -205 87 -179 232c25 140 134 226 256 226c105 0 158 -58 173 -127l45 257h-523l6 35h1818l-7 -35h-514l-46 -260c38 71 110 130 215 130c117 0 196 -87 172 -225c-26 -147 -132 -232 -251 -232c-22 0 -45 3 -59 7l6 33
c15 -3 34 -5 52 -5c100 0 189 71 211 196c21 118 -48 191 -146 191c-132 0 -202 -108 -218 -200v0l-60 -340h-40l57 325c-39 -64 -104 -106 -187 -106c-118 0 -172 74 -164 195c-6 79 -61 126 -143 126z" />
    <glyph glyph-name="dvKx_BA" horiz-adv-x="1485" 
d="M267 152c132 0 202 105 219 185l3 20c11 85 -24 183 -153 183c-100 0 -198 -72 -219 -191c-22 -126 47 -197 150 -197zM214 -47c-20 0 -33 15 -30 35s21 35 42 35c19 0 32 -15 29 -35s-21 -35 -41 -35zM1386 705h-797l-45 -255c37 68 105 125 202 125
c88 0 147 -46 163 -126c51 86 142 135 241 135c113 0 174 -63 191 -136zM1262 0l43 242c-41 -72 -121 -132 -231 -132c-132 0 -228 90 -202 236v2v0c20 121 -40 192 -140 192c-110 0 -181 -93 -204 -180l-63 -360h-38l42 242c-38 -68 -111 -125 -214 -125
c-123 0 -205 87 -179 232c25 140 134 226 256 226c105 0 158 -58 173 -127l45 257h-523l6 35h1550l-7 -35h-151l-124 -705h-39zM1153 554c-56 0 -111 -19 -155 -54l257 -286c38 39 62 89 69 133c18 97 -30 207 -171 207zM1083 142c63 0 115 22 154 55l-257 287
c-36 -35 -62 -82 -72 -139c-22 -129 61 -203 175 -203z" />
    <glyph glyph-name="dvK_MA" horiz-adv-x="1560" 
d="M747 574c101 0 165 -63 166 -170c36 28 83 44 135 44h113l45 257h-617l-45 -258c37 70 105 127 203 127zM267 152c132 0 202 105 219 185l3 20c11 85 -24 183 -153 183c-100 0 -198 -72 -219 -191c-22 -126 47 -197 150 -197zM987 159c77 0 132 57 151 158l17 97h-112
c-81 0 -146 -50 -160 -128c-14 -77 32 -127 104 -127zM1414 448l45 257h-215l-45 -257h215zM733 540c-119 0 -187 -105 -206 -188l-62 -352h-38l42 242c-38 -68 -111 -125 -214 -125c-123 0 -205 87 -179 232c25 140 134 226 256 226c105 0 158 -58 173 -127l45 257h-523
l6 35h1624l-6 -35h-151l-124 -705h-41l73 414h-215l-17 -95c-22 -129 -92 -195 -192 -195c-98 0 -156 66 -139 162c4 26 13 50 26 71c17 113 -42 183 -138 183z" />
    <glyph glyph-name="dvKx_MA" horiz-adv-x="1560" 
d="M747 574c101 0 165 -63 166 -170c36 28 83 44 135 44h113l45 257h-617l-45 -258c37 70 105 127 203 127zM267 152c132 0 202 105 219 185l3 20c11 85 -24 183 -153 183c-100 0 -198 -72 -219 -191c-22 -126 47 -197 150 -197zM987 159c77 0 132 57 151 158l17 97h-112
c-81 0 -146 -50 -160 -128c-14 -77 32 -127 104 -127zM1414 448l45 257h-215l-45 -257h215zM733 540c-119 0 -187 -105 -206 -188l-62 -352h-38l42 242c-38 -68 -111 -125 -214 -125c-123 0 -205 87 -179 232c25 140 134 226 256 226c105 0 158 -58 173 -127l45 257h-523
l6 35h1624l-6 -35h-151l-124 -705h-41l73 414h-215l-17 -95c-22 -129 -92 -195 -192 -195c-98 0 -156 66 -139 162c4 26 13 50 26 71c17 113 -42 183 -138 183zM214 -47c-20 0 -33 15 -30 35s21 35 42 35c19 0 32 -15 29 -35s-21 -35 -41 -35z" />
    <glyph glyph-name="dvK_YA" horiz-adv-x="1514" 
d="M589 705l-45 -257c37 69 104 126 203 126c98 0 148 -56 159 -124c106 2 196 37 220 173l14 82h-551zM267 152c132 0 202 105 219 185l3 20c11 85 -24 183 -153 183c-100 0 -198 -72 -219 -191c-22 -126 47 -197 150 -197zM1102 164c121 0 231 82 252 207v-3l59 337h-233
l-15 -87c-27 -148 -124 -195 -251 -195c-1 -6 -2 -11 -3 -15c-28 -152 48 -244 191 -244zM733 540c-108 -1 -185 -97 -206 -186l-62 -354h-38l42 242c-38 -68 -111 -125 -214 -125c-123 0 -205 87 -179 232c25 140 134 226 256 226c105 0 158 -58 173 -127l45 257h-523l6 35
h1578l-6 -35h-152l-123 -705h-41l45 256c-41 -66 -124 -127 -243 -127c-155 0 -241 100 -223 257v0c10 74 -24 154 -135 154z" />
    <glyph glyph-name="dvK_LA" horiz-adv-x="1691" 
d="M1247 391c26 71 83 155 191 162l27 152h-876l-46 -259c37 70 105 128 204 128c84 0 144 -47 160 -128c41 67 106 108 190 108c113 0 148 -89 148 -163h2zM267 152c132 0 202 105 219 185l3 20c11 85 -24 183 -153 183c-100 0 -198 -72 -219 -191
c-22 -126 47 -197 150 -197zM735 540c-123 0 -191 -110 -209 -193l-61 -347h-38l42 242c-38 -68 -111 -125 -214 -125c-123 0 -205 87 -179 232c25 140 134 226 256 226c105 0 158 -58 173 -127l45 257h-523l6 35h1755l-6 -35h-277l-27 -152c103 -12 148 -105 127 -223
c-24 -136 -115 -239 -266 -238c-11 0 -25 1 -36 2l6 36c10 -1 21 -2 30 -2c126 0 205 88 225 203c18 103 -17 187 -119 187c-105 0 -174 -87 -198 -221l-2 -11h-35l1 11c25 131 -11 221 -114 221c-107 0 -172 -81 -190 -187c-21 -115 26 -203 153 -203c10 0 19 1 30 2
l-7 -36c-10 -1 -18 -2 -29 -2c-151 0 -213 105 -188 240c2 9 3 18 6 26c16 113 -44 182 -137 182z" />
    <glyph glyph-name="dvK_VA" horiz-adv-x="1472" 
d="M589 705l-45 -255c36 68 101 124 203 124c82 0 143 -46 160 -124c49 81 136 129 231 129c112 0 171 -57 190 -128l44 254h-783zM267 152c132 0 202 105 219 185l3 20c11 85 -24 183 -153 183c-100 0 -198 -72 -219 -191c-22 -126 47 -197 150 -197zM1074 149
c143 0 219 110 235 196c17 94 -22 200 -166 200c-108 0 -211 -74 -233 -196c-22 -127 52 -200 164 -200zM1563 705h-151l-124 -705h-39l42 242c-41 -70 -118 -127 -227 -127c-132 0 -220 88 -194 234v0c21 118 -39 191 -135 191c-125 0 -189 -107 -208 -188l-62 -352h-38
l42 242c-38 -68 -111 -125 -214 -125c-123 0 -205 87 -179 232c25 140 134 226 256 226c105 0 158 -58 173 -127l45 257h-523l6 35h1537z" />
    <glyph glyph-name="dvK_V_YA" horiz-adv-x="1960" 
d="M1150 579c120 0 185 -73 194 -155c110 1 197 36 222 173l20 108h-997l-45 -257c38 69 107 126 210 126c84 0 140 -46 155 -123c50 80 141 128 241 128zM267 152c132 0 202 105 219 185l3 20c11 85 -24 183 -153 183c-100 0 -198 -72 -219 -191c-22 -126 47 -197 150 -197
zM1072 149c141 0 213 110 234 197l3 15c1 7 2 13 3 20c0 1 1 2 1 3c7 80 -50 161 -167 161c-110 0 -215 -77 -236 -196c-22 -127 51 -200 162 -200zM1542 164c116 0 228 76 255 192l61 349h-232l-21 -113c-26 -149 -123 -197 -252 -197c-1 -7 -2 -15 -3 -21
c-24 -131 50 -210 192 -210zM742 540c-125 0 -195 -98 -215 -185l-62 -355h-38l42 242c-38 -68 -111 -125 -214 -125c-123 0 -205 87 -179 232c25 140 134 226 256 226c105 0 158 -58 173 -127l45 257h-523l6 35h2024l-7 -35h-151l-123 -705h-41l45 259
c-41 -67 -129 -130 -250 -130c-122 0 -196 54 -217 143c-40 -83 -122 -157 -248 -157c-133 0 -220 88 -195 235c0 2 1 4 1 6c18 114 -33 184 -129 184z" />
    <glyph glyph-name="dvK_SHA" horiz-adv-x="1561" 
d="M267 152c132 0 202 105 219 185l3 20c11 85 -24 183 -153 183c-100 0 -198 -72 -219 -191c-22 -126 47 -197 150 -197zM747 574c109 0 176 -77 164 -200h114c113 0 214 59 235 174c18 103 -39 165 -127 165c-20 0 -39 -3 -56 -8l-5 1v-1h-483l-45 -255
c36 68 101 124 203 124zM1009 -9c-131 0 -187 88 -164 218l27 155c14 109 -45 176 -139 176c-126 0 -187 -103 -206 -187l-62 -353h-38l42 242c-38 -68 -111 -125 -214 -125c-123 0 -205 87 -179 232c25 140 134 226 256 226c105 0 158 -58 173 -127l45 257h-523l6 35h1046
v0c19 6 38 9 57 9c114 0 187 -81 163 -207c-25 -135 -136 -203 -271 -203h-119l-23 -133c-19 -104 19 -179 124 -179c92 0 161 69 178 176h40c-18 -120 -92 -212 -219 -212zM1336 0l130 740h192l-6 -35h-152l-123 -705h-41z" />
    <glyph glyph-name="dvK_SS_MA" horiz-adv-x="1265" 
d="M690 140c76 0 133 58 150 158l17 97h-112c-81 0 -145 -50 -159 -128c-14 -77 32 -127 104 -127zM1115 429l49 276h-215l-48 -276h214zM183 581c-16 -94 52 -148 152 -151c64 35 118 78 131 151c14 84 -43 133 -119 133c-73 0 -150 -48 -164 -133zM323 -50l29 168
c-13 -29 -67 -88 -161 -88c-102 0 -155 69 -139 160c21 121 133 166 235 216c-87 13 -159 75 -141 178c18 107 112 166 206 166s169 -61 150 -164c-13 -75 -61 -121 -117 -157h478l48 276h-287l7 35h731l-6 -35h-151l-124 -705h-41l69 395h-214l-16 -95
c-23 -129 -92 -195 -193 -195c-98 0 -156 66 -139 162c10 58 42 102 86 130h-301c-104 -52 -217 -89 -238 -201c-13 -73 27 -132 112 -132c88 0 151 64 164 142h36l-45 -256h-38z" />
    <glyph glyph-name="dvK_SS_M_YA" horiz-adv-x="1732" 
d="M183 581c-16 -94 52 -148 152 -151c64 35 118 78 131 151c14 84 -43 133 -119 133c-73 0 -150 -48 -164 -133zM323 -50l29 168c-13 -29 -67 -88 -161 -88c-102 0 -155 69 -139 160c21 121 133 166 235 216c-87 13 -159 75 -141 178c18 107 112 166 206 166
s169 -61 150 -164c-13 -76 -61 -122 -118 -158h479l49 277h-288l6 35h1199l-7 -35h-151l-123 -705h-41l45 255c-43 -73 -128 -153 -248 -153c-162 0 -249 111 -218 282c0 3 1 6 1 9h-191l-17 -94c-23 -129 -93 -195 -193 -195c-98 0 -156 66 -139 162c10 58 43 103 88 131
h-303c-104 -52 -217 -89 -238 -201c-13 -73 27 -132 112 -132c88 0 151 64 164 142h36l-45 -256h-38zM689 139c77 0 133 57 151 158l17 96h-112c-81 0 -146 -49 -160 -127c-13 -77 32 -127 104 -127zM1118 428c104 0 197 32 225 195l15 82h-407l-49 -277h216zM1315 137
c119 0 232 106 256 228l59 340h-232l-15 -87c-31 -178 -132 -222 -255 -222c-2 -6 -3 -11 -4 -14c-28 -153 48 -245 191 -245z" />
    <glyph glyph-name="dvK_SS_YA" horiz-adv-x="1221" 
d="M809 164c118 0 227 79 251 201l59 340h-232l-14 -87c-28 -174 -126 -219 -256 -221c-1 -6 -2 -11 -3 -14c-28 -144 51 -219 195 -219zM183 581c-16 -94 52 -148 152 -151c64 35 118 78 131 151c14 84 -43 133 -119 133c-73 0 -150 -48 -164 -133zM323 -50l29 168
c-13 -29 -67 -88 -161 -88c-102 0 -155 69 -139 160c21 121 133 166 235 216c-87 13 -159 75 -141 178c18 107 112 166 206 166s169 -61 150 -164c-13 -76 -61 -122 -118 -158h222c103 0 200 27 226 190l15 87h-214l6 35h679l-7 -35h-151l-123 -705h-41l45 256
c-41 -66 -124 -127 -243 -127c-163 0 -253 90 -223 254c1 5 2 9 3 14h-246c-104 -52 -217 -89 -238 -201c-13 -73 27 -132 112 -132c88 0 151 64 164 142h36l-45 -256h-38z" />
    <glyph glyph-name="dvK_SS_VA" horiz-adv-x="1171" 
d="M183 581c-16 -94 53 -149 152 -151c65 35 118 78 131 151c14 84 -43 133 -119 133c-73 0 -150 -48 -164 -133zM323 -50l29 168c-13 -29 -67 -88 -161 -88c-102 0 -155 69 -139 160c22 121 133 166 235 216c-87 13 -159 75 -141 178c18 107 112 166 206 166
s169 -61 150 -164c-13 -75 -61 -121 -117 -157h209c46 94 141 150 244 150c113 0 172 -57 188 -130l45 256h-441l6 35h632l-6 -35h-151l-124 -705h-40l43 242c-42 -70 -119 -127 -227 -127c-132 0 -220 88 -194 237c3 16 7 31 12 45h-249c-104 -52 -217 -89 -238 -201
c-13 -73 27 -132 112 -132c88 0 151 64 164 142h36l-45 -256h-38zM773 149c138 0 213 102 233 187l4 22c11 90 -31 187 -168 187c-108 0 -212 -74 -234 -196c-21 -127 52 -200 165 -200z" />
    <glyph glyph-name="dvK_SA" horiz-adv-x="1595" 
d="M986 410c118 0 199 74 221 190l19 105h-637l-46 -259c36 69 102 127 205 127s169 -66 168 -163h70zM267 152c132 0 202 105 219 185l3 20c11 85 -24 183 -153 183c-100 0 -198 -72 -219 -191c-22 -126 47 -197 150 -197zM1246 600c-18 -102 -73 -160 -131 -188h328
l51 293h-229zM1216 201c-17 -119 -88 -210 -210 -210c-124 0 -182 89 -160 216l29 162h-1c18 101 -42 171 -138 171c-126 0 -191 -108 -208 -184l-63 -356h-38l42 242c-38 -68 -111 -125 -214 -125c-123 0 -205 87 -179 232c25 140 134 226 256 226c105 0 158 -58 173 -127
l45 257h-523l6 35h1659l-6 -35h-152l-123 -705h-41l67 378h-521l-30 -174c-18 -104 21 -177 123 -177c96 0 153 75 168 174h39z" />
    <glyph glyph-name="dvK_S_TTA" horiz-adv-x="1969" 
d="M986 410c118 0 199 74 221 190l19 105h-637l-46 -259c36 69 102 127 205 127s169 -66 168 -163h70zM267 152c132 0 202 105 219 185l3 20c11 85 -24 183 -153 183c-100 0 -198 -72 -219 -191c-22 -126 47 -197 150 -197zM1246 600c-18 -102 -73 -160 -131 -188h305
c59 105 170 154 298 154h42l25 139h-520zM1216 201c-17 -119 -88 -210 -210 -210c-124 0 -182 89 -160 216l29 162h-1c18 101 -42 171 -138 171c-126 0 -191 -108 -208 -184l-63 -356h-38l42 242c-38 -68 -111 -125 -214 -125c-123 0 -205 87 -179 232
c25 140 134 226 256 226c105 0 158 -58 173 -127l45 257h-523l6 35h2033l-6 -35h-235l-32 -174h-79c-139 0 -262 -72 -289 -225c-23 -125 58 -214 187 -214c131 0 231 92 253 222h39c-26 -152 -139 -258 -298 -258c-149 0 -249 104 -222 252c5 25 11 49 20 70h-488l-30 -174
c-18 -104 21 -177 123 -177c96 0 153 75 168 174h39z" />
    <glyph glyph-name="dvK_S_DDA" horiz-adv-x="1916" 
d="M986 410c118 0 199 74 221 190l19 105h-637l-46 -259c36 69 102 127 205 127s169 -66 168 -163h70zM267 152c132 0 202 105 219 185l3 20c11 85 -24 183 -153 183c-100 0 -198 -72 -219 -191c-22 -126 47 -197 150 -197zM1246 600c-18 -102 -73 -160 -132 -188h329
c0 3 0 7 1 10c19 106 117 135 203 135h139l27 148h-548zM1591 -11c-153 0 -224 86 -205 193h40c-15 -88 35 -160 169 -160c107 0 174 58 187 130c18 105 -65 134 -148 134h-43c-70 0 -137 27 -148 92h-527l-30 -174c-18 -104 21 -177 123 -177c95 0 153 75 167 174h40
c-17 -119 -89 -210 -211 -210c-123 0 -181 89 -159 216l29 162h-1c18 101 -42 171 -138 171c-126 0 -191 -108 -208 -184l-63 -356h-38l42 242c-38 -68 -111 -125 -214 -125c-123 0 -205 87 -179 232c25 140 134 226 256 226c105 0 158 -58 173 -127l45 257h-523l6 35h1980
l-6 -35h-155l-32 -179h-164c-69 0 -155 -17 -172 -105c-13 -78 47 -104 117 -104h44c101 0 198 -44 176 -166c-17 -92 -95 -162 -230 -162z" />
    <glyph glyph-name="dvK_S_TA" horiz-adv-x="2001" 
d="M986 410c118 0 199 74 221 190l19 105h-637l-46 -259c36 69 102 127 205 127s169 -66 168 -163h70zM267 152c132 0 202 105 219 185l3 20c11 85 -24 183 -153 183c-100 0 -198 -72 -219 -191c-22 -126 47 -197 150 -197zM1246 600c-18 -102 -73 -160 -131 -188h337
c60 61 149 89 252 89h161l36 204h-636zM1216 201c-17 -119 -88 -210 -210 -210c-124 0 -182 89 -160 216l29 162h-1c18 101 -42 171 -138 171c-126 0 -191 -108 -208 -184l-63 -356h-38l42 242c-38 -68 -111 -125 -214 -125c-123 0 -205 87 -179 232c25 140 134 226 256 226
c105 0 158 -58 173 -127l45 257h-523l6 35h2066l-7 -35h-151l-124 -705h-40l82 465h-159c-149 0 -259 -67 -285 -214c-24 -137 43 -215 186 -215h23l-6 -34h-25c-155 0 -247 89 -219 250c9 50 26 92 50 126h-508l-30 -174c-18 -104 21 -177 123 -177c96 0 153 75 168 174h39
z" />
    <glyph glyph-name="dvK_S_P_RA" horiz-adv-x="1958" 
d="M986 410c118 0 199 74 221 190l19 105h-637l-46 -259c36 69 102 127 205 127s169 -66 168 -163h70zM267 152c132 0 202 105 219 185l3 20c11 85 -24 183 -153 183c-100 0 -198 -72 -219 -191c-22 -126 47 -197 150 -197zM1246 600c-18 -102 -73 -160 -132 -188h307
c0 15 2 31 5 48l44 245h-205zM1607 254c99 0 176 72 199 159l51 292h-347l-43 -245c-22 -128 24 -206 140 -206zM1216 201c-17 -119 -89 -210 -211 -210c-123 0 -181 89 -159 216l29 162h-1c18 101 -42 171 -138 171c-126 0 -191 -108 -208 -184l-63 -356h-38l42 242
c-38 -68 -111 -125 -214 -125c-123 0 -205 87 -179 232c25 140 134 226 256 226c105 0 158 -58 173 -127l45 257h-523l6 35h2022l-6 -35h-151l-124 -705h-41l57 325c-16 -26 -37 -48 -61 -65l-319 -264h-48l279 228c-15 -3 -31 -4 -47 -4c-106 0 -166 59 -173 158h-505
l-30 -174c-18 -104 21 -177 123 -177c95 0 153 75 167 174h40z" />
    <glyph glyph-name="dvK_S_P_LA" horiz-adv-x="2582" 
d="M986 410c118 0 199 74 221 190l19 105h-637l-46 -259c36 69 102 127 205 127s169 -66 168 -163h70zM267 152c132 0 202 105 219 185l3 20c11 85 -24 183 -153 183c-100 0 -198 -72 -219 -191c-22 -126 47 -197 150 -197zM1246 600c-18 -102 -73 -160 -132 -188h307
c1 15 3 31 6 48l44 245h-206zM1594 254c88 0 146 54 174 124c33 107 111 176 220 176c113 0 148 -89 148 -163h2c26 71 83 155 191 162l27 152h-845l-44 -245c-22 -128 12 -206 127 -206zM1216 201c-17 -119 -89 -210 -211 -210c-123 0 -181 89 -159 216l29 162h-1
c18 101 -42 171 -138 171c-126 0 -191 -108 -208 -184l-63 -356h-38l42 242c-38 -68 -111 -125 -214 -125c-123 0 -205 87 -179 232c25 140 134 226 256 226c105 0 158 -58 173 -127l45 257h-523l6 35h2646l-6 -35h-277l-27 -152c103 -12 148 -105 127 -223
c-24 -136 -115 -239 -266 -238c-11 0 -25 1 -36 2l6 36c10 -1 21 -2 30 -2c126 0 205 88 225 203c18 103 -17 187 -119 187c-105 0 -174 -87 -198 -221l-2 -11h-35l1 11c25 131 -11 221 -114 221c-107 0 -172 -81 -190 -187c-21 -115 26 -203 153 -203c10 0 19 1 30 2
l-7 -36c-10 -1 -18 -2 -29 -2c-136 0 -200 85 -193 201c-38 -46 -94 -74 -164 -74c-110 0 -163 59 -167 159h-505l-30 -174c-18 -104 21 -177 123 -177c95 0 153 75 167 174h40z" />
    <glyph glyph-name="dvKH_KHA" horiz-adv-x="1594" 
d="M1369 0l46 259c-35 -59 -99 -108 -189 -108c-15 0 -29 2 -42 4c-48 -83 -134 -156 -249 -156c-138 0 -215 85 -191 225l1 8c-45 -52 -111 -81 -186 -81c-18 0 -35 2 -50 5c-44 -83 -128 -157 -243 -157c-141 0 -223 86 -198 225l31 172h40c73 0 153 27 176 162l26 147
h-314l6 35h1658l-7 -35h-151l-123 -705h-41zM565 185c104 0 184 67 202 169c18 104 -38 171 -142 171c-103 0 -184 -67 -202 -171c-18 -102 38 -169 142 -169zM1238 184c117 0 180 95 193 170c15 78 -18 171 -138 171c-91 0 -175 -62 -194 -167c-19 -111 46 -174 139 -174z
M267 35c98 0 169 61 208 131c-70 29 -105 96 -89 188c22 126 119 204 244 204c111 0 179 -62 176 -165h9c69 0 153 28 176 165l26 147h-636l-26 -151c-27 -152 -118 -190 -210 -190h-12l-25 -143c-20 -112 41 -186 159 -186zM943 35c93 0 169 61 208 131
c-66 29 -104 99 -88 195c21 123 119 198 229 197c94 0 142 -49 156 -108l45 255h-436l-26 -151c-27 -152 -118 -190 -210 -190h-12l-25 -143c-20 -112 41 -186 159 -186z" />
    <glyph glyph-name="dvKH_TA" horiz-adv-x="1364" 
d="M565 185c104 0 184 67 202 169c18 104 -38 171 -142 171c-103 0 -184 -67 -202 -171c-18 -102 38 -169 142 -169zM267 35c98 0 169 61 208 131c-70 28 -105 96 -89 188c22 126 118 204 243 204c109 0 175 -58 176 -159c60 70 152 102 261 102h161l36 204h-882l-26 -151
c-27 -152 -118 -190 -210 -190h-12l-25 -143c-20 -112 41 -186 159 -186zM558 151c-18 0 -34 2 -50 5c-43 -83 -127 -157 -242 -157c-141 0 -222 86 -198 225l31 172h40c73 0 153 27 176 162l26 147h-314l6 35h1428l-7 -35h-150l-124 -705h-41l82 465h-159
c-149 0 -259 -67 -285 -214c-23 -137 43 -215 186 -215h23l-6 -34h-24c-146 0 -232 78 -220 220c-44 -46 -107 -71 -178 -71z" />
    <glyph glyph-name="dvKHx_TA" horiz-adv-x="1364" 
d="M222 -165c-20 0 -33 15 -30 35s21 35 42 35c19 0 32 -15 29 -35s-21 -35 -41 -35zM565 185c104 0 184 67 202 169c18 104 -38 171 -142 171c-103 0 -184 -67 -202 -171c-18 -102 38 -169 142 -169zM267 35c98 0 169 61 208 131c-70 28 -105 96 -89 188
c22 126 118 204 243 204c109 0 175 -58 176 -159c60 70 152 102 261 102h161l36 204h-882l-26 -151c-27 -152 -118 -190 -210 -190h-12l-25 -143c-20 -112 41 -186 159 -186zM558 151c-18 0 -34 2 -50 5c-43 -83 -127 -157 -242 -157c-141 0 -222 86 -198 225l31 172h40
c73 0 153 27 176 162l26 147h-314l6 35h1428l-7 -35h-150l-124 -705h-41l82 465h-159c-149 0 -259 -67 -285 -214c-23 -137 43 -215 186 -215h23l-6 -34h-24c-146 0 -232 78 -220 220c-44 -46 -107 -71 -178 -71z" />
    <glyph glyph-name="dvKH_NA" horiz-adv-x="1468" 
d="M927 180c87 0 159 65 175 147c17 86 -37 146 -124 146c-90 0 -163 -59 -179 -148c-15 -85 36 -145 128 -145zM565 185c104 0 184 67 202 169c18 104 -38 171 -142 171c-103 0 -184 -67 -202 -171c-18 -102 38 -169 142 -169zM267 35c98 0 169 61 208 131
c-70 29 -105 96 -89 188c22 126 118 204 243 204c101 0 165 -51 175 -137c41 56 107 88 187 88h343l34 196h-987l-26 -151c-27 -152 -118 -190 -210 -190h-12l-25 -143c-20 -112 41 -186 159 -186zM559 151c-18 0 -35 2 -50 5c-44 -83 -128 -157 -243 -157
c-141 0 -223 86 -198 225l31 172h40c73 0 153 27 176 162l26 147h-314l6 35h1533l-7 -35h-151l-124 -705h-40l84 474h-248c42 -26 69 -79 56 -150c-18 -107 -108 -179 -215 -179c-85 0 -143 44 -157 112c-44 -67 -118 -106 -205 -106z" />
    <glyph glyph-name="dvKH_MA" horiz-adv-x="1464" 
d="M891 159c77 0 132 57 151 158l17 97h-112c-81 0 -146 -50 -160 -128c-13 -77 32 -127 104 -127zM565 185c104 0 184 67 202 169c18 104 -38 171 -142 171c-103 0 -184 -67 -202 -171c-18 -102 38 -169 142 -169zM1318 448l45 257h-214l-45 -257h214zM267 35
c98 0 169 61 208 131c-70 29 -105 96 -89 188c22 126 118 204 243 204c112 0 179 -63 176 -166c37 36 88 56 147 56h113l45 257h-729l-26 -151c-27 -152 -118 -190 -210 -190h-12l-25 -143c-20 -112 41 -186 159 -186zM559 151c-18 0 -35 2 -50 5
c-44 -83 -128 -157 -243 -157c-141 0 -223 86 -198 225l31 172h40c73 0 153 27 176 162l26 147h-314l6 35h1528l-6 -35h-151l-124 -705h-41l73 414h-214l-17 -95c-23 -130 -92 -195 -191 -195c-79 0 -133 43 -141 113c-45 -55 -112 -86 -190 -86z" />
    <glyph glyph-name="dvKHx_MA" horiz-adv-x="1464" 
d="M217 -164c-20 0 -33 15 -30 35s21 35 42 35c19 0 32 -15 29 -35s-21 -35 -41 -35zM565 185c104 0 184 67 202 169c18 104 -38 171 -142 171c-103 0 -184 -67 -202 -171c-18 -102 38 -169 142 -169zM891 159c77 0 132 57 151 158l17 97h-112c-81 0 -146 -50 -160 -128
c-13 -77 32 -127 104 -127zM1318 448l45 257h-214l-45 -257h214zM267 35c98 0 169 61 208 131c-70 29 -105 96 -89 188c22 126 118 204 243 204c112 0 179 -63 176 -166c37 36 88 56 147 56h113l45 257h-729l-26 -151c-27 -152 -118 -190 -210 -190h-12l-25 -143
c-20 -112 41 -186 159 -186zM559 151c-18 0 -35 2 -50 5c-44 -83 -128 -157 -243 -157c-141 0 -223 86 -198 225l31 172h40c73 0 153 27 176 162l26 147h-314l6 35h1528l-6 -35h-151l-124 -705h-41l73 414h-214l-17 -95c-23 -130 -92 -195 -191 -195c-79 0 -133 43 -141 113
c-45 -55 -112 -86 -190 -86z" />
    <glyph glyph-name="dvKH_YA" horiz-adv-x="1416" 
d="M565 185c104 0 184 67 202 169c18 104 -38 171 -142 171c-103 0 -184 -67 -202 -171c-18 -102 38 -169 142 -169zM267 35c98 0 169 61 208 131c-70 29 -105 96 -89 188c22 126 119 204 244 204c102 0 168 -53 176 -143c104 2 201 47 221 184l15 106h-661l-26 -151
c-27 -152 -118 -190 -210 -190h-12l-25 -143c-20 -112 41 -186 159 -186zM1004 164c120 0 232 82 252 207v-3l59 337h-233l-16 -111c-21 -149 -128 -206 -255 -206c-1 -7 -2 -13 -3 -17c-16 -117 52 -207 196 -207zM559 151c-18 0 -35 2 -50 5c-44 -83 -128 -157 -243 -157
c-141 0 -223 86 -198 225l31 172h40c73 0 153 27 176 162l26 147h-314l6 35h1480l-6 -35h-152l-123 -705h-41l45 256c-41 -66 -124 -127 -243 -127c-121 0 -195 60 -217 146c-42 -78 -123 -124 -217 -124z" />
    <glyph glyph-name="dvKHx_YA" horiz-adv-x="1416" 
d="M221 -165c-20 0 -33 15 -30 35s21 35 42 35c19 0 32 -15 29 -35s-21 -35 -41 -35zM565 185c104 0 184 67 202 169c18 104 -38 171 -142 171c-103 0 -184 -67 -202 -171c-18 -102 38 -169 142 -169zM267 35c98 0 169 61 208 131c-70 29 -105 96 -89 188
c22 126 119 204 244 204c102 0 168 -53 176 -143c104 2 201 47 221 184l15 106h-661l-26 -151c-27 -152 -118 -190 -210 -190h-12l-25 -143c-20 -112 41 -186 159 -186zM1004 164c120 0 232 82 252 207v-3l59 337h-233l-16 -111c-21 -149 -128 -206 -255 -206
c-1 -7 -2 -13 -3 -17c-16 -117 52 -207 196 -207zM559 151c-18 0 -35 2 -50 5c-44 -83 -128 -157 -243 -157c-141 0 -223 86 -198 225l31 172h40c73 0 153 27 176 162l26 147h-314l6 35h1480l-6 -35h-152l-123 -705h-41l45 256c-41 -66 -124 -127 -243 -127
c-121 0 -195 60 -217 146c-42 -78 -123 -124 -217 -124z" />
    <glyph glyph-name="dvKH_VA" horiz-adv-x="1366" 
d="M1142 0l43 242c-42 -70 -119 -127 -227 -127c-102 0 -177 52 -193 144c-44 -69 -119 -108 -208 -108c-17 0 -33 2 -49 5c-43 -83 -127 -157 -242 -157c-141 0 -223 86 -198 225l31 172h40c73 0 153 27 176 162l26 147h-314l6 35h1430l-6 -35h-151l-124 -705h-40zM565 185
c104 0 184 67 202 169c18 104 -38 171 -142 171c-103 0 -184 -67 -202 -171c-18 -102 38 -169 142 -169zM267 35c97 0 169 61 208 131c-70 28 -105 96 -89 188c22 126 118 204 242 204c92 0 154 -42 172 -114c48 85 136 135 232 135c112 0 171 -57 189 -127l45 253h-885
l-26 -151c-27 -152 -118 -190 -210 -190h-12l-25 -143c-20 -112 41 -186 159 -186zM968 149c138 0 213 102 233 187l4 22c11 90 -31 187 -168 187c-108 0 -211 -74 -233 -196c-22 -127 52 -200 164 -200z" />
    <glyph glyph-name="dvKHx_VA" horiz-adv-x="1366" 
d="M221 -165c-20 0 -33 15 -30 35s21 35 42 35c19 0 32 -15 29 -35s-21 -35 -41 -35zM565 185c104 0 184 67 202 169c18 104 -38 171 -142 171c-103 0 -184 -67 -202 -171c-18 -102 38 -169 142 -169zM1142 0l43 242c-42 -70 -119 -127 -227 -127c-102 0 -177 52 -193 144
c-44 -69 -119 -108 -208 -108c-17 0 -33 2 -49 5c-43 -83 -127 -157 -242 -157c-141 0 -223 86 -198 225l31 172h40c73 0 153 27 176 162l26 147h-314l6 35h1430l-6 -35h-151l-124 -705h-40zM267 35c97 0 169 61 208 131c-70 28 -105 96 -89 188c22 126 118 204 242 204
c92 0 154 -42 172 -114c48 85 136 135 232 135c112 0 171 -57 189 -127l45 253h-885l-26 -151c-27 -152 -118 -190 -210 -190h-12l-25 -143c-20 -112 41 -186 159 -186zM968 149c138 0 213 102 233 187l4 22c11 90 -31 187 -168 187c-108 0 -211 -74 -233 -196
c-22 -127 52 -200 164 -200z" />
    <glyph glyph-name="dvKH_SHA" horiz-adv-x="1454" 
d="M267 35c98 0 169 61 208 131c-71 28 -105 96 -89 188c22 126 118 204 243 204c119 0 188 -70 175 -184h114c117 0 215 59 235 174c18 103 -33 165 -128 165c-18 0 -38 -3 -56 -8h-588l-26 -151c-27 -152 -118 -190 -210 -190h-12l-25 -143c-20 -112 41 -186 159 -186z
M899 -9c-123 0 -186 82 -159 220l4 20c-45 -51 -111 -80 -186 -80c-18 0 -34 2 -50 5c-43 -83 -127 -157 -242 -157c-141 0 -223 86 -198 225l31 172h40c73 0 153 27 176 162l26 147h-314l6 35h937c18 6 40 9 61 9c118 0 185 -74 162 -203c-24 -136 -137 -207 -272 -207
h-119l-23 -133c-19 -102 17 -179 124 -179c91 0 158 66 176 164l2 12h40c-1 -5 -2 -9 -2 -12c-21 -122 -100 -200 -220 -200zM565 185c104 0 184 67 202 169c18 104 -38 171 -142 171c-103 0 -184 -67 -202 -171c-18 -102 38 -169 142 -169zM1229 0l130 740h192l-6 -35h-151
l-124 -705h-41z" />
    <glyph glyph-name="dvKHx_SHA" horiz-adv-x="1454" 
d="M221 -165c-20 0 -33 15 -30 35s21 35 42 35c19 0 32 -15 29 -35s-21 -35 -41 -35zM565 185c104 0 184 67 202 169c18 104 -38 171 -142 171c-103 0 -184 -67 -202 -171c-18 -102 38 -169 142 -169zM267 35c98 0 169 61 208 131c-71 28 -105 96 -89 188
c22 126 118 204 243 204c119 0 188 -70 175 -184h114c117 0 215 59 235 174c18 103 -33 165 -128 165c-18 0 -38 -3 -56 -8h-588l-26 -151c-27 -152 -118 -190 -210 -190h-12l-25 -143c-20 -112 41 -186 159 -186zM899 -9c-123 0 -186 82 -159 220l4 20
c-45 -51 -111 -80 -186 -80c-18 0 -34 2 -50 5c-43 -83 -127 -157 -242 -157c-141 0 -223 86 -198 225l31 172h40c73 0 153 27 176 162l26 147h-314l6 35h937c18 6 40 9 61 9c118 0 185 -74 162 -203c-24 -136 -137 -207 -272 -207h-119l-23 -133c-19 -102 17 -179 124 -179
c91 0 158 66 176 164l2 12h40c-1 -5 -2 -9 -2 -12c-21 -122 -100 -200 -220 -200zM1229 0l130 740h192l-6 -35h-151l-124 -705h-41z" />
    <glyph glyph-name="dvKHx_SA" horiz-adv-x="1491" 
d="M221 -165c-20 0 -33 15 -30 35s21 35 42 35c19 0 32 -15 29 -35s-21 -35 -41 -35zM565 185c104 0 184 67 202 169c18 104 -38 171 -142 171c-103 0 -184 -67 -202 -171c-18 -102 38 -169 142 -169zM267 35c98 0 169 61 208 131c-70 29 -105 96 -89 188
c22 126 119 204 244 204c105 0 172 -55 178 -148h74c118 0 199 74 221 190l19 105h-741l-26 -151c-27 -152 -118 -190 -210 -190h-12l-25 -143c-20 -112 41 -186 159 -186zM1142 600c-18 -102 -73 -160 -131 -188h328l51 293h-229zM1112 201c-17 -119 -88 -210 -210 -210
c-124 0 -182 89 -160 216l4 24c-45 -51 -112 -80 -187 -80c-18 0 -35 2 -50 5c-44 -83 -128 -157 -243 -157c-141 0 -223 86 -198 225l31 172h40c73 0 153 27 176 162l26 147h-314l6 35h1555l-6 -35h-152l-123 -705h-41l67 378h-521l-30 -174c-18 -104 21 -177 123 -177
c96 0 153 75 168 174h39z" />
    <glyph glyph-name="dvG_GA" horiz-adv-x="1125" 
d="M900 0l124 705h-208l-52 -296c-14 -82 -64 -153 -165 -153c-96 0 -132 70 -118 150l6 30h40l-6 -31c-10 -54 5 -114 81 -114c79 0 111 60 121 117l52 297h-379l-52 -296c-14 -82 -64 -153 -165 -153c-96 0 -132 70 -118 150l6 30h40l-6 -31c-10 -54 5 -114 81 -114
c79 0 111 60 121 117l52 297h-328l6 35h1189l-6 -35h-152l-123 -705h-41z" />
    <glyph glyph-name="dvG_GHA" horiz-adv-x="1118" 
d="M688 147c127 0 245 88 268 215v0l60 343h-404l-17 -92c-16 -92 23 -143 138 -143h52l-6 -34h-54c-128 0 -191 -62 -205 -138c-18 -103 58 -151 168 -151zM933 0h-40l45 255c-54 -87 -152 -143 -263 -143c-130 0 -217 63 -196 183c17 93 96 148 176 157v2
c-68 9 -119 53 -101 158l17 93h-175l-52 -296c-14 -82 -64 -153 -165 -153c-96 0 -132 70 -118 150l6 30h40l-6 -31c-10 -54 5 -114 81 -114c79 0 111 60 121 117l52 297h-328l6 35h1181l-6 -35h-151z" />
    <glyph glyph-name="dvG_JA" horiz-adv-x="1232" 
d="M1048 0h-41l83 470h-232l-24 -133c-20 -110 -97 -189 -210 -188c-102 1 -157 81 -138 189l30 168h40l-29 -169c-16 -89 23 -152 104 -152c84 0 147 63 163 152l30 169h273l35 199h-736l-52 -296c-14 -82 -64 -153 -165 -153c-96 0 -132 70 -118 150l6 30h40l-6 -31
c-10 -54 5 -114 81 -114c79 0 111 60 121 117l52 297h-328l6 35h1296l-6 -35h-151z" />
    <glyph glyph-name="dvG_NNA" horiz-adv-x="1256" 
d="M670 241c84 0 144 62 159 149l55 315h-265l-56 -315c-15 -87 25 -149 107 -149zM1071 0h-40l124 705h-231l-55 -312c-19 -109 -91 -187 -200 -187c-108 0 -166 77 -145 187l55 312h-183l-52 -296c-14 -82 -64 -153 -165 -153c-96 0 -132 70 -118 150l6 30h40l-6 -31
c-10 -54 5 -114 81 -114c79 0 111 60 121 117l52 297h-328l6 35h1320l-7 -35h-151z" />
    <glyph glyph-name="dvG_DA" horiz-adv-x="1020" 
d="M868 -6h-40l39 223c-35 -58 -110 -99 -193 -99c-130 0 -210 93 -186 230c29 162 163 230 306 230h93l22 127h-513l-52 -296c-14 -82 -64 -153 -165 -153c-96 0 -132 70 -118 150l6 30h40l-6 -31c-10 -54 5 -114 81 -114c79 0 111 60 121 117l52 297h-328l6 35h1084
l-6 -35h-161l-29 -163h-130c-123 0 -238 -62 -262 -195c-20 -116 44 -195 158 -195c75 0 180 46 200 162h37z" />
    <glyph glyph-name="dvG_DHA" horiz-adv-x="1108" 
d="M669 110c-113 0 -201 62 -181 172c17 91 88 136 152 143v3c-65 13 -120 65 -102 163c8 46 30 86 63 114h-205l-52 -296c-14 -82 -64 -153 -165 -153c-96 0 -132 70 -118 150l6 30h40l-6 -31c-10 -54 5 -114 81 -114c79 0 111 60 121 117l52 297h-328l6 35h632
c19 6 39 9 60 9c105 0 156 -72 126 -182h-34c25 91 -13 147 -96 147c-75 0 -136 -56 -147 -127c-16 -85 31 -142 138 -142h59l-6 -34h-54c-109 0 -170 -56 -182 -126c-15 -92 57 -140 153 -140c126 0 243 90 266 221v0l60 339v0l5 35h192l-6 -35h-151l-124 -705h-41l45 254
c-52 -88 -148 -144 -259 -144z" />
    <glyph glyph-name="dvG_DH_YA" horiz-adv-x="1590" 
d="M1178 164c118 0 227 79 251 201l59 340h-232l-16 -87c-26 -148 -123 -195 -250 -195c-1 -6 -2 -11 -3 -15c-29 -152 47 -244 191 -244zM676 109c-114 0 -208 62 -188 175c17 89 88 135 152 141v3c-65 13 -120 65 -102 163c8 46 30 86 63 114h-205l-52 -296
c-14 -82 -64 -153 -165 -153c-96 0 -132 70 -118 150l6 30h40l-6 -31c-10 -54 5 -114 81 -114c79 0 111 60 121 117l52 297h-328l6 35h632c19 6 39 9 60 9c105 0 156 -72 126 -182h-34c25 91 -13 147 -96 147c-75 0 -136 -56 -147 -127c-16 -85 31 -142 138 -142h59l-6 -34
h-54c-109 0 -168 -57 -182 -128c-17 -90 59 -138 151 -138c132 0 240 96 265 244c1 8 2 15 3 22c2 12 5 27 9 39h16c110 0 203 34 228 173l15 82h-207l6 35h672l-7 -35h-151l-124 -705h-40l45 256c-41 -66 -125 -127 -244 -127c-121 0 -201 62 -220 166
c-48 -114 -145 -186 -270 -186z" />
    <glyph glyph-name="dvG_DH_VA" horiz-adv-x="1555" 
d="M676 109c-122 0 -208 58 -188 172c17 92 88 138 152 144v3c-65 13 -120 65 -102 163c8 46 30 86 63 114h-205l-52 -296c-14 -82 -64 -153 -165 -153c-96 0 -132 70 -118 150l6 30h40l-6 -31c-10 -54 5 -114 81 -114c79 0 111 60 121 117l52 297h-328l6 35h632
c19 6 39 9 60 9c105 0 156 -72 126 -182h-34c25 91 -13 147 -96 147c-75 0 -136 -56 -147 -127c-16 -85 31 -142 138 -142h59l-6 -34h-54c-109 0 -169 -57 -182 -128c-17 -96 59 -138 155 -138c132 0 229 72 270 212c27 137 141 222 268 222c113 0 172 -58 188 -131l45 257
h-446l6 35h637l-6 -35h-152l-123 -705h-40l43 242c-42 -70 -119 -127 -228 -127c-106 0 -183 57 -196 158c-54 -106 -147 -164 -274 -164zM1156 149c143 0 220 110 235 196c17 94 -22 200 -165 200c-108 0 -212 -74 -234 -196c-22 -127 52 -200 164 -200z" />
    <glyph glyph-name="dvG_NA" horiz-adv-x="1192" 
d="M650 180c87 0 159 65 175 147c16 86 -37 146 -124 146c-90 0 -163 -59 -179 -148c-16 -85 36 -145 128 -145zM1007 0h-40l84 474h-248c42 -26 69 -79 56 -150c-18 -107 -108 -179 -215 -179c-111 0 -179 76 -160 182c19 112 110 182 229 182h344l34 196h-695l-52 -296
c-14 -82 -64 -153 -165 -153c-96 0 -132 70 -118 150l6 30h40l-6 -31c-10 -54 5 -114 81 -114c79 0 111 60 121 117l52 297h-328l6 35h1255l-6 -35h-151z" />
    <glyph glyph-name="dvG_N_YA" horiz-adv-x="1655" 
d="M645 140c87 0 160 65 175 147c17 86 -36 146 -124 146c-90 0 -162 -59 -179 -147c-15 -86 36 -146 128 -146zM1243 164c115 0 221 74 249 189l62 352h-233l-15 -87c-23 -134 -116 -181 -252 -183c-1 -3 -1 -6 -2 -9c-28 -147 46 -262 191 -262zM1471 0h-41l45 256
c-40 -66 -123 -127 -242 -127c-161 0 -251 126 -219 300c0 2 1 3 1 5h-216c41 -26 69 -80 56 -150c-20 -107 -108 -179 -215 -179c-112 0 -178 76 -161 182c20 112 110 181 229 181h332c117 0 206 32 227 155l14 82h-885l-52 -296c-14 -82 -64 -153 -165 -153
c-96 0 -132 70 -118 150l6 30h40l-6 -31c-10 -54 5 -114 81 -114c79 0 111 60 121 117l52 297h-328l6 35h1719l-6 -35h-152z" />
    <glyph glyph-name="dvG_BA" horiz-adv-x="1102" 
d="M878 0l43 242c-41 -72 -121 -132 -231 -132c-132 0 -228 90 -202 236c25 148 144 238 278 238c113 0 174 -63 191 -136l45 257h-606l-52 -296c-14 -82 -64 -153 -165 -153c-96 0 -132 70 -118 150l6 30h40l-6 -31c-10 -54 5 -114 81 -114c79 0 111 60 121 117l52 297
h-328l6 35h1166l-7 -35h-151l-124 -705h-39zM699 142c63 0 115 22 154 55l-257 287c-36 -35 -62 -82 -72 -139c-22 -129 61 -203 175 -203zM769 554c-56 0 -111 -19 -155 -54l257 -286c38 39 62 89 69 133c18 97 -30 207 -171 207z" />
    <glyph glyph-name="dvG_BHA" horiz-adv-x="1164" 
d="M618 159c77 0 134 57 151 158l17 97h-111c-81 0 -147 -50 -161 -128c-13 -77 32 -127 104 -127zM612 124c-94 0 -153 65 -136 162c18 101 101 162 204 162h112l18 105c18 98 -5 160 -86 160c-14 0 -29 -3 -43 -8h-285l-52 -296c-14 -82 -64 -153 -165 -153
c-96 0 -134 70 -118 150l6 30h40l-6 -31c-11 -54 5 -114 81 -114c79 0 111 60 121 117l52 297h-328l6 35h642c17 6 35 9 55 9c107 0 140 -78 118 -200l-18 -101h188l51 292h192l-6 -35h-151l-125 -705h-40l73 414h-187l-17 -95c-23 -129 -91 -195 -196 -195z" />
    <glyph glyph-name="dvG_BH_YA" horiz-adv-x="1619" 
d="M1207 164c118 0 227 79 251 201l59 340h-232l-16 -87c-25 -148 -123 -203 -250 -203v-1v0c-2 -6 -3 -12 -4 -15c-30 -152 48 -235 192 -235zM618 159c76 0 133 57 150 158l17 97h-110c-81 0 -147 -50 -161 -128c-14 -77 32 -127 104 -127zM615 124
c-98 0 -156 65 -139 162c18 101 101 162 203 162h112l19 105c17 98 -6 160 -86 160c-65 0 -120 -47 -135 -128c-2 -13 -3 -27 -3 -42h-40c0 14 1 29 3 43c9 50 30 91 61 119h-214l-52 -296c-14 -82 -64 -153 -165 -153c-96 0 -132 70 -118 150l6 30h40l-6 -31
c-10 -54 5 -114 81 -114c79 0 111 60 121 117l52 297h-328l6 35h637c18 6 37 9 57 9c106 0 142 -78 121 -200l-18 -101h180c103 0 196 38 220 175l14 82h-231l6 35h697l-7 -35h-152l-123 -705h-40l45 258c-40 -67 -124 -129 -243 -129c-163 0 -251 102 -220 273
c1 4 2 8 2 12h-154l-17 -95c-22 -129 -92 -195 -192 -195z" />
    <glyph glyph-name="dvG_MA" horiz-adv-x="1181" 
d="M1035 448l45 257h-215l-45 -257h215zM608 159c77 0 132 57 151 158l17 97h-112c-81 0 -146 -50 -160 -128c-14 -77 32 -127 104 -127zM997 0h-41l73 414h-215l-17 -95c-22 -129 -92 -195 -192 -195c-98 0 -156 66 -139 162c17 101 101 162 203 162h113l45 257h-431
l-52 -296c-14 -82 -64 -153 -165 -153c-96 0 -132 70 -118 150l6 30h40l-6 -31c-10 -54 5 -114 81 -114c79 0 111 60 121 117l52 297h-328l6 35h1245l-6 -35h-151z" />
    <glyph glyph-name="dvG_YA" horiz-adv-x="1141" 
d="M729 164c121 0 231 82 252 207v-3l59 337h-233l-15 -87c-27 -148 -124 -195 -251 -195c-1 -6 -2 -11 -3 -15c-28 -152 48 -244 191 -244zM957 0h-41l45 256c-41 -66 -124 -127 -243 -127c-163 0 -250 111 -219 282c2 12 6 27 9 39h17c109 0 203 34 228 173l14 82h-371
l-52 -296c-14 -82 -64 -153 -165 -153c-96 0 -132 70 -118 150l6 30h40l-6 -31c-10 -54 5 -114 81 -114c79 0 111 60 121 117l52 297h-328l6 35h1205l-6 -35h-152z" />
    <glyph glyph-name="dvG_R_YA" horiz-adv-x="1142" 
d="M730 164c121 0 231 82 252 207v-3l59 337h-233l-15 -87c-27 -148 -124 -195 -251 -195c-1 -6 -2 -11 -3 -15c-28 -152 48 -244 191 -244zM719 129c-110 0 -186 51 -213 137l-334 -286h-51l377 319c-6 33 -5 71 2 112c2 12 6 27 9 39h17c109 0 203 34 228 173l14 82h-372
l-44 -251c-14 -82 -63 -153 -165 -153c-99 0 -132 75 -117 154c2 10 3 16 5 26h40l-6 -31c-11 -54 5 -114 80 -114c80 0 112 60 122 116l44 253h-328l6 35h1206l-6 -35h-152l-123 -705h-41l45 256c-41 -66 -124 -127 -243 -127z" />
    <glyph glyph-name="dvG_LA" horiz-adv-x="1311" 
d="M959 92c-11 0 -25 1 -36 2l6 36c10 -1 21 -2 30 -2c126 0 205 88 225 203c18 103 -17 187 -119 187c-105 0 -174 -87 -198 -221l-2 -11h-35l1 11c25 131 -11 221 -114 221c-107 0 -172 -81 -190 -187c-21 -115 26 -203 153 -203c10 0 19 1 30 2l-7 -36
c-10 -1 -18 -2 -29 -2c-151 0 -213 105 -188 240c23 133 107 222 231 222c113 0 148 -89 148 -163h2c26 71 83 155 191 162l27 152h-689l-52 -296c-14 -82 -64 -153 -165 -153c-96 0 -132 70 -118 150l6 30h40l-6 -31c-10 -54 5 -114 81 -114c79 0 111 60 121 117l52 297
h-328l6 35h1375l-6 -35h-277l-27 -152c103 -12 148 -105 127 -223c-24 -136 -115 -239 -266 -238z" />
    <glyph glyph-name="dvG_VA" horiz-adv-x="1091" 
d="M692 149c143 0 219 110 235 196c17 94 -22 200 -166 200c-108 0 -211 -74 -233 -196c-22 -127 52 -200 164 -200zM1181 705h-151l-124 -705h-39l42 242c-41 -70 -118 -127 -227 -127c-132 0 -220 88 -193 237c24 140 139 227 267 227c112 0 171 -57 190 -128l44 254h-594
l-52 -296c-14 -82 -64 -153 -165 -153c-96 0 -132 70 -118 150l6 30h40l-6 -31c-10 -54 5 -114 81 -114c79 0 111 60 121 117l52 297h-328l6 35h1155z" />
    <glyph glyph-name="dvG_SA" horiz-adv-x="1214" 
d="M865 600c-18 -102 -73 -160 -131 -188h328l51 293h-229zM835 201c-17 -119 -88 -210 -210 -210c-124 0 -182 89 -160 216l36 203h104c118 0 199 74 221 190l19 105h-449l-52 -296c-14 -82 -64 -153 -165 -153c-96 0 -132 70 -118 150l6 30h40l-6 -31
c-10 -54 5 -114 81 -114c79 0 111 60 121 117l52 297h-328l6 35h1278l-6 -35h-152l-123 -705h-41l67 378h-521l-30 -174c-18 -104 21 -177 123 -177c96 0 153 75 168 174h39z" />
    <glyph glyph-name="dvGH_NA" horiz-adv-x="1222" 
d="M680 180c87 0 159 65 175 147c16 86 -37 146 -124 146c-90 0 -163 -59 -179 -148c-16 -85 36 -145 128 -145zM288 147c118 0 191 89 231 203v1c27 98 114 158 224 158h344l34 196h-910l-16 -92c-17 -92 23 -143 138 -143h52l-6 -34h-54c-128 0 -191 -62 -205 -138
c-19 -103 59 -151 168 -151zM1312 705h-151l-124 -705h-40l84 474h-248c42 -26 69 -79 56 -150c-18 -107 -108 -179 -215 -179c-89 0 -150 48 -161 122c-45 -90 -123 -155 -234 -155c-137 0 -221 63 -200 184c17 93 96 148 175 156l1 2c-68 9 -119 53 -101 158l16 93h-143
l6 35h1285z" />
    <glyph glyph-name="dvGH_MA" horiz-adv-x="1219" 
d="M1073 448l45 257h-215l-45 -257h215zM646 159c77 0 132 57 151 158l17 97h-112c-81 0 -146 -50 -160 -128c-14 -77 32 -127 104 -127zM288 147c115 0 189 81 222 167l4 11c30 77 105 123 193 123h113l45 257h-654l-16 -92c-17 -92 23 -143 138 -143h52l-6 -34h-54
c-128 0 -191 -62 -205 -138c-18 -103 59 -151 168 -151zM1310 705h-151l-124 -705h-41l73 414h-215l-17 -95c-22 -129 -92 -195 -192 -195c-80 0 -133 44 -141 112c-41 -66 -116 -124 -223 -124c-137 0 -221 63 -200 184c17 93 96 148 175 156l1 2c-68 9 -119 53 -101 158
l16 93h-143l6 35h1283z" />
    <glyph glyph-name="dvGH_YA" horiz-adv-x="1204" 
d="M288 147c128 0 241 97 269 238c1 9 2 17 4 26c2 12 6 27 9 39h17c109 0 203 34 228 173l14 82h-618l-16 -92c-17 -92 22 -143 138 -143h52l-6 -34h-54c-128 0 -191 -62 -205 -138c-18 -103 58 -151 168 -151zM791 164c121 0 231 82 252 207v-3l59 337h-233l-15 -87
c-27 -148 -124 -195 -251 -195c-1 -6 -2 -11 -3 -15c-28 -152 48 -244 191 -244zM1294 705h-152l-123 -705h-41l45 256c-41 -66 -124 -127 -243 -127c-121 0 -200 61 -220 162c-54 -107 -157 -179 -278 -179c-141 0 -224 64 -203 184c17 93 96 148 175 156l1 2
c-68 9 -119 53 -101 158l16 93h-143l6 35h1267z" />
    <glyph glyph-name="dvC_CA" horiz-adv-x="1140" 
d="M329 145c107 0 194 81 224 174c16 85 73 152 153 183h-306c-120 0 -207 -80 -225 -182c-20 -113 55 -175 154 -175zM1231 705h-151l-124 -705h-40l42 237c-46 -74 -131 -127 -226 -127c-94 0 -171 51 -182 141c-47 -81 -131 -142 -232 -142c-114 0 -206 76 -182 206
c16 87 72 155 153 187h-217l6 34h776l-6 -34h-31c-120 0 -207 -80 -225 -182c-20 -113 55 -175 154 -175c113 0 208 89 229 189l65 371h-1013l6 35h1204z" />
    <glyph glyph-name="dvC_CHA" horiz-adv-x="1284" 
d="M812 67c188 0 351 108 382 284c22 120 -40 174 -107 174c-58 0 -136 -34 -154 -137c-6 -30 -5 -65 1 -102h-36c-6 37 -6 72 0 105c20 113 101 159 176 165l26 149h-422l-22 -123c-16 -93 21 -143 136 -143h23l-5 -35h-23c-131 0 -202 -69 -217 -152
c-21 -123 88 -185 242 -185zM1232 351c-36 -201 -213 -320 -426 -320c-160 0 -277 63 -279 181c-49 -61 -124 -103 -206 -103c-115 0 -209 75 -185 206c16 87 72 155 153 187h-217l6 34h360l-7 -34h-31c-120 0 -207 -80 -225 -182c-20 -113 55 -175 154 -175
c90 0 170 62 208 136c27 84 101 130 178 139v2c-67 9 -119 54 -100 158l23 125h-611l6 35h1347l-5 -35h-237l-26 -149c81 -8 142 -73 120 -205z" />
    <glyph glyph-name="dvC_CH_VA" horiz-adv-x="1286" 
d="M729 -286c117 0 182 89 194 160h1l31 178c-46 -14 -97 -21 -149 -21h-8v0c-111 -4 -186 -69 -203 -158c-18 -102 46 -159 134 -159zM812 67c188 0 351 108 382 284c22 120 -40 174 -107 174c-58 0 -136 -34 -154 -137c-6 -30 -5 -65 1 -102h-36c-6 37 -6 72 0 105
c20 113 101 159 176 165l26 149h-422l-22 -123c-16 -93 21 -143 136 -143h23l-5 -35h-23c-131 0 -202 -69 -217 -152c-21 -123 88 -185 242 -185zM1232 351c-25 -137 -115 -236 -238 -285l-79 -450h-37l29 166c-35 -57 -100 -102 -191 -101c-102 1 -179 73 -158 190
c15 87 76 147 149 169c-107 22 -179 80 -180 172c-49 -61 -124 -103 -206 -103c-115 0 -209 75 -185 206c16 87 72 155 153 187h-217l6 34h360l-7 -34h-31c-120 0 -207 -80 -225 -182c-20 -113 55 -175 154 -175c90 0 170 62 208 136c27 84 101 130 178 139v2
c-67 9 -119 54 -100 158l23 125h-611l6 35h1347l-5 -35h-237l-26 -149c81 -8 142 -73 120 -205z" />
    <glyph glyph-name="dvC_NA" horiz-adv-x="1238" 
d="M697 180c87 0 159 65 175 147c16 86 -37 146 -124 146c-90 0 -163 -59 -179 -148c-16 -85 36 -145 128 -145zM1329 705h-151l-124 -705h-40l84 474h-248c42 -26 69 -79 56 -150c-18 -107 -108 -179 -215 -179c-81 0 -138 40 -157 102c-39 -79 -114 -138 -213 -138
c-114 0 -209 75 -185 206c16 87 72 155 153 187h-217l6 34h360l-7 -34h-31c-120 0 -207 -80 -225 -182c-20 -113 55 -175 154 -175c108 0 180 82 201 177l1 5c19 112 110 182 229 182h344l34 196h-1111l6 35h1302z" />
    <glyph glyph-name="dvC_MA" horiz-adv-x="1235" 
d="M1089 448l45 257h-215l-45 -257h215zM662 159c77 0 132 57 151 158l17 97h-112c-81 0 -146 -50 -160 -128c-14 -77 32 -127 104 -127zM1326 705h-151l-124 -705h-41l73 414h-215l-17 -95c-22 -129 -92 -195 -192 -195c-76 0 -128 40 -140 103
c-42 -69 -111 -118 -199 -118c-115 0 -208 75 -184 206c16 87 72 155 153 187h-217l6 34h360l-7 -34h-31c-120 0 -207 -80 -225 -182c-20 -113 55 -175 154 -175s169 76 196 163c0 2 1 3 1 5l1 2v0c27 84 104 133 196 133h113l45 257h-854l6 35h1299z" />
    <glyph glyph-name="dvC_YA" horiz-adv-x="1215" 
d="M803 164c121 0 231 82 252 207v-3l59 337h-233l-15 -87c-27 -148 -124 -195 -251 -195c-1 -6 -2 -11 -3 -15c-28 -152 48 -244 191 -244zM1306 705h-152l-123 -705h-41l45 256c-41 -66 -124 -127 -243 -127c-123 0 -203 63 -221 168c-46 -112 -129 -188 -250 -188
c-114 0 -209 74 -185 206c16 87 72 155 153 187h-217l6 34h360l-7 -34h-31c-120 0 -207 -80 -225 -182c-20 -113 55 -175 154 -175c133 0 209 107 242 253c1 4 1 9 2 13c2 12 6 27 9 39h17c109 0 203 34 228 173l14 82h-814l6 35h1279z" />
    <glyph glyph-name="dvCH_YA" horiz-adv-x="1376" 
d="M339 67c188 0 351 108 382 284c22 120 -40 174 -107 174c-58 0 -136 -34 -154 -137c-6 -30 -5 -65 1 -102h-36c-6 37 -6 72 0 105c22 123 116 166 195 166c64 0 119 -32 137 -101c126 0 207 37 231 166l14 83h-797l-22 -123c-16 -93 21 -143 136 -143h23l-5 -35h-23
c-131 0 -202 -69 -217 -152c-21 -123 88 -185 242 -185zM964 164c117 0 227 79 251 201l59 340h-232l-15 -87c-26 -142 -118 -195 -264 -195c1 -18 1 -38 -2 -60c-1 -125 73 -199 203 -199zM1467 705h-152l-123 -705h-41l45 256c-41 -66 -123 -127 -242 -127
c-114 0 -190 55 -216 147c-62 -155 -220 -245 -405 -245c-177 0 -302 78 -276 220c18 103 99 159 185 169v2c-67 9 -119 54 -100 158l23 125h-140l5 35h1443z" />
    <glyph glyph-name="dvCH_R_YA" horiz-adv-x="1376" 
d="M339 67c188 0 351 108 382 284c22 120 -40 174 -107 174c-58 0 -136 -34 -154 -137c-6 -30 -5 -65 1 -102h-36c-6 37 -6 72 0 105c22 123 116 166 195 166c64 0 119 -32 137 -101c126 0 207 37 231 166l14 83h-797l-22 -123c-16 -93 21 -143 136 -143h23l-5 -35h-23
c-131 0 -202 -69 -217 -152c-21 -123 88 -185 242 -185zM964 164c117 0 227 79 251 201l59 340h-232l-15 -87c-26 -142 -118 -195 -264 -195c1 -18 1 -38 -2 -60c-1 -125 73 -199 203 -199zM501 -131l-131 162l-189 -162h-45l189 162c-173 2 -294 80 -268 220
c18 103 99 159 185 169v2c-67 9 -119 54 -100 158l23 125h-140l5 35h1443l-6 -35h-152l-123 -705h-41l45 256c-41 -66 -123 -127 -242 -127c-114 0 -190 55 -216 147c-54 -134 -178 -219 -329 -240l138 -167h-46z" />
    <glyph glyph-name="dvJ_KA" horiz-adv-x="1561" 
d="M977 0l42 242c-38 -68 -111 -125 -214 -125c-123 0 -205 87 -179 232c8 47 26 87 51 121h-222l-24 -133c-20 -110 -97 -189 -210 -188c-102 1 -157 81 -138 189l30 168h40l-29 -169c-16 -89 23 -152 104 -152c84 0 147 63 163 152l30 169h287c47 44 109 69 174 69
c105 0 158 -58 173 -127l45 257h-1073l6 35h1626l-7 -35h-513l-45 -257c38 70 107 127 210 127c117 0 199 -88 174 -227c-26 -146 -130 -230 -251 -230c-21 0 -43 3 -57 6l6 34c14 -3 33 -5 50 -5c98 0 190 71 212 196c20 118 -48 191 -146 191c-125 0 -194 -97 -214 -184
l-63 -356h-38zM817 152c132 0 202 105 219 185l3 20c11 85 -24 183 -153 183c-100 0 -198 -72 -219 -191c-22 -126 47 -197 150 -197z" />
    <glyph glyph-name="dvJ_JA" horiz-adv-x="1399" 
d="M1215 0h-41l83 470h-232l-24 -133c-20 -110 -97 -189 -210 -188c-102 1 -157 81 -138 189l24 132h-222l-24 -133c-20 -110 -97 -189 -210 -188c-102 1 -157 81 -138 189l30 168h40l-29 -169c-16 -89 23 -152 104 -152c84 0 147 63 163 152l30 169h302l-29 -169
c-16 -89 23 -152 104 -152c84 0 147 63 163 152l30 169h273l35 199h-1272l6 35h1463l-6 -35h-151z" />
    <glyph glyph-name="dvJx_JxA" horiz-adv-x="1399" 
d="M1215 0h-41l83 470h-232l-24 -133c-20 -110 -97 -189 -210 -188c-102 1 -157 81 -138 189l24 132h-222l-24 -133c-20 -110 -97 -189 -210 -188c-102 1 -157 81 -138 189l30 168h40l-29 -169c-16 -89 23 -152 104 -152c84 0 147 63 163 152l30 169h302l-29 -169
c-16 -89 23 -152 104 -152c84 0 147 63 163 152l30 169h273l35 199h-1272l6 35h1463l-6 -35h-151zM198 -14c-20 0 -33 15 -30 35s21 35 42 35c19 0 32 -15 29 -35s-21 -35 -41 -35zM768 -14c-20 0 -33 15 -30 35s21 35 42 35c19 0 32 -15 29 -35s-21 -35 -41 -35z" />
    <glyph glyph-name="dvJ_J_NYA" horiz-adv-x="1308" 
d="M1083 0l83 471h-260c71 -27 114 -90 97 -185c-19 -113 -108 -191 -223 -191c-99 1 -155 56 -168 111l-32 -185h-40l47 266h38c-8 -105 67 -157 153 -157c99 0 172 70 189 163c20 113 -55 178 -174 178h-338l-24 -134c-20 -110 -97 -189 -210 -188
c-102 1 -157 81 -138 189l30 168h40l-29 -169c-16 -89 23 -152 104 -152c84 0 147 63 163 152l30 169h751l35 199h-1180l6 35h1372l-7 -35h-151l-124 -705h-40z" />
    <glyph glyph-name="dvJ_J_YA" horiz-adv-x="1857" 
d="M1444 164c119 0 228 79 252 201l59 340h-232l-16 -87c-22 -127 -118 -174 -245 -176c-1 -6 -2 -11 -3 -14c-30 -152 42 -264 185 -264zM1672 0h-40l45 258c-40 -67 -124 -129 -245 -129c-162 0 -242 131 -211 303c0 2 1 4 1 6h-25h-179l-17 -101
c-20 -111 -97 -189 -210 -188c-102 1 -157 80 -137 190l22 126h-222l-23 -128c-20 -110 -97 -189 -210 -188c-102 1 -157 81 -138 189l29 162h41l-29 -163c-16 -89 23 -152 104 -152c84 0 147 63 163 152l29 163h303l-29 -163c-16 -89 23 -152 104 -152c84 0 147 62 163 152
l24 136h262c110 0 201 33 221 150l14 82h-1455l6 35h1920l-6 -35h-152z" />
    <glyph glyph-name="dvJ_J_VA" horiz-adv-x="1793" 
d="M1394 149c143 0 219 110 235 196c17 94 -22 200 -166 200c-108 0 -211 -74 -233 -196c-22 -127 52 -200 164 -200zM1883 705h-151l-124 -705h-39l42 242c-41 -70 -118 -127 -227 -127c-132 0 -220 88 -193 237c8 45 25 85 49 118h-215l-24 -133
c-20 -110 -97 -189 -210 -188c-102 1 -157 81 -138 189l24 132h-222l-24 -133c-20 -110 -97 -189 -210 -188c-102 1 -157 81 -138 189l30 168h40l-29 -169c-16 -89 23 -152 104 -152c84 0 147 63 163 152l30 169h302l-29 -169c-16 -89 23 -152 104 -152c84 0 147 63 163 152
l30 169h281c49 47 116 73 186 73c112 0 171 -57 190 -128l44 254h-1665l6 35h1857z" />
    <glyph glyph-name="dvJ_JHA" horiz-adv-x="1389" 
d="M814 317h406l69 388h-216l-27 -147h1l-6 -32h-172c-66 0 -158 -17 -173 -106c-14 -76 46 -103 118 -103zM1164 0l51 285l-243 1c45 -23 74 -69 61 -138c-15 -81 -81 -150 -203 -150c-126 0 -169 78 -176 105l-32 -176h-39l45 245h36c-2 -74 46 -142 164 -142
c103 0 156 57 167 121c15 84 -36 135 -147 135h-48c-90 0 -161 41 -144 136c3 18 9 34 16 48h-217l-24 -133c-20 -110 -97 -189 -210 -188c-102 1 -157 81 -138 189l30 168h40l-29 -169c-16 -89 23 -152 104 -152c84 0 147 63 163 152l30 169h278c42 39 106 52 163 52h145
l27 147h-1007l6 35h1453l-6 -35h-151l-125 -705h-40z" />
    <glyph glyph-name="dvJ_NY_YA" horiz-adv-x="1302" 
d="M890 164c121 0 231 82 252 207v-3l59 337h-233l-15 -87c-27 -148 -124 -195 -251 -195c-1 -6 -2 -11 -3 -15c-28 -152 48 -244 191 -244zM1118 0h-41l45 256c-41 -66 -124 -127 -243 -127c-163 0 -250 111 -219 282c0 2 1 5 1 7c4 54 -41 86 -115 86h-158
c71 -28 113 -91 98 -186c-20 -113 -109 -190 -222 -189c-99 0 -157 56 -169 110l-33 -185h-40l47 266h38c-8 -105 67 -157 153 -157c99 0 173 70 190 163c20 114 -57 178 -175 178h-9l6 34h281c87 0 135 -34 144 -88c104 2 193 39 217 173l14 82h-901l6 35h1366l-6 -35h-152
z" />
    <glyph glyph-name="dvJ_TTA" horiz-adv-x="1195" 
d="M831 56c-149 0 -249 104 -222 252c12 68 40 122 79 162h-233l-24 -133c-20 -110 -97 -189 -210 -188c-102 1 -157 81 -138 189l30 168h40l-29 -169c-16 -89 23 -152 104 -152c84 0 147 63 163 152l30 169h309c59 41 133 60 213 60h42l25 139h-983l6 35h1258l-6 -35h-235
l-32 -174h-79c-139 0 -262 -72 -289 -225c-23 -125 58 -214 187 -214c131 0 231 92 253 222h39c-26 -152 -139 -258 -298 -258z" />
    <glyph glyph-name="dvJ_DDA" horiz-adv-x="1100" 
d="M775 -11c-153 0 -224 86 -205 193h40c-15 -88 35 -160 169 -160c107 0 174 58 187 130c18 105 -65 134 -148 134h-43c-84 0 -164 39 -147 136c3 18 9 34 16 48h-189l-24 -133c-20 -110 -97 -189 -210 -188c-102 1 -157 81 -138 189l30 168h40l-29 -169
c-16 -89 23 -152 104 -152c84 0 147 63 163 152l30 169h251c41 39 103 51 159 51h139l27 148h-970l6 35h1164l-6 -35h-155l-32 -179h-164c-69 0 -155 -17 -172 -105c-13 -78 47 -104 117 -104h44c101 0 198 -44 176 -166c-17 -92 -95 -162 -230 -162z" />
    <glyph glyph-name="dvJ_TA" horiz-adv-x="1239" 
d="M1054 0h-40l82 465h-159c-149 0 -259 -67 -285 -214c-24 -137 43 -215 186 -215h23l-6 -34h-25c-155 0 -247 89 -219 250c19 105 74 175 153 213h-310l-23 -128c-21 -110 -97 -189 -210 -188c-102 1 -157 81 -138 189l30 168h41l-30 -169c-16 -89 23 -152 104 -152
c84 0 146 63 163 152l30 164h681l36 204h-1111l6 35h1303l-7 -35h-151z" />
    <glyph glyph-name="dvJ_DA" horiz-adv-x="1160" 
d="M1008 -6h-40l39 223c-35 -58 -110 -99 -193 -99c-130 0 -210 93 -186 230c9 49 27 89 53 122h-226l-24 -133c-20 -110 -97 -189 -210 -188c-102 1 -157 81 -138 189l30 168h40l-29 -169c-16 -89 23 -152 104 -152c84 0 147 63 163 152l30 169h294c58 50 137 72 219 72h93
l22 127h-1022l6 35h1224l-6 -35h-161l-29 -163h-130c-123 0 -238 -62 -262 -195c-20 -116 44 -195 158 -195c75 0 180 46 200 162h37z" />
    <glyph glyph-name="dvJ_NA" horiz-adv-x="1312" 
d="M770 178c87 0 160 65 176 147c16 85 -37 146 -124 146c-90 0 -163 -60 -179 -148c-16 -85 36 -145 127 -145zM1128 0h-41l83 471h-246c42 -26 69 -79 56 -150c-20 -107 -109 -179 -215 -179c-112 0 -178 77 -160 182c11 64 45 115 95 146h-245l-24 -133
c-20 -110 -97 -189 -210 -188c-102 1 -157 81 -138 189l30 168h40l-29 -169c-16 -89 23 -152 104 -152c84 0 147 63 163 152l30 169h755l35 199h-1184l6 35h1376l-6 -35h-151z" />
    <glyph glyph-name="dvJ_BA" horiz-adv-x="1230" 
d="M828 142c63 0 115 22 154 55l-257 287c-36 -35 -62 -82 -72 -139c-22 -129 61 -203 175 -203zM1007 0l43 242c-41 -72 -121 -132 -231 -132c-132 0 -228 90 -202 236c8 48 26 89 51 124h-213l-24 -133c-20 -110 -97 -189 -210 -188c-102 1 -157 81 -138 189l30 168h40
l-29 -169c-16 -89 23 -152 104 -152c84 0 147 63 163 152l30 169h278c52 50 121 78 196 78c113 0 174 -63 191 -136l45 257h-1104l6 35h1295l-7 -35h-151l-124 -705h-39zM898 554c-56 0 -111 -19 -155 -54l257 -286c38 39 62 89 69 133c18 97 -30 207 -171 207z" />
    <glyph glyph-name="dvJ_MA" horiz-adv-x="1310" 
d="M744 198c77 0 133 57 151 158l17 96h-112c-81 0 -146 -49 -160 -128c-14 -76 32 -126 104 -126zM1171 487l38 218h-215l-38 -218h215zM1126 0h-41l79 452h-214l-17 -94c-22 -130 -92 -196 -192 -196c-97 0 -156 66 -139 161c10 56 39 101 87 130h-238l-20 -116
c-20 -110 -97 -189 -209 -188c-104 1 -158 82 -139 189l30 166h40l-29 -167c-16 -89 23 -152 104 -152c84 0 147 63 163 152l26 150h501l38 218h-929l6 35h1374l-6 -35h-151z" />
    <glyph glyph-name="dvJ_YA" horiz-adv-x="1287" 
d="M874 164c119 0 228 79 252 201l59 340h-232l-16 -87c-22 -127 -118 -174 -245 -176c-1 -6 -2 -11 -3 -14c-30 -152 42 -264 185 -264zM1102 0h-40l45 258c-40 -67 -124 -129 -245 -129c-162 0 -242 131 -211 303c0 2 1 4 1 6h-25h-179l-17 -101
c-20 -111 -97 -189 -210 -188c-102 1 -157 80 -137 190l28 161h41l-29 -163c-16 -89 23 -152 104 -152c84 0 147 62 163 152l24 136h262c110 0 201 33 221 150l14 82h-885l6 35h1350l-6 -35h-152z" />
    <glyph glyph-name="dvJx_YA" horiz-adv-x="1287" 
d="M874 164c119 0 228 79 252 201l59 340h-232l-16 -87c-22 -127 -118 -174 -245 -176c-1 -6 -2 -11 -3 -14c-30 -152 42 -264 185 -264zM1102 0h-40l45 258c-40 -67 -124 -129 -245 -129c-162 0 -242 131 -211 303c0 2 1 4 1 6h-25h-179l-17 -101
c-20 -111 -97 -189 -210 -188c-102 1 -157 80 -137 190l28 161h41l-29 -163c-16 -89 23 -152 104 -152c84 0 147 62 163 152l24 136h262c110 0 201 33 221 150l14 82h-885l6 35h1350l-6 -35h-152zM198 -14c-20 0 -33 15 -30 35s21 35 42 35c19 0 32 -15 29 -35
s-21 -35 -41 -35z" />
    <glyph glyph-name="dvJ_VA" horiz-adv-x="1223" 
d="M824 149c143 0 219 110 235 196c17 94 -22 200 -166 200c-108 0 -211 -74 -233 -196c-22 -127 52 -200 164 -200zM1313 705h-151l-124 -705h-39l42 242c-41 -70 -118 -127 -227 -127c-132 0 -220 88 -193 237c8 45 25 85 49 118h-215l-24 -133
c-20 -110 -97 -189 -210 -188c-102 1 -157 81 -138 189l30 168h40l-29 -169c-16 -89 23 -152 104 -152c84 0 147 63 163 152l30 169h281c49 47 116 73 186 73c112 0 171 -57 190 -128l44 254h-1095l6 35h1287z" />
    <glyph glyph-name="dvJH_NA" horiz-adv-x="1333" 
d="M269 317h355c1 3 1 7 2 10c19 112 110 182 229 182h344l34 196h-705l-27 -147h1l-6 -32h-172c-66 0 -158 -17 -173 -106c-14 -76 46 -103 118 -103zM792 180c87 0 159 65 175 147c16 86 -37 146 -124 146c-90 0 -163 -59 -179 -148c-16 -85 36 -145 128 -145zM109 103
l-32 -176h-39l45 245h36c-2 -74 46 -142 164 -142c103 0 156 57 167 121c15 84 -36 135 -147 135h-48c-90 0 -161 41 -144 136c18 107 119 136 206 136h145l27 147h-455l6 35h1390l-6 -35h-151l-124 -705h-40l84 474h-248c42 -26 69 -79 56 -150
c-18 -107 -108 -179 -215 -179c-96 0 -159 56 -163 140l-196 1c45 -23 74 -69 61 -138c-15 -81 -81 -150 -203 -150c-126 0 -169 78 -176 105z" />
    <glyph glyph-name="dvJH_MA" horiz-adv-x="1343" 
d="M1196 448l45 257h-215l-45 -257h215zM769 159c77 0 132 57 151 158l17 97h-112c-81 0 -146 -50 -160 -128c-14 -77 32 -127 104 -127zM269 317h366c27 82 104 131 195 131h113l45 257h-460l-27 -147h1l-6 -32h-172c-66 0 -158 -17 -173 -106c-14 -76 46 -103 118 -103z
M109 103l-32 -176h-39l45 245h36c-2 -74 46 -142 164 -142c103 0 156 57 167 121c15 84 -36 135 -147 135h-48c-90 0 -161 41 -144 136c18 107 119 136 206 136h145l27 147h-455l6 35h1399l-6 -35h-151l-124 -705h-41l73 414h-215l-17 -95c-22 -129 -92 -195 -192 -195
c-98 0 -156 66 -139 161l-200 1c45 -23 74 -69 61 -138c-15 -81 -81 -150 -203 -150c-126 0 -169 78 -176 105z" />
    <glyph glyph-name="dvJH_YA" horiz-adv-x="1294" 
d="M269 317h378c-3 29 -1 60 5 94c2 12 6 27 9 39h17c109 0 203 34 228 173l14 82h-392l-27 -147h1l-6 -32h-172c-66 0 -158 -17 -173 -106c-14 -76 46 -103 118 -103zM882 164c121 0 231 82 252 207v-3l59 337h-233l-15 -87c-27 -148 -124 -195 -251 -195
c-1 -6 -2 -11 -3 -15c-28 -152 48 -244 191 -244zM109 103l-32 -176h-39l45 245h36c-2 -74 46 -142 164 -142c103 0 156 57 167 121c15 84 -36 135 -147 135h-48c-90 0 -161 41 -144 136c18 107 119 136 206 136h145l27 147h-455l6 35h1351l-6 -35h-152l-123 -705h-41
l45 256c-41 -66 -124 -127 -243 -127c-118 0 -197 59 -219 156l-225 1c45 -23 74 -69 61 -138c-15 -81 -81 -150 -203 -150c-126 0 -169 78 -176 105z" />
    <glyph glyph-name="dvNY_CA" horiz-adv-x="1255" 
d="M1071 0h-41l41 235c-46 -73 -131 -125 -224 -125c-116 0 -203 76 -180 205c0 2 1 5 1 7h-163c-27 -112 -116 -212 -256 -212c-133 0 -184 85 -187 161h39c5 -59 45 -125 152 -125c124 0 201 92 219 198c18 102 -25 195 -149 195c-109 0 -173 -69 -197 -126h-39
c28 80 108 162 242 162c145 0 198 -105 183 -219h166c23 67 74 120 143 146h-218l6 34h360l-7 -34h-31c-120 0 -206 -80 -225 -182c-20 -113 55 -175 154 -175c114 0 209 89 229 189l65 371h-1127l6 35h1319l-7 -35h-150z" />
    <glyph glyph-name="dvNY_CHA" horiz-adv-x="1365" 
d="M894 67c188 0 351 108 382 284c22 120 -40 174 -107 174c-58 0 -136 -34 -154 -137c-6 -30 -5 -65 1 -102h-36c-6 37 -6 72 0 105c20 113 101 159 176 165l26 149h-422l-22 -123c-16 -93 21 -143 136 -143h23l-5 -35h-23c-131 0 -202 -69 -217 -152
c-21 -123 88 -185 242 -185zM888 31c-177 0 -302 78 -276 220c5 30 16 55 30 77h-135c-26 -115 -116 -218 -258 -218c-133 0 -184 85 -187 161h39c5 -59 45 -125 152 -125c124 0 201 92 219 198c18 102 -25 195 -149 195c-109 0 -173 -69 -197 -126h-39
c28 80 108 162 242 162c142 0 196 -101 184 -211h159c34 32 79 51 125 56v2c-67 9 -119 54 -100 158l23 125h-693l6 35h1429l-5 -35h-237l-26 -149c81 -8 142 -73 120 -205c-36 -201 -213 -320 -426 -320z" />
    <glyph glyph-name="dvNY_JA" horiz-adv-x="1380" 
d="M1196 0h-41l83 470h-232l-24 -133c-20 -110 -97 -189 -210 -188c-99 1 -154 76 -140 179h-125c-26 -115 -116 -218 -258 -218c-133 0 -184 85 -187 161h39c5 -59 45 -125 152 -125c124 0 201 92 219 198c18 102 -25 195 -149 195c-109 0 -173 -69 -197 -126h-39
c28 80 108 162 242 162c142 0 196 -101 184 -211h126l25 142h40l-29 -169c-16 -89 23 -152 104 -152c84 0 147 63 163 152l30 169h273l35 199h-1253l6 35h1444l-6 -35h-151z" />
    <glyph glyph-name="dvNY_SHA" horiz-adv-x="1328" 
d="M776 -9c-131 0 -187 88 -164 218l21 121h-126c-25 -116 -115 -220 -258 -220c-133 0 -184 85 -187 161h39c5 -59 45 -125 152 -125c124 0 201 92 219 198c18 102 -26 195 -149 195c-109 0 -173 -69 -197 -126h-39c28 80 108 162 242 162c141 0 195 -100 184 -210h126l2 9
h151c113 0 215 59 235 174c18 103 -38 165 -127 165c-114 0 -187 -92 -187 -213h-41c1 89 36 162 94 205h-739l6 35h804c20 6 43 9 66 9c114 0 187 -81 163 -207c-25 -135 -136 -203 -271 -203h-119l-23 -133c-19 -104 19 -179 124 -179c93 0 162 69 178 176h40
c-18 -120 -92 -212 -219 -212zM1103 0l130 740h192l-6 -35h-151l-124 -705h-41z" />
    <glyph glyph-name="dvTT_TTA" horiz-adv-x="692" 
d="M27 705l6 35h756l-6 -35h-264l-29 -156h-123c-112 0 -205 -58 -224 -155c-19 -94 44 -161 182 -161c143 0 223 71 242 178h39c-22 -127 -114 -214 -286 -214c-108 -1 -217 -40 -239 -157c-16 -91 45 -160 182 -160c142 0 223 72 242 179h39c-23 -127 -115 -214 -287 -214
c-153 0 -238 82 -217 197c19 104 99 155 177 173c-85 24 -130 90 -114 179c23 128 134 190 269 190h85l22 121h-452z" />
    <glyph glyph-name="dvTT_TTHA" horiz-adv-x="697" 
d="M27 705l6 35h761l-6 -35h-268l-28 -156h-123c-111 0 -206 -50 -224 -155c-17 -94 47 -161 181 -161c137 0 224 73 242 178h40c-17 -96 -80 -167 -182 -196c88 -23 134 -82 117 -177c-22 -126 -134 -193 -285 -193c-147 0 -239 70 -216 193c17 94 84 153 179 177
c-91 27 -133 93 -116 182c23 125 134 187 268 187h86l21 121h-453zM265 -120c125 0 221 56 238 159c18 103 -53 158 -182 158c-122 0 -221 -57 -239 -158c-18 -103 53 -159 183 -159z" />
    <glyph glyph-name="dvTT_YA" horiz-adv-x="1243" 
d="M1018 0l38 214c-44 -80 -115 -134 -214 -134c-134 0 -193 95 -169 232c2 12 5 23 8 34h19c97 0 162 19 174 87c16 91 -76 98 -146 98h-335c-139 0 -262 -72 -289 -225c-23 -125 58 -214 187 -214c131 0 231 92 253 222h39c-26 -152 -139 -258 -298 -258
c-149 0 -249 104 -222 252c32 177 170 258 334 258h42l25 139h-442l7 35h1311l-7 -35h-151l-124 -705h-40zM851 113c122 0 199 96 226 224l65 368h-638l-26 -140h262c98 0 192 -23 173 -129c-14 -85 -92 -113 -200 -114c-1 -5 -2 -9 -3 -14c-21 -104 20 -195 141 -195z" />
    <glyph glyph-name="dvTT_VA" horiz-adv-x="657" 
d="M234 -119c111 0 176 81 193 150l34 192c-40 -17 -87 -26 -142 -26c-123 0 -201 -69 -219 -162c-19 -97 43 -154 134 -154zM27 705l6 35h721l-6 -35h-227l-28 -156h-124c-111 0 -206 -50 -225 -155c-17 -94 45 -161 184 -161c141 0 223 73 242 178h39
c-12 -71 -48 -129 -107 -167l-81 -460h-38l30 167c-36 -57 -102 -103 -192 -103c-111 0 -181 72 -160 188c16 91 83 155 160 176c-90 26 -132 97 -117 184c22 129 135 188 269 188h86l22 121h-454z" />
    <glyph glyph-name="dvTTH_TTHA" horiz-adv-x="663" 
d="M254 -120c122 0 212 56 230 159s-52 158 -174 158c-120 0 -211 -55 -230 -158s50 -159 174 -159zM316 232c122 0 211 56 230 159s-51 159 -174 159c-124 0 -212 -56 -230 -159c-19 -101 53 -159 174 -159zM247 -155c-140 0 -229 67 -207 193c16 92 79 151 168 176
c-80 26 -123 88 -106 181c22 121 121 182 255 188l21 122h-351l6 35h727l-6 -35h-336l-21 -122c132 -6 211 -72 189 -192c-17 -92 -78 -152 -168 -178c80 -25 122 -84 106 -175c-22 -126 -130 -193 -277 -193z" />
    <glyph glyph-name="dvTTH_YA" horiz-adv-x="1253" 
d="M283 93c127 0 237 87 259 212s-57 215 -183 215s-233 -87 -255 -213c-22 -124 62 -214 179 -214zM856 115c124 0 203 99 226 234v0l63 356h-733l-26 -151h355c96 0 191 -24 173 -129c-14 -84 -92 -113 -200 -113l-3 -18c-17 -106 29 -179 145 -179zM1021 0l38 213
c-44 -78 -114 -131 -211 -131c-138 0 -196 90 -174 220c2 11 6 23 8 34h19c95 0 161 18 173 87c17 90 -75 98 -139 98h-253c77 -37 117 -116 98 -218c-26 -147 -150 -246 -302 -246c-138 0 -240 104 -214 252c24 143 143 239 282 246l26 150h-351l7 35h1314l-6 -35h-151
l-124 -705h-40z" />
    <glyph glyph-name="dvTTH_VA" horiz-adv-x="657" 
d="M316 233c117 0 210 55 229 157c19 104 -50 161 -170 161c-129 0 -221 -54 -239 -157c-18 -100 53 -161 180 -161zM213 -117c113 0 182 89 194 160h1l31 178c-37 -14 -80 -21 -128 -21c-119 0 -204 -59 -223 -159c-18 -100 38 -158 125 -158zM400 -215h-38l30 169
c-36 -58 -101 -104 -192 -104c-103 0 -172 72 -151 189c17 97 85 156 161 176c-83 25 -131 90 -114 181c22 121 124 182 263 188l21 121h-353l6 35h721l-6 -35h-328l-21 -121c131 -6 209 -75 186 -194c-13 -68 -50 -119 -106 -151z" />
    <glyph glyph-name="dvDD_DDA" horiz-adv-x="596" 
d="M27 705l6 35h660l-6 -35h-173l-24 -140l-2 -12h-170c-69 0 -133 -18 -146 -83c-16 -72 58 -88 142 -88c124 0 206 -30 186 -135c-16 -83 -87 -134 -212 -134c-122 0 -183 -23 -194 -83c-16 -76 54 -87 144 -87c123 0 204 -28 185 -136c-15 -82 -86 -134 -210 -134
c-138 0 -225 62 -208 165h39c-13 -79 47 -134 172 -134c96 0 157 39 168 103c15 89 -57 106 -156 106c-111 0 -189 21 -173 117c10 61 62 91 128 102c-69 19 -114 73 -101 145h39c-12 -73 39 -133 174 -133c96 0 155 39 166 103c16 90 -61 106 -157 106
c-105 0 -189 27 -172 118c16 91 103 112 190 112h132l22 122h-449z" />
    <glyph glyph-name="dvDD_DDHA" horiz-adv-x="609" 
d="M65 705l6 35h627l-7 -35h-155l-22 -122h1l-6 -30h-165c-61 0 -138 -19 -151 -90c-14 -73 59 -81 143 -81c123 0 204 -31 185 -135c-15 -82 -83 -132 -207 -134c-129 -1 -243 -70 -268 -202c-22 -117 59 -189 193 -189c105 0 186 53 199 126c11 64 -23 110 -95 110
c-65 0 -115 -38 -125 -92c-1 -7 -1 -16 -1 -21h-31c-1 7 0 17 2 25c13 75 77 119 159 119c95 0 140 -62 126 -140c-16 -92 -105 -157 -239 -157c-147 0 -249 79 -224 221c22 121 106 191 210 215c-78 16 -130 72 -117 149h39c-11 -73 40 -133 175 -133c96 0 154 39 165 103
c17 90 -61 106 -157 106c-105 0 -187 19 -172 110c17 93 103 120 190 120h133l22 122h-433z" />
    <glyph glyph-name="dvDD_YA" horiz-adv-x="1154" 
d="M931 0l38 216c-43 -80 -114 -134 -214 -134c-136 0 -194 91 -170 223c1 11 4 22 7 33h18c90 0 163 19 176 91c15 87 -78 97 -147 97h-319c-69 0 -155 -17 -172 -105c-13 -78 47 -104 117 -104h44c101 0 198 -44 176 -166c-17 -92 -95 -162 -230 -162
c-153 0 -224 86 -205 193h40c-15 -88 35 -160 169 -160c107 0 174 58 187 130c18 105 -65 134 -148 134h-43c-84 0 -164 39 -147 136c19 106 117 135 203 135h139l27 148h-449l6 35h1218l-6 -35h-151l-124 -705h-40zM764 115c124 0 204 99 228 234v0l63 356h-539l-26 -148
h162c99 0 192 -25 173 -128c-15 -85 -94 -114 -199 -114c-2 -7 -3 -13 -4 -19c-20 -106 30 -181 142 -181z" />
    <glyph glyph-name="dvDD_VA" horiz-adv-x="609" 
d="M360 -271h-35l28 156c-38 -56 -100 -87 -173 -87c-100 0 -166 64 -147 167c15 89 83 142 158 158c-76 18 -126 76 -113 152h40c-13 -73 39 -134 174 -134c95 0 153 40 165 104c17 91 -61 106 -158 106c-100 0 -186 22 -170 117c15 90 102 115 190 115h132l22 122h-446
l6 35h673l-6 -35h-189l-22 -122h1l-6 -30h-164c-61 0 -139 -14 -152 -89c-13 -73 61 -83 147 -83c117 -1 199 -30 181 -136c-7 -41 -28 -74 -63 -97zM192 -170c100 0 158 71 174 131l30 167c-30 -11 -66 -17 -109 -17c-106 0 -200 -48 -217 -145c-16 -86 39 -136 122 -136z
" />
    <glyph glyph-name="dvDDH_DDHA" horiz-adv-x="669" 
d="M27 705l6 35h733l-6 -35h-227l-27 -151h-111c-129 0 -245 -66 -269 -201c-24 -126 61 -199 208 -199c116 0 204 53 217 129c10 60 -24 107 -102 107c-69 0 -128 -37 -136 -93c0 -6 -1 -15 -1 -21h-32c0 8 1 18 2 26c12 75 81 118 171 118c101 0 148 -61 133 -140
c-18 -92 -114 -156 -256 -156h-1v0c-131 0 -255 -70 -280 -204c-23 -126 60 -199 209 -199c117 0 204 53 216 126c11 63 -24 110 -104 110c-69 0 -125 -37 -133 -93c-1 -7 -2 -15 -2 -21h-31c0 7 1 18 2 25c12 75 81 119 170 119c101 0 147 -62 134 -140
c-16 -92 -113 -156 -258 -156c-166 0 -267 84 -241 231c21 117 106 188 213 216c-102 29 -156 104 -136 216c27 156 155 230 303 230h83l22 121h-469z" />
    <glyph glyph-name="dvDDH_YA" horiz-adv-x="1238" 
d="M1015 0l37 215c-42 -80 -113 -133 -213 -133c-136 0 -193 91 -171 223c2 11 5 22 8 33h17c91 0 164 20 178 100c14 87 -81 98 -151 98h-307c-147 0 -280 -80 -309 -246c-25 -142 62 -240 207 -240c111 0 201 66 218 158c13 75 -30 130 -104 130c-64 0 -123 -42 -133 -111
c-1 -6 -2 -14 -2 -21h-32c0 7 1 18 2 26c15 86 86 138 172 138c91 0 149 -68 133 -162c-20 -112 -123 -190 -259 -190c-163 0 -270 111 -241 274c33 189 181 276 345 276h52l24 137h-461l6 35h1305l-6 -35h-152l-123 -705h-40zM848 115c122 0 201 95 226 226l64 364h-613
l-25 -138h233c99 0 194 -26 177 -129c-15 -93 -96 -123 -200 -123c-2 -7 -3 -13 -4 -19c-21 -106 30 -181 142 -181z" />
    <glyph glyph-name="dvDDH_VA" horiz-adv-x="631" 
d="M27 705l6 35h695l-6 -35h-198l-27 -151h-101c-129 0 -246 -64 -270 -201c-23 -126 60 -199 207 -199c111 0 187 55 200 129c11 62 -23 107 -90 107c-68 0 -121 -35 -129 -93c-1 -6 -2 -15 -2 -21h-31c-1 8 0 18 2 26c11 75 79 118 164 118c91 0 135 -61 121 -136
c-11 -59 -49 -107 -110 -134l-74 -421h-36l30 168c-35 -56 -95 -99 -178 -99c-99 0 -168 65 -148 171c16 96 88 153 170 169c-97 27 -154 104 -134 216c27 156 155 230 303 230h74l23 121h-461zM211 -168c100 0 162 75 181 144l28 160c-28 -8 -58 -12 -92 -12
c-141 0 -219 -59 -237 -152c-18 -89 40 -140 120 -140z" />
    <glyph glyph-name="dvNN_TTA" horiz-adv-x="1163" 
d="M247 241c84 0 144 62 159 149l55 315h-265l-56 -315c-15 -87 25 -149 107 -149zM1098 314c-26 -152 -139 -258 -298 -258c-149 0 -249 104 -222 252c32 177 170 258 334 258h42l25 139h-478l-55 -312c-19 -109 -91 -187 -200 -187c-108 0 -166 77 -145 187l55 312h-129
l6 35h1227l-6 -35h-235l-32 -174h-79c-139 0 -262 -72 -289 -225c-23 -125 58 -214 187 -214c131 0 231 92 253 222h39z" />
    <glyph glyph-name="dvNN_TTHA" horiz-adv-x="1210" 
d="M821 93c122 0 234 86 257 210c22 125 -54 217 -181 217c-122 0 -234 -84 -256 -210c-23 -124 55 -217 180 -217zM247 241c84 0 144 62 159 149l55 315h-265l-56 -315c-15 -87 25 -149 107 -149zM816 57c-145 0 -242 106 -216 254c26 143 144 237 282 244l27 150h-408
l-55 -312c-19 -109 -91 -187 -200 -187c-108 0 -166 77 -145 187l55 312h-129l6 35h1274l-6 -35h-352l-27 -150c133 -9 222 -111 196 -253c-27 -147 -154 -245 -302 -245z" />
    <glyph glyph-name="dvNN_DDA" horiz-adv-x="1108" 
d="M247 241c84 0 144 62 159 149l55 315h-265l-56 -315c-15 -87 25 -149 107 -149zM782 -11c-153 0 -224 86 -205 193h40c-15 -88 35 -160 169 -160c107 0 174 58 187 130c18 105 -65 134 -148 134h-43c-84 0 -164 39 -147 136c19 106 117 135 203 135h139l27 148h-503
l-55 -312c-19 -109 -91 -187 -200 -187c-108 0 -166 77 -145 187l55 312h-129l6 35h1171l-6 -35h-155l-32 -179h-164c-69 0 -155 -17 -172 -105c-13 -78 47 -104 117 -104h44c101 0 198 -44 176 -166c-17 -92 -95 -162 -230 -162z" />
    <glyph glyph-name="dvNN_DDHA" horiz-adv-x="1176" 
d="M247 241c84 0 144 62 159 149l55 315h-265l-56 -315c-15 -87 25 -149 107 -149zM1110 208c-20 -112 -123 -190 -259 -190c-163 0 -270 111 -241 274c33 189 181 276 345 276h52l24 137h-530l-55 -312c-19 -109 -91 -187 -200 -187c-108 0 -166 77 -145 187l55 312h-129
l6 35h1240l-6 -35h-197l-30 -169h-82c-147 0 -280 -80 -309 -246c-25 -142 62 -240 207 -240c111 0 201 66 218 158c13 75 -30 130 -104 130c-64 0 -123 -42 -133 -111c-1 -6 -2 -14 -2 -21h-32c0 7 1 18 2 26c15 86 86 138 172 138c91 0 149 -68 133 -162z" />
    <glyph glyph-name="dvNN_NNA" horiz-adv-x="1379" 
d="M247 241c84 0 144 62 159 149l55 315h-265l-56 -315c-15 -87 25 -149 107 -149zM794 241c84 0 144 62 159 149l55 315h-265l-56 -315c-15 -87 25 -149 107 -149zM1470 705h-151l-124 -705h-40l124 705h-231l-55 -312c-19 -109 -91 -187 -200 -187
c-108 0 -166 77 -145 187l55 312h-202l-55 -312c-19 -109 -91 -187 -200 -187c-108 0 -166 77 -145 187l55 312h-129l6 35h1444z" />
    <glyph glyph-name="dvNN_MA" horiz-adv-x="1272" 
d="M1126 448l45 257h-215l-45 -257h215zM699 159c77 0 132 57 151 158l17 97h-112c-81 0 -146 -50 -160 -128c-14 -77 32 -127 104 -127zM247 241c84 0 144 62 159 149l55 315h-265l-56 -315c-15 -87 25 -149 107 -149zM1363 705h-151l-124 -705h-41l73 414h-215l-17 -95
c-22 -129 -92 -195 -192 -195c-98 0 -156 66 -139 162c17 101 101 162 203 162h113l45 257h-417l-55 -312c-19 -109 -91 -187 -200 -187c-108 0 -166 77 -145 187l55 312h-129l6 35h1336z" />
    <glyph glyph-name="dvNN_YA" horiz-adv-x="1229" 
d="M1319 705h-152l-123 -705h-41l45 256c-41 -66 -124 -127 -243 -127c-163 0 -250 111 -219 282c2 12 6 27 9 39h17c109 0 203 34 228 173l14 82h-353l-55 -312c-19 -109 -91 -187 -200 -187c-108 0 -166 77 -145 187l55 312h-129l6 35h1292zM247 241c84 0 144 62 159 149
l55 315h-265l-56 -315c-15 -87 25 -149 107 -149zM816 164c121 0 231 82 252 207v-3l59 337h-233l-15 -87c-27 -148 -124 -195 -251 -195c-1 -6 -2 -11 -3 -15c-28 -152 48 -244 191 -244z" />
    <glyph glyph-name="dvNN_VA" horiz-adv-x="1210" 
d="M811 149c143 0 219 110 235 196c17 94 -22 200 -166 200c-108 0 -211 -74 -233 -196c-22 -127 52 -200 164 -200zM247 241c84 0 144 62 159 149l55 315h-265l-56 -315c-15 -87 25 -149 107 -149zM1300 705h-151l-124 -705h-39l42 242c-41 -70 -118 -127 -227 -127
c-132 0 -220 88 -193 237c24 140 139 227 267 227c112 0 171 -57 190 -128l44 254h-608l-55 -312c-19 -109 -91 -187 -200 -187c-108 0 -166 77 -145 187l55 312h-129l6 35h1274z" />
    <glyph glyph-name="dvT_KA" horiz-adv-x="1403" 
d="M818 0l42 242c-38 -68 -111 -125 -214 -125c-123 0 -205 87 -179 232c8 44 24 83 47 116h-130c-149 0 -259 -67 -285 -214c-24 -137 43 -215 186 -215h23l-6 -34h-25c-155 0 -247 89 -219 250c31 173 160 249 330 249h156c48 48 111 74 179 74c105 0 158 -58 173 -127
l45 257h-914l6 35h1467l-7 -35h-513l-45 -257c38 70 107 127 210 127c117 0 199 -88 174 -227c-26 -146 -130 -230 -251 -230c-21 0 -43 3 -57 6l6 34c14 -3 33 -5 50 -5c98 0 190 71 212 196c20 118 -48 191 -146 191c-125 0 -194 -97 -214 -184l-63 -356h-38zM658 152
c132 0 202 105 219 185l3 20c11 85 -24 183 -153 183c-100 0 -198 -72 -219 -191c-22 -126 47 -197 150 -197z" />
    <glyph glyph-name="dvT_K_YA" horiz-adv-x="1905" 
d="M980 705l-45 -257c37 69 104 126 203 126c98 0 148 -56 159 -124c106 2 196 37 220 173l14 82h-551zM658 152c132 0 202 105 219 185l3 20c11 85 -24 183 -153 183c-100 0 -198 -72 -219 -191c-22 -126 47 -197 150 -197zM1493 164c121 0 231 82 252 207v-3l59 337h-233
l-15 -87c-27 -148 -124 -195 -251 -195c-1 -6 -2 -11 -3 -15c-28 -152 48 -244 191 -244zM1124 540c-108 -1 -185 -97 -206 -186l-62 -354h-38l42 242c-38 -68 -111 -125 -214 -125c-123 0 -205 87 -179 232c8 44 24 83 47 116h-130c-149 0 -259 -67 -285 -214
c-24 -137 43 -215 186 -215h23l-6 -34h-25c-155 0 -247 89 -219 250c31 173 160 249 330 249h156c48 48 111 74 179 74c105 0 158 -58 173 -127l45 257h-914l6 35h1969l-6 -35h-152l-123 -705h-41l45 256c-41 -66 -124 -127 -243 -127c-155 0 -241 100 -223 257v0
c10 74 -24 154 -135 154z" />
    <glyph glyph-name="dvT_K_RA" horiz-adv-x="1403" 
d="M658 152c39 0 72 9 100 24l12 9l2 -1c60 37 94 101 105 153l3 17c12 85 -22 186 -153 186c-100 0 -198 -72 -219 -191c-22 -126 46 -197 150 -197zM818 0l43 244c-16 -28 -38 -54 -65 -75v0l-273 -215h-48l216 169c-15 -3 -30 -4 -46 -4c-123 0 -204 86 -178 230
c8 44 24 83 47 116h-130c-149 0 -259 -67 -285 -214c-24 -137 43 -215 186 -215h23l-6 -34h-25c-155 0 -247 89 -219 250c31 173 160 249 330 249h156c48 48 111 74 179 74c105 0 158 -58 173 -127l45 257h-914l6 35h1467l-7 -35h-513l-45 -257c38 70 107 127 210 127
c117 0 199 -88 174 -227c-26 -146 -130 -230 -251 -230c-21 0 -43 3 -57 6l6 34c14 -3 33 -5 50 -5c98 0 190 71 212 196c20 118 -48 191 -146 191c-125 0 -194 -97 -214 -184l-63 -356h-38z" />
    <glyph glyph-name="dvT_K_VA" horiz-adv-x="1864" 
d="M980 705l-45 -255c36 68 101 124 203 124c82 0 143 -46 160 -124c49 81 136 129 231 129c112 0 171 -57 190 -128l44 254h-783zM658 152c132 0 202 105 219 185l3 20c11 85 -24 183 -153 183c-100 0 -198 -72 -219 -191c-22 -126 47 -197 150 -197zM1465 149
c143 0 219 110 235 196c17 94 -22 200 -166 200c-108 0 -211 -74 -233 -196c-22 -127 52 -200 164 -200zM1954 705h-151l-124 -705h-39l42 242c-41 -70 -118 -127 -227 -127c-132 0 -220 88 -194 234v0c21 118 -39 191 -135 191c-125 0 -189 -107 -208 -188l-62 -352h-38
l42 242c-38 -68 -111 -125 -214 -125c-123 0 -205 87 -179 232c8 44 24 83 47 116h-130c-149 0 -259 -67 -285 -214c-24 -137 43 -215 186 -215h23l-6 -34h-25c-155 0 -247 89 -219 250c31 173 160 249 330 249h156c48 48 111 74 179 74c105 0 158 -58 173 -127l45 257h-914
l6 35h1928z" />
    <glyph glyph-name="dvT_K_SSA" horiz-adv-x="1192" 
d="M605 581c-16 -94 52 -148 152 -151c64 35 118 78 131 151c14 84 -43 133 -119 133c-73 0 -150 -48 -164 -133zM745 -50l29 168c-13 -29 -67 -88 -161 -88c-102 0 -155 69 -139 160l8 45c18 101 5 230 -147 230c-117 0 -211 -71 -235 -214c-24 -137 42 -215 185 -215h24
l-7 -34h-25c-155 0 -246 89 -218 252c29 168 140 247 276 247c151 0 189 -113 183 -217c46 56 121 88 191 122c-87 13 -159 75 -141 178c9 52 36 93 72 121h-613l7 35h674c21 7 43 10 66 10c94 0 169 -61 150 -164c-13 -75 -61 -121 -117 -157h237l55 311h190l-6 -35h-152
l-124 -705h-39l70 397h-284c-104 -52 -217 -89 -238 -201c-13 -73 27 -132 112 -132c88 0 151 64 164 142h36l-45 -256h-38z" />
    <glyph glyph-name="dvT_KHA" horiz-adv-x="1331" 
d="M1107 0l46 259c-35 -59 -99 -108 -189 -108c-15 0 -29 2 -42 4c-48 -83 -134 -156 -249 -156c-138 0 -215 85 -191 225l20 111v0c9 51 -23 130 -152 130c-124 0 -225 -67 -251 -214c-24 -137 43 -215 186 -215h23l-6 -34h-27c-156 0 -245 89 -217 250
c31 172 152 250 297 250c110 0 164 -50 180 -106h18c69 0 153 27 176 162l26 147h-728l6 35h1396l-7 -35h-151l-124 -705h-40zM681 35c93 0 169 61 208 131c-66 29 -104 99 -88 195c21 123 119 198 229 197c94 0 142 -49 156 -108l45 255h-436l-26 -151
c-27 -152 -118 -190 -210 -190h-12l-25 -143c-20 -112 41 -186 159 -186zM976 184c116 0 180 95 193 170c14 78 -18 171 -138 171c-91 0 -175 -62 -194 -167c-19 -111 46 -174 139 -174z" />
    <glyph glyph-name="dvT_KH_RA" horiz-adv-x="1331" 
d="M1107 0l46 259c-35 -59 -99 -108 -189 -108c-15 0 -29 2 -42 4c-22 -38 -52 -74 -90 -102l-252 -201h-48l1 3l188 149c-15 -3 -31 -4 -47 -4c-139 0 -216 85 -192 224l20 111v0c9 51 -23 130 -152 130c-124 0 -225 -67 -251 -214c-24 -137 43 -215 186 -215h23l-6 -34
h-27c-156 0 -245 89 -217 250c31 172 152 250 297 250c110 0 164 -50 180 -106h18c69 0 153 27 176 162l26 147h-728l6 35h1396l-7 -35h-151l-124 -705h-40zM681 35c93 0 169 61 208 131c-66 29 -104 99 -88 195c21 123 119 198 229 197c94 0 142 -49 156 -108l45 255h-436
l-26 -151c-27 -152 -118 -190 -210 -190h-12l-25 -143c-20 -112 41 -186 159 -186zM976 184c116 0 180 95 193 170c14 78 -18 171 -138 171c-91 0 -175 -62 -194 -167c-19 -111 46 -174 139 -174z" />
    <glyph glyph-name="dvT_TA" horiz-adv-x="714" 
d="M27 705l6 35h778l-6 -35h-151l-124 -705h-41l82 465h-155c-149 0 -263 -61 -289 -223c-22 -131 49 -206 187 -206h22l-6 -34h-26c-152 0 -244 88 -218 242c21 122 91 193 171 223h-206l6 34h521l36 204h-587z" />
    <glyph glyph-name="dvT_T_YA" horiz-adv-x="1136" 
d="M723 164c121 0 231 82 252 207v-3l59 337h-233l-15 -87c-27 -148 -124 -195 -251 -195c-1 -6 -2 -11 -3 -15c-28 -152 48 -244 191 -244zM951 0h-41l45 256c-41 -66 -124 -127 -243 -127c-163 0 -250 111 -219 282v2c-3 27 -23 79 -141 79c-123 0 -214 -76 -240 -214
c-23 -117 36 -206 185 -206h25l-7 -34h-27c-160 0 -245 95 -216 242c22 116 84 184 151 213h-189l7 34h310c115 0 158 -40 172 -77c108 1 199 36 224 173l14 82h-756l7 35h1220l-6 -35h-152z" />
    <glyph glyph-name="dvT_T_VA" horiz-adv-x="1102" 
d="M703 149c143 0 219 110 235 196c17 94 -22 200 -166 200c-108 0 -211 -74 -233 -196c-22 -127 52 -200 164 -200zM1192 705h-151l-124 -705h-39l42 242c-41 -70 -118 -127 -227 -127c-132 0 -220 88 -193 237c7 43 23 81 46 113h-130c-149 0 -262 -61 -289 -223
c-22 -131 49 -206 187 -206h22l-6 -34h-26c-152 0 -244 88 -218 242c21 122 91 193 171 223h-206l6 34h519c50 50 118 78 191 78c112 0 171 -57 190 -128l44 254h-974l6 35h1166z" />
    <glyph glyph-name="dvT_THA" horiz-adv-x="1137" 
d="M913 0l44 252c-31 -65 -123 -143 -249 -143c-164 0 -259 108 -227 283c0 2 1 5 1 7h-115c-146 0 -252 -59 -274 -178c-22 -117 48 -185 189 -185h25l-6 -34h-28c-157 0 -246 79 -220 223c26 145 148 208 312 208h230c103 0 223 25 246 143c16 76 -25 137 -110 137
c-107 0 -169 -82 -169 -190h-38c1 76 30 142 80 182h-577l5 35h639c20 6 41 9 64 9c107 0 165 -76 145 -174c-26 -129 -140 -174 -272 -174h-77v-2h-8c-31 -161 43 -255 194 -255c121 0 236 86 258 212l68 384h191l-5 -35h-151l-125 -705h-40z" />
    <glyph glyph-name="dvT_NA" horiz-adv-x="1142" 
d="M600 173c87 0 160 65 175 147c17 86 -36 146 -124 146c-90 0 -162 -59 -179 -147c-15 -86 36 -146 128 -146zM957 0h-40l82 467h-245c41 -26 68 -79 56 -150c-20 -107 -109 -179 -216 -179c-111 0 -178 76 -160 182c12 65 46 115 97 146h-147c-149 0 -259 -68 -285 -215
c-24 -137 43 -215 186 -215h23l-6 -34h-25c-155 0 -247 89 -219 250c31 174 160 249 330 249h617l36 204h-1014l6 35h1206l-7 -35h-151z" />
    <glyph glyph-name="dvT_N_YA" horiz-adv-x="1608" 
d="M597 140c87 0 160 65 175 147c17 86 -36 146 -124 146c-90 0 -162 -59 -179 -147c-15 -86 36 -146 128 -146zM1195 164c115 0 221 74 249 189l62 352h-233l-15 -87c-23 -134 -116 -181 -252 -183c-1 -3 -1 -6 -2 -9c-28 -147 46 -262 191 -262zM1423 0h-41l45 256
c-40 -66 -123 -127 -242 -127c-161 0 -251 126 -219 300c0 2 1 3 1 5h-216c41 -26 69 -80 56 -150c-20 -107 -108 -179 -215 -179c-112 0 -178 76 -161 182c12 65 46 115 97 146h-147c-148 0 -256 -67 -282 -183c-31 -136 43 -214 186 -214h23l-6 -34h-25
c-155 0 -253 89 -219 249c31 143 158 217 327 217h607c117 0 206 32 227 155l14 82h-1206l6 35h1671l-6 -35h-152z" />
    <glyph glyph-name="dvT_PA" horiz-adv-x="1010" 
d="M659 254c105 0 177 72 199 160l51 291h-347l-44 -245c-22 -128 25 -206 141 -206zM826 0h-41l57 323c-40 -63 -107 -104 -193 -104c-135 0 -197 93 -171 241l1 5h-95c-149 0 -259 -67 -285 -214c-24 -137 43 -215 186 -215h23l-6 -34h-25c-155 0 -247 89 -219 250
c31 173 160 249 330 249h97l37 204h-495l6 35h1074l-6 -35h-152z" />
    <glyph glyph-name="dvT_P_RA" horiz-adv-x="1010" 
d="M659 254c99 0 176 72 199 159l51 292h-347l-43 -245c-22 -128 24 -206 140 -206zM785 0l57 325c-16 -26 -37 -48 -61 -65l-319 -264h-48l279 228c-15 -3 -31 -4 -47 -4c-132 0 -194 92 -168 240l1 5h-95c-149 0 -259 -67 -285 -214c-24 -137 43 -215 186 -215h23l-6 -34
h-25c-155 0 -247 89 -219 250c31 173 160 249 330 249h97l37 204h-495l6 35h1074l-6 -35h-151l-124 -705h-41z" />
    <glyph glyph-name="dvT_P_LA" horiz-adv-x="1634" 
d="M645 254c88 0 146 54 174 124c33 107 111 176 220 176c113 0 148 -89 148 -163h2c26 71 83 155 191 162l27 152h-845l-44 -245c-22 -128 12 -206 127 -206zM302 2h-25c-155 0 -247 89 -219 250c31 173 160 249 330 249h97l37 204h-495l6 35h1697l-6 -35h-277l-27 -152
c103 -12 148 -105 127 -223c-24 -136 -115 -239 -266 -238c-11 0 -25 1 -36 2l6 36c10 -1 21 -2 30 -2c126 0 205 88 225 203c18 103 -17 187 -119 187c-105 0 -174 -87 -198 -221l-2 -11h-35l1 11c25 131 -11 221 -114 221c-107 0 -172 -81 -190 -187
c-21 -115 26 -203 153 -203c10 0 19 1 30 2l-7 -36c-10 -1 -18 -2 -29 -2c-136 0 -200 85 -193 201c-38 -46 -94 -74 -164 -74c-137 0 -187 93 -161 241l1 5h-95c-149 0 -259 -67 -285 -214c-24 -137 43 -215 186 -215h23z" />
    <glyph glyph-name="dvT_PHA" horiz-adv-x="1354" 
d="M649 254c105 0 176 82 193 178v0l48 273h-328l-44 -246c-22 -127 16 -205 131 -205zM806 0h-40l57 325c-39 -64 -104 -106 -187 -106c-132 0 -184 92 -158 240l1 6h-95c-149 0 -259 -67 -285 -214c-24 -137 43 -215 186 -215h23l-6 -34h-25c-155 0 -247 89 -219 250
c31 173 160 249 330 249h98l36 204h-495l6 35h1418l-7 -35h-514l-46 -260c38 71 110 130 215 130c117 0 196 -87 172 -225c-26 -147 -132 -232 -251 -232c-22 0 -45 3 -59 7l6 33c15 -3 34 -5 52 -5c100 0 189 71 211 196c21 118 -48 191 -146 191
c-132 0 -202 -108 -218 -200v0z" />
    <glyph glyph-name="dvT_MA" horiz-adv-x="1149" 
d="M579 177c77 0 133 57 151 157l17 97h-112c-81 0 -146 -49 -160 -128c-14 -77 32 -126 104 -126zM1006 466l42 239h-215l-42 -239h215zM964 0h-40l76 431h-215l-17 -95c-22 -129 -92 -195 -192 -195c-98 0 -156 66 -139 162c10 55 39 98 80 127l-116 -1
c-152 -1 -276 -46 -302 -186c-26 -136 43 -207 186 -207h23l-6 -34h-25c-155 0 -247 82 -219 242c30 173 177 220 348 221l223 1h11h113l41 239h-767l6 35h1213l-7 -35h-151z" />
    <glyph glyph-name="dvT_M_YA" horiz-adv-x="1616" 
d="M578 165c76 0 132 58 150 158l17 97h-112c-81 0 -145 -49 -159 -128c-14 -77 32 -127 104 -127zM1006 455c105 0 197 32 221 168l15 82h-407l-45 -250h216zM1204 164c118 0 227 79 251 201l59 340h-232l-15 -87c-28 -150 -127 -195 -251 -195c-1 -6 -2 -11 -3 -15
c-29 -152 47 -244 191 -244zM1432 0h-41l45 256c-41 -66 -124 -127 -244 -127c-161 0 -249 111 -218 282c0 3 1 6 2 9h-192l-17 -95c-23 -129 -92 -195 -193 -195c-98 0 -156 66 -139 162c10 55 39 99 80 127l-117 -1c-150 -1 -273 -36 -299 -175c-26 -136 43 -207 186 -207
h23l-6 -34h-25c-155 0 -247 82 -219 242c31 171 176 209 345 210l226 1h10h112l45 250h-769l6 35h1680l-6 -35h-152z" />
    <glyph glyph-name="dvT_YA" horiz-adv-x="1127" 
d="M715 164c121 0 231 82 252 207v-3l59 337h-233l-15 -87c-27 -148 -124 -195 -251 -195c-1 -6 -2 -11 -3 -15c-28 -152 48 -244 191 -244zM943 0h-41l45 256c-41 -66 -124 -127 -243 -127c-163 0 -250 111 -219 280c-2 25 -17 83 -141 83c-117 0 -220 -68 -245 -215
c-24 -136 43 -215 186 -215h23l-6 -34h-27c-156 0 -245 91 -217 251c30 173 151 248 288 248c111 0 153 -40 168 -77c108 1 200 35 225 173l14 82h-726l6 35h1191l-6 -35h-152z" />
    <glyph glyph-name="dvT_R_YA" horiz-adv-x="1173" 
d="M746 113c121 0 236 81 258 204v-3l68 391h-232l-28 -155c-26 -147 -124 -196 -251 -196c-1 -6 -2 -11 -3 -15c-25 -140 45 -226 188 -226zM741 78c-158 0 -242 93 -225 239l-374 -317h-53v3l436 365c-14 78 -75 137 -177 137c-113 0 -217 -72 -239 -200h-40
c25 148 145 234 283 234c122 0 192 -69 209 -158c100 4 189 42 212 174l26 150h-772l6 35h1237l-6 -35h-152l-123 -705h-40l37 209c-42 -68 -125 -131 -245 -131z" />
    <glyph glyph-name="dvT_LA" horiz-adv-x="1278" 
d="M302 2h-25c-155 0 -247 89 -219 250c31 173 160 249 330 249h151c39 34 87 53 145 53c113 0 148 -89 148 -163h2c26 71 83 155 191 162l27 152h-1025l6 35h1342l-6 -35h-277l-27 -152c103 -12 148 -105 127 -223c-24 -136 -115 -239 -266 -238c-11 0 -25 1 -36 2l6 36
c10 -1 21 -2 30 -2c126 0 205 88 225 203c18 103 -17 187 -119 187c-105 0 -174 -87 -198 -221l-2 -11h-35l1 11c25 131 -11 221 -114 221c-107 0 -172 -81 -190 -187c-21 -115 26 -203 153 -203c10 0 19 1 30 2l-7 -36c-10 -1 -18 -2 -29 -2c-151 0 -213 105 -188 240
c9 52 27 97 54 133h-123c-149 0 -259 -67 -285 -214c-24 -137 43 -215 186 -215h23z" />
    <glyph glyph-name="dvT_VA" horiz-adv-x="1074" 
d="M676 149c143 0 219 110 235 196c17 94 -22 200 -166 200c-108 0 -211 -74 -233 -196c-22 -127 52 -200 164 -200zM1165 705h-151l-124 -705h-39l42 242c-41 -70 -118 -127 -227 -127c-132 0 -220 88 -193 237c7 43 23 81 46 113h-135c-149 0 -259 -67 -285 -214
c-24 -137 43 -215 186 -215h23l-6 -34h-25c-155 0 -247 89 -219 250c31 173 160 249 330 249h161c50 50 118 78 191 78c112 0 171 -57 190 -128l44 254h-947l6 35h1139z" />
    <glyph glyph-name="dvT_SA" horiz-adv-x="1232" 
d="M880 582c-17 -99 -71 -158 -130 -187h326l54 310h-228zM853 201c-17 -119 -89 -210 -211 -210c-123 0 -181 89 -159 216l22 125c8 52 -28 133 -155 133c-133 0 -225 -67 -251 -214c-24 -137 43 -215 186 -215h23l-6 -34h-26c-156 0 -246 90 -217 252
c30 172 142 248 295 248c110 0 165 -52 182 -109h83c118 0 201 73 222 189l21 123h-835l6 35h1296l-7 -35h-151l-124 -705h-40l63 361h-520l-27 -157c-18 -104 21 -177 123 -177c95 0 153 75 167 174h40z" />
    <glyph glyph-name="dvT_S_NA" horiz-adv-x="1721" 
d="M880 582c-17 -99 -71 -158 -130 -187h287c38 72 113 114 206 114h344l34 196h-719zM1180 180c87 0 159 65 175 147c16 86 -37 146 -124 146c-90 0 -163 -59 -179 -148c-16 -85 36 -145 128 -145zM853 201c-17 -119 -89 -210 -211 -210c-123 0 -181 89 -159 216l22 125
c8 52 -28 133 -155 133c-133 0 -225 -67 -251 -214c-24 -137 43 -215 186 -215h23l-6 -34h-26c-156 0 -246 90 -217 252c30 172 142 248 295 248c110 0 165 -52 182 -109h83c118 0 201 73 222 189l21 123h-835l6 35h1785l-6 -35h-151l-124 -705h-40l84 474h-248
c42 -26 69 -79 56 -150c-18 -107 -108 -179 -215 -179c-111 0 -179 76 -160 182c2 12 5 23 8 34h-472l-27 -157c-18 -104 21 -177 123 -177c95 0 153 75 167 174h40z" />
    <glyph glyph-name="dvT_S_YA" horiz-adv-x="1673" 
d="M1054 395c109 0 197 34 224 188l21 122h-397l-19 -105c-20 -114 -76 -176 -135 -205h306zM1252 155c112 0 223 70 256 179l64 371h-233l-22 -127c-28 -165 -121 -213 -247 -213c-2 -6 -3 -12 -4 -15c-25 -109 47 -195 186 -195zM852 201c-16 -119 -88 -210 -210 -210
c-123 0 -181 89 -159 216l21 124c8 51 -26 134 -154 134c-133 0 -225 -67 -251 -214c-24 -137 43 -215 186 -215h23l-6 -34h-26c-156 0 -246 90 -217 252c30 172 142 248 295 248c110 0 165 -52 182 -109h83c118 0 200 73 224 207l19 105h-835l6 35h1737l-6 -35h-152
l-123 -705h-40l43 247c-43 -66 -132 -127 -251 -127c-162 0 -239 105 -213 233c0 3 1 5 1 8h-480l-27 -157c-18 -104 22 -177 123 -177c96 0 153 75 168 174h39z" />
    <glyph glyph-name="dvT_S_VA" horiz-adv-x="1609" 
d="M883 600c-20 -114 -76 -176 -135 -205h271c38 115 142 184 256 184c112 0 171 -57 190 -128l44 254h-607zM1211 149c143 0 219 110 235 196c17 94 -22 200 -166 200c-108 0 -211 -74 -233 -196c-22 -127 52 -200 164 -200zM1700 705h-151l-124 -705h-39l42 242
c-41 -70 -118 -127 -227 -127c-132 0 -220 88 -193 237c1 3 1 6 2 9h-460l-27 -157c-18 -104 21 -177 123 -177c95 0 153 75 167 174h40c-17 -119 -89 -210 -211 -210c-123 0 -181 89 -159 216l22 125c8 52 -28 133 -155 133c-133 0 -225 -67 -251 -214
c-24 -137 43 -215 186 -215h23l-6 -34h-26c-156 0 -246 90 -217 252c30 172 142 248 295 248c110 0 165 -52 182 -109h83c118 0 200 73 224 207l19 105h-835l6 35h1674z" />
    <glyph glyph-name="dvTH_NA" horiz-adv-x="1286" 
d="M325 109c-186 0 -272 127 -222 307h104c101 0 223 27 246 160c14 76 -24 137 -110 137c-107 0 -170 -80 -169 -190h-38c1 129 81 226 213 226c105 0 160 -76 143 -174c-25 -143 -149 -191 -279 -191h-79c-30 -150 48 -240 196 -240c107 0 216 72 248 178l1 5
c19 112 110 182 229 182h344l34 196h-537l6 35h728l-6 -35h-151l-124 -705h-40l84 474h-248c42 -26 69 -79 56 -150c-18 -107 -108 -179 -215 -179c-82 0 -141 42 -158 106c-52 -87 -151 -142 -256 -142zM745 180c87 0 159 65 175 147c16 86 -36 146 -124 146
c-90 0 -163 -59 -179 -148c-15 -85 36 -145 128 -145z" />
    <glyph glyph-name="dvTH_YA" horiz-adv-x="1233" 
d="M1324 705h-152l-123 -705h-40l45 258c-41 -67 -124 -129 -244 -129s-200 61 -220 163c-51 -114 -154 -183 -265 -183c-186 0 -272 127 -222 307h104c101 0 223 27 246 160c14 76 -24 137 -110 137c-107 0 -170 -80 -169 -190h-38c1 129 81 226 213 226
c105 0 160 -76 143 -174c-25 -143 -149 -191 -279 -191h-79c-30 -150 48 -240 192 -240c121 0 233 94 262 246l3 21c2 12 6 27 9 39h17c110 0 203 34 228 173l14 82h-214l6 35h679zM821 164c119 0 228 79 252 201l59 340h-233l-15 -87c-27 -148 -124 -195 -251 -195
c-1 -6 -2 -11 -3 -15c-28 -152 48 -244 191 -244z" />
    <glyph glyph-name="dvTH_VA" horiz-adv-x="1187" 
d="M325 109c-186 0 -272 127 -222 307h104c101 0 223 27 246 160c14 76 -24 137 -110 137c-107 0 -170 -80 -169 -190h-38c1 129 81 226 213 226c105 0 160 -76 143 -174c-25 -143 -149 -191 -279 -191h-79c-30 -150 48 -240 196 -240c109 0 223 78 252 191c1 6 2 11 3 17
c24 140 141 228 268 227c113 -1 172 -58 188 -131l45 257h-440l7 35h631l-7 -35h-151l-124 -705h-39l43 244c-42 -71 -119 -129 -228 -129c-101 0 -176 52 -194 143c-51 -91 -152 -149 -259 -149zM788 149c143 0 219 110 235 196c17 94 -22 200 -165 200
c-109 0 -212 -74 -234 -196c-22 -127 52 -200 164 -200z" />
    <glyph glyph-name="dvD_GA" horiz-adv-x="619" 
d="M30 705l6 35h683l-6 -35h-165l-28 -162h-138c-123 0 -212 -54 -230 -155c-16 -90 37 -148 138 -148c67 0 175 45 193 145h35l-96 -544h-39l80 454c-37 -51 -107 -89 -182 -89l-25 -141c-14 -80 -63 -151 -161 -151c-90 0 -129 70 -114 146c2 10 3 20 5 30h36l-5 -30
c-8 -52 10 -112 80 -112c80 0 112 62 122 118l26 142c-99 13 -150 84 -133 183c23 128 129 187 272 187h102l22 127h-478z" />
    <glyph glyph-name="dvD_G_RA" horiz-adv-x="619" 
d="M27 705l6 35h683l-6 -35h-164l-29 -162h-140c-123 0 -210 -54 -228 -155c-17 -89 36 -148 136 -148c71 0 176 47 194 145h36l-96 -544h-37l36 207l-301 -259h-47l355 302l36 204c-38 -51 -111 -89 -183 -89l-13 -73c-13 -83 -66 -151 -165 -151c-91 0 -118 68 -110 145
c1 10 3 20 5 30h36l-5 -30c-11 -55 9 -111 78 -111c82 0 115 60 124 116l13 76c-98 13 -149 85 -132 181c22 130 129 189 272 189h102l22 127h-478z" />
    <glyph glyph-name="dvD_GHA" horiz-adv-x="891" 
d="M219 -24c93 0 181 61 221 167c-65 37 -97 111 -80 205c11 62 37 110 73 146c-45 29 -90 42 -137 42c-98 0 -155 -61 -166 -125c-14 -78 31 -129 138 -129h6l-6 -34h-6c-109 0 -166 -63 -179 -133c-17 -94 47 -139 136 -139zM27 705l6 35h955l-6 -35h-161l-28 -163h-131
c-123 0 -239 -62 -262 -195c-20 -116 44 -195 158 -195c75 0 180 46 200 162h37l-56 -320h-40l39 223c-35 -58 -110 -99 -193 -99c-28 0 -53 4 -76 12c-43 -118 -144 -189 -261 -189c-105 0 -186 60 -166 174c16 89 87 141 152 148l1 3c-64 13 -120 58 -104 151
c13 80 82 154 206 154c60 0 117 -20 164 -53c56 41 129 60 204 60h93l23 127h-754z" />
    <glyph glyph-name="dvD_DA" horiz-adv-x="532" 
d="M361 -37l30 172c-30 -53 -101 -107 -205 -107c-113 0 -179 63 -162 162c13 74 73 128 144 136v3c-58 8 -114 55 -100 130c20 106 118 141 233 141c35 0 71 0 106 -1l19 106h-411l6 35h609l-6 -35h-158l-24 -136h-139c-98 0 -181 -32 -196 -115c-11 -62 36 -110 130 -110
h102l-5 -32h-101c-96 0 -156 -54 -167 -119c-14 -87 40 -132 135 -132c106 0 192 62 213 179h35l-49 -277h-39z" />
    <glyph glyph-name="dvD_DHA" horiz-adv-x="892" 
d="M29 705l6 35h954l-7 -35h-161l-28 -163h-131c-123 0 -239 -62 -262 -195c-20 -116 44 -195 158 -195c75 0 180 46 200 162h37l-56 -320h-39l38 223c-35 -58 -109 -99 -193 -99c-28 0 -53 4 -76 12c-43 -118 -146 -189 -261 -189c-104 0 -187 59 -166 173
c16 86 84 140 153 149v3c-60 11 -120 57 -104 152c15 85 92 163 234 152l-6 -35c-111 8 -176 -53 -189 -123c-14 -75 31 -130 138 -130h6l-6 -34h-6c-106 0 -165 -63 -179 -134c-18 -93 49 -138 133 -138c95 0 184 61 224 168c-64 36 -97 109 -80 204
c28 161 161 230 305 230h93l23 127h-752z" />
    <glyph glyph-name="dvD_NA" horiz-adv-x="1360" 
d="M493 -284l-84 186h41l85 -186h-42zM819 180c87 0 159 65 175 147c16 86 -37 146 -124 146c-90 0 -163 -59 -179 -148c-16 -85 36 -145 128 -145zM456 -6h-40l39 223c-35 -58 -110 -99 -193 -99c-130 0 -210 93 -186 230c29 162 163 230 306 230h93l22 127h-470l6 35h1424
l-6 -35h-151l-124 -705h-40l84 474h-248c42 -26 69 -79 56 -150c-18 -107 -108 -179 -215 -179c-111 0 -179 76 -160 182c19 112 110 182 229 182h344l34 196h-722l-29 -163h-130c-123 0 -238 -62 -262 -195c-20 -116 44 -195 158 -195c75 0 180 46 200 162h37z" />
    <glyph glyph-name="dvD_BA" horiz-adv-x="600" 
d="M27 705l6 35h664l-6 -35h-164l-28 -162h-140c-123 0 -211 -51 -229 -146c-18 -90 46 -157 135 -157c72 0 178 41 197 145h35l-100 -564h-36l29 164c-38 -65 -106 -105 -184 -105c-98 0 -173 72 -154 184c14 81 73 138 142 158c-72 23 -120 92 -104 178
c23 119 130 178 273 178h102l22 127h-460zM218 -89c58 0 106 29 139 67l-227 170c-21 -23 -35 -51 -41 -84c-17 -97 45 -153 129 -153zM262 206c-45 -3 -84 -18 -115 -43l224 -168c17 24 29 51 33 75h1l40 225c-35 -49 -102 -84 -183 -89z" />
    <glyph glyph-name="dvD_B_RA" horiz-adv-x="600" 
d="M27 705l6 35h664l-6 -35h-164l-28 -162h-140c-123 0 -211 -51 -229 -146c-18 -90 46 -157 135 -157c72 0 178 41 197 145h35l-100 -564h-36l29 164c-16 -27 -37 -50 -63 -68l-210 -165h-48l169 130c-11 -1 -21 -2 -32 -2c-98 0 -173 72 -154 184c14 81 73 138 142 158
c-72 23 -120 92 -104 178c23 119 130 178 273 178h102l22 127h-460zM218 -89c34 0 65 10 91 26l1 1v0c18 11 34 25 47 40l-227 170c-21 -23 -35 -51 -41 -84c-17 -97 45 -153 129 -153zM262 206c-45 -3 -84 -18 -115 -43l224 -168c17 24 29 51 33 75h1l40 225
c-35 -49 -102 -84 -183 -89z" />
    <glyph glyph-name="dvD_BHA" horiz-adv-x="1327" 
d="M494 -284l-84 186h41l86 -186h-43zM27 705l6 35h672l-6 -35h-161l-29 -163h-130c-123 0 -238 -62 -262 -195c-20 -116 44 -195 158 -195c75 0 180 46 200 162h37l-56 -320h-40l39 223c-35 -58 -110 -99 -193 -99c-130 0 -210 93 -186 230c29 162 163 230 306 230h93
l22 127h-470zM782 159c76 0 133 57 150 158l17 97h-110c-81 0 -147 -50 -161 -128c-14 -77 32 -127 104 -127zM779 124c-98 0 -156 65 -139 162c18 101 101 162 203 162h112l19 105c17 98 -6 160 -86 160c-65 0 -120 -47 -135 -128c-2 -13 -3 -27 -3 -42h-40c0 14 1 29 3 43
c17 100 87 163 178 163c106 0 142 -78 121 -200l-18 -101h187l51 292h192l-5 -35h-151l-125 -705h-41l73 414h-187l-17 -95c-22 -129 -92 -195 -192 -195z" />
    <glyph glyph-name="dvD_MA" horiz-adv-x="789" 
d="M213 -84c66 0 117 51 133 137l14 77h-93c-69 0 -129 -44 -141 -109c-13 -63 29 -105 87 -105zM404 164h200l96 541h-213l-28 -162h-151c-81 0 -150 -36 -164 -107c-15 -83 42 -119 125 -119h162zM40 705l5 35h853l-6 -35h-152l-158 -894h-40l56 319h-200l-13 -76
c-20 -111 -87 -172 -173 -172c-81 0 -138 56 -123 140c16 91 95 142 185 142h93l20 119h-129c-96 0 -172 51 -154 154c18 100 104 141 206 141h116l21 127h-407z" />
    <glyph glyph-name="dvD_YA" horiz-adv-x="694" 
d="M231 80c135 0 266 76 298 257v0l65 368h-181l-22 -128h-89c-84 0 -170 -29 -184 -108c-15 -80 54 -110 143 -110h68l-6 -33h-66c-95 0 -171 -35 -185 -117c-14 -83 59 -129 159 -129zM52 705l6 35h733l-7 -35h-150l-125 -705h-39l37 210c-57 -109 -162 -162 -288 -162
c-111 0 -204 55 -188 158c15 100 108 133 152 135v2c-53 4 -123 41 -106 128c19 99 120 129 209 129c23 0 46 0 69 -1l19 106h-322z" />
    <glyph glyph-name="dvD_VA" horiz-adv-x="598" 
d="M27 705l6 35h662l-6 -35h-164l-28 -162h-140c-123 0 -209 -55 -229 -156c-16 -87 39 -147 138 -147c74 0 170 41 194 145h35l-99 -562h-37l28 163c-38 -60 -104 -95 -175 -95c-98 0 -167 69 -150 175c12 79 69 134 129 154c-75 22 -117 87 -102 171
c22 126 129 187 272 187h102l22 127h-458zM223 -76c101 0 170 81 180 151v0l38 220c-35 -50 -95 -83 -182 -89c-73 -5 -147 -59 -159 -140c-13 -88 42 -142 123 -142z" />
    <glyph glyph-name="dvDH_NA" horiz-adv-x="1249" 
d="M269 109c-122 0 -208 58 -188 172c17 92 88 138 152 144v3c-65 13 -120 65 -102 163c15 91 89 158 187 158c105 0 156 -72 126 -182h-34c25 91 -13 147 -96 147c-75 0 -136 -56 -147 -127c-16 -85 31 -142 138 -142h59l-6 -34h-54c-109 0 -169 -57 -182 -128
c-17 -96 59 -138 155 -138c134 0 245 76 266 188v0c21 109 110 176 227 176h344l34 196h-546l6 35h738l-6 -35h-151l-124 -705h-41l84 474h-247c42 -26 69 -79 56 -150c-19 -107 -109 -179 -215 -179c-85 0 -143 43 -159 110c-48 -88 -148 -146 -274 -146zM707 180
c87 0 160 65 176 147c16 86 -37 146 -124 146c-90 0 -164 -59 -179 -148c-16 -85 35 -145 127 -145z" />
    <glyph glyph-name="dvDH_N_YA" horiz-adv-x="1708" 
d="M269 109c-122 0 -208 58 -188 172c17 92 88 138 152 144v3c-65 13 -120 65 -102 163c15 91 89 158 187 158c105 0 156 -72 126 -182h-34c25 91 -13 147 -96 147c-75 0 -136 -56 -147 -127c-16 -85 31 -142 138 -142h59l-6 -34h-54c-109 0 -169 -57 -182 -128
c-17 -96 59 -138 155 -138c123 0 226 64 258 158c25 103 112 165 225 165h332c117 0 206 32 227 155l14 82h-731l6 35h1196l-6 -35h-152l-123 -705h-40l45 257c-40 -66 -122 -128 -243 -128c-161 0 -250 126 -219 300c0 2 1 3 1 5h-215c41 -26 68 -80 55 -150
c-20 -107 -108 -179 -215 -179c-92 0 -153 52 -162 129c-52 -77 -145 -125 -261 -125zM697 140c87 0 160 65 175 147c17 86 -36 146 -123 146c-90 0 -163 -59 -179 -147c-16 -86 35 -146 127 -146zM1295 164c119 0 228 79 252 201l59 340h-233l-15 -87
c-23 -134 -116 -182 -252 -183c0 -3 -1 -6 -1 -9c-28 -147 45 -262 190 -262z" />
    <glyph glyph-name="dvDH_MA" horiz-adv-x="1239" 
d="M666 159c77 0 132 57 151 158l17 97h-112c-81 0 -146 -50 -159 -128c-14 -77 31 -127 103 -127zM269 109c-122 0 -208 58 -188 172c17 92 88 138 152 144v3c-65 13 -120 65 -102 163c15 91 89 158 187 158c105 0 156 -72 126 -182h-34c25 91 -13 147 -96 147
c-75 0 -136 -56 -147 -127c-16 -85 31 -142 138 -142h59l-6 -34h-54c-109 0 -169 -57 -182 -128c-17 -96 59 -138 155 -138c119 0 215 59 248 147c20 98 102 156 202 156h113l45 257h-284l6 35h729l-6 -35h-151l-124 -705h-41l73 414h-214l-17 -95
c-23 -129 -93 -195 -193 -195c-77 0 -130 41 -140 106c-51 -74 -140 -121 -254 -121zM1093 448l45 257h-215l-45 -257h215z" />
    <glyph glyph-name="dvDH_YA" horiz-adv-x="1183" 
d="M269 109c-114 0 -208 62 -188 175c17 89 88 135 152 141v3c-65 13 -120 65 -102 163c15 91 89 158 187 158c105 0 156 -72 126 -182h-34c25 91 -13 147 -96 147c-75 0 -136 -56 -147 -127c-16 -85 31 -142 138 -142h59l-6 -34h-54c-109 0 -168 -57 -182 -128
c-17 -90 59 -138 151 -138c132 0 240 96 265 244c1 8 2 15 3 22c2 12 5 27 9 39h16c110 0 203 34 228 173l15 82h-207l6 35h672l-7 -35h-151l-124 -705h-40l45 256c-41 -66 -125 -127 -244 -127c-121 0 -201 62 -220 166c-48 -114 -145 -186 -270 -186zM771 164
c118 0 227 79 251 201l59 340h-232l-16 -87c-26 -148 -123 -195 -250 -195c-1 -6 -2 -11 -3 -15c-29 -152 47 -244 191 -244z" />
    <glyph glyph-name="dvDH_VA" horiz-adv-x="1148" 
d="M269 109c-122 0 -208 58 -188 172c17 92 88 138 152 144v3c-65 13 -120 65 -102 163c15 91 89 158 187 158c105 0 156 -72 126 -182h-34c25 91 -13 147 -96 147c-75 0 -136 -56 -147 -127c-16 -85 31 -142 138 -142h59l-6 -34h-54c-109 0 -169 -57 -182 -128
c-17 -96 59 -138 155 -138c132 0 229 72 270 212c27 137 141 222 268 222c113 0 172 -58 188 -131l45 257h-446l6 35h637l-6 -35h-152l-123 -705h-40l43 242c-42 -70 -119 -127 -228 -127c-106 0 -183 57 -196 158c-54 -106 -147 -164 -274 -164zM749 149
c143 0 220 110 235 196c17 94 -22 200 -165 200c-108 0 -212 -74 -234 -196c-22 -127 52 -200 164 -200z" />
    <glyph glyph-name="dvN_KA" horiz-adv-x="1512" 
d="M229 180c87 0 159 65 175 147c16 86 -37 146 -124 146c-90 0 -163 -59 -179 -148c-16 -85 36 -145 128 -145zM927 0l42 242c-38 -68 -111 -125 -214 -125c-123 0 -205 87 -179 232c9 49 28 91 53 125h-246c41 -26 68 -80 55 -150c-18 -107 -108 -179 -215 -179
c-111 0 -179 76 -160 182c19 112 110 182 229 182h369c47 42 107 66 171 66c105 0 158 -58 173 -127l45 257h-1023l6 35h1576l-7 -35h-513l-45 -257c38 70 107 127 210 127c117 0 199 -88 174 -227c-26 -146 -130 -230 -251 -230c-21 0 -43 3 -57 6l6 34c14 -3 33 -5 50 -5
c98 0 190 71 212 196c20 118 -48 191 -146 191c-125 0 -194 -97 -214 -184l-63 -356h-38zM767 152c132 0 202 105 219 185l3 20c11 85 -24 183 -153 183c-100 0 -198 -72 -219 -191c-22 -126 47 -197 150 -197z" />
    <glyph glyph-name="dvN_K_SA" horiz-adv-x="2096" 
d="M229 180c87 0 159 65 175 147c16 86 -37 146 -124 146c-90 0 -163 -59 -179 -148c-16 -85 36 -145 128 -145zM1487 410c118 0 199 74 221 190l19 105h-637l-46 -259c36 69 102 127 205 127s169 -66 168 -163h70zM768 152c132 0 202 105 219 185l3 20
c11 85 -24 183 -153 183c-100 0 -198 -72 -219 -191c-22 -126 47 -197 150 -197zM1747 600c-18 -102 -73 -160 -131 -188h328l51 293h-229zM1717 201c-17 -119 -88 -210 -210 -210c-124 0 -182 89 -160 216l29 162h-1c18 101 -42 171 -138 171c-126 0 -191 -108 -208 -184
l-63 -356h-38l42 242c-38 -68 -111 -125 -214 -125c-123 0 -205 87 -179 232c9 49 28 91 53 125h-247c41 -26 68 -80 55 -150c-18 -107 -108 -179 -215 -179c-111 0 -179 76 -160 182c19 112 110 182 229 182h370c47 42 107 66 171 66c105 0 158 -58 173 -127l45 257h-1024
l6 35h2160l-6 -35h-152l-123 -705h-41l67 378h-521l-30 -174c-18 -104 21 -177 123 -177c96 0 153 75 168 174h39z" />
    <glyph glyph-name="dvN_CA" horiz-adv-x="1181" 
d="M1272 705h-151l-124 -705h-40l42 237c-46 -74 -131 -127 -226 -127c-117 0 -205 76 -180 205c14 75 69 141 152 171h-77v-1h-287c42 -26 70 -80 57 -151c-19 -107 -108 -179 -215 -179c-111 0 -178 77 -160 182c19 112 110 182 229 182h603l-6 -33h-31
c-114 0 -207 -76 -225 -167c-23 -111 55 -174 153 -174c115 0 210 89 230 189l65 371h-1054l6 35h1246zM229 191c87 0 159 65 175 147c16 85 -37 146 -124 146c-90 0 -163 -60 -179 -148c-16 -85 36 -145 128 -145z" />
    <glyph glyph-name="dvN_CHA" horiz-adv-x="1317" 
d="M226 180c87 0 164 61 178 148c15 92 -39 145 -127 145c-90 0 -160 -59 -176 -148c-16 -85 38 -145 125 -145zM846 67c188 0 351 108 382 284c22 120 -40 174 -107 174c-58 0 -136 -34 -154 -137c-6 -30 -5 -65 1 -102h-36c-6 37 -6 72 0 105c20 113 101 159 176 165
l26 149h-422l-22 -123c-16 -93 21 -143 136 -143h23l-5 -35h-23c-131 0 -202 -69 -217 -152c-21 -123 88 -185 242 -185zM840 31c-173 0 -296 74 -278 210c-1 151 -89 222 -180 232c44 -28 68 -79 56 -149c-18 -110 -110 -179 -218 -179c-106 0 -175 76 -157 182
c19 112 110 182 224 182h62c110 0 214 -57 236 -197c33 65 97 100 164 108v2c-67 9 -119 54 -100 158l23 125h-647l5 35h1384l-5 -35h-237l-26 -149c81 -8 142 -73 120 -205c-36 -201 -213 -320 -426 -320z" />
    <glyph glyph-name="dvN_TTA" horiz-adv-x="1136" 
d="M229 180c87 0 159 65 175 147c16 86 -37 146 -124 146c-90 0 -163 -59 -179 -148c-16 -85 36 -145 128 -145zM773 56c-149 0 -249 104 -222 252c13 70 42 125 83 166h-251c41 -26 68 -80 55 -150c-18 -107 -108 -179 -215 -179c-111 0 -179 76 -160 182
c19 112 110 182 229 182h385c57 39 130 57 208 57h42l25 139h-925l6 35h1200l-6 -35h-235l-32 -174h-79c-139 0 -262 -72 -289 -225c-23 -125 58 -214 187 -214c131 0 231 92 253 222h39c-26 -152 -139 -258 -298 -258z" />
    <glyph glyph-name="dvN_DDA" horiz-adv-x="1062" 
d="M229 180c87 0 159 65 175 147c16 86 -37 146 -124 146c-90 0 -163 -59 -179 -148c-16 -85 36 -145 128 -145zM736 -11c-153 0 -224 86 -205 193h40c-15 -88 35 -160 169 -160c107 0 174 58 187 130c18 105 -65 134 -148 134h-43c-84 0 -164 39 -147 136c4 20 10 37 19 52
h-225c41 -26 68 -80 55 -150c-18 -107 -108 -179 -215 -179c-111 0 -179 76 -160 182c19 112 110 182 229 182h344c41 36 101 48 156 48h139l27 148h-931l6 35h1125l-6 -35h-155l-32 -179h-164c-69 0 -155 -17 -172 -105c-13 -78 47 -104 117 -104h44
c101 0 198 -44 176 -166c-17 -92 -95 -162 -230 -162z" />
    <glyph glyph-name="dvN_TA" horiz-adv-x="1183" 
d="M229 173c87 0 159 65 175 147c16 86 -37 146 -124 146c-90 0 -163 -59 -179 -147c-16 -86 36 -146 128 -146zM998 0h-40l82 465h-159c-149 0 -259 -67 -285 -214c-24 -137 43 -215 186 -215h23l-6 -34h-25c-155 0 -247 89 -219 250c19 107 76 177 157 215h-329
c41 -26 68 -80 55 -150c-19 -107 -108 -179 -215 -179c-111 0 -178 76 -160 182c19 111 110 181 229 181h754l36 204h-1055l6 35h1247l-7 -35h-151z" />
    </font>
</defs>
</svg>
