<?xml version="1.0" standalone="no"?>
<!DOCTYPE svg PUBLIC "-//W3C//DTD SVG 1.1//EN" "http://www.w3.org/Graphics/SVG/1.1/DTD/svg11.dtd" >
<svg xmlns="http://www.w3.org/2000/svg" xmlns:xlink="http://www.w3.org/1999/xlink" version="1.1">
<metadata>
Created by FontForge 20170910 at Fri Dec 22 02:45:43 2017
 By Jimmy Wärting
Copyright 2014-2017 Indian Type Foundry (info@indiantypefoundry.com)
</metadata>
<defs>
<font id="Poppins-Medium" horiz-adv-x="301" >
  <font-face 
    font-family="Poppins Medium"
    font-weight="500"
    font-stretch="normal"
    units-per-em="1000"
    panose-1="0 0 6 0 0 0 0 0 0 0"
    ascent="800"
    descent="-200"
    x-height="551"
    cap-height="695"
    bbox="-537 -582 2540 1077"
    underline-thickness="50"
    underline-position="-100"
    unicode-range="U+000D-FB02"
  />
<missing-glyph horiz-adv-x="500" 
d="M0 0v700h500v-700h-500zM250 395l170 255h-340zM280 350l170 -255v510zM80 50h340l-170 255zM50 605v-510l170 255z" />
    <glyph glyph-name=".notdef" horiz-adv-x="500" 
d="M0 0v700h500v-700h-500zM250 395l170 255h-340zM280 350l170 -255v510zM80 50h340l-170 255zM50 605v-510l170 255z" />
    <glyph glyph-name="NULL" horiz-adv-x="0" 
 />
    <glyph glyph-name="NULL" horiz-adv-x="0" 
 />
    <glyph glyph-name="CR" unicode="&#xd;" horiz-adv-x="260" 
 />
    <glyph glyph-name="space" unicode=" " horiz-adv-x="260" 
 />
    <glyph glyph-name="dvA" unicode="&#x905;" horiz-adv-x="831" 
d="M278 456c77 0 116 49 116 100c0 65 -48 104 -107 104c-63 0 -113 -39 -113 -101h-97c0 116 87 190 210 190c119 0 201 -70 201 -179c0 -74 -40 -132 -117 -153v-2c20 -4 37 -11 52 -20h205v345h226v-88h-122v-652h-104v308l-138 1c7 -20 10 -41 10 -61
c0 -117 -82 -193 -204 -193c-134 0 -226 83 -226 205h98c0 -66 49 -115 121 -115c71 0 115 46 115 113c0 17 -3 35 -11 51h-2v4c-18 33 -53 58 -113 58h-41v85h41z" />
    <glyph glyph-name="dvAA" unicode="&#x906;" horiz-adv-x="1126" 
d="M278 456c77 0 116 49 116 100c0 65 -48 104 -107 104c-63 0 -113 -39 -113 -101h-97c0 116 87 190 210 190c119 0 201 -70 201 -179c0 -74 -40 -132 -117 -153v-2c20 -4 37 -11 52 -20h205v345h528v-88h-122v-652h-105v652h-197v-652h-104v308l-138 1
c7 -20 10 -41 10 -61c0 -117 -82 -193 -204 -193c-134 0 -226 83 -226 205h98c0 -66 49 -115 121 -115c71 0 115 46 115 113c0 17 -3 35 -11 51h-2v4c-18 33 -53 58 -113 58h-41v85h41z" />
    <glyph glyph-name="dvI" unicode="&#x907;" horiz-adv-x="580" 
d="M-32 652v88h644v-88h-146v-182h-179c-49 0 -106 -13 -106 -73c0 -52 43 -71 95 -71h44c102 0 206 -41 206 -174c0 -93 -62 -167 -178 -167c-96 0 -143 54 -158 81v-145h-99v256h94c6 -66 53 -113 134 -113c72 0 107 42 107 91c0 74 -60 96 -125 96h-56
c-85 3 -169 44 -169 147c0 109 89 148 183 148h106v106h-397z" />
    <glyph glyph-name="dvII" unicode="&#x908;" horiz-adv-x="580" 
d="M190 66v-145h-99v256h94c6 -66 53 -113 134 -113c72 0 107 42 107 91c0 74 -60 96 -125 96h-56c-85 3 -169 44 -169 147c0 109 89 148 183 148h106v106h-397v88h398v71c0 109 47 200 176 200c112 0 174 -72 170 -179h-92c2 55 -28 91 -76 91c-55 0 -80 -38 -80 -111v-72
h148v-88h-146v-182h-179c-49 0 -106 -13 -106 -73c0 -52 43 -71 95 -71h44c102 0 206 -41 206 -174c0 -93 -62 -167 -178 -167c-96 0 -143 54 -158 81z" />
    <glyph glyph-name="dvU" unicode="&#x909;" horiz-adv-x="572" 
d="M-24 652v88h620v-88h-112v-91c0 -83 -44 -139 -105 -151v-2c82 -19 134 -96 134 -189c0 -126 -82 -216 -222 -216c-142 0 -243 91 -243 227h100c0 -76 59 -133 138 -133c78 0 128 54 128 130c0 63 -38 133 -135 133h-50v92h36c77 0 118 46 118 115v85h-407z" />
    <glyph glyph-name="dvUU" unicode="&#x90a;" horiz-adv-x="861" 
d="M-24 652v88h908v-88h-400v-91c0 -83 -44 -139 -105 -151v-2h199c131 0 232 -57 232 -197c0 -123 -80 -186 -193 -186c-16 0 -33 2 -50 4v80c11 -1 22 -1 33 -1c60 0 109 29 109 107c0 79 -59 109 -130 109h-95c18 -31 28 -69 28 -110c0 -121 -82 -211 -221 -211
c-142 0 -243 91 -243 227h100c0 -76 59 -133 138 -133c78 0 128 54 128 130c0 63 -38 133 -135 133h-50v92h36c77 0 118 46 118 115v85h-407z" />
    <glyph glyph-name="dvvR" unicode="&#x90b;" horiz-adv-x="1030" 
d="M492 0v244l-248 -244h-132v6l380 345c-15 67 -71 116 -150 116c-101 0 -168 -68 -168 -174h-105c0 157 96 263 243 263c84 0 143 -34 180 -89v185h-516v88h1078v-88h-465v-210h169c55 0 78 26 78 69v52h91v-353h-21c-71 0 -107 -42 -107 -95c0 -68 50 -93 110 -93
c20 0 42 4 57 8v-84c-18 -4 -47 -8 -71 -8c-110 0 -197 56 -197 168c0 86 54 145 138 164v108c-27 -13 -58 -20 -93 -20h-154v-358h-97z" />
    <glyph glyph-name="dvvRR" unicode="&#x960;" horiz-adv-x="996" 
d="M492 0v244l-248 -244h-132v6l380 345c-15 67 -71 116 -150 116c-101 0 -168 -68 -168 -174h-105c0 157 96 263 243 263c84 0 143 -34 180 -89v185h-516v88h1079v-88h-466v-210h169c55 0 78 26 78 69v52h91v-355h-39c-45 0 -87 -15 -87 -67c0 -48 42 -65 91 -65h50v-79
h-48c-47 0 -94 -15 -94 -69c0 -51 48 -67 98 -67c40 0 81 10 99 16v-79c-27 -11 -73 -19 -114 -19c-93 0 -183 39 -183 139c0 62 41 104 93 115v3c-52 12 -93 46 -93 110c0 85 71 118 136 121v111c-27 -13 -58 -20 -93 -20h-154v-358h-97z" />
    <glyph glyph-name="dvvL" unicode="&#x90c;" horiz-adv-x="902" 
d="M-24 652v88h949v-88h-238v-117c89 -23 150 -103 150 -227c0 -36 -5 -70 -16 -100h-7c-83 0 -119 -42 -119 -96c0 -66 50 -92 111 -92c21 0 42 3 58 8v-84c-21 -5 -46 -8 -70 -8c-113 0 -200 56 -200 171c0 81 57 144 135 158c3 14 4 28 4 44c0 78 -39 139 -115 139
c-83 0 -121 -69 -121 -164v-21h-88v21c0 93 -36 164 -116 164s-122 -60 -122 -141c0 -96 52 -155 144 -155c7 0 18 1 28 2v-92c-13 -1 -25 -1 -34 -1c-160 0 -244 102 -244 247c0 150 92 233 214 233c102 0 152 -69 172 -137h3c17 58 56 114 131 132v116h-609z" />
    <glyph glyph-name="dvvLL" unicode="&#x961;" horiz-adv-x="911" 
d="M-24 652v88h955v-88h-244v-117c89 -23 150 -103 150 -227c0 -36 -5 -70 -16 -100h-35c-45 0 -87 -15 -87 -67c0 -48 42 -65 91 -65h50v-79h-48c-48 0 -94 -15 -94 -69c0 -51 48 -67 98 -67c40 0 82 10 99 16v-79c-27 -11 -73 -19 -114 -19c-93 0 -183 39 -183 140
c0 61 41 103 93 114v3c-52 12 -93 46 -93 110c0 83 68 115 131 120c3 14 4 28 4 43c0 78 -39 139 -115 139c-83 0 -121 -69 -121 -164v-21h-88v21c0 93 -36 164 -116 164s-122 -60 -122 -141c0 -96 52 -155 144 -155c7 0 18 1 28 2v-92c-13 -1 -25 -1 -34 -1
c-160 0 -244 102 -244 247c0 150 92 233 214 233c102 0 152 -69 172 -137h3c17 58 56 114 131 132v116h-609z" />
    <glyph glyph-name="dvE" unicode="&#x90f;" horiz-adv-x="652" 
d="M-24 652v88h700v-88h-105v-105c0 -149 -57 -222 -215 -204v94c80 -8 113 27 113 113v102h-268v-383c0 -101 49 -160 139 -160c83 0 132 51 132 138h103c0 -144 -90 -228 -233 -228c-167 0 -245 103 -245 253l-1 380h-120z" />
    <glyph glyph-name="dvAI" unicode="&#x910;" horiz-adv-x="652" 
d="M342 19c-167 0 -245 103 -245 253l-1 380h-120v88h489c-94 147 -125 161 -219 161h-45v86h43c139 -1 191 -21 321 -247h111v-88h-105v-105c0 -149 -57 -222 -215 -204v94c80 -8 113 27 113 113v102h-268v-383c0 -101 49 -160 139 -160c83 0 132 51 132 138h103
c0 -144 -90 -228 -233 -228z" />
    <glyph glyph-name="dvO" unicode="&#x913;" horiz-adv-x="1132" 
d="M732 0h-104v308l-138 1c7 -20 10 -41 10 -61c0 -117 -82 -193 -204 -193c-134 0 -226 83 -226 205h98c0 -66 49 -115 121 -115c71 0 115 46 115 113c0 17 -3 35 -11 51h-2v4c-18 33 -53 58 -113 58h-41v85h41c77 0 116 49 116 100c0 65 -48 104 -107 104
c-63 0 -113 -39 -113 -101h-97c0 116 87 190 210 190c119 0 201 -70 201 -179c0 -74 -40 -132 -117 -153v-2c20 -4 37 -11 52 -20h205v345h300c-94 147 -125 161 -219 161h-45v86h43c139 -1 191 -21 321 -247h128v-88h-122v-652h-105v652h-197v-652z" />
    <glyph glyph-name="dvAU" unicode="&#x914;" horiz-adv-x="1132" 
d="M732 0h-104v308l-138 1c7 -20 10 -41 10 -61c0 -117 -82 -193 -204 -193c-134 0 -226 83 -226 205h98c0 -66 49 -115 121 -115c71 0 115 46 115 113c0 17 -3 35 -11 51h-2v4c-18 33 -53 58 -113 58h-41v85h41c77 0 116 49 116 100c0 65 -48 104 -107 104
c-63 0 -113 -39 -113 -101h-97c0 116 87 190 210 190c119 0 201 -70 201 -179c0 -74 -40 -132 -117 -153v-2c20 -4 37 -11 52 -20h205v345h307c-112 83 -128 87 -234 87h-46v67h44c98 0 128 -2 219 -75c-88 158 -133 163 -215 163h-48v68h46c137 0 174 -13 326 -310h129v-88
h-122v-652h-105v652h-197v-652z" />
    <glyph glyph-name="dvEcandra" unicode="&#x90d;" horiz-adv-x="652" 
d="M-24 652v88h700v-88h-105v-105c0 -149 -57 -222 -215 -204v94c80 -8 113 27 113 113v102h-268v-383c0 -101 49 -160 139 -160c83 0 132 51 132 138h103c0 -144 -90 -228 -233 -228c-167 0 -245 103 -245 253l-1 380h-120zM328 832c-149 0 -214 86 -214 186h91
c0 -54 36 -107 123 -107s124 53 124 107h90c0 -100 -66 -186 -214 -186z" />
    <glyph glyph-name="dvAcandra" unicode="&#x972;" horiz-adv-x="833" 
d="M278 456c77 0 116 49 116 100c0 65 -48 104 -107 104c-63 0 -113 -39 -113 -101h-97c0 116 87 190 210 190c119 0 201 -70 201 -179c0 -74 -40 -132 -117 -153v-2c20 -4 37 -11 52 -20h205v345h226v-88h-122v-652h-104v308l-138 1c7 -20 10 -41 10 -61
c0 -117 -82 -193 -204 -193c-134 0 -226 83 -226 205h98c0 -66 49 -115 121 -115c71 0 115 46 115 113c0 17 -3 35 -11 51h-2v4c-18 33 -53 58 -113 58h-41v85h41zM688 835c-149 0 -214 86 -214 186h91c0 -54 36 -107 123 -107s124 53 124 107h90c0 -100 -66 -186 -214 -186
z" />
    <glyph glyph-name="dvOcandra" unicode="&#x911;" horiz-adv-x="1132" 
d="M278 456c77 0 116 49 116 100c0 65 -48 104 -107 104c-63 0 -113 -39 -113 -101h-97c0 116 87 190 210 190c119 0 201 -70 201 -179c0 -74 -40 -132 -117 -153v-2c20 -4 37 -11 52 -20h205v345h528v-88h-122v-652h-105v652h-197v-652h-104v308l-138 1
c7 -20 10 -41 10 -61c0 -117 -82 -193 -204 -193c-134 0 -226 83 -226 205h98c0 -66 49 -115 121 -115c71 0 115 46 115 113c0 17 -3 35 -11 51h-2v4c-18 33 -53 58 -113 58h-41v85h41zM833 832c-149 0 -214 86 -214 186h91c0 -54 36 -107 123 -107s124 53 124 107h90
c0 -100 -66 -186 -214 -186z" />
    <glyph glyph-name="dvmAA" unicode="&#x93e;" 
d="M98 0v652h-122v88h349v-88h-122v-652h-105z" />
    <glyph glyph-name="dvmI" unicode="&#x93f;" 
d="M203 652v-652h-105v652h-122v88h122c5 182 180 266 394 266c216 0 394 -95 394 -273v-17h-105v15c0 139 -154 189 -289 189c-134 0 -285 -39 -290 -180h123v-88h-122z" />
    <glyph glyph-name="dvmII" unicode="&#x940;" 
d="M-203 716v60c0 130 54 230 204 230c153 0 202 -101 202 -230v-36h122v-88h-122v-652h-105v652h-122v88h125v41c0 64 -18 137 -100 137c-83 0 -102 -73 -102 -137v-65h-102z" />
    <glyph glyph-name="dvmU" unicode="&#x941;" horiz-adv-x="0" 
d="M-201 -311c-126 0 -242 61 -238 216h93c-4 -94 60 -134 142 -134c72 0 118 34 118 95c0 45 -31 85 -90 85h-27v82h27c118 0 179 -70 179 -168c0 -110 -78 -176 -204 -176z" />
    <glyph glyph-name="dvmUU" unicode="&#x942;" horiz-adv-x="0" 
d="M-180 -301c-96 0 -173 55 -173 161s82 170 199 170c176 0 250 -127 250 -285c0 -14 0 -27 -1 -40h-86v47c0 127 -62 199 -163 199c-67 0 -114 -34 -114 -92c0 -53 42 -84 94 -84c10 0 20 1 32 2v-77c-13 -1 -25 -1 -38 -1z" />
    <glyph glyph-name="dvmvR" unicode="&#x943;" horiz-adv-x="0" 
d="M-137 -318c-99 0 -199 48 -199 175c0 101 71 174 197 174c8 0 33 0 41 -1v-72h-33c-68 0 -104 -43 -104 -97c0 -69 53 -94 114 -94c31 0 60 6 76 11v-82c-26 -9 -61 -14 -92 -14z" />
    <glyph glyph-name="dvmvRR" unicode="&#x944;" horiz-adv-x="0" 
d="M-133 -457c-93 0 -183 38 -183 138c0 63 41 104 94 116v3c-53 12 -93 45 -93 110c0 91 81 121 149 121h68v-59h-29c-46 0 -88 -16 -88 -67c0 -48 42 -66 91 -66h50v-78h-47c-48 0 -94 -15 -94 -69c0 -51 47 -67 98 -67c40 0 81 9 98 15v-79c-26 -10 -73 -18 -114 -18z
" />
    <glyph glyph-name="dvmvL" unicode="&#x962;" horiz-adv-x="0" 
d="M103 -467c-85 0 -151 42 -151 127c0 61 41 106 99 118c2 9 2 19 2 28c0 57 -26 100 -81 100c-59 0 -85 -50 -85 -117v-15h-69v15c0 67 -26 117 -83 117s-87 -42 -87 -101c0 -67 38 -109 102 -109c5 0 15 0 21 2v-72c-9 -1 -19 -1 -25 -1c-118 0 -181 75 -181 181
c0 112 69 173 158 173c75 0 112 -50 127 -99h2c15 49 55 99 133 99c86 0 152 -63 152 -173c0 -26 -4 -50 -11 -73h-6c-62 0 -89 -30 -89 -68c0 -46 39 -66 81 -66c16 0 32 2 43 6v-67c-15 -3 -34 -5 -52 -5z" />
    <glyph glyph-name="dvmvLL" unicode="&#x963;" horiz-adv-x="0" 
d="M177 -570c-19 -7 -53 -12 -84 -12c-69 0 -135 27 -135 102c0 47 30 77 68 85v2c-39 9 -68 36 -68 83c0 60 47 86 94 90c1 9 1 17 1 26c0 57 -26 100 -81 100c-59 0 -85 -50 -85 -117v-15h-69v15c0 67 -26 117 -83 117s-87 -42 -87 -101c0 -67 38 -109 102 -109
c5 0 15 0 21 2v-72c-9 -1 -19 -1 -25 -1c-118 0 -181 75 -181 181c0 112 69 173 158 173c75 0 112 -50 127 -99h2c15 49 55 99 133 99c86 0 152 -63 152 -173c0 -26 -4 -50 -11 -73h-28c-32 0 -62 -11 -62 -47c0 -34 29 -47 66 -47h35v-62h-33c-35 0 -69 -9 -69 -49
c0 -36 34 -47 70 -47c30 0 60 7 72 11v-62z" />
    <glyph glyph-name="dvmE" unicode="&#x947;" horiz-adv-x="0" 
d="M-198 736c-96 151 -127 165 -222 165h-45v86h43c139 -1 191 -21 323 -251h-99z" />
    <glyph glyph-name="dvmAI" unicode="&#x948;" horiz-adv-x="0" 
d="M-189 737c-116 86 -131 90 -238 90h-46v67h44c98 0 128 -2 219 -75c-88 158 -133 163 -215 163h-48v68h46c137 0 174 -13 328 -313h-90z" />
    <glyph glyph-name="dvmO" unicode="&#x94b;" horiz-adv-x="302" 
d="M203 0h-105v652h-122v88h125c-94 147 -125 161 -219 161h-45v86h43c139 -1 191 -21 321 -247h124v-88h-122v-652z" />
    <glyph glyph-name="dvmAU" unicode="&#x94c;" 
d="M203 0h-105v652h-122v88h129c-112 83 -128 87 -234 87h-46v67h44c98 0 128 -2 219 -75c-88 158 -133 163 -215 163h-48v68h46c137 0 174 -13 326 -310h128v-88h-122v-652z" />
    <glyph glyph-name="dvmEcandra" unicode="&#x945;" horiz-adv-x="0" 
d="M-156 816c-149 0 -214 86 -214 186h91c0 -54 36 -107 123 -107s124 53 124 107h90c0 -100 -66 -186 -214 -186z" />
    <glyph glyph-name="dvmOcandra" unicode="&#x949;" horiz-adv-x="302" 
d="M98 0v652h-122v88h349v-88h-122v-652h-105zM151 816c-149 0 -214 86 -214 186h91c0 -54 36 -107 123 -107s124 53 124 107h90c0 -100 -66 -186 -214 -186z" />
    <glyph glyph-name="dvKA" unicode="&#x915;" horiz-adv-x="986" 
d="M449 0v183c-29 -55 -87 -95 -173 -95c-126 0 -211 92 -211 233c0 139 87 230 215 230c84 0 140 -39 169 -92v193h-473v88h1033v-88h-459v-195c28 55 82 94 164 94c124 0 207 -96 207 -228c0 -145 -89 -229 -208 -229c-23 0 -44 2 -64 7v83c11 -3 25 -4 37 -4
c73 0 129 51 129 141c0 84 -57 140 -132 140c-94 0 -133 -76 -133 -149v-312h-101zM310 176c95 0 139 77 139 143c0 69 -43 142 -139 142c-77 0 -139 -54 -139 -141c0 -90 59 -144 139 -144z" />
    <glyph glyph-name="dvKHA" unicode="&#x916;" horiz-adv-x="941" 
d="M619 210c83 0 120 65 120 124s-35 124 -120 124c-67 0 -123 -45 -123 -122c0 -81 55 -126 123 -126zM598 129c-12 0 -24 1 -36 3c-39 -76 -115 -136 -225 -136c-157 0 -259 94 -259 257v147h33c82 0 140 33 140 144v108h-275v88h989v-88h-122v-652h-104v200
c-26 -41 -72 -71 -141 -71zM340 87c72 0 116 37 140 79c-49 36 -78 95 -78 170c0 121 84 203 196 203c69 0 115 -30 141 -71v184h-383v-121c0 -145 -77 -202 -174 -207v-83c0 -91 58 -154 158 -154z" />
    <glyph glyph-name="dvGA" unicode="&#x917;" horiz-adv-x="766" 
d="M563 0v652h-163v-257c0 -103 -51 -187 -176 -187c-118 0 -180 72 -180 181c0 10 0 21 1 31h102v-31c0 -46 18 -91 74 -91c60 0 74 48 74 93v261h-319v88h813v-88h-122v-652h-104z" />
    <glyph glyph-name="dvGHA" unicode="&#x918;" horiz-adv-x="707" 
d="M323 188c101 0 181 69 181 171v293h-306v-63c0 -69 34 -109 123 -109h45v-85h-53c-91 0 -129 -44 -129 -100c0 -72 60 -107 139 -107zM-24 652v88h755v-88h-121v-652h-106v205c-41 -65 -115 -103 -205 -103c-125 0 -221 62 -221 183c0 85 60 137 125 150v2
c-61 12 -110 54 -110 147v68h-117z" />
    <glyph glyph-name="dvNGA" unicode="&#x919;" horiz-adv-x="672" 
d="M594 326c-34 0 -61 27 -61 60c0 34 27 61 61 61s61 -27 61 -61c0 -33 -27 -60 -61 -60zM-24 652v88h720v-88h-227v-182h-179c-49 0 -105 -13 -105 -72c0 -54 44 -72 93 -72h45c101 0 205 -42 205 -171c0 -101 -74 -171 -215 -171c-148 0 -245 75 -248 193h104
c1 -67 52 -113 141 -113c79 0 119 39 119 92c0 72 -59 95 -125 95h-39c-82 0 -185 30 -185 150c0 105 88 144 181 144h106v107h-391z" />
    <glyph glyph-name="dvCA" unicode="&#x91a;" horiz-adv-x="740" 
d="M-24 652v88h788v-88h-122v-652h-105v191c-38 -60 -105 -96 -187 -96c-116 0 -210 72 -210 197c0 64 27 116 76 148h-166v83h365v-83h-37c-84 0 -139 -55 -139 -131c0 -82 64 -127 141 -127c95 1 157 76 157 173v297h-561z" />
    <glyph glyph-name="dvCHA" unicode="&#x91b;" horiz-adv-x="819" 
d="M-24 652v88h867v-88h-210v-110c82 -19 141 -89 141 -205c0 -193 -147 -312 -375 -312c-194 0 -329 74 -329 220c0 91 56 145 130 162v3c-60 11 -109 54 -109 147v95h-115zM400 115c169 0 281 83 281 226c0 84 -47 128 -97 128c-45 0 -93 -30 -93 -105c0 -27 6 -58 16 -88
h-87c-11 30 -17 64 -17 99c0 102 60 152 133 167v110h-341v-91c0 -69 33 -109 117 -109h21v-85h-19c-97 0 -138 -51 -138 -112c0 -91 82 -140 224 -140z" />
    <glyph glyph-name="dvJA" unicode="&#x91c;" horiz-adv-x="846" 
d="M-24 652v88h894v-88h-122v-652h-105v406h-168v-76c0 -122 -77 -208 -204 -208c-131 0 -203 86 -203 208v166h106v-164c0 -71 36 -118 98 -118c63 0 101 47 101 118v164h270v156h-667z" />
    <glyph glyph-name="dvJHA" unicode="&#x91d;" horiz-adv-x="855" 
d="M276 326h378v326h-188v-182h-179c-49 0 -106 -13 -106 -73c0 -52 43 -71 95 -71zM654 0v246l-168 1c22 -25 37 -59 37 -105c0 -85 -57 -151 -170 -151c-97 0 -143 52 -158 73v-143h-99v250h94c7 -56 51 -102 132 -102c72 0 104 40 104 86c0 59 -42 96 -125 96h-56
c-85 3 -169 44 -169 147c0 109 89 148 183 148h106v106h-389v88h903v-88h-122v-652h-103z" />
    <glyph glyph-name="dvNYA" unicode="&#x91e;" horiz-adv-x="817" 
d="M-24 652v88h865v-88h-122v-652h-105v276h-98c-15 -115 -96 -197 -227 -197c-132 0 -212 80 -224 180h99c13 -48 55 -91 126 -91c89 0 134 68 134 148c0 78 -45 147 -134 147c-73 0 -114 -45 -126 -91h-99c11 101 91 180 224 180c128 0 208 -78 226 -187h99v287h-638z" />
    <glyph glyph-name="dvTTA" unicode="&#x91f;" horiz-adv-x="649" 
d="M-24 652v88h697v-88h-201v-193h-112c-106 0 -190 -55 -190 -170c0 -95 69 -162 168 -162c102 0 170 70 170 170h100c0 -156 -106 -261 -268 -261c-160 0 -275 102 -275 253c0 165 116 259 289 259h15v104h-393z" />
    <glyph glyph-name="dvTTHA" unicode="&#x920;" horiz-adv-x="674" 
d="M337 130c100 0 169 69 169 165s-69 163 -169 163c-98 0 -168 -67 -168 -163s70 -165 168 -165zM337 42c-154 0 -272 99 -272 253c0 140 97 228 219 248v109h-308v88h722v-88h-310v-109c124 -19 222 -107 222 -248c0 -154 -118 -253 -273 -253z" />
    <glyph glyph-name="dvDDA" unicode="&#x921;" horiz-adv-x="572" 
d="M-24 652v88h619v-88h-131v-182h-174c-49 0 -105 -13 -105 -72c0 -54 44 -72 93 -72h45c101 0 205 -42 205 -171c0 -101 -74 -171 -215 -171c-148 0 -245 75 -248 193h104c1 -67 52 -113 141 -113c79 0 119 39 119 92c0 72 -59 95 -125 95h-39c-82 0 -185 30 -185 150
c0 105 88 144 181 144h102v107h-387z" />
    <glyph glyph-name="dvDDHA" unicode="&#x922;" horiz-adv-x="645" 
d="M-24 652v88h693v-88h-178v-173h-101c-127 0 -224 -66 -224 -202c0 -114 78 -197 208 -197c89 0 156 47 156 121c0 52 -36 89 -87 89c-43 0 -79 -30 -79 -76c0 -6 1 -14 3 -19h-77c-2 11 -3 23 -3 33c0 88 69 138 160 138c107 0 173 -68 173 -165
c0 -120 -93 -198 -248 -198c-174 0 -307 105 -307 277c0 181 127 273 293 273h34v99h-416z" />
    <glyph glyph-name="dvNNA" unicode="&#x923;" horiz-adv-x="867" 
d="M288 261c61 0 96 44 96 107v284h-193v-284c0 -63 37 -107 97 -107zM-24 652v88h915v-88h-122v-652h-105v652h-177v-274c0 -119 -68 -206 -200 -206c-131 0 -199 90 -199 206v274h-112z" />
    <glyph glyph-name="dvTA" unicode="&#x924;" horiz-adv-x="698" 
d="M-24 652v88h746v-88h-122v-652h-105v406h-140c-111 0 -184 -53 -184 -160c0 -100 58 -161 169 -161h21v-83h-36c-151 0 -260 79 -260 246c0 173 123 248 285 248h145v156h-519z" />
    <glyph glyph-name="dvTHA" unicode="&#x925;" horiz-adv-x="774" 
d="M571 0v217c-27 -61 -103 -123 -224 -123c-169 0 -275 106 -275 276c0 19 1 38 4 58h95c102 0 200 26 200 133c0 55 -35 98 -94 98c-61 0 -98 -40 -98 -102c0 -14 2 -28 4 -41h-95c-2 14 -4 31 -4 44c0 120 84 189 194 189c115 0 191 -78 191 -191
c0 -136 -102 -206 -259 -206h-37c3 -97 62 -170 189 -170c114 0 209 75 209 208v350h227v-88h-122v-652h-105z" />
    <glyph glyph-name="dvDA" unicode="&#x926;" horiz-adv-x="610" 
d="M-24 652v88h658l-1 -88h-135v-191h-157c-95 0 -169 -51 -169 -148c0 -85 54 -140 140 -140c61 0 127 38 127 123h97v-317h-103v179c-29 -43 -84 -69 -150 -69c-123 0 -218 80 -218 227c0 156 117 235 266 235h62v101h-417z" />
    <glyph glyph-name="dvDHA" unicode="&#x927;" horiz-adv-x="718" 
d="M303 92c-122 0 -220 60 -220 176c0 88 63 135 120 145v3c-64 16 -127 68 -127 165c0 100 73 168 176 168c108 0 170 -68 170 -162c0 -9 -1 -24 -2 -35h-79c1 12 1 18 1 23c0 48 -31 86 -87 86s-89 -40 -89 -91c0 -73 62 -111 145 -111h58v-85h-54
c-82 0 -125 -38 -125 -95c0 -68 59 -100 138 -100c112 0 193 79 193 195v366h225v-88h-120v-652h-105v203c-41 -69 -118 -111 -218 -111z" />
    <glyph glyph-name="dvNA" unicode="&#x928;" horiz-adv-x="799" 
d="M270 192c66 0 113 46 113 111c0 64 -47 111 -113 111c-68 0 -116 -46 -116 -112c0 -65 47 -110 116 -110zM-24 652v88h847v-88h-122v-652h-105v414h-174c26 -30 45 -71 45 -125c0 -118 -88 -186 -199 -186c-116 0 -209 76 -209 199c0 129 96 200 218 200h319v150h-620z
" />
    <glyph glyph-name="dvPA" unicode="&#x92a;" horiz-adv-x="661" 
d="M323 275c88 0 136 66 136 144v233h-274v-215c0 -98 42 -162 138 -162zM-24 652v88h709v-88h-122v-652h-104v262c-32 -47 -87 -76 -162 -76c-145 0 -217 103 -217 251v215h-104z" />
    <glyph glyph-name="dvPHA" unicode="&#x92b;" horiz-adv-x="985" 
d="M313 275c83 0 127 64 127 139v238h-255v-220c0 -95 40 -157 128 -157zM-24 652v88h1033v-88h-464v-195c29 54 86 94 170 94c122 0 206 -94 206 -225c0 -147 -88 -232 -208 -232c-23 0 -48 3 -67 8v82c12 -3 27 -5 41 -5c74 0 128 54 128 142c0 84 -56 140 -132 140
c-97 0 -138 -79 -138 -160v-301h-105v260c-31 -46 -82 -74 -152 -74c-138 0 -208 100 -208 246v220h-104z" />
    <glyph glyph-name="dvBA" unicode="&#x92c;" horiz-adv-x="689" 
d="M490 0v175c-32 -54 -95 -93 -182 -93c-136 0 -243 95 -243 240c0 144 104 239 241 239c87 0 149 -41 184 -93v184h-514v88h736v-88h-121v-652h-101zM327 491c-44 0 -83 -14 -113 -40l257 -216c16 27 24 59 24 89c0 83 -57 167 -168 167zM328 158c49 0 86 16 113 41
l-259 216c-16 -25 -25 -57 -25 -93c0 -103 79 -164 171 -164z" />
    <glyph glyph-name="dvBHA" unicode="&#x92d;" horiz-adv-x="812" 
d="M264 178c60 0 94 45 94 119v74h-82c-64 0 -108 -36 -108 -97c0 -59 41 -96 96 -96zM265 89c-117 0 -195 74 -195 185c0 120 89 183 203 183h85v89c0 68 -24 113 -81 113c-48 0 -81 -35 -81 -93c0 -11 1 -23 4 -36h-105c-2 12 -4 27 -4 40c0 105 65 179 182 179
c134 0 183 -93 183 -221v-71h152v283h228v-88h-123v-652h-105v371h-152v-69c0 -135 -68 -213 -191 -213z" />
    <glyph glyph-name="dvMA" unicode="&#x92e;" horiz-adv-x="803" 
d="M239 178c60 0 95 45 95 119v74h-83c-63 0 -108 -36 -108 -97c0 -59 41 -96 96 -96zM599 457v195h-167v-195h167zM-24 652v88h850v-88h-122v-652h-105v371h-167v-69c0 -135 -68 -213 -192 -213c-117 0 -194 74 -194 185c0 120 88 183 202 183h86v195h-358z" />
    <glyph glyph-name="dvYA" unicode="&#x92f;" horiz-adv-x="743" 
d="M353 191c108 0 187 74 187 180v281h-185v-80c0 -122 -63 -186 -187 -193v-4c0 -111 67 -184 185 -184zM-24 652v88h791v-88h-122v-652h-105v200c-38 -56 -108 -97 -209 -97c-171 0 -266 111 -266 282c0 16 1 34 3 51h13c113 0 170 44 170 154v62h-275z" />
    <glyph glyph-name="dvRA" unicode="&#x930;" horiz-adv-x="534" 
d="M-24 652v88h582v-88h-110v-83c0 -148 -67 -242 -230 -242h-38v-125c0 -70 31 -121 99 -121c61 0 98 45 98 112v22h101v-19c0 -124 -73 -205 -197 -205c-136 0 -204 92 -204 216v206h104c112 0 163 54 163 156v83h-368z" />
    <glyph glyph-name="dvLA" unicode="&#x932;" horiz-adv-x="907" 
d="M598 57c-10 0 -21 1 -34 2v92c10 -1 21 -2 28 -2c92 0 144 63 144 154c0 80 -40 142 -118 142c-83 0 -121 -69 -121 -164v-18h-88v18c0 93 -36 164 -116 164s-122 -60 -122 -142c0 -91 52 -154 144 -154c7 0 18 1 28 2v-92c-13 -1 -25 -2 -34 -2
c-160 0 -244 106 -244 248c0 149 92 232 214 232c103 0 153 -68 173 -135h3c18 59 59 118 141 132v118h-620v88h954v-88h-231v-124c85 -26 143 -104 143 -223c0 -142 -84 -248 -244 -248z" />
    <glyph glyph-name="dvVA" unicode="&#x935;" horiz-adv-x="672" 
d="M319 170c105 0 153 80 153 149v1c0 73 -48 150 -153 150c-85 0 -151 -58 -151 -149c0 -93 64 -151 151 -151zM696 652h-122v-652h-102v181c-33 -57 -94 -95 -180 -95c-137 0 -227 96 -227 238c0 136 92 231 227 231c86 0 147 -38 180 -94v191h-496v88h720v-88z" />
    <glyph glyph-name="dvSHA" unicode="&#x936;" horiz-adv-x="826" 
d="M304 -8c-142 0 -221 90 -221 227v180h144c101 0 187 41 187 142c0 71 -41 117 -108 117s-108 -46 -108 -117c0 -14 1 -27 2 -41h-104c-2 15 -4 29 -4 44c0 122 83 205 214 205c127 0 214 -77 214 -215c0 -151 -112 -224 -256 -224h-75v-98c0 -73 32 -129 112 -129
c67 0 106 48 106 118v14h102v-15c0 -130 -79 -208 -205 -208zM622 0v740h228v-88h-122v-652h-106z" />
    <glyph glyph-name="dvSSA" unicode="&#x937;" horiz-adv-x="670" 
d="M324 268c70 0 117 38 135 90l-278 215v-139c0 -100 45 -166 143 -166zM469 431v221h-286zM-24 652v88h718v-88h-122v-652h-103v258c-32 -49 -87 -79 -166 -79c-148 0 -223 105 -223 258v215h-104z" />
    <glyph glyph-name="dvSA" unicode="&#x938;" horiz-adv-x="822" 
d="M431 568c0 -62 -18 -111 -48 -147h236v231h-188v-84zM-24 652v88h870v-88h-123v-652h-104v335h-439v-132c0 -70 32 -122 101 -122c64 0 100 46 100 112v12h101c1 -7 1 -14 1 -17c0 -120 -75 -197 -200 -197c-137 0 -206 93 -206 217v203h87c113 0 163 63 163 157v84h-351
z" />
    <glyph glyph-name="dvHA" unicode="&#x939;" horiz-adv-x="586" 
d="M532 66c-13 -95 -95 -172 -226 -172c-150 0 -236 95 -236 224c0 82 38 147 102 184c-46 23 -78 62 -78 120c0 83 66 127 162 127h116v103h-396v88h633v-88h-137v-179h-180c-50 0 -94 -18 -94 -71c0 -35 22 -59 56 -71c17 3 35 5 54 5c142 0 211 -81 224 -171h-100
c-10 41 -51 87 -126 87c-84 0 -133 -59 -133 -136c0 -78 49 -135 133 -135c72 0 114 44 126 85h100z" />
    <glyph glyph-name="dvLLA" unicode="&#x933;" horiz-adv-x="987" 
d="M305 173c81 0 137 56 137 137c0 82 -55 140 -137 140c-80 0 -138 -56 -138 -141c0 -82 59 -136 138 -136zM681 173c80 0 138 54 138 136c0 85 -57 141 -137 141c-82 0 -137 -58 -137 -140c0 -81 55 -137 136 -137zM696 83c-99 0 -173 55 -201 133h-4
c-27 -78 -101 -133 -200 -133c-127 0 -226 90 -226 227c0 140 99 230 225 230c98 0 166 -52 202 -131h3c30 69 86 117 164 128v115h-683v88h1034v-88h-249v-120c94 -26 161 -107 161 -222c0 -137 -99 -227 -226 -227z" />
    <glyph glyph-name="dvK_SSA" horiz-adv-x="818" 
d="M188 560c0 -68 57 -113 137 -115c45 28 77 62 77 114c0 59 -46 100 -107 100c-56 0 -107 -34 -107 -99zM381 -57v158c-16 -29 -60 -70 -136 -70c-106 0 -177 69 -177 167c0 109 83 157 167 199c-76 19 -141 74 -141 170c0 113 89 183 204 183c104 0 192 -60 192 -171
c0 -61 -27 -102 -64 -135h193v296h223v-88h-122v-652h-101v367h-296c-77 -37 -147 -68 -147 -148c0 -56 40 -101 104 -101c70 0 109 53 109 112h88v-287h-96z" />
    <glyph glyph-name="dvJ_NYA" horiz-adv-x="817" 
d="M615 0v434h-187c50 -29 85 -80 85 -154c0 -111 -78 -182 -185 -182c-75 0 -132 33 -162 76v-149h-102v278h98c8 -77 67 -119 135 -119c76 0 120 52 120 119c0 86 -66 131 -148 131h-26v84h372v134h-639v88h864v-88h-122v-652h-103z" />
    <glyph glyph-name="dvKxA" unicode="&#x958;" horiz-adv-x="986" 
d="M449 0v183c-29 -55 -87 -95 -173 -95c-126 0 -211 92 -211 233c0 139 87 230 215 230c84 0 140 -39 169 -92v193h-473v88h1033v-88h-459v-195c28 55 82 94 164 94c124 0 207 -96 207 -228c0 -145 -89 -229 -208 -229c-23 0 -44 2 -64 7v83c11 -3 25 -4 37 -4
c73 0 129 51 129 141c0 84 -57 140 -132 140c-94 0 -133 -76 -133 -149v-312h-101zM260 -118c-37 0 -66 28 -66 65c0 38 29 67 66 67c38 0 67 -29 67 -67c0 -37 -29 -65 -67 -65zM310 176c95 0 139 77 139 143c0 69 -43 142 -139 142c-77 0 -139 -54 -139 -141
c0 -90 59 -144 139 -144z" />
    <glyph glyph-name="dvKHxA" unicode="&#x959;" horiz-adv-x="941" 
d="M598 129c-12 0 -24 1 -36 3c-39 -76 -115 -136 -225 -136c-157 0 -259 94 -259 257v147h33c82 0 140 33 140 144v108h-275v88h989v-88h-122v-652h-104v200c-26 -41 -72 -71 -141 -71zM318 -207c-37 0 -66 28 -66 65c0 38 29 67 66 67c38 0 67 -29 67 -67
c0 -37 -29 -65 -67 -65zM619 210c83 0 120 65 120 124s-35 124 -120 124c-67 0 -123 -45 -123 -122c0 -81 55 -126 123 -126zM340 87c72 0 116 37 140 79c-49 36 -78 95 -78 170c0 121 84 203 196 203c69 0 115 -30 141 -71v184h-383v-121c0 -145 -77 -202 -174 -207v-83
c0 -91 58 -154 158 -154z" />
    <glyph glyph-name="dvGxA" unicode="&#x95a;" horiz-adv-x="765" 
d="M563 0v652h-163v-257c0 -103 -51 -187 -176 -187c-118 0 -180 72 -180 181c0 10 0 21 1 31h102v-31c0 -46 18 -91 74 -91c60 0 74 48 74 93v261h-319v88h813v-88h-122v-652h-104zM227 -1c-37 0 -66 28 -66 65c0 38 29 67 66 67c38 0 67 -29 67 -67c0 -37 -29 -65 -67 -65
z" />
    <glyph glyph-name="dvJxA" unicode="&#x95b;" horiz-adv-x="846" 
d="M-24 652v88h894v-88h-122v-652h-105v406h-168v-76c0 -122 -77 -208 -204 -208c-131 0 -203 86 -203 208v166h106v-164c0 -71 36 -118 98 -118c63 0 101 47 101 118v164h270v156h-667zM274 -83c-37 0 -66 28 -66 65c0 38 29 67 66 67c38 0 67 -29 67 -67
c0 -37 -29 -65 -67 -65z" />
    <glyph glyph-name="dvDDxA" unicode="&#x95c;" horiz-adv-x="572" 
d="M-24 652v88h619v-88h-131v-182h-174c-49 0 -105 -13 -105 -72c0 -54 44 -72 93 -72h45c101 0 205 -42 205 -171c0 -101 -74 -171 -215 -171c-148 0 -245 75 -248 193h104c1 -67 52 -113 141 -113c79 0 119 39 119 92c0 72 -59 95 -125 95h-39c-82 0 -185 30 -185 150
c0 105 88 144 181 144h102v107h-387zM309 -221c-37 0 -66 28 -66 65c0 38 29 67 66 67c38 0 67 -29 67 -67c0 -37 -29 -65 -67 -65z" />
    <glyph glyph-name="dvDDHxA" unicode="&#x95d;" horiz-adv-x="645" 
d="M-24 652v88h693v-88h-178v-173h-101c-127 0 -224 -66 -224 -202c0 -114 78 -197 208 -197c89 0 156 47 156 121c0 52 -36 89 -87 89c-43 0 -79 -30 -79 -76c0 -6 1 -14 3 -19h-77c-2 11 -3 23 -3 33c0 88 69 138 160 138c107 0 173 -68 173 -165
c0 -120 -93 -198 -248 -198c-174 0 -307 105 -307 277c0 181 127 273 293 273h34v99h-416zM349 -201c-37 0 -66 28 -66 65c0 38 29 67 66 67c38 0 67 -29 67 -67c0 -37 -29 -65 -67 -65z" />
    <glyph glyph-name="dvPHxA" unicode="&#x95e;" horiz-adv-x="985" 
d="M313 275c83 0 127 64 127 139v238h-255v-220c0 -95 40 -157 128 -157zM-24 652v88h1033v-88h-464v-195c29 54 86 94 170 94c122 0 206 -94 206 -225c0 -147 -88 -232 -208 -232c-23 0 -48 3 -67 8v82c12 -3 27 -5 41 -5c74 0 128 54 128 142c0 84 -56 140 -132 140
c-97 0 -138 -79 -138 -160v-301h-105v260c-31 -46 -82 -74 -152 -74c-138 0 -208 100 -208 246v220h-104zM250 -15c-37 0 -66 28 -66 65c0 38 29 67 66 67c38 0 67 -29 67 -67c0 -37 -29 -65 -67 -65z" />
    <glyph glyph-name="dvRxA" unicode="&#x931;" horiz-adv-x="534" 
d="M-24 652v88h582v-88h-110v-83c0 -148 -67 -242 -230 -242h-38v-125c0 -70 31 -121 99 -121c61 0 98 45 98 112v22h101v-19c0 -124 -73 -205 -197 -205c-136 0 -204 92 -204 216v206h104c112 0 163 54 163 156v83h-368zM113 -175c-37 0 -66 28 -66 65c0 38 29 67 66 67
c38 0 67 -29 67 -67c0 -37 -29 -65 -67 -65z" />
    <glyph glyph-name="dvK" horiz-adv-x="727" 
d="M449 0v183c-29 -55 -87 -95 -173 -95c-126 0 -211 92 -211 233c0 139 87 230 215 230c84 0 140 -39 169 -92v193h-473v88h945v-88h-371v-195c28 55 82 94 164 94c124 0 207 -96 207 -230h-106c0 84 -57 140 -132 140c-94 0 -133 -76 -133 -149v-312h-101zM310 176
c95 0 139 77 139 143c0 69 -43 142 -139 142c-77 0 -139 -54 -139 -141c0 -90 59 -144 139 -144z" />
    <glyph glyph-name="dvKH" horiz-adv-x="673" 
d="M-24 652v88h865v-88h-485v-121c0 -145 -77 -202 -174 -207v-83c0 -91 58 -154 158 -154c74 0 118 39 141 82c-48 36 -78 92 -78 164c0 127 91 204 219 204c129 0 219 -77 219 -204c0 -130 -94 -205 -219 -205c-20 0 -40 2 -59 6c-39 -77 -115 -138 -226 -138
c-157 0 -259 94 -259 257v147h33c82 0 140 33 140 144v108h-275zM496 333c0 -76 50 -125 126 -125c77 0 127 49 127 125s-50 125 -127 125c-76 0 -126 -49 -126 -125z" />
    <glyph glyph-name="dvG" horiz-adv-x="499" 
d="M-24 652v88h547v-88h-123v-257c0 -103 -51 -187 -176 -187c-118 0 -180 72 -180 181c0 10 0 21 1 31h102v-31c0 -46 18 -91 74 -91c60 0 74 48 74 93v261h-319z" />
    <glyph glyph-name="dvGH" horiz-adv-x="411" 
d="M-24 652v88h617v-88h-395v-63c0 -69 34 -109 123 -109h45v-85h-53c-91 0 -129 -44 -129 -100c0 -72 60 -107 139 -107c110 0 181 73 181 171h89c0 -143 -103 -257 -270 -257c-149 0 -245 62 -245 183c0 85 60 137 125 150v2c-61 12 -110 54 -110 147v68h-117z" />
    <glyph glyph-name="dvNG" horiz-adv-x="672" 
d="M594 326c-34 0 -61 27 -61 60c0 34 27 61 61 61s61 -27 61 -61c0 -33 -27 -60 -61 -60zM389 -295l-124 206h105l127 -206h-108zM-24 652v88h720v-88h-227v-182h-179c-49 0 -105 -13 -105 -72c0 -54 44 -72 93 -72h45c101 0 205 -42 205 -171c0 -101 -74 -171 -215 -171
c-148 0 -245 75 -248 193h104c1 -67 52 -113 141 -113c79 0 119 39 119 92c0 72 -59 95 -125 95h-39c-82 0 -185 30 -185 150c0 105 88 144 181 144h106v107h-391z" />
    <glyph glyph-name="dvC" horiz-adv-x="451" 
d="M50 440v83h365v-83h-37c-84 0 -139 -55 -139 -131c0 -82 64 -127 141 -127c95 1 157 76 157 173h90c3 -151 -97 -261 -257 -261c-130 0 -230 68 -230 198c0 64 27 116 76 148h-166zM-24 652v88h651v-88h-651z" />
    <glyph glyph-name="dvCH" horiz-adv-x="819" 
d="M-24 652v88h867v-88h-648v-91c0 -69 33 -109 117 -109h21v-85h-19c-97 0 -138 -51 -138 -112c0 -91 82 -140 224 -140c169 0 281 83 281 226c0 84 -47 128 -97 128c-45 0 -93 -30 -93 -105c0 -27 6 -58 16 -88h-87c-11 30 -17 64 -17 99c0 124 89 172 182 172
c106 0 189 -72 189 -210c0 -193 -147 -312 -375 -312c-194 0 -329 74 -329 220c0 91 56 145 130 162v3c-60 11 -109 54 -109 147v95h-115z" />
    <glyph glyph-name="dvJ" horiz-adv-x="547" 
d="M271 122c-131 0 -203 86 -203 208v166h106v-164c0 -71 36 -118 98 -118c63 0 101 47 101 118v164h324v-90h-222v-76c0 -122 -77 -208 -204 -208zM-24 652v88h721v-88h-721z" />
    <glyph glyph-name="dvJH" horiz-adv-x="567" 
d="M195 64v-143h-99v250h94c7 -56 51 -102 132 -102c72 0 104 40 104 86c0 59 -42 96 -125 96h-56c-85 3 -169 44 -169 147c0 109 89 148 183 148h106v106h-389v88h710v-88h-220v-182h-179c-49 0 -106 -13 -106 -73c0 -52 43 -71 95 -71h410v-80l-200 1
c22 -25 37 -59 37 -105c0 -85 -57 -151 -170 -151c-97 0 -143 52 -158 73z" />
    <glyph glyph-name="dvNY" horiz-adv-x="540" 
d="M289 79c-132 0 -212 80 -224 180h99c13 -48 55 -91 126 -91c89 0 134 68 134 148c0 78 -45 147 -134 147c-73 0 -114 -45 -126 -91h-99c11 101 91 180 224 180c128 0 208 -78 226 -187h155v-89h-154c-15 -115 -96 -197 -227 -197zM-24 652v88h694v-88h-694z" />
    <glyph glyph-name="dvTT" horiz-adv-x="649" 
d="M414 -243l-124 206h105l127 -206h-108zM-24 652v88h697v-88h-201v-193h-112c-106 0 -190 -55 -190 -170c0 -95 69 -162 168 -162c102 0 170 70 170 170h100c0 -156 -106 -261 -268 -261c-160 0 -275 102 -275 253c0 165 116 259 289 259h15v104h-393z" />
    <glyph glyph-name="dvTTH" horiz-adv-x="674" 
d="M337 130c100 0 169 69 169 165s-69 163 -169 163c-98 0 -168 -67 -168 -163s70 -165 168 -165zM337 42c-154 0 -272 99 -272 253c0 140 97 228 219 248v109h-308v88h722v-88h-310v-109c124 -19 222 -107 222 -248c0 -154 -118 -253 -273 -253zM413 -237l-124 206h105
l127 -206h-108z" />
    <glyph glyph-name="dvDD" horiz-adv-x="572" 
d="M382 -295l-124 206h105l127 -206h-108zM-24 652v88h619v-88h-131v-182h-174c-49 0 -105 -13 -105 -72c0 -54 44 -72 93 -72h45c101 0 205 -42 205 -171c0 -101 -74 -171 -215 -171c-148 0 -245 75 -248 193h104c1 -67 52 -113 141 -113c79 0 119 39 119 92
c0 72 -59 95 -125 95h-39c-82 0 -185 30 -185 150c0 105 88 144 181 144h102v107h-387z" />
    <glyph glyph-name="dvDDH" horiz-adv-x="645" 
d="M423 -276l-124 206h105l127 -206h-108zM-24 652v88h693v-88h-178v-173h-101c-127 0 -224 -66 -224 -202c0 -114 78 -197 208 -197c89 0 156 47 156 121c0 52 -36 89 -87 89c-43 0 -79 -30 -79 -76c0 -6 1 -14 3 -19h-77c-2 11 -3 23 -3 33c0 88 69 138 160 138
c107 0 173 -68 173 -165c0 -120 -93 -198 -248 -198c-174 0 -307 105 -307 277c0 181 127 273 293 273h34v99h-416z" />
    <glyph glyph-name="dvNN" horiz-adv-x="570" 
d="M-24 652v88h618v-88h-107v-274c0 -119 -68 -206 -200 -206c-131 0 -199 90 -199 206v274h-112zM288 261c61 0 96 44 96 107v284h-193v-284c0 -63 37 -107 97 -107z" />
    <glyph glyph-name="dvT" horiz-adv-x="390" 
d="M546 406h-191c-111 0 -184 -53 -184 -160c0 -100 58 -161 169 -161h21v-83h-36c-151 0 -260 79 -260 246c0 173 123 248 285 248h196v-90zM-24 652v88h570v-88h-570z" />
    <glyph glyph-name="dvTH" horiz-adv-x="473" 
d="M662 354c0 -162 -132 -260 -298 -260c-182 0 -292 103 -292 276c0 19 1 38 4 58h95c102 0 200 26 200 133c0 55 -35 98 -94 98c-61 0 -98 -40 -98 -102c0 -14 2 -28 4 -41h-95c-2 14 -4 31 -4 44c0 120 84 189 194 189c115 0 191 -78 191 -191
c0 -136 -102 -206 -259 -206h-37c3 -97 62 -170 189 -170c120 0 209 64 209 172h91z" />
    <glyph glyph-name="dvD" horiz-adv-x="609" 
d="M556 -300l-124 206h105l127 -206h-108zM-24 652v88h658l-1 -88h-135v-191h-157c-95 0 -169 -51 -169 -148c0 -85 54 -140 140 -140c61 0 127 38 127 123h97v-317h-103v179c-29 -43 -84 -69 -150 -69c-123 0 -218 80 -218 227c0 156 117 235 266 235h62v101h-417z" />
    <glyph glyph-name="dvDH" horiz-adv-x="428" 
d="M324 91c-136 0 -241 57 -241 177c0 88 63 135 120 145v3c-64 16 -127 68 -127 165c0 100 73 168 176 168c108 0 170 -68 170 -162c0 -9 -1 -24 -2 -35h-79c1 12 1 18 1 23c0 48 -31 86 -87 86s-89 -40 -89 -91c0 -73 62 -111 145 -111h58v-85h-54
c-82 0 -125 -38 -125 -95c0 -72 69 -100 143 -100c119 0 188 62 188 151h92c0 -142 -112 -239 -289 -239z" />
    <glyph glyph-name="dvN" horiz-adv-x="511" 
d="M268 103c-116 0 -209 76 -209 199c0 129 96 200 218 200h391v-88h-246c26 -30 45 -71 45 -125c0 -118 -88 -186 -199 -186zM270 192c66 0 113 46 113 111c0 64 -47 111 -113 111c-68 0 -116 -46 -116 -112c0 -65 47 -110 116 -110zM-24 652v88h692v-88h-692z" />
    <glyph glyph-name="dvP" horiz-adv-x="362" 
d="M-24 652v88h570v-88h-361v-215c0 -98 43 -162 139 -162c88 0 135 66 135 144h87c0 -133 -83 -233 -230 -233c-156 0 -236 103 -236 251v215h-104z" />
    <glyph glyph-name="dvPH" horiz-adv-x="726" 
d="M313 275c83 0 127 64 127 139v238h-255v-220c0 -95 40 -157 128 -157zM-24 652v88h945v-88h-376v-195c29 54 86 94 170 94c133 0 206 -94 206 -230h-106c0 84 -45 140 -132 140c-97 0 -138 -79 -138 -160v-301h-105v260c-31 -46 -82 -74 -152 -74
c-138 0 -208 100 -208 246v220h-104z" />
    <glyph glyph-name="dvB" horiz-adv-x="406" 
d="M321 81c-153 0 -256 99 -256 241c0 141 101 240 255 240c175 0 254 -122 254 -238c0 -131 -88 -243 -253 -243zM323 489c-44 0 -84 -15 -115 -41l258 -217c17 28 25 60 25 90c0 83 -57 168 -168 168zM-24 652v88h600v-88h-600zM324 155c48 0 86 16 113 41l-259 217
c-16 -26 -25 -57 -25 -93c0 -104 80 -165 171 -165z" />
    <glyph glyph-name="dvBH" horiz-adv-x="519" 
d="M264 178c60 0 94 45 94 119v74h-82c-64 0 -108 -36 -108 -97c0 -59 41 -96 96 -96zM265 89c-117 0 -195 74 -195 185c0 120 89 183 203 183h85v89c0 68 -24 113 -81 113c-48 0 -81 -35 -81 -93c0 -11 1 -23 4 -36h-105c-2 12 -4 27 -4 40c0 105 65 179 182 179
c134 0 183 -93 183 -221v-71h199v-86h-199v-69c0 -135 -68 -213 -191 -213z" />
    <glyph glyph-name="dvM" horiz-adv-x="513" 
d="M239 178c60 0 95 45 95 119v74h-83c-63 0 -108 -36 -108 -97c0 -59 41 -96 96 -96zM-24 652v88h675v-88h-219v-195h219v-86h-219v-69c0 -135 -68 -213 -192 -213c-117 0 -194 74 -194 185c0 120 88 183 202 183h86v195h-358z" />
    <glyph glyph-name="dvY" horiz-adv-x="441" 
d="M636 358c1 -145 -111 -256 -284 -256c-179 0 -287 107 -287 283c0 16 1 34 3 51h13c113 0 170 44 170 154v62h-275v88h660v-88h-281v-80c0 -122 -63 -186 -187 -193v-4c0 -117 76 -184 188 -184c106 0 184 69 184 167h96z" />
    <glyph glyph-name="dvR" horiz-adv-x="534" 
d="M344 -290l-124 206h105l127 -206h-108zM-24 652v88h582v-88h-110v-83c0 -148 -67 -242 -230 -242h-38v-125c0 -70 31 -121 99 -121c61 0 98 45 98 112v22h101v-19c0 -124 -73 -205 -197 -205c-136 0 -204 92 -204 216v206h104c112 0 163 54 163 156v83h-368z" />
    <glyph glyph-name="dvL" horiz-adv-x="657" 
d="M455 402c21 68 71 135 179 135c119 0 208 -85 208 -232l-106 -2c0 80 -40 142 -118 142c-83 0 -121 -69 -121 -164v-18h-88v18c0 93 -36 164 -116 164s-122 -60 -122 -142c0 -91 52 -154 144 -154c7 0 18 1 28 2v-92c-13 -1 -25 -2 -34 -2c-160 0 -244 106 -244 248
c0 149 92 232 214 232c103 0 153 -68 173 -135h3zM-24 652v88h866v-88h-866z" />
    <glyph glyph-name="dvV" horiz-adv-x="384" 
d="M319 86c-155 0 -254 96 -254 238c0 136 101 231 254 231c177 0 255 -120 255 -236c0 -114 -81 -233 -255 -233zM321 169c105 0 153 80 153 151c0 74 -48 151 -153 151c-87 0 -155 -58 -155 -150c0 -94 66 -152 155 -152zM-24 652v88h598v-88h-598z" />
    <glyph glyph-name="dvSH" horiz-adv-x="542" 
d="M304 -8c-142 0 -221 90 -221 227v180h144c101 0 187 41 187 142c0 71 -41 117 -108 117s-108 -46 -108 -117c0 -14 1 -27 2 -41h-104c-2 15 -4 29 -4 44c0 122 83 205 214 205c127 0 214 -77 214 -215c0 -151 -112 -224 -256 -224h-75v-98c0 -73 32 -129 112 -129
c67 0 106 48 106 118v14h102v-15c0 -130 -79 -208 -205 -208z" />
    <glyph glyph-name="dvSS" horiz-adv-x="386" 
d="M326 268c77 0 122 43 135 89l-280 217v-140c0 -103 45 -166 145 -166zM-24 652v88h579v-88h-373l373 -283c0 -89 -80 -190 -233 -190c-161 0 -242 105 -242 258v215h-104z" />
    <glyph glyph-name="dvS" horiz-adv-x="520" 
d="M-24 652v88h655v-88h-200v-84c0 -62 -18 -111 -48 -147h248v-86h-451v-132c0 -70 32 -122 101 -122c64 0 100 46 100 112v12h101c1 -7 1 -14 1 -17c0 -120 -75 -197 -200 -197c-137 0 -206 93 -206 217v203h87c113 0 163 63 163 157v84h-351z" />
    <glyph glyph-name="dvH" horiz-adv-x="586" 
d="M532 66c-13 -95 -95 -172 -226 -172c-150 0 -236 95 -236 224c0 82 38 147 102 184c-46 23 -78 62 -78 120c0 83 66 127 162 127h116v103h-396v88h633v-88h-137v-179h-180c-50 0 -94 -18 -94 -71c0 -35 22 -59 56 -71c17 3 35 5 54 5c142 0 211 -81 224 -171h-100
c-10 41 -51 87 -126 87c-84 0 -133 -59 -133 -136c0 -78 49 -135 133 -135c72 0 114 44 126 85h100zM375 -385l-124 206h105l127 -206h-108z" />
    <glyph glyph-name="dvLL" horiz-adv-x="987" 
d="M291 83c-127 0 -226 90 -226 227c0 140 99 230 225 230c98 0 166 -52 202 -131h3c35 79 104 131 201 131c126 0 226 -90 226 -230c0 -137 -99 -227 -226 -227c-99 0 -173 55 -201 133h-4c-27 -78 -101 -133 -200 -133zM305 173c81 0 137 56 137 137
c0 82 -55 140 -137 140c-80 0 -138 -56 -138 -141c0 -82 59 -136 138 -136zM681 173c80 0 138 54 138 136c0 85 -57 141 -137 141c-82 0 -137 -58 -137 -140c0 -81 55 -137 136 -137zM-24 652v88h1034v-88h-1034z" />
    <glyph glyph-name="dvK_SS" horiz-adv-x="538" 
d="M188 560c0 -68 57 -113 137 -115c45 28 77 62 77 114c0 59 -46 100 -107 100c-56 0 -107 -34 -107 -99zM381 -57v158c-16 -29 -60 -70 -136 -70c-106 0 -177 69 -177 167c0 109 83 157 167 199c-76 19 -141 74 -141 170c0 113 89 183 204 183c104 0 192 -60 192 -171
c0 -61 -27 -102 -64 -135h231v-77h-334c-77 -37 -147 -68 -147 -148c0 -56 40 -101 104 -101c70 0 109 53 109 112h88v-287h-96z" />
    <glyph glyph-name="dvJ_NY" horiz-adv-x="538" 
d="M-24 652v88h731v-88h-731zM243 434v84h464v-84h-279c50 -29 85 -80 85 -154c0 -111 -78 -182 -185 -182c-75 0 -132 33 -162 76v-149h-102v278h98c8 -77 67 -119 135 -119c76 0 120 52 120 119c0 86 -66 131 -148 131h-26z" />
    <glyph glyph-name="dvKx" horiz-adv-x="727" 
d="M449 0v183c-29 -55 -87 -95 -173 -95c-126 0 -211 92 -211 233c0 139 87 230 215 230c84 0 140 -39 169 -92v193h-473v88h945v-88h-371v-195c28 55 82 94 164 94c124 0 207 -96 207 -230h-106c0 84 -57 140 -132 140c-94 0 -133 -76 -133 -149v-312h-101zM260 -118
c-37 0 -66 28 -66 65c0 38 29 67 66 67c38 0 67 -29 67 -67c0 -37 -29 -65 -67 -65zM310 176c95 0 139 77 139 143c0 69 -43 142 -139 142c-77 0 -139 -54 -139 -141c0 -90 59 -144 139 -144z" />
    <glyph glyph-name="dvKHx" horiz-adv-x="673" 
d="M-24 652v88h865v-88h-485v-121c0 -145 -77 -202 -174 -207v-83c0 -91 58 -154 158 -154c74 0 118 39 141 82c-48 36 -78 92 -78 164c0 127 91 204 219 204c129 0 219 -77 219 -204c0 -130 -94 -205 -219 -205c-20 0 -40 2 -59 6c-39 -77 -115 -138 -226 -138
c-157 0 -259 94 -259 257v147h33c82 0 140 33 140 144v108h-275zM318 -207c-37 0 -66 28 -66 65c0 38 29 67 66 67c38 0 67 -29 67 -67c0 -37 -29 -65 -67 -65zM496 333c0 -76 50 -125 126 -125c77 0 127 49 127 125s-50 125 -127 125c-76 0 -126 -49 -126 -125z" />
    <glyph glyph-name="dvGx" horiz-adv-x="499" 
d="M-24 652v88h547v-88h-123v-257c0 -103 -51 -187 -176 -187c-118 0 -180 72 -180 181c0 10 0 21 1 31h102v-31c0 -46 18 -91 74 -91c60 0 74 48 74 93v261h-319zM227 -1c-37 0 -66 28 -66 65c0 38 29 67 66 67c38 0 67 -29 67 -67c0 -37 -29 -65 -67 -65z" />
    <glyph glyph-name="dvJx" horiz-adv-x="547" 
d="M271 122c-131 0 -203 86 -203 208v166h106v-164c0 -71 36 -118 98 -118c63 0 101 47 101 118v164h324v-90h-222v-76c0 -122 -77 -208 -204 -208zM-24 652v88h721v-88h-721zM274 -83c-37 0 -66 28 -66 65c0 38 29 67 66 67c38 0 67 -29 67 -67c0 -37 -29 -65 -67 -65z" />
    <glyph glyph-name="dvPHx" horiz-adv-x="726" 
d="M313 275c83 0 127 64 127 139v238h-255v-220c0 -95 40 -157 128 -157zM-24 652v88h945v-88h-376v-195c29 54 86 94 170 94c133 0 206 -94 206 -230h-106c0 84 -45 140 -132 140c-97 0 -138 -79 -138 -160v-301h-105v260c-31 -46 -82 -74 -152 -74
c-138 0 -208 100 -208 246v220h-104zM250 -15c-37 0 -66 28 -66 65c0 38 29 67 66 67c38 0 67 -29 67 -67c0 -37 -29 -65 -67 -65z" />
    <glyph glyph-name="dvAnusvara" unicode="&#x902;" horiz-adv-x="0" 
d="M-151 829c-38 0 -67 29 -67 66s29 66 67 66c37 0 66 -29 66 -66s-29 -66 -66 -66z" />
    <glyph glyph-name="dvCandrabindu" unicode="&#x901;" horiz-adv-x="0" 
d="M-156 816c-142 0 -214 81 -214 186h85c0 -55 42 -110 129 -110s129 55 129 110h85c0 -105 -72 -186 -214 -186zM-156 983c-26 0 -47 21 -47 47s21 47 47 47c27 0 47 -21 47 -47s-20 -47 -47 -47z" />
    <glyph glyph-name="dvVisarga" unicode="&#x903;" horiz-adv-x="246" 
d="M123 419c-37 0 -67 29 -67 66s30 66 67 66s67 -29 67 -66s-30 -66 -67 -66zM123 119c-37 0 -67 29 -67 66s30 66 67 66s67 -29 67 -66s-30 -66 -67 -66z" />
    <glyph glyph-name="dvAvagraha" unicode="&#x93d;" horiz-adv-x="582" 
d="M70 57v89h234c50 0 75 24 75 56c0 100 -249 175 -249 343c0 90 69 127 156 127h210v-89h-185c-39 0 -74 -9 -74 -53c0 -102 248 -177 248 -343c0 -75 -56 -130 -155 -130h-260z" />
    <glyph glyph-name="dvVirama" unicode="&#x94d;" horiz-adv-x="0" 
d="M-76 -265l-124 206h105l127 -206h-108z" />
    <glyph glyph-name="dvNukta" unicode="&#x93c;" horiz-adv-x="0" 
d="M-337 -181c-37 0 -66 28 -66 65c0 38 29 67 66 67c38 0 67 -29 67 -67c0 -37 -29 -65 -67 -65z" />
    <glyph glyph-name="dvZero" unicode="&#x966;" horiz-adv-x="641" 
d="M60 374c0 208 56 368 260 368s260 -160 260 -368c0 -212 -56 -372 -260 -372s-260 160 -260 372zM468 374c0 136 -15 264 -148 264s-148 -128 -148 -264c0 -143 15 -268 148 -268s148 125 148 268z" />
    <glyph glyph-name="dvOne" unicode="&#x967;" horiz-adv-x="350" 
d="M138 0v625h-93v104h208v-729h-115z" />
    <glyph glyph-name="dvTwo" unicode="&#x968;" horiz-adv-x="577" 
d="M51 10v83c172 151 353 283 353 426c0 76 -33 128 -118 128c-80 0 -123 -56 -126 -138h-110c4 158 106 235 235 235c148 0 232 -89 232 -220c0 -177 -180 -312 -297 -419h317v-95h-486z" />
    <glyph glyph-name="dvThree" unicode="&#x969;" horiz-adv-x="594" 
d="M58 549c8 126 106 197 239 197c145 0 224 -84 224 -190c0 -87 -55 -146 -112 -165v-4c76 -23 125 -86 125 -187c0 -116 -82 -204 -234 -204c-138 0 -245 72 -252 215h110c5 -68 55 -120 141 -120c85 0 127 52 127 120c0 96 -62 129 -181 129h-26v94h27
c103 1 166 31 166 109c0 63 -41 105 -119 105c-80 0 -117 -48 -124 -99h-111z" />
    <glyph glyph-name="dvFour" unicode="&#x96a;" horiz-adv-x="647" 
d="M408 0v152h-362v86l336 482h138v-469h93v-99h-93v-152h-112zM177 251h236v353z" />
    <glyph glyph-name="dvFive" unicode="&#x96b;" horiz-adv-x="639" 
d="M90 731h440v-100h-335v-199c27 36 86 66 151 66c179 0 234 -133 234 -243c0 -145 -83 -255 -252 -255c-150 0 -237 83 -254 197h111c15 -62 67 -102 144 -102c98 0 142 67 142 157c0 95 -47 149 -142 149c-67 0 -112 -37 -131 -91h-108v421z" />
    <glyph glyph-name="dvSix" unicode="&#x96c;" horiz-adv-x="642" 
d="M557 560h-105c-14 59 -49 92 -121 92c-103 0 -156 -70 -159 -261c36 60 108 92 184 92c131 0 224 -88 224 -240c0 -138 -83 -243 -239 -243c-212 0 -267 149 -267 381c0 228 76 366 258 366c142 0 213 -90 225 -187zM331 387c-75 0 -146 -45 -146 -142
c0 -90 53 -150 150 -150c84 0 136 57 136 143c0 87 -44 149 -140 149z" />
    <glyph glyph-name="dvSeven" unicode="&#x96d;" horiz-adv-x="560" 
d="M40 726h482v-85l-278 -641h-115l281 629h-370v97z" />
    <glyph glyph-name="dvEight" unicode="&#x96e;" horiz-adv-x="638" 
d="M183 381c-62 31 -104 83 -104 164c0 106 79 197 240 197s240 -92 240 -197c0 -78 -45 -135 -104 -164c74 -28 123 -93 123 -180c0 -133 -108 -219 -259 -219c-150 0 -258 86 -258 219c0 88 49 153 122 180zM319 417c76 0 131 48 131 114c0 75 -51 116 -131 116
c-78 0 -130 -40 -130 -117c0 -66 54 -113 130 -113zM319 331c-84 0 -149 -41 -149 -126c0 -74 56 -128 149 -128c92 0 147 55 147 128c0 82 -61 126 -147 126z" />
    <glyph glyph-name="dvNine" unicode="&#x96f;" horiz-adv-x="635" 
d="M97 198h105c13 -65 56 -102 132 -102c91 0 137 61 137 247c-33 -46 -96 -71 -162 -71c-128 0 -232 79 -232 233c0 145 89 241 242 241c188 0 251 -129 251 -368c0 -246 -52 -377 -243 -377c-151 0 -221 93 -230 197zM329 368c81 0 129 55 129 137c0 93 -53 146 -136 146
c-85 0 -136 -59 -136 -143c0 -75 42 -140 143 -140z" />
    <glyph glyph-name="dvOm" unicode="&#x950;" horiz-adv-x="1061" 
d="M301 12c-134 0 -225 82 -225 205h99c0 -67 49 -115 120 -115c72 0 116 48 116 118c0 56 -35 116 -127 116h-41v89h41c78 0 117 51 117 105c0 68 -49 109 -109 109c-63 0 -111 -38 -111 -101h-98c0 116 87 190 210 190c121 0 204 -72 204 -184c0 -78 -40 -139 -118 -159
v-3c12 -3 24 -6 34 -11h59c71 0 110 24 110 111c0 123 50 203 195 203c147 0 202 -90 202 -247v-132c0 -185 -81 -284 -259 -284c-31 0 -63 4 -99 10v88c30 -5 58 -8 81 -8c136 0 175 73 175 197v142c0 89 -24 145 -100 145c-73 0 -97 -51 -97 -115
c0 -140 -56 -192 -188 -192c11 -24 16 -52 16 -79c0 -121 -84 -198 -207 -198zM572 739c-143 0 -214 80 -214 186h84c0 -55 43 -110 130 -110c86 0 129 55 129 110h85c0 -106 -72 -186 -214 -186zM572 906c-27 0 -47 20 -47 47s20 48 47 48s47 -21 47 -48s-20 -47 -47 -47z
" />
    <glyph glyph-name="dvAbbreviationsign" unicode="&#x970;" horiz-adv-x="488" 
d="M246 508c98 0 166 -67 166 -164c0 -95 -68 -162 -166 -162c-99 0 -169 68 -169 163c0 96 70 163 169 163zM246 444c-60 0 -104 -41 -104 -99s44 -99 104 -99c58 0 99 40 99 98s-41 100 -99 100z" />
    <glyph glyph-name="danda" unicode="&#x964;" horiz-adv-x="300" 
d="M258 741v-741h-104v741h104z" />
    <glyph glyph-name="doubledanda" unicode="&#x965;" horiz-adv-x="529" 
d="M258 741v-741h-104v741h104zM486 741v-741h-104v741h104z" />
    <glyph glyph-name="rupee" unicode="&#x20a8;" horiz-adv-x="1147" 
d="M444 488c0 72 -40 118 -129 118h-126v-235h126c89 0 129 47 129 117zM75 695h240c165 0 246 -94 246 -207c0 -84 -47 -175 -173 -199l184 -289h-139l-174 282h-70v-282h-114v695zM624 393c0 90 80 167 218 167c122 0 203 -67 209 -177h-117c-4 54 -38 87 -100 87
c-63 0 -98 -32 -98 -73c0 -128 322 -35 322 -244c0 -96 -90 -162 -215 -162c-126 0 -212 62 -220 177h118c4 -54 42 -87 102 -87c66 0 103 31 103 74c0 128 -322 39 -322 238z" />
    <glyph glyph-name="indianrupee" unicode="&#x20b9;" horiz-adv-x="622" 
d="M46 613v83h544v-83h-116v-75v-14h116v-82h-122c-22 -133 -97 -181 -273 -181v-63c0 -67 23 -119 103 -119c75 0 102 46 102 115h105c-2 -136 -76 -204 -209 -204c-136 0 -208 79 -208 213v137c201 0 258 8 274 102h-316v82h321v14v75h-321z" />
    <glyph glyph-name="zerowidthnonjoiner" unicode="&#x200c;" horiz-adv-x="0" 
d="M24 -230h-47v1041h47v-1041z" />
    <glyph glyph-name="zerowidthjoiner" unicode="&#x200d;" horiz-adv-x="0" 
d="M128 593l-33 -33l-72 75v-865h-47v865l-69 -73l-33 33l93 93l-95 95l33 33l95 -95l96 95l32 -32l-96 -96z" />
    <glyph glyph-name="dottedcircle" unicode="&#x25cc;" horiz-adv-x="651" 
d="M557 409c0 -25 -18 -42 -43 -42s-43 17 -43 42s18 42 43 42s43 -17 43 -42zM181 123c0 -25 -18 -42 -43 -42s-43 17 -43 42s18 42 43 42s43 -17 43 -42zM279 47c0 -25 -18 -42 -43 -42s-43 17 -43 42s18 42 43 42s43 -17 43 -42zM136 236c0 -25 -18 -42 -43 -42
s-43 17 -43 42s18 42 43 42s43 -17 43 -42zM403 33c0 -25 -18 -42 -43 -42s-43 17 -43 42s18 42 43 42s43 -17 43 -42zM151 357c0 -25 -18 -42 -43 -42s-43 17 -43 42s18 42 43 42s43 -17 43 -42zM518 79c0 -25 -18 -42 -43 -42s-43 17 -43 42s18 42 43 42s43 -17 43 -42z
M227 456c0 -25 -18 -42 -43 -42s-43 17 -43 42s18 42 43 42s43 -17 43 -42zM591 175c0 -25 -18 -42 -43 -42s-43 17 -43 42s18 42 43 42s43 -17 43 -42zM344 498c0 -25 -18 -42 -43 -42s-43 17 -43 42s18 42 43 42s43 -17 43 -42zM601 295c0 -25 -18 -42 -43 -42
s-43 17 -43 42s18 42 43 42s43 -17 43 -42zM465 483c0 -25 -18 -42 -43 -42s-43 17 -43 42s18 42 43 42s43 -17 43 -42z" />
    <glyph glyph-name="dvReph" horiz-adv-x="0" 
d="M-196 722v89c0 109 47 200 176 200c112 0 174 -72 170 -179h-92c2 55 -28 91 -76 91c-55 0 -80 -38 -80 -111v-90h-98z" />
    <glyph glyph-name="dvEyelash" horiz-adv-x="311" 
d="M403 375c-30 -18 -81 -32 -134 -32c-115 0 -236 52 -239 203h100c2 -95 80 -126 154 -126c37 0 61 8 80 15zM-24 652v88h412v-88h-412z" />
    <glyph glyph-name="dvRashtrasign" horiz-adv-x="0" 
d="M-491 -97l160 179h140l161 -179h-109l-122 139l-122 -139h-108z" />
    <glyph glyph-name="dvK_RA" horiz-adv-x="986" 
d="M449 0v188c-9 -16 -20 -31 -34 -44l-185 -190h-114l141 143c-112 8 -192 95 -192 224c0 139 87 230 215 230c84 0 140 -39 169 -92v193h-473v88h1033v-88h-459v-195c28 55 82 94 164 94c124 0 207 -96 207 -228c0 -145 -89 -229 -208 -229c-23 0 -44 2 -64 7v83
c11 -3 25 -4 37 -4c73 0 129 51 129 141c0 84 -57 140 -132 140c-94 0 -132 -77 -133 -149v-312h-101zM310 176c10 0 20 1 29 3l4 4l6 -2c68 17 100 82 100 138c0 69 -43 142 -139 142c-77 0 -139 -54 -139 -141c0 -90 59 -144 139 -144z" />
    <glyph glyph-name="dvKH_RA" horiz-adv-x="941" 
d="M739 0v200c-26 -41 -72 -71 -141 -71c-13 0 -25 1 -37 3c-10 -18 -21 -35 -35 -51v0l-206 -222h-112v6l130 135h-1c-157 0 -259 93 -259 253v147h33c82 0 140 33 140 144v108h-275v88h989v-88h-122v-652h-104zM619 210c83 0 120 65 120 124s-35 124 -120 124
c-67 0 -123 -45 -123 -122c0 -81 55 -126 123 -126zM340 87c72 0 116 37 140 79c-49 36 -78 95 -78 170c0 121 84 203 196 203c69 0 115 -30 141 -71v184h-383v-121c0 -145 -77 -202 -174 -207v-83c0 -91 58 -154 158 -154z" />
    <glyph glyph-name="dvG_RA" horiz-adv-x="765" 
d="M565 0v231l-250 -251h-121l369 359v313h-163v-199c0 -103 -51 -187 -176 -187c-118 0 -180 72 -180 181c0 10 0 21 1 31h102v-31c0 -46 18 -91 74 -91c60 0 74 48 74 92v204h-319v88h813v-88h-122v-652h-102z" />
    <glyph glyph-name="dvGH_RA" horiz-adv-x="707" 
d="M323 188c101 0 181 69 181 171v293h-306v-61c0 -69 34 -111 123 -111h45v-85h-53c-91 0 -129 -44 -129 -100c0 -72 60 -107 139 -107zM-24 652v88h755v-88h-121v-652h-106v207c-7 -10 -15 -20 -23 -29h1l-218 -230h-115l160 159h-10c-125 0 -221 60 -221 178
c0 85 60 137 125 150v2c-61 12 -110 54 -110 147v68h-117z" />
    <glyph glyph-name="dvNG_RA" horiz-adv-x="672" 
d="M594 326c-34 0 -61 27 -61 60c0 34 27 61 61 61s61 -27 61 -61c0 -33 -27 -60 -61 -60zM-24 652v88h720v-88h-227v-182h-179c-49 0 -105 -13 -105 -72c0 -54 44 -72 93 -72h45c101 0 205 -42 205 -171c0 -77 -43 -136 -126 -160l138 -153h-109l-122 139l-122 -139h-108
l138 154c-93 26 -150 91 -152 181h104c1 -67 52 -113 141 -113c79 0 119 39 119 92c0 72 -59 95 -125 95h-39c-82 0 -185 30 -185 150c0 105 88 144 181 144h106v107h-391z" />
    <glyph glyph-name="dvC_RA" horiz-adv-x="740" 
d="M-24 652v88h788v-88h-122v-652h-105v193c-12 -18 -26 -34 -43 -47l-182 -192h-114l144 145c-112 3 -202 73 -202 193c0 64 27 116 76 148h-166v83h365v-83h-37c-84 0 -139 -55 -139 -131c0 -82 64 -127 141 -127c95 1 157 76 157 173v297h-561z" />
    <glyph glyph-name="dvCH_RA" horiz-adv-x="819" 
d="M-24 652v88h867v-88h-210v-110c82 -19 141 -89 141 -205c0 -158 -99 -267 -260 -301l138 -153h-109l-122 139l-122 -139h-108l131 146c-152 18 -252 90 -252 216c0 91 56 145 130 162v3c-60 11 -109 54 -109 147v95h-115zM400 115c169 0 281 83 281 226
c0 84 -47 128 -97 128c-45 0 -93 -30 -93 -105c0 -27 6 -58 16 -88h-87c-11 30 -17 64 -17 99c0 102 60 152 133 167v110h-341v-91c0 -69 33 -109 117 -109h21v-85h-19c-97 0 -138 -51 -138 -112c0 -91 82 -140 224 -140z" />
    <glyph glyph-name="dvJ_RA" horiz-adv-x="846" 
d="M-24 652v88h894v-88h-122v-652h-98v218l-239 -256h-116l353 363v89h-177v-14c0 -122 -73 -209 -200 -209c-131 0 -203 87 -203 209v99h106v-97c0 -72 36 -118 98 -118c63 0 101 46 101 118v97h275v153h-672z" />
    <glyph glyph-name="dvJH_RA" horiz-adv-x="922" 
d="M276 326h445v326h-255v-182h-179c-49 0 -106 -13 -106 -73c0 -52 43 -71 95 -71zM724 0v93l-157 -202h-106l263 321v34v0l-239 1c23 -25 38 -59 38 -105c0 -85 -57 -151 -170 -151c-97 0 -143 52 -158 73v-143h-99v250h94c7 -56 51 -102 132 -102c72 0 104 40 104 86
c0 59 -42 96 -125 96h-56c-85 3 -169 44 -169 147c0 109 89 148 183 148h106v106h-389v88h969v-88h-121v-652h-100z" />
    <glyph glyph-name="dvNY_RA" horiz-adv-x="817" 
d="M-24 652v88h911v-88h-122v-652h-103v134l-199 -216h-108l307 323v55h-145c-13 -114 -94 -196 -228 -196c-132 0 -216 80 -224 180h99c9 -47 55 -91 126 -91c89 0 134 64 134 139c0 71 -45 135 -134 135c-73 0 -114 -45 -126 -91h-99c11 101 91 180 224 180
c123 0 202 -69 224 -167h147v267h-684z" />
    <glyph glyph-name="dvTT_RA" horiz-adv-x="649" 
d="M-24 652v88h697v-88h-201v-193h-112c-106 0 -190 -55 -190 -170c0 -95 69 -162 168 -162c102 0 170 70 170 170h100c0 -123 -66 -215 -174 -248l134 -149h-109l-119 136h-6l-119 -136h-108l134 150c-106 33 -176 121 -176 239c0 165 116 259 289 259h15v104h-393z" />
    <glyph glyph-name="dvTTH_RA" horiz-adv-x="676" 
d="M337 130c100 0 169 69 169 165s-69 163 -169 163c-98 0 -168 -67 -168 -163s70 -165 168 -165zM462 -102l-122 139l-122 -139h-108l139 156c-109 30 -184 118 -184 241c0 140 97 228 219 248v109h-308v88h722v-88h-310v-109c124 -19 222 -107 222 -248
c0 -121 -73 -209 -180 -240l141 -157h-109z" />
    <glyph glyph-name="dvDD_RA" horiz-adv-x="572" 
d="M-24 652v88h619v-88h-131v-182h-174c-49 0 -105 -13 -105 -72c0 -54 44 -72 93 -72h45c101 0 205 -42 205 -171c0 -78 -45 -138 -131 -161l137 -152h-109l-122 139l-122 -139h-108l139 156c-90 26 -145 91 -147 179h104c1 -67 52 -113 141 -113c79 0 119 39 119 92
c0 72 -59 95 -125 95h-39c-82 0 -185 30 -185 150c0 105 88 144 181 144h102v107h-387z" />
    <glyph glyph-name="dvDDH_RA" horiz-adv-x="645" 
d="M-24 652v88h693v-88h-178v-173h-101c-127 0 -224 -66 -224 -202c0 -114 78 -197 208 -197c89 0 156 47 156 121c0 52 -36 89 -87 89c-43 0 -79 -30 -79 -76c0 -6 1 -14 3 -19h-77c-2 11 -3 23 -3 33c0 88 69 138 160 138c107 0 173 -68 173 -165
c0 -99 -63 -169 -172 -191l134 -149h-109l-122 139l-122 -139h-108l141 158c-117 35 -197 128 -197 261c0 181 127 273 293 273h34v99h-416z" />
    <glyph glyph-name="dvNN_RA" horiz-adv-x="865" 
d="M288 338c61 0 96 45 96 108v206h-193v-206c0 -63 37 -108 97 -108zM-24 652v88h913v-88h-122v-652h-99v233l-252 -269h-120l368 381v307h-177v-197c0 -118 -68 -206 -200 -206c-131 0 -199 90 -199 206v197h-112z" />
    <glyph glyph-name="dvT_RA" horiz-adv-x="699" 
d="M-24 652v88h747v-88h-122v-652h-101v243l-246 -243h-136v5l376 347c-27 53 -85 92 -159 92c-91 0 -164 -57 -164 -162h-105c-2 151 97 245 243 245c93 0 155 -44 189 -90v215h-522z" />
    <glyph glyph-name="dvTH_RA" horiz-adv-x="774" 
d="M571 0v217c-10 -22 -28 -45 -52 -64l3 -1l-266 -224h-129v6l201 163c-158 8 -256 111 -256 273c0 19 1 38 4 58h95c102 0 200 26 200 133c0 55 -35 98 -94 98c-61 0 -98 -40 -98 -102c0 -14 2 -28 4 -41h-95c-2 14 -4 31 -4 44c0 120 84 189 194 189
c115 0 191 -78 191 -191c0 -136 -102 -206 -259 -206h-37c3 -97 62 -170 189 -170c114 0 209 75 209 208v350h227v-88h-122v-652h-105z" />
    <glyph glyph-name="dvD_RA" horiz-adv-x="609" 
d="M-24 652v88h657v-88h-135v-191h-157c-95 0 -169 -51 -169 -148c0 -85 54 -140 140 -140c61 0 127 38 127 123h97v-317h-103v180c-6 -8 -12 -15 -20 -22h1l-193 -199h-114l155 156c-113 8 -197 86 -197 222c0 156 117 235 266 235h62v101h-417z" />
    <glyph glyph-name="dvDH_RA" horiz-adv-x="718" 
d="M303 94c-122 0 -220 59 -220 174c0 88 63 135 120 145v3c-64 16 -127 68 -127 165c0 100 73 168 176 168c108 0 170 -68 170 -162c0 -9 -1 -24 -2 -35h-79c1 12 1 18 1 23c0 48 -31 86 -87 86s-89 -40 -89 -91c0 -73 62 -111 145 -111h58v-85h-54
c-82 0 -125 -38 -125 -95c0 -68 59 -100 138 -100c112 0 193 79 193 195v366h225v-88h-120v-652h-105v204c-9 -15 -19 -28 -31 -40h1l-218 -230h-115l160 160h-15z" />
    <glyph glyph-name="dvN_RA" horiz-adv-x="835" 
d="M270 192c66 0 113 46 113 111c0 64 -47 111 -113 111c-68 0 -116 -46 -116 -112c0 -65 47 -110 116 -110zM-24 652v88h882v-88h-121v-652h-95v174l-229 -252h-115l338 353v139h-214c26 -30 45 -71 45 -125c0 -110 -85 -186 -199 -186c-116 0 -209 76 -209 199
c0 129 96 200 218 200h359v150h-660z" />
    <glyph glyph-name="dvP_RA" horiz-adv-x="661" 
d="M323 275c88 0 136 66 136 144v233h-274v-215c0 -98 42 -162 138 -162zM-24 652v88h709v-88h-122v-652h-104v265c-7 -10 -16 -20 -26 -28l-230 -253h-115l200 207c-139 4 -208 103 -208 246v215h-104z" />
    <glyph glyph-name="dvPH_RA" horiz-adv-x="985" 
d="M313 275c83 0 127 64 127 139v238h-255v-220c0 -95 40 -157 128 -157zM-24 652v88h1033v-88h-464v-195c29 54 86 94 170 94c122 0 206 -94 206 -225c0 -147 -88 -232 -208 -232c-23 0 -48 3 -67 8v82c12 -3 27 -5 41 -5c74 0 128 54 128 142c0 84 -56 140 -132 140
c-97 0 -138 -79 -138 -160v-301h-105v263c-7 -10 -15 -19 -24 -27l-223 -252h-115l196 207c-129 7 -194 103 -194 241v220h-104z" />
    <glyph glyph-name="dvB_RA" horiz-adv-x="688" 
d="M465 143l-193 -199h-112l147 143c-136 1 -242 93 -242 235c0 144 104 239 241 239c87 0 149 -41 184 -93v184h-514v88h736v-88h-121v-652h-101v174c-7 -10 -15 -21 -25 -31zM327 491c-44 0 -83 -14 -113 -40l257 -216c16 27 24 59 24 89c0 83 -57 167 -168 167zM328 158
c49 0 86 16 113 41l-259 216c-16 -25 -25 -57 -25 -93c0 -103 79 -164 171 -164z" />
    <glyph glyph-name="dvBH_RA" horiz-adv-x="812" 
d="M264 197c62 0 95 45 95 119v60h-85c-62 0 -107 -34 -107 -91c0 -54 41 -88 97 -88zM265 110c-117 0 -195 70 -195 175c0 116 89 176 203 176h86v85c0 69 -24 113 -84 113c-49 0 -81 -35 -81 -92c0 -12 1 -22 3 -35h-102c-2 13 -4 27 -4 40c0 104 65 177 182 177
c132 0 181 -93 181 -221v-67h179v279h223v-88h-123v-652h-95v174l-251 -252h-116l362 347v107h-179v-54c0 -130 -70 -212 -189 -212z" />
    <glyph glyph-name="dvM_RA" horiz-adv-x="803" 
d="M239 202c62 0 96 46 96 120v71h-86c-62 0 -106 -37 -106 -96c0 -58 40 -95 96 -95zM604 477v175h-174v-175h174zM-24 652v88h850v-88h-122v-652h-95v175l-252 -253h-116l363 348v123h-174v-66c0 -131 -69 -211 -190 -211c-116 0 -194 72 -194 180c0 119 88 181 202 181
h87v175h-359z" />
    <glyph glyph-name="dvY_RA" horiz-adv-x="743" 
d="M353 191c108 0 187 74 187 180v281h-185v-80c0 -122 -63 -186 -187 -193v-4c0 -111 67 -184 185 -184zM-24 652v88h791v-88h-122v-652h-105v201c-9 -13 -20 -26 -33 -37h1l-266 -225h-128v6l198 160c-159 8 -247 116 -247 280c0 16 1 34 3 51h13c113 0 170 44 170 154v62
h-275z" />
    <glyph glyph-name="dvL_RA" horiz-adv-x="907" 
d="M598 57c-10 0 -21 1 -34 2v92c10 -1 21 -2 28 -2c92 0 144 63 144 154c0 80 -40 142 -118 142c-83 0 -121 -69 -121 -164v-18h-88v18c0 93 -36 164 -116 164s-122 -60 -122 -142c0 -91 52 -154 144 -154c7 0 18 1 28 2v-92c-13 -1 -25 -2 -34 -2
c-160 0 -244 106 -244 248c0 149 92 232 214 232c103 0 153 -68 173 -135h3c18 59 59 118 141 132v118h-620v88h954v-88h-231v-124c85 -26 143 -104 143 -223c0 -142 -84 -248 -244 -248zM403 -172l160 179h140l161 -179h-109l-122 139l-122 -139h-108z" />
    <glyph glyph-name="dvV_RA" horiz-adv-x="672" 
d="M319 170c105 0 153 80 153 149v1c0 73 -48 150 -153 150c-85 0 -151 -58 -151 -149c0 -93 64 -151 151 -151zM696 652h-122v-652h-102v185c-10 -18 -24 -33 -39 -46l-180 -183h-114l140 136c-130 6 -214 98 -214 232c0 136 92 231 227 231c86 0 147 -38 180 -94v191h-496
v88h720v-88z" />
    <glyph glyph-name="dvSH_RA" horiz-adv-x="822" 
d="M294 425l21 -11l2 2c51 38 92 79 92 143c0 53 -38 102 -105 103c-62 0 -103 -46 -105 -98c-2 -63 33 -105 95 -139zM621 0v158l-72 38l-215 -203h-123v9l261 235l-149 79l-166 -129h-120v13l206 159c-89 53 -142 115 -142 204c0 104 76 186 200 186
c127 0 204 -80 204 -180c0 -81 -35 -135 -111 -197l211 -112l9 -2l-2 -2l9 -5v489h225v-88h-122v-652h-103z" />
    <glyph glyph-name="dvSS_RA" horiz-adv-x="670" 
d="M324 268c70 0 116 37 135 90l-278 214v-138c0 -100 45 -166 143 -166zM469 431v221h-287zM-24 652v88h718v-88h-122v-652h-103v260c-10 -15 -22 -28 -37 -39l-229 -237h-115l204 198c-141 5 -212 108 -212 255v215h-104z" />
    <glyph glyph-name="dvS_RA" horiz-adv-x="888" 
d="M431 568c0 -62 -18 -111 -48 -147h306v231h-258v-84zM-24 652v88h936v-88h-122v-652h-92v195l-188 -254h-102l281 358v41h-513v-154c0 -60 28 -105 90 -105c53 0 84 44 84 106v13h91c1 -8 1 -14 1 -18c0 -116 -65 -191 -175 -191c-126 0 -190 86 -190 200v220h87
c113 0 163 63 163 157v84h-351z" />
    <glyph glyph-name="dvH_RA" horiz-adv-x="586" 
d="M532 34c-13 -92 -95 -168 -226 -168c-150 0 -236 102 -236 238c0 87 39 158 105 197c-47 22 -81 62 -81 121c0 83 66 127 162 127h116v103h-396v88h633v-88h-137v-179h-180c-50 0 -94 -18 -94 -71c0 -35 23 -60 58 -71c16 3 32 4 50 4c112 0 192 -61 211 -137l-104 -109
h-95l105 110c-18 27 -55 56 -114 56c-88 0 -140 -69 -140 -155s52 -151 142 -151c74 0 116 45 129 85h92z" />
    <glyph glyph-name="dvLL_RA" horiz-adv-x="987" 
d="M305 173c81 0 137 56 137 137c0 82 -55 140 -137 140c-80 0 -138 -56 -138 -141c0 -82 59 -136 138 -136zM681 173c80 0 138 54 138 136c0 85 -57 141 -137 141c-82 0 -137 -58 -137 -140c0 -81 55 -137 136 -137zM822 -59l-122 139l-122 -139h-108l141 157
c-56 22 -97 65 -116 118h-4c-27 -78 -101 -133 -200 -133c-127 0 -226 90 -226 227c0 140 99 230 225 230c98 0 166 -52 202 -131h3c30 69 86 117 164 128v115h-683v88h1034v-88h-249v-120c94 -26 161 -107 161 -222c0 -102 -54 -177 -134 -210l143 -159h-109z" />
    <glyph glyph-name="dvKx_RA" horiz-adv-x="1042" 
d="M505 0v188c-9 -17 -21 -31 -35 -44l-184 -190h-114l142 143c-113 8 -193 95 -193 224c0 139 87 230 215 230c85 0 140 -38 169 -91v192h-529v88h1090v-88h-460v-194c28 54 82 93 164 93c124 0 207 -96 207 -228c0 -145 -89 -229 -208 -229c-22 0 -44 2 -64 7v83
c11 -3 25 -4 38 -4c72 0 128 51 128 141c0 84 -56 140 -132 140c-94 0 -132 -77 -133 -149v-312h-101zM366 176c11 0 20 1 30 3l4 4l5 -2c69 18 100 82 100 138c0 69 -43 142 -139 142c-78 0 -139 -54 -139 -141c0 -90 59 -144 139 -144zM85 0c-34 0 -60 26 -60 60
c0 35 26 61 60 61c35 0 62 -26 62 -61c0 -34 -27 -60 -62 -60z" />
    <glyph glyph-name="dvKHx_RA" horiz-adv-x="941" 
d="M739 0v200c-26 -41 -72 -71 -141 -71c-13 0 -25 1 -37 3c-10 -18 -21 -35 -35 -51v0l-206 -222h-112v6l130 135h-1c-157 0 -259 93 -259 253v147h33c82 0 140 33 140 144v108h-275v88h989v-88h-122v-652h-104zM99 -131c-34 0 -60 26 -60 60c0 35 26 61 60 61
c35 0 62 -26 62 -61c0 -34 -27 -60 -62 -60zM619 210c83 0 120 65 120 124s-35 124 -120 124c-67 0 -123 -45 -123 -122c0 -81 55 -126 123 -126zM340 87c72 0 116 37 140 79c-49 36 -78 95 -78 170c0 121 84 203 196 203c69 0 115 -30 141 -71v184h-383v-121
c0 -145 -77 -202 -174 -207v-83c0 -91 58 -154 158 -154z" />
    <glyph glyph-name="dvGx_RA" horiz-adv-x="765" 
d="M565 0v231l-250 -251h-121l369 359v313h-163v-199c0 -103 -51 -187 -176 -187c-118 0 -180 72 -180 181c0 10 0 21 1 31h102v-31c0 -46 18 -91 74 -91c60 0 74 48 74 92v204h-319v88h813v-88h-122v-652h-102zM100 43c-34 0 -60 26 -60 60c0 35 26 61 60 61
c35 0 62 -26 62 -61c0 -34 -27 -60 -62 -60z" />
    <glyph glyph-name="dvJx_RA" horiz-adv-x="846" 
d="M-24 652v88h894v-88h-122v-652h-98v218l-239 -256h-116l353 363v89h-177v-14c0 -122 -73 -209 -200 -209c-131 0 -203 87 -203 209v99h106v-97c0 -72 36 -118 98 -118c63 0 101 46 101 118v97h275v153h-672zM145 -20c-34 0 -60 26 -60 60c0 35 26 61 60 61
c35 0 62 -26 62 -61c0 -34 -27 -60 -62 -60z" />
    <glyph glyph-name="dvPHx_RA" horiz-adv-x="1052" 
d="M380 275c84 0 127 64 127 139v238h-255v-220c0 -95 40 -157 128 -157zM-24 652v88h1100v-88h-463v-193c30 53 85 92 169 92c123 0 206 -94 206 -225c0 -147 -88 -232 -208 -232c-23 0 -47 3 -68 8v82c14 -3 28 -5 42 -5c75 0 128 54 128 142c0 84 -56 140 -131 140
c-97 0 -138 -79 -138 -160v-301h-106v263c-7 -11 -16 -20 -25 -28l-222 -251h-115l196 207c-129 7 -194 103 -194 241v220h-171zM85 75c-34 0 -60 26 -60 60c0 35 26 61 60 61c35 0 62 -26 62 -61c0 -34 -27 -60 -62 -60z" />
    <glyph glyph-name="dvK_R" horiz-adv-x="727" 
d="M449 0v188c-9 -16 -20 -31 -34 -44l-185 -190h-114l141 143c-112 8 -192 95 -192 224c0 139 87 230 215 230c84 0 140 -39 169 -92v193h-473v88h945v-88h-371v-195c28 55 82 94 164 94c124 0 207 -96 207 -230h-106c0 84 -57 140 -132 140c-94 0 -132 -77 -133 -149v-312
h-101zM310 176c10 0 20 1 29 3l4 4l6 -2c68 17 100 82 100 138c0 69 -43 142 -139 142c-77 0 -139 -54 -139 -141c0 -90 59 -144 139 -144z" />
    <glyph glyph-name="dvKH_R" horiz-adv-x="673" 
d="M-24 652v88h865v-88h-485v-121c0 -145 -77 -202 -174 -207v-83c0 -91 58 -154 158 -154c74 0 118 39 141 82c-48 36 -78 92 -78 164c0 127 91 204 219 204c129 0 219 -77 219 -204c0 -130 -94 -205 -219 -205c-21 0 -41 2 -60 6c-10 -19 -22 -37 -36 -53v0l-206 -222
h-112v6l130 135h-1c-157 0 -259 93 -259 253v147h33c82 0 140 33 140 144v108h-275zM622 208c77 0 127 49 127 125s-50 125 -127 125c-76 0 -126 -49 -126 -125s50 -125 126 -125z" />
    <glyph glyph-name="dvG_R" horiz-adv-x="499" 
d="M584 250l-269 -270h-121l390 379v-109zM-24 652v88h608v-88h-184v-199c0 -103 -51 -187 -176 -187c-118 0 -180 72 -180 181c0 10 0 21 1 31h102v-31c0 -46 18 -91 74 -91c60 0 74 48 74 92v204h-319z" />
    <glyph glyph-name="dvGH_R" horiz-adv-x="411" 
d="M-24 652v88h617v-88h-395v-63c0 -69 34 -109 123 -109h45v-85h-53c-91 0 -129 -44 -129 -100c0 -72 60 -107 139 -107c110 0 181 73 181 171h89c0 -79 -31 -149 -88 -196l-202 -215h-114l155 155c-7 -1 -14 -1 -21 -1c-149 0 -245 62 -245 183c0 85 60 137 125 150v2
c-61 12 -110 54 -110 147v68h-117z" />
    <glyph glyph-name="dvNG_R" horiz-adv-x="672" 
d="M594 326c-34 0 -61 27 -61 60c0 34 27 61 61 61s61 -27 61 -61c0 -33 -27 -60 -61 -60zM383 -382l-124 206h105l127 -206h-108zM-24 652v88h720v-88h-227v-182h-179c-49 0 -105 -13 -105 -72c0 -54 44 -72 93 -72h45c101 0 205 -42 205 -171c0 -77 -43 -136 -126 -160
l138 -153h-109l-122 139l-122 -139h-108l138 154c-93 26 -150 91 -152 181h104c1 -67 52 -113 141 -113c79 0 119 39 119 92c0 72 -59 95 -125 95h-39c-82 0 -185 30 -185 150c0 105 88 144 181 144h106v107h-391z" />
    <glyph glyph-name="dvC_R" horiz-adv-x="451" 
d="M-24 652v88h651v-88h-651zM50 440v83h365v-83h-37c-84 0 -139 -55 -139 -131c0 -82 64 -127 141 -127c95 1 157 76 157 173h90c2 -87 -31 -160 -89 -206l-181 -195h-114l139 140h-12c-130 0 -230 68 -230 198c0 64 27 116 76 148h-166z" />
    <glyph glyph-name="dvCH_R" horiz-adv-x="819" 
d="M-24 652v88h867v-88h-648v-91c0 -69 33 -109 117 -109h21v-85h-19c-97 0 -138 -51 -138 -112c0 -91 82 -140 224 -140c169 0 281 83 281 226c0 84 -47 128 -97 128c-45 0 -93 -30 -93 -105c0 -27 6 -58 16 -88h-87c-11 30 -17 64 -17 99c0 124 89 172 182 172
c106 0 189 -72 189 -210c0 -158 -99 -267 -260 -301l138 -153h-109l-122 139l-122 -139h-108l131 146c-152 18 -252 90 -252 216c0 91 56 145 130 162v3c-60 11 -109 54 -109 147v95h-115z" />
    <glyph glyph-name="dvJ_R" horiz-adv-x="547" 
d="M295 -38l402 414v-106l-286 -308h-116zM-24 652v88h721v-88h-721zM271 191c-131 0 -203 87 -203 209v99h106v-97c0 -72 36 -118 98 -118c63 0 101 46 101 118v97h324v-90h-226v-9c0 -122 -73 -209 -200 -209z" />
    <glyph glyph-name="dvJH_R" horiz-adv-x="567" 
d="M195 64v-143h-99v250h94c7 -56 51 -102 132 -102c72 0 104 40 104 86c0 59 -42 96 -125 96h-56c-85 3 -169 44 -169 147c0 109 89 148 183 148h106v106h-389v88h746v-88h-256v-182h-179c-49 0 -106 -13 -106 -73c0 -52 43 -71 95 -71h446v-80l-237 1
c23 -25 38 -59 38 -105c0 -85 -57 -151 -170 -151c-97 0 -143 52 -158 73zM722 96l-155 -205h-106l261 312v-107z" />
    <glyph glyph-name="dvNY_R" horiz-adv-x="540" 
d="M289 100c-132 0 -216 80 -224 180h99c9 -47 55 -91 126 -91c89 0 134 64 134 139c0 71 -45 135 -134 135c-73 0 -114 -45 -126 -91h-99c11 101 91 180 224 180c123 0 202 -69 224 -167h170v-89h-166c-13 -114 -94 -196 -228 -196zM355 -82l328 350v-110l-220 -240h-108z
M-24 652v88h707v-88h-707z" />
    <glyph glyph-name="dvTT_R" horiz-adv-x="649" 
d="M414 -324l-124 206h105l127 -206h-108zM-24 652v88h697v-88h-201v-193h-112c-106 0 -190 -55 -190 -170c0 -95 69 -162 168 -162c102 0 170 70 170 170h100c0 -123 -66 -215 -174 -248l134 -149h-109l-119 136h-6l-119 -136h-108l134 150c-106 33 -176 121 -176 239
c0 165 116 259 289 259h15v104h-393z" />
    <glyph glyph-name="dvTTH_R" horiz-adv-x="676" 
d="M337 130c100 0 169 69 169 165s-69 163 -169 163c-98 0 -168 -67 -168 -163s70 -165 168 -165zM462 -102l-122 139l-122 -139h-108l139 156c-109 30 -184 118 -184 241c0 140 97 228 219 248v109h-308v88h722v-88h-310v-109c124 -19 222 -107 222 -248
c0 -121 -73 -209 -180 -240l141 -157h-109zM412 -327l-124 206h105l127 -206h-108z" />
    <glyph glyph-name="dvDD_R" horiz-adv-x="572" 
d="M376 -382l-124 206h105l127 -206h-108zM-24 652v88h619v-88h-131v-182h-174c-49 0 -105 -13 -105 -72c0 -54 44 -72 93 -72h45c101 0 205 -42 205 -171c0 -78 -45 -138 -131 -161l137 -152h-109l-122 139l-122 -139h-108l139 156c-90 26 -145 91 -147 179h104
c1 -67 52 -113 141 -113c79 0 119 39 119 92c0 72 -59 95 -125 95h-39c-82 0 -185 30 -185 150c0 105 88 144 181 144h102v107h-387z" />
    <glyph glyph-name="dvDDH_R" horiz-adv-x="645" 
d="M429 -363l-124 206h105l127 -206h-108zM-24 652v88h693v-88h-178v-173h-101c-127 0 -224 -66 -224 -202c0 -114 78 -197 208 -197c89 0 156 47 156 121c0 52 -36 89 -87 89c-43 0 -79 -30 -79 -76c0 -6 1 -14 3 -19h-77c-2 11 -3 23 -3 33c0 88 69 138 160 138
c107 0 173 -68 173 -165c0 -99 -63 -169 -172 -191l134 -149h-109l-122 139l-122 -139h-108l141 158c-117 35 -197 128 -197 261c0 181 127 273 293 273h34v99h-416z" />
    <glyph glyph-name="dvNN_R" horiz-adv-x="570" 
d="M296 -36l370 384v-118l-250 -266h-120zM-24 652v88h690v-88h-179v-197c0 -118 -68 -206 -200 -206c-131 0 -199 90 -199 206v197h-112zM288 338c61 0 96 45 96 108v206h-193v-206c0 -63 37 -108 97 -108z" />
    <glyph glyph-name="dvT_R" horiz-adv-x="422" 
d="M66 282c0 146 105 246 265 246c133 0 234 -77 266 -191l-343 -337h-136v5l376 347c-26 53 -83 92 -157 92c-92 0 -166 -57 -166 -162h-105zM-24 652v88h621v-88h-621z" />
    <glyph glyph-name="dvTH_R" horiz-adv-x="473" 
d="M662 354c0 -85 -37 -153 -96 -198l-276 -236h-130v6l208 168h-4c-182 0 -292 103 -292 276c0 19 1 38 4 58h95c102 0 200 26 200 133c0 55 -35 98 -94 98c-61 0 -98 -40 -98 -102c0 -14 2 -28 4 -41h-95c-2 14 -4 31 -4 44c0 120 84 189 194 189c115 0 191 -78 191 -191
c0 -136 -102 -206 -259 -206h-37c3 -97 62 -170 189 -170c120 0 209 64 209 172h91z" />
    <glyph glyph-name="dvD_R" horiz-adv-x="609" 
d="M556 -300l-124 206h105l127 -206h-108zM-24 652v88h657v-88h-135v-191h-157c-95 0 -169 -51 -169 -148c0 -85 54 -140 140 -140c61 0 127 38 127 123h97v-317h-103v180c-6 -8 -12 -15 -20 -22h1l-193 -199h-114l155 156c-113 8 -197 86 -197 222c0 156 117 235 266 235
h62v101h-417z" />
    <glyph glyph-name="dvDH_R" horiz-adv-x="428" 
d="M324 91c-136 0 -241 57 -241 177c0 88 63 135 120 145v3c-64 16 -127 68 -127 165c0 100 73 168 176 168c108 0 170 -68 170 -162c0 -9 -1 -24 -2 -35h-79c1 12 1 18 1 23c0 48 -31 86 -87 86s-89 -40 -89 -91c0 -73 62 -111 145 -111h58v-85h-54
c-82 0 -125 -38 -125 -95c0 -72 69 -100 143 -100c119 0 188 62 188 151h92c0 -71 -28 -130 -77 -172l-208 -224h-115l159 160c-16 -2 -31 -3 -48 -3z" />
    <glyph glyph-name="dvN_R" horiz-adv-x="511" 
d="M268 103c-116 0 -209 76 -209 199c0 129 96 200 218 200h391v-88h-246c26 -30 45 -71 45 -125c0 -118 -88 -186 -199 -186zM270 192c66 0 113 46 113 111c0 64 -47 111 -113 111c-68 0 -116 -46 -116 -112c0 -65 47 -110 116 -110zM298 -78l370 388v-110l-255 -278h-115z
M-24 652v88h692v-88h-692z" />
    <glyph glyph-name="dvP_R" horiz-adv-x="362" 
d="M-24 652v88h570v-88h-361v-215c0 -98 43 -162 139 -162c88 0 135 66 135 144h87c0 -78 -28 -144 -81 -186l-223 -249h-114l195 202h-7c-156 0 -236 103 -236 251v215h-104z" />
    <glyph glyph-name="dvPH_R" horiz-adv-x="726" 
d="M313 275c83 0 127 64 127 139v238h-255v-220c0 -95 40 -157 128 -157zM-24 652v88h945v-88h-376v-195c29 54 86 94 170 94c133 0 206 -94 206 -230h-106c0 84 -45 140 -132 140c-97 0 -138 -79 -138 -160v-301h-105v263c-7 -10 -15 -19 -24 -27l-223 -252h-115l196 207
c-129 7 -194 103 -194 241v220h-104z" />
    <glyph glyph-name="dvB_R" horiz-adv-x="406" 
d="M-24 652v88h600v-88h-600zM321 81c-153 0 -256 99 -256 241c0 141 101 240 255 240c175 0 254 -122 254 -238c0 -73 -27 -140 -80 -185l-184 -195h-108l140 138c-7 -1 -14 -1 -21 -1zM323 489c-44 0 -84 -15 -115 -41l258 -217c17 28 25 60 25 90c0 83 -57 168 -168 168z
M324 155c48 0 86 16 113 41l-259 217c-16 -26 -25 -57 -25 -93c0 -104 80 -165 171 -165z" />
    <glyph glyph-name="dvBH_R" horiz-adv-x="519" 
d="M264 197c62 0 95 45 95 119v60h-85c-62 0 -107 -34 -107 -91c0 -54 41 -88 97 -88zM265 110c-117 0 -195 70 -195 175c0 116 89 176 203 176h86v85c0 69 -24 113 -84 113c-49 0 -81 -35 -81 -92c0 -12 1 -22 3 -35h-102c-2 13 -4 27 -4 40c0 104 65 177 182 177
c132 0 181 -93 181 -221v-67h201v-85h-201v-54c0 -130 -70 -212 -189 -212zM271 -78l384 367v-97l-268 -270h-116z" />
    <glyph glyph-name="dvM_R" horiz-adv-x="513" 
d="M239 202c62 0 96 46 96 120v71h-86c-62 0 -106 -37 -106 -96c0 -58 40 -95 96 -95zM241 -78l408 390v-97l-292 -293h-116zM-24 652v88h675v-88h-221v-175h220v-84h-220v-66c0 -131 -69 -211 -190 -211c-116 0 -194 72 -194 180c0 119 88 181 202 181h87v175h-359z" />
    <glyph glyph-name="dvY_R" horiz-adv-x="441" 
d="M-24 652v88h660v-88h-281v-80c0 -122 -63 -186 -187 -193v-4c0 -117 76 -184 188 -184c106 0 184 69 184 167h96c1 -82 -35 -153 -98 -200l-259 -219h-128v6l195 157c-175 2 -281 109 -281 283c0 16 1 34 3 51h13c113 0 170 44 170 154v62h-275z" />
    <glyph glyph-name="dvL_R" horiz-adv-x="907" 
d="M598 57c-10 0 -21 1 -34 2v92c10 -1 21 -2 28 -2c92 0 144 63 144 154c0 80 -40 142 -118 142c-83 0 -121 -69 -121 -164v-18h-88v18c0 93 -36 164 -116 164s-122 -60 -122 -142c0 -91 52 -154 144 -154c7 0 18 1 28 2v-92c-13 -1 -25 -2 -34 -2
c-160 0 -244 106 -244 248c0 149 92 232 214 232c103 0 153 -68 173 -135h3c18 59 59 118 141 132v118h-620v88h954v-88h-231v-124c85 -26 143 -104 143 -223c0 -142 -84 -248 -244 -248zM403 -172l160 179h140l161 -179h-109l-122 139l-122 -139h-108zM704 -396l-124 206
h105l127 -206h-108z" />
    <glyph glyph-name="dvV_R" horiz-adv-x="384" 
d="M321 170c104 0 151 80 151 150c0 73 -47 150 -151 150c-86 0 -153 -58 -153 -149c0 -93 65 -151 153 -151zM319 86c-155 0 -254 96 -254 238c0 136 101 231 254 231c177 0 255 -120 255 -236c0 -62 -24 -125 -74 -170l-191 -204h-112l144 142c-7 -1 -15 -1 -22 -1z
M-24 652v88h598v-88h-598z" />
    <glyph glyph-name="dvSH_R" horiz-adv-x="505" 
d="M294 425l21 -11l2 2c50 38 92 79 92 143c0 53 -38 102 -105 103c-62 0 -103 -46 -105 -98c-2 -63 33 -105 95 -139zM37 187v13l206 159c-88 53 -142 115 -142 204c0 104 76 186 200 186c127 0 204 -80 204 -180c0 -81 -34 -135 -110 -197l156 -82v-93l-217 -204h-126v7
l265 238l-150 78l-166 -129h-120z" />
    <glyph glyph-name="dvSS_R" horiz-adv-x="386" 
d="M326 268c77 0 122 43 135 89l-280 217v-140c0 -103 45 -166 145 -166zM-24 652v88h579v-88h-373l373 -283c0 -45 -20 -93 -60 -129l-248 -256h-114l200 195h-11c-161 0 -242 105 -242 258v215h-104z" />
    <glyph glyph-name="dvS_R" horiz-adv-x="520" 
d="M408 -59l241 305v-116l-139 -189h-102zM-24 652v88h673v-88h-218v-84c0 -62 -18 -111 -48 -147h266v-81h-473v-154c0 -60 28 -105 90 -105c53 0 84 44 84 106v13h91c1 -8 1 -14 1 -18c0 -116 -65 -191 -175 -191c-126 0 -190 86 -190 200v220h87c113 0 163 63 163 157v84
h-351z" />
    <glyph glyph-name="dvH_R" horiz-adv-x="586" 
d="M532 34c-13 -92 -95 -168 -226 -168c-150 0 -236 102 -236 238c0 87 39 158 105 197c-47 22 -81 62 -81 121c0 83 66 127 162 127h116v103h-396v88h633v-88h-137v-179h-180c-50 0 -94 -18 -94 -71c0 -35 23 -60 58 -71c16 3 32 4 50 4c112 0 192 -61 211 -137l-104 -109
h-95l105 110c-18 27 -55 56 -114 56c-88 0 -140 -69 -140 -155s52 -151 142 -151c74 0 116 45 129 85h92zM375 -413l-124 206h105l127 -206h-108z" />
    <glyph glyph-name="dvLL_R" horiz-adv-x="987" 
d="M291 83c-127 0 -226 90 -226 227c0 140 99 230 225 230c98 0 166 -52 202 -131h3c35 79 104 131 201 131c126 0 226 -90 226 -230c0 -102 -54 -177 -134 -210l143 -159h-109l-122 139l-122 -139h-108l141 157c-56 22 -97 65 -116 118h-4c-27 -78 -101 -133 -200 -133z
M305 173c81 0 137 56 137 137c0 82 -55 140 -137 140c-80 0 -138 -56 -138 -141c0 -82 59 -136 138 -136zM681 173c80 0 138 54 138 136c0 85 -57 141 -137 141c-82 0 -137 -58 -137 -140c0 -81 55 -137 136 -137zM-24 652v88h1034v-88h-1034z" />
    <glyph glyph-name="dvKx_R" horiz-adv-x="783" 
d="M505 0v188c-9 -17 -21 -31 -35 -44l-184 -190h-114l142 143c-113 8 -193 95 -193 224c0 139 87 230 215 230c85 0 140 -38 169 -91v192h-529v88h1001v-88h-371v-194c28 54 82 93 164 93c124 0 207 -96 207 -230h-106c0 84 -56 140 -132 140c-94 0 -132 -77 -133 -149
v-312h-101zM366 176c11 0 20 1 30 3l4 4l5 -2c69 18 100 82 100 138c0 69 -43 142 -139 142c-78 0 -139 -54 -139 -141c0 -90 59 -144 139 -144zM85 0c-34 0 -60 26 -60 60c0 35 26 61 60 61c35 0 62 -26 62 -61c0 -34 -27 -60 -62 -60z" />
    <glyph glyph-name="dvKHx_R" horiz-adv-x="673" 
d="M-24 652v88h865v-88h-485v-121c0 -145 -77 -202 -174 -207v-83c0 -91 58 -154 158 -154c74 0 118 39 141 82c-48 36 -78 92 -78 164c0 127 91 204 219 204c129 0 219 -77 219 -204c0 -130 -94 -205 -219 -205c-21 0 -41 2 -60 6c-10 -19 -22 -37 -36 -53v0l-206 -222
h-112v6l130 135h-1c-157 0 -259 93 -259 253v147h33c82 0 140 33 140 144v108h-275zM99 -131c-34 0 -60 26 -60 60c0 35 26 61 60 61c35 0 62 -26 62 -61c0 -34 -27 -60 -62 -60zM622 208c77 0 127 49 127 125s-50 125 -127 125c-76 0 -126 -49 -126 -125s50 -125 126 -125z
" />
    <glyph glyph-name="dvGx_R" horiz-adv-x="499" 
d="M584 250l-269 -270h-121l390 379v-109zM-24 652v88h608v-88h-184v-199c0 -103 -51 -187 -176 -187c-118 0 -180 72 -180 181c0 10 0 21 1 31h102v-31c0 -46 18 -91 74 -91c60 0 74 48 74 92v204h-319zM100 43c-34 0 -60 26 -60 60c0 35 26 61 60 61c35 0 62 -26 62 -61
c0 -34 -27 -60 -62 -60z" />
    <glyph glyph-name="dvJx_R" horiz-adv-x="547" 
d="M295 -38l402 414v-106l-286 -308h-116zM-24 652v88h721v-88h-721zM271 191c-131 0 -203 87 -203 209v99h106v-97c0 -72 36 -118 98 -118c63 0 101 46 101 118v97h324v-90h-226v-9c0 -122 -73 -209 -200 -209zM145 -20c-34 0 -60 26 -60 60c0 35 26 61 60 61
c35 0 62 -26 62 -61c0 -34 -27 -60 -62 -60z" />
    <glyph glyph-name="dvPHx_R" horiz-adv-x="794" 
d="M380 275c84 0 127 64 127 139v238h-255v-220c0 -95 40 -157 128 -157zM-24 652v88h1012v-88h-375v-193c30 53 85 92 169 92c133 0 206 -94 206 -230h-106c0 84 -45 140 -131 140c-97 0 -138 -79 -138 -160v-301h-106v263c-7 -11 -16 -20 -25 -28l-222 -251h-115l196 207
c-129 7 -194 103 -194 241v220h-171zM85 75c-34 0 -60 26 -60 60c0 35 26 61 60 61c35 0 62 -26 62 -61c0 -34 -27 -60 -62 -60z" />
    <glyph glyph-name="dvK_KA" horiz-adv-x="1725" 
d="M310 176c95 0 139 77 139 143c0 69 -43 142 -139 142c-77 0 -139 -54 -139 -141c0 -90 59 -144 139 -144zM1188 652h-638v-192c27 53 79 91 159 91c64 0 115 -25 150 -68c38 43 93 68 160 68c84 0 140 -39 169 -92v193zM1188 0v183c-29 -55 -87 -95 -173 -95
c-126 0 -211 92 -211 233c0 84 -51 140 -126 140c-94 0 -128 -76 -128 -149v-312h-101v183c-29 -55 -87 -95 -173 -95c-126 0 -211 92 -211 233c0 139 87 230 215 230c84 0 140 -39 169 -92v193h-473v88h1772v-88h-459v-195c28 55 82 94 164 94c124 0 207 -96 207 -228
c0 -145 -89 -229 -208 -229c-23 0 -44 2 -64 7v83c11 -3 25 -4 37 -4c73 0 129 51 129 141c0 84 -57 140 -132 140c-94 0 -133 -76 -133 -149v-312h-101zM1049 176c95 0 139 77 139 143c0 69 -43 142 -139 142c-77 0 -139 -54 -139 -141c0 -90 59 -144 139 -144z" />
    <glyph glyph-name="dvKx_KxA" horiz-adv-x="1725" 
d="M260 -118c-37 0 -66 28 -66 65c0 38 29 67 66 67c38 0 67 -29 67 -67c0 -37 -29 -65 -67 -65zM999 -118c-37 0 -66 28 -66 65c0 38 29 67 66 67c38 0 67 -29 67 -67c0 -37 -29 -65 -67 -65zM310 176c95 0 139 77 139 143c0 69 -43 142 -139 142c-77 0 -139 -54 -139 -141
c0 -90 59 -144 139 -144zM1049 176c95 0 139 77 139 143c0 69 -43 142 -139 142c-77 0 -139 -54 -139 -141c0 -90 59 -144 139 -144zM1188 652h-638v-192c27 53 79 91 159 91c64 0 113 -28 144 -75c38 48 96 75 166 75c84 0 140 -39 169 -92v193zM1188 0v183
c-29 -55 -87 -95 -173 -95c-126 0 -211 92 -211 233c0 84 -51 140 -126 140c-94 0 -128 -76 -128 -149v-312h-101v183c-29 -55 -87 -95 -173 -95c-126 0 -211 92 -211 233c0 139 87 230 215 230c84 0 140 -39 169 -92v193h-473v88h1772v-88h-459v-195c28 55 82 94 164 94
c124 0 207 -96 207 -228c0 -145 -89 -229 -208 -229c-23 0 -44 2 -64 7v83c11 -3 25 -4 37 -4c73 0 129 51 129 141c0 84 -57 140 -132 140c-94 0 -133 -76 -133 -149v-312h-101z" />
    <glyph glyph-name="dvK_KHA" horiz-adv-x="1667" 
d="M709 546c95 0 157 -56 181 -140c52 14 86 53 86 138v108h-426v-195c27 51 79 89 159 89zM310 176c95 0 139 77 139 143c0 69 -43 142 -139 142c-77 0 -139 -54 -139 -141c0 -90 59 -144 139 -144zM1464 0v199c-26 -40 -71 -70 -141 -70c-12 0 -24 1 -35 3
c-40 -76 -115 -136 -225 -136c-158 0 -259 94 -259 247v78c0 84 -51 140 -126 140c-94 0 -128 -76 -128 -149v-312h-101v183c-29 -55 -87 -95 -173 -95c-126 0 -211 92 -211 233c0 139 87 230 215 230c84 0 140 -39 169 -92v193h-473v88h1714v-88h-122v-652h-104zM1345 210
c82 0 119 65 119 124s-35 124 -119 124c-67 0 -123 -45 -123 -122c0 -81 54 -126 123 -126zM1065 87c73 0 117 37 140 79c-48 36 -78 95 -78 170c0 121 84 203 196 203c69 0 115 -30 141 -71v184h-383v-121c0 -145 -76 -202 -173 -207v-83c0 -91 58 -154 157 -154z" />
    <glyph glyph-name="dvK_CA" horiz-adv-x="1362" 
d="M1001 182c96 1 158 76 158 173v297h-609v-208c28 52 84 87 176 87h311v-84h-37c-84 0 -139 -55 -139 -134c0 -86 64 -131 140 -131zM310 176c95 0 139 77 139 143c0 69 -43 142 -139 142c-77 0 -139 -54 -139 -141c0 -90 59 -144 139 -144zM550 304v-304h-101v183
c-29 -55 -87 -95 -173 -95c-126 0 -211 92 -211 233c0 139 87 230 215 230c84 0 140 -39 169 -92v193h-473v88h1410v-88h-122v-652h-105v191c-38 -60 -105 -96 -187 -96c-116 0 -210 65 -210 192c0 71 32 128 89 160h-155c-107 0 -146 -70 -146 -143z" />
    <glyph glyph-name="dvK_JA" horiz-adv-x="1580" 
d="M310 176c95 0 139 77 139 143c0 69 -43 142 -139 142c-77 0 -139 -54 -139 -141c0 -90 59 -144 139 -144zM1006 214c63 0 100 47 100 118v164h271v156h-827v-192c27 53 79 91 159 91c124 0 199 -91 199 -205v-14c0 -71 36 -118 98 -118zM550 312v-312h-101v183
c-29 -55 -87 -95 -173 -95c-126 0 -211 92 -211 233c0 139 87 230 215 230c84 0 140 -39 169 -92v193h-473v88h1628v-88h-122v-652h-105v406h-168v-76c0 -122 -77 -208 -204 -208c-131 0 -201 86 -201 191v11c0 83 -51 137 -126 137c-94 0 -128 -76 -128 -149z" />
    <glyph glyph-name="dvK_TTA" horiz-adv-x="1386" 
d="M550 652v-192c27 53 79 91 159 91c71 0 125 -32 159 -84c51 53 128 81 223 81h15v104h-556zM310 176c95 0 139 77 139 143c0 69 -43 142 -139 142c-77 0 -139 -54 -139 -141c0 -90 59 -144 139 -144zM550 312v-312h-101v183c-29 -55 -87 -95 -173 -95
c-126 0 -211 92 -211 233c0 139 87 230 215 230c84 0 140 -39 169 -92v193h-473v88h1434v-88h-201v-193h-112c-106 0 -190 -55 -190 -170c0 -95 69 -162 168 -162c102 0 170 70 170 170h100c0 -156 -106 -261 -268 -261c-160 0 -275 102 -275 253c0 12 1 24 2 36
c-2 82 -52 136 -126 136c-94 0 -128 -76 -128 -149z" />
    <glyph glyph-name="dvK_NNA" horiz-adv-x="1578" 
d="M550 652v-196c27 50 77 86 156 86c35 0 66 -8 92 -23v133h-248zM310 176c95 0 139 77 139 143c0 69 -43 142 -139 142c-77 0 -139 -54 -139 -141c0 -90 59 -144 139 -144zM998 261c61 0 96 44 96 107v284h-193v-284c0 -63 37 -107 97 -107zM550 312v-312h-101v183
c-29 -55 -87 -95 -173 -95c-126 0 -211 92 -211 233c0 139 87 230 215 230c84 0 140 -39 169 -92v193h-473v88h1625v-88h-122v-652h-105v652h-177v-274c0 -119 -68 -206 -200 -206c-128 0 -196 86 -199 199c-15 54 -60 90 -120 90c-94 0 -128 -76 -128 -149z" />
    <glyph glyph-name="dvK_TA" horiz-adv-x="1092" 
d="M-24 652v88h1140v-88h-479v-256c30 55 88 95 177 95c126 0 214 -97 214 -232c0 -149 -92 -236 -220 -236c-24 0 -48 2 -69 7v83c10 -2 28 -4 43 -4c82 0 139 55 139 148c0 86 -59 144 -136 144c-105 0 -148 -77 -148 -146v-255h-101v395h-126c-112 0 -185 -51 -185 -155
c0 -96 59 -155 170 -155h20v-83h-36c-150 0 -258 82 -258 229c0 78 30 132 74 166h-157v88h498v167h-560z" />
    <glyph glyph-name="dvKx_TA" horiz-adv-x="1415" 
d="M701 543c75 0 136 -35 163 -106c51 40 122 59 203 59h145v156h-662v-193c26 50 75 84 151 84zM260 -118c-37 0 -66 28 -66 65c0 38 29 67 66 67c38 0 67 -29 67 -67c0 -37 -29 -65 -67 -65zM310 176c95 0 139 77 139 143c0 69 -43 142 -139 142c-77 0 -139 -54 -139 -141
c0 -90 59 -144 139 -144zM550 312v-312h-101v183c-29 -55 -87 -95 -173 -95c-126 0 -211 92 -211 233c0 139 87 230 215 230c84 0 140 -39 169 -92v193h-473v88h1463v-88h-122v-652h-105v406h-140c-111 0 -184 -53 -184 -160c0 -100 58 -161 169 -161h21v-83h-36
c-151 0 -260 79 -260 246c0 18 1 36 4 52c5 108 -47 158 -114 158c-90 0 -122 -74 -122 -146z" />
    <glyph glyph-name="dvK_T_YA" horiz-adv-x="1849" 
d="M692 543c70 0 125 -35 150 -106c45 51 115 75 199 75c100 0 158 -33 190 -73c84 10 127 56 127 151v62h-808v-190c25 48 71 81 142 81zM310 176c95 0 139 77 139 143c0 69 -43 142 -139 142c-77 0 -139 -54 -139 -141c0 -90 59 -144 139 -144zM1459 191
c109 0 188 74 188 180v281h-186v-80c0 -123 -71 -190 -186 -197v-11c0 -104 67 -173 184 -173zM550 312v-312h-101v183c-29 -55 -87 -95 -173 -95c-126 0 -211 92 -211 233c0 139 87 230 215 230c84 0 140 -39 169 -92v193h-473v88h1897v-88h-122v-652h-104v200
c-38 -56 -108 -97 -209 -97c-165 0 -260 100 -267 255c-11 29 -39 64 -124 64c-99 0 -156 -54 -156 -160c0 -100 58 -161 169 -161h21v-83h-36c-151 0 -260 80 -260 247c0 7 0 14 1 21h-1c8 120 -43 172 -113 172c-90 0 -122 -74 -122 -146z" />
    <glyph glyph-name="dvK_T_RA" horiz-adv-x="1443" 
d="M1241 437v215h-691v-193c27 53 79 92 158 92c68 0 125 -35 159 -98c43 47 107 74 185 74c93 0 155 -44 189 -90zM310 176c95 0 139 77 139 143c0 69 -43 142 -139 142c-77 0 -139 -54 -139 -141c0 -90 59 -144 139 -144zM550 312v-312h-101v183c-29 -55 -87 -95 -173 -95
c-126 0 -211 92 -211 233c0 139 87 230 215 230c84 0 140 -39 169 -92v193h-473v88h1490v-88h-122v-652h-101v243l-246 -243h-136v5l376 347c-27 53 -85 92 -159 92c-91 0 -164 -57 -164 -162h-105v6c-1 116 -58 173 -130 173c-91 0 -129 -76 -129 -149z" />
    <glyph glyph-name="dvK_T_VA" horiz-adv-x="1781" 
d="M696 543c70 0 127 -41 149 -126c52 54 132 79 225 79h172c40 37 95 59 159 59c86 0 147 -38 180 -94v191h-1031v-191c26 48 73 82 146 82zM310 176c95 0 139 77 139 143c0 69 -43 142 -139 142c-77 0 -139 -54 -139 -141c0 -90 59 -144 139 -144zM1428 170
c105 0 153 80 153 149v1c0 73 -48 150 -153 150c-85 0 -151 -58 -151 -149c0 -93 64 -151 151 -151zM1805 652h-122v-652h-102v181c-33 -57 -94 -95 -180 -95c-137 0 -227 96 -227 238c0 29 4 57 12 82h-111c-111 0 -184 -53 -184 -160c0 -100 58 -161 169 -161h21v-83h-36
c-151 0 -260 79 -260 246v17v0c8 134 -39 193 -113 193c-90 0 -122 -74 -122 -146v-312h-101v183c-29 -55 -87 -95 -173 -95c-126 0 -211 92 -211 233c0 139 87 230 215 230c84 0 140 -39 169 -92v193h-473v88h1829v-88z" />
    <glyph glyph-name="dvK_THA" horiz-adv-x="1502" 
d="M310 176c95 0 139 77 139 143c0 69 -43 142 -139 142c-77 0 -139 -54 -139 -141c0 -90 59 -144 139 -144zM709 546c86 0 149 -47 174 -118h16c103 0 200 26 200 133c0 55 -35 98 -94 98c-16 0 -28 -2 -39 -6v-1h-416v-195c27 51 79 89 159 89zM1300 0v217
c-28 -61 -104 -123 -225 -123c-166 0 -272 103 -275 269c-12 59 -60 98 -122 98c-94 0 -128 -76 -128 -149v-312h-101v183c-29 -55 -87 -95 -173 -95c-126 0 -211 92 -211 233c0 139 87 230 215 230c84 0 140 -39 169 -92v193h-473v88h970c18 6 39 9 60 9
c115 0 192 -78 192 -191c0 -136 -103 -206 -260 -206h-37c3 -97 62 -170 190 -170c113 0 209 75 209 208v350h226v-90h-121v-650h-105z" />
    <glyph glyph-name="dvK_DA" horiz-adv-x="1348" 
d="M550 652v-192c27 53 79 91 159 91c67 0 120 -28 155 -75c48 50 122 75 206 75h62v101h-582zM310 176c95 0 139 77 139 143c0 69 -43 142 -139 142c-77 0 -139 -54 -139 -141c0 -90 59 -144 139 -144zM1275 -21h-103v178c-29 -42 -83 -68 -150 -68
c-123 0 -218 80 -218 227v5v0c0 84 -51 140 -126 140c-94 0 -128 -76 -128 -149v-312h-101v183c-29 -55 -87 -95 -173 -95c-126 0 -211 92 -211 233c0 139 87 230 215 230c84 0 140 -39 169 -92v193h-473v88h1396v-88h-135v-191h-157c-95 0 -169 -51 -169 -148
c0 -85 55 -140 140 -140c61 0 127 38 127 123h97v-317z" />
    <glyph glyph-name="dvK_NA" horiz-adv-x="1543" 
d="M709 551c78 0 132 -35 161 -96c39 31 92 47 150 47h319v150h-789v-192c27 53 79 91 159 91zM1013 192c66 0 113 46 113 111c0 64 -47 111 -113 111c-68 0 -116 -46 -116 -112c0 -65 47 -110 116 -110zM310 176c95 0 139 77 139 143c0 69 -43 142 -139 142
c-77 0 -139 -54 -139 -141c0 -90 59 -144 139 -144zM550 312v-312h-101v183c-29 -55 -87 -95 -173 -95c-126 0 -211 92 -211 233c0 139 87 230 215 230c84 0 140 -39 169 -92v193h-473v88h1590v-88h-122v-652h-105v414h-174c26 -30 45 -71 45 -125
c0 -118 -88 -186 -199 -186c-116 0 -209 76 -209 199c0 10 1 20 2 29c-4 79 -54 130 -126 130c-94 0 -128 -76 -128 -149z" />
    <glyph glyph-name="dvK_PA" horiz-adv-x="1356" 
d="M550 652v-192c26 50 76 86 153 86c26 0 51 -4 72 -13v119h-225zM310 176c95 0 139 77 139 143c0 69 -43 142 -139 142c-77 0 -139 -54 -139 -141c0 -90 59 -144 139 -144zM1018 275c88 0 136 66 136 144v233h-274v-215c0 -98 42 -162 138 -162zM550 312v-312h-101v183
c-29 -55 -87 -95 -173 -95c-126 0 -211 92 -211 233c0 139 87 230 215 230c84 0 140 -39 169 -92v193h-473v88h1404v-88h-122v-652h-104v262c-32 -47 -87 -76 -162 -76c-122 0 -192 72 -211 183c-14 57 -55 92 -109 92c-90 0 -122 -76 -122 -149z" />
    <glyph glyph-name="dvK_P_RA" horiz-adv-x="1356" 
d="M550 652v-192c26 50 76 86 153 86c26 0 51 -4 72 -13v119h-225zM310 176c95 0 139 77 139 143c0 69 -43 142 -139 142c-77 0 -139 -54 -139 -141c0 -90 59 -144 139 -144zM1018 275c88 0 136 66 136 144v233h-274v-215c0 -98 42 -162 138 -162zM1154 0v265
c-7 -10 -16 -20 -26 -28l-230 -253h-115l200 207c-118 4 -186 76 -203 185c-16 52 -55 85 -108 85c-90 0 -122 -76 -122 -149v-312h-101v183c-29 -55 -87 -95 -173 -95c-126 0 -211 92 -211 233c0 139 87 230 215 230c84 0 140 -39 169 -92v193h-473v88h1404v-88h-122v-652
h-104z" />
    <glyph glyph-name="dvK_PHA" horiz-adv-x="1697" 
d="M550 652v-193c27 51 79 87 159 87c30 0 58 -6 82 -16v122h-241zM310 176c95 0 139 77 139 143c0 69 -43 142 -139 142c-77 0 -139 -54 -139 -141c0 -90 59 -144 139 -144zM1024 275c83 0 127 64 127 139v238h-255v-220c0 -95 40 -157 128 -157zM550 312v-312h-101v183
c-29 -55 -87 -95 -173 -95c-126 0 -211 92 -211 233c0 139 87 230 215 230c84 0 140 -39 169 -92v193h-473v88h1744v-88h-464v-195c29 54 86 94 170 94c122 0 206 -94 206 -225c0 -147 -88 -232 -208 -232c-23 0 -48 3 -67 8v82c12 -3 27 -5 41 -5c74 0 128 54 128 142
c0 84 -56 140 -132 140c-97 0 -138 -79 -138 -160v-301h-105v260c-31 -46 -82 -74 -152 -74c-121 0 -189 76 -205 193c-18 51 -61 82 -116 82c-94 0 -128 -76 -128 -149z" />
    <glyph glyph-name="dvKx_PHA" horiz-adv-x="1697" 
d="M550 652v-193c27 51 79 87 159 87c30 0 58 -6 82 -16v122h-241zM1024 275c83 0 127 64 127 139v238h-255v-220c0 -95 40 -157 128 -157zM550 312v-312h-101v183c-29 -55 -87 -95 -173 -95c-126 0 -211 92 -211 233c0 139 87 230 215 230c84 0 140 -39 169 -92v193h-473
v88h1744v-88h-464v-195c29 54 86 94 170 94c122 0 206 -94 206 -225c0 -147 -88 -232 -208 -232c-23 0 -48 3 -67 8v82c12 -3 27 -5 41 -5c74 0 128 54 128 142c0 84 -56 140 -132 140c-97 0 -138 -79 -138 -160v-301h-105v260c-31 -46 -82 -74 -152 -74
c-121 0 -189 76 -205 193c-18 51 -61 82 -116 82c-94 0 -128 -76 -128 -149zM260 -118c-37 0 -66 28 -66 65c0 38 29 67 66 67c38 0 67 -29 67 -67c0 -37 -29 -65 -67 -65zM310 176c95 0 139 77 139 143c0 69 -43 142 -139 142c-77 0 -139 -54 -139 -141
c0 -90 59 -144 139 -144z" />
    <glyph glyph-name="dvKx_PHxA" horiz-adv-x="1698" 
d="M550 652v-193c27 51 79 87 159 87c31 0 59 -6 83 -17v123h-242zM260 -118c-37 0 -66 28 -66 65c0 38 29 67 66 67c38 0 67 -29 67 -67c0 -37 -29 -65 -67 -65zM962 -15c-37 0 -66 28 -66 65c0 38 29 67 66 67c38 0 67 -29 67 -67c0 -37 -29 -65 -67 -65zM310 176
c95 0 139 77 139 143c0 69 -43 142 -139 142c-77 0 -139 -54 -139 -141c0 -90 59 -144 139 -144zM1025 275c83 0 127 64 127 139v238h-255v-220c0 -95 40 -157 128 -157zM550 312v-312h-101v183c-29 -55 -87 -95 -173 -95c-126 0 -211 92 -211 233c0 139 87 230 215 230
c84 0 140 -39 169 -92v193h-473v88h1745v-88h-464v-195c29 54 86 94 170 94c122 0 206 -94 206 -225c0 -147 -88 -232 -208 -232c-23 0 -48 3 -67 8v82c12 -3 27 -5 41 -5c74 0 128 54 128 142c0 84 -56 140 -132 140c-97 0 -138 -79 -138 -160v-301h-105v260
c-31 -46 -82 -74 -152 -74c-119 0 -187 74 -204 188c-17 53 -61 87 -118 87c-94 0 -128 -76 -128 -149z" />
    <glyph glyph-name="dvKx_BA" horiz-adv-x="1427" 
d="M550 652v-192c27 53 79 91 159 91c64 0 114 -28 145 -76c44 54 112 86 191 86c87 0 149 -41 184 -93v184h-679zM1229 0v175c-32 -54 -95 -93 -182 -93c-136 0 -243 95 -243 239v0c0 84 -51 140 -126 140c-94 0 -128 -76 -128 -149v-312h-101v183
c-29 -55 -87 -95 -173 -95c-126 0 -211 92 -211 233c0 139 87 230 215 230c84 0 140 -39 169 -92v193h-473v88h1475v-88h-121v-652h-101zM260 -118c-37 0 -66 28 -66 65c0 38 29 67 66 67c38 0 67 -29 67 -67c0 -37 -29 -65 -67 -65zM310 176c95 0 139 77 139 143
c0 69 -43 142 -139 142c-77 0 -139 -54 -139 -141c0 -90 59 -144 139 -144zM1066 491c-44 0 -83 -14 -113 -40l257 -216c16 27 24 59 24 89c0 83 -57 167 -168 167zM1067 158c49 0 86 16 113 41l-259 216c-16 -25 -25 -57 -25 -93c0 -103 79 -164 171 -164z" />
    <glyph glyph-name="dvK_MA" horiz-adv-x="1552" 
d="M709 546c86 0 145 -45 173 -116c32 18 72 27 115 27h86v195h-533v-194c27 51 79 88 159 88zM310 176c95 0 139 77 139 143c0 69 -43 142 -139 142c-77 0 -139 -54 -139 -141c0 -90 59 -144 139 -144zM988 178c60 0 95 45 95 119v74h-83c-63 0 -108 -36 -108 -97
c0 -59 41 -96 96 -96zM1348 457v195h-167v-195h167zM550 312v-312h-101v183c-29 -55 -87 -95 -173 -95c-126 0 -211 92 -211 233c0 139 87 230 215 230c84 0 140 -39 169 -92v193h-473v88h1599v-88h-122v-652h-105v371h-167v-69c0 -135 -68 -213 -192 -213
c-117 0 -194 74 -194 185c0 22 3 42 9 60c-6 77 -55 127 -126 127c-94 0 -128 -76 -128 -149z" />
    <glyph glyph-name="dvKx_MA" horiz-adv-x="1545" 
d="M709 546c86 0 145 -45 173 -116c32 18 72 27 115 27h86v195h-533v-194c27 51 79 88 159 88zM260 -118c-37 0 -66 28 -66 65c0 38 29 67 66 67c38 0 67 -29 67 -67c0 -37 -29 -65 -67 -65zM310 176c95 0 139 77 139 143c0 69 -43 142 -139 142c-77 0 -139 -54 -139 -141
c0 -90 59 -144 139 -144zM988 178c60 0 95 45 95 119v74h-83c-63 0 -108 -36 -108 -97c0 -59 41 -96 96 -96zM1348 457v195h-167v-195h167zM550 312v-312h-101v183c-29 -55 -87 -95 -173 -95c-126 0 -211 92 -211 233c0 139 87 230 215 230c84 0 140 -39 169 -92v193h-473
v88h1599v-88h-122v-652h-105v371h-167v-69c0 -135 -68 -213 -192 -213c-117 0 -194 74 -194 185c0 22 3 42 9 60c-6 77 -55 127 -126 127c-94 0 -128 -76 -128 -149z" />
    <glyph glyph-name="dvK_YA" horiz-adv-x="1474" 
d="M709 546c90 1 145 -49 170 -114c69 16 104 62 104 147v73h-433v-197c27 52 80 90 159 91zM310 176c95 0 139 77 139 143c0 69 -43 142 -139 142c-77 0 -139 -54 -139 -141c0 -90 59 -144 139 -144zM1084 191c109 0 187 74 187 180v281h-185v-91
c0 -122 -63 -187 -187 -193v-4c0 -99 68 -173 185 -173zM550 312v-312h-101v183c-29 -55 -87 -95 -173 -95c-126 0 -211 92 -211 233c0 139 87 230 215 230c84 0 140 -39 169 -92v193h-473v88h1522v-88h-122v-652h-105v199c-38 -56 -108 -96 -209 -96
c-167 0 -262 108 -266 263c-8 48 -45 96 -118 95c-91 -2 -128 -76 -128 -149z" />
    <glyph glyph-name="dvK_LA" horiz-adv-x="1645" 
d="M1193 402c18 59 59 118 141 132v118h-784v-194c27 51 79 88 159 88c64 0 115 -29 147 -78c39 45 96 69 161 69c103 0 153 -68 173 -135h3zM310 176c95 0 139 77 139 143c0 69 -43 142 -139 142c-77 0 -139 -54 -139 -141c0 -90 59 -144 139 -144zM550 312v-312h-101v183
c-29 -55 -87 -95 -173 -95c-126 0 -211 92 -211 233c0 139 87 230 215 230c84 0 140 -39 169 -92v193h-473v88h1692v-88h-231v-124c85 -26 143 -104 143 -223c0 -142 -84 -248 -244 -248c-10 0 -21 1 -34 2v92c10 -1 21 -2 28 -2c92 0 144 63 144 154c0 80 -40 142 -118 142
c-83 0 -121 -69 -121 -164v-18h-88v18c0 93 -36 164 -116 164s-122 -60 -122 -142c0 -91 52 -154 144 -154c7 0 18 1 28 2v-92c-13 -1 -25 -2 -34 -2c-160 0 -244 106 -244 248c0 8 0 16 1 24c-3 80 -54 132 -126 132c-94 0 -128 -76 -128 -149z" />
    <glyph glyph-name="dvK_VA" horiz-adv-x="1411" 
d="M550 652v-194c27 51 78 88 158 88c63 0 112 -26 145 -71c40 50 102 80 178 80c86 0 147 -38 180 -94v191h-661zM310 176c95 0 139 77 139 143c0 69 -43 142 -139 142c-77 0 -139 -54 -139 -141c0 -90 59 -144 139 -144zM1058 170c105 0 153 80 153 149v1
c0 73 -48 150 -153 150c-85 0 -151 -58 -151 -149c0 -93 64 -151 151 -151zM1435 652h-122v-652h-102v181c-33 -57 -94 -95 -180 -95c-137 0 -227 96 -227 235v0c0 84 -51 140 -126 140c-94 0 -128 -76 -128 -149v-312h-101v183c-29 -55 -87 -95 -173 -95
c-126 0 -211 92 -211 233c0 139 87 230 215 230c84 0 140 -39 169 -92v193h-473v88h1459v-88z" />
    <glyph glyph-name="dvK_V_YA" horiz-adv-x="1885" 
d="M1054 555c114 0 186 -58 217 -133c81 12 122 59 122 152v78h-843v-194c27 51 78 88 158 88c64 0 114 -28 147 -74c43 52 113 83 199 83zM310 176c95 0 139 77 139 143c0 69 -43 142 -139 142c-77 0 -139 -54 -139 -141c0 -90 59 -144 139 -144zM1060 170
c103 0 150 77 149 151v6c-1 10 -2 20 -2 31c-10 59 -61 112 -147 112s-153 -58 -153 -149c0 -93 65 -151 153 -151zM1495 191c109 0 187 74 187 180v281h-185v-96c0 -124 -62 -192 -187 -202v-1c0 -98 69 -162 185 -162zM550 312v-312h-101v183c-29 -55 -87 -95 -173 -95
c-126 0 -211 92 -211 233c0 139 87 230 215 230c84 0 140 -39 169 -92v193h-473v88h1933v-88h-122v-652h-105v199c-38 -56 -108 -96 -209 -96c-97 0 -170 34 -215 93c-35 -63 -100 -110 -200 -110c-155 0 -254 96 -254 235v0c0 84 -51 140 -126 140
c-94 0 -128 -76 -128 -149z" />
    <glyph glyph-name="dvK_SHA" horiz-adv-x="1547" 
d="M310 176c95 0 139 77 139 143c0 69 -43 142 -139 142c-77 0 -139 -54 -139 -141c0 -90 59 -144 139 -144zM709 546c97 0 160 -59 183 -147h56c101 0 187 41 187 142c0 71 -42 117 -110 117c-15 0 -27 -2 -40 -6h-435v-195c27 51 79 89 159 89zM1025 -8
c-142 0 -221 90 -221 227v102c0 84 -51 140 -126 140c-94 0 -128 -76 -128 -149v-312h-101v183c-29 -55 -87 -95 -173 -95c-126 0 -211 92 -211 233c0 139 87 230 215 230c84 0 140 -39 169 -92v193h-473v88h984c20 6 43 9 67 9c127 0 214 -77 214 -215
c0 -151 -113 -224 -256 -224h-76v-98c0 -73 34 -129 113 -129c66 0 106 48 106 118v14h102v-15c0 -130 -79 -208 -205 -208zM1343 0v740h228v-88h-122v-652h-106z" />
    <glyph glyph-name="dvK_SS_MA" horiz-adv-x="1342" 
d="M778 165c61 0 95 45 95 119v74h-82c-64 0 -108 -36 -108 -97c0 -59 41 -96 95 -96zM188 560c0 -68 57 -113 137 -115c45 28 77 62 77 114c0 59 -46 100 -107 100c-56 0 -107 -34 -107 -99zM381 -57v158c-16 -29 -60 -70 -136 -70c-106 0 -177 69 -177 167
c0 109 83 157 167 199c-76 19 -141 74 -141 170c0 113 89 183 204 183c104 0 192 -60 192 -171c0 -61 -27 -102 -64 -135h447v208h-288v87h781v-87h-122v-653h-105v359h-168v-69c0 -135 -68 -213 -191 -213c-117 0 -195 74 -195 185c0 43 11 78 31 106h-293
c-77 -37 -147 -68 -147 -148c0 -56 40 -101 104 -101c70 0 109 53 109 112h88v-287h-96zM1139 444v208h-168v-208h168z" />
    <glyph glyph-name="dvK_SS_M_YA" horiz-adv-x="1799" 
d="M778 161c60 0 94 45 94 119v73h-82c-63 0 -108 -36 -108 -96s41 -96 96 -96zM188 560c0 -68 57 -113 137 -115c45 28 77 62 77 114c0 59 -46 100 -107 100c-56 0 -107 -34 -107 -99zM381 -57v158c-16 -29 -60 -70 -136 -70c-106 0 -177 69 -177 167c0 109 83 157 167 199
c-76 19 -141 74 -141 170c0 113 89 183 204 183c104 0 192 -60 192 -171c0 -63 -29 -106 -68 -139h450v212h-288v88h1239v-88h-122v-652h-105v186c-38 -56 -108 -97 -210 -97c-164 0 -259 103 -266 264h-150v-68c0 -136 -68 -213 -191 -213c-117 0 -195 74 -195 184
c0 45 12 82 34 111h-295c-77 -37 -147 -68 -147 -148c0 -56 40 -101 104 -101c70 0 109 53 109 112h88v-287h-96zM1159 440c92 0 148 36 148 133v79h-337v-212h189zM1409 177c108 0 187 74 187 180v295h-186v-94c0 -120 -71 -186 -186 -193v-4c0 -111 67 -184 185 -184z" />
    <glyph glyph-name="dvK_SS_YA" horiz-adv-x="1266" 
d="M188 560c0 -68 57 -113 137 -115c45 28 77 62 77 114c0 59 -46 100 -107 100c-56 0 -107 -34 -107 -99zM381 -57v158c-16 -29 -60 -70 -136 -70c-106 0 -177 69 -177 167c0 109 83 157 167 199c-76 19 -141 74 -141 170c0 113 89 183 204 183c104 0 192 -60 192 -171
c0 -63 -29 -106 -68 -139h196c89 0 156 34 156 133v79h-187v88h703v-88h-122v-652h-105v199c-38 -56 -106 -96 -204 -96c-169 0 -271 104 -271 264h-265c-77 -37 -147 -68 -147 -148c0 -56 40 -101 104 -101c70 0 109 53 109 112h88v-287h-96zM876 191c109 0 187 74 187 180
v281h-185v-79c0 -121 -63 -193 -187 -204v-2c0 -105 67 -176 185 -176z" />
    <glyph glyph-name="dvK_SS_VA" horiz-adv-x="1197" 
d="M188 560c0 -68 57 -113 137 -115c45 28 77 62 77 114c0 59 -46 100 -107 100c-56 0 -107 -34 -107 -99zM381 -57v158c-16 -29 -60 -70 -136 -70c-106 0 -177 69 -177 167c0 109 83 157 167 199c-76 19 -141 74 -141 170c0 113 89 183 204 183c104 0 192 -60 192 -171
c0 -61 -27 -102 -64 -135h193c37 69 109 111 199 111c85 0 146 -37 179 -93v190h-413v88h637v-88h-121v-652h-103v180c-33 -57 -94 -94 -179 -94c-137 0 -228 96 -228 238c0 15 1 29 3 43h-270c-77 -37 -147 -68 -147 -148c0 -56 40 -101 104 -101c70 0 109 53 109 112h88
v-287h-96zM845 170c105 0 152 80 152 149v1c0 73 -47 150 -152 150c-85 0 -151 -58 -151 -149c0 -93 64 -151 151 -151z" />
    <glyph glyph-name="dvK_SA" horiz-adv-x="1549" 
d="M891 411c113 0 163 63 163 157v84h-504v-198c27 51 79 88 159 88c92 0 154 -54 178 -131h4zM310 176c95 0 139 77 139 143c0 69 -43 142 -139 142c-77 0 -139 -54 -139 -141c0 -90 59 -144 139 -144zM1158 568c0 -62 -18 -111 -48 -147h236v231h-188v-84zM1210 188
c0 -120 -75 -197 -200 -197c-137 0 -206 93 -206 217v124c0 73 -51 129 -126 129c-94 0 -128 -76 -128 -149v-312h-101v183c-29 -55 -87 -95 -173 -95c-126 0 -211 92 -211 233c0 139 87 230 215 230c84 0 140 -39 169 -92v193h-473v88h1597v-88h-123v-652h-104v335h-439
v-132c0 -70 32 -122 101 -122c64 0 100 46 100 112v12h101c1 -7 1 -14 1 -17z" />
    <glyph glyph-name="dvK_S_TTA" horiz-adv-x="1903" 
d="M891 411c113 0 163 63 163 157v84h-504v-198c27 51 79 88 159 88c92 0 154 -54 178 -131h4zM310 176c95 0 139 77 139 143c0 69 -43 142 -139 142c-77 0 -139 -54 -139 -141c0 -90 59 -144 139 -144zM1158 568c0 -62 -18 -111 -48 -147h240c45 82 137 127 257 127h15v104
h-464v-84zM1210 188c0 -120 -75 -197 -200 -197c-137 0 -206 93 -206 217v124c0 73 -51 129 -126 129c-94 0 -128 -76 -128 -149v-312h-101v183c-29 -55 -87 -95 -173 -95c-126 0 -211 92 -211 233c0 139 87 230 215 230c84 0 140 -39 169 -92v193h-473v88h1950v-88h-201
v-193h-112c-106 0 -190 -55 -190 -170c0 -95 69 -162 168 -162c102 0 170 70 170 170h100c0 -156 -106 -261 -268 -261c-160 0 -275 102 -275 253c0 16 1 31 3 46h-414v-132c0 -70 32 -122 101 -122c64 0 100 46 100 112v12h101c1 -7 1 -14 1 -17z" />
    <glyph glyph-name="dvK_S_DDA" horiz-adv-x="1840" 
d="M892 411c112 0 162 63 162 157v84h-504v-198c27 51 79 88 159 88c92 0 154 -54 178 -131h5zM310 176c95 0 139 77 139 143c0 69 -43 142 -139 142c-77 0 -139 -54 -139 -141c0 -90 59 -144 139 -144zM1159 568c0 -62 -18 -111 -49 -147h240c11 90 93 124 180 124h102v107
h-473v-84zM1582 -16c-148 0 -245 75 -248 193h104c1 -67 52 -113 141 -113c79 0 119 39 119 92c0 72 -59 95 -125 95h-39c-64 0 -141 18 -172 84h-454v-132c0 -70 32 -122 100 -122c64 0 101 46 101 112v12h101v-17c0 -120 -75 -197 -200 -197c-137 0 -206 93 -206 217v124
c0 73 -51 129 -126 129c-94 0 -128 -76 -128 -149v-312h-101v183c-29 -55 -87 -95 -173 -95c-126 0 -211 92 -211 233c0 139 87 230 215 230c84 0 140 -39 169 -92v193h-473v88h1888v-88h-131v-182h-174c-49 0 -105 -13 -105 -72c0 -54 44 -72 93 -72h45
c101 0 205 -42 205 -171c0 -101 -74 -171 -215 -171z" />
    <glyph glyph-name="dvK_S_TA" horiz-adv-x="1951" 
d="M891 411c113 0 163 63 163 157v84h-504v-198c27 51 79 88 159 88c92 0 154 -54 178 -131h4zM310 176c95 0 139 77 139 143c0 69 -43 142 -139 142c-77 0 -139 -54 -139 -141c0 -90 59 -144 139 -144zM1158 568c0 -62 -18 -111 -48 -147h272c51 51 130 75 221 75h145v156
h-590v-84zM1210 188c0 -120 -75 -197 -200 -197c-137 0 -206 93 -206 217v124c0 73 -51 129 -126 129c-94 0 -128 -76 -128 -149v-312h-101v183c-29 -55 -87 -95 -173 -95c-126 0 -211 92 -211 233c0 139 87 230 215 230c84 0 140 -39 169 -92v193h-473v88h1999v-88h-122
v-652h-105v406h-140c-111 0 -184 -53 -184 -160c0 -100 58 -161 169 -161h21v-83h-36c-151 0 -260 79 -260 246c0 32 4 61 12 87h-423v-132c0 -70 32 -122 101 -122c64 0 100 46 100 112v12h101c1 -7 1 -14 1 -17z" />
    <glyph glyph-name="dvK_S_P_RA" horiz-adv-x="1909" 
d="M891 411c113 0 163 63 163 157v84h-504v-198c27 51 79 88 159 88c92 0 154 -54 178 -131h4zM310 176c95 0 139 77 139 143c0 69 -43 142 -139 142c-77 0 -139 -54 -139 -141c0 -90 59 -144 139 -144zM1158 568c0 -62 -18 -111 -48 -147h217v16v215h-169v-84zM1570 275
c88 0 136 66 136 144v233h-274v-215c0 -98 42 -162 138 -162zM1706 0v265c-7 -10 -16 -20 -26 -28l-230 -253h-115l200 207c-103 3 -167 58 -194 144h-434v-132c0 -70 32 -122 101 -122c64 0 100 46 100 112v12h101c1 -7 1 -14 1 -17c0 -120 -75 -197 -200 -197
c-137 0 -206 93 -206 217v124c0 73 -51 129 -126 129c-94 0 -128 -76 -128 -149v-312h-101v183c-29 -55 -87 -95 -173 -95c-126 0 -211 92 -211 233c0 139 87 230 215 230c84 0 140 -39 169 -92v193h-473v88h1956v-88h-122v-652h-104z" />
    <glyph glyph-name="dvK_S_P_LA" horiz-adv-x="2518" 
d="M892 411c112 0 162 63 162 157v84h-504v-198c27 51 79 88 159 88c92 0 154 -54 178 -131h5zM310 176c95 0 139 77 139 143c0 69 -43 142 -139 142c-77 0 -139 -54 -139 -141c0 -90 59 -144 139 -144zM1159 568c0 -62 -18 -111 -49 -147h217v16v215h-168v-84zM1562 275
c63 0 102 36 117 84c20 115 104 178 210 178c103 0 153 -68 173 -135h3c18 59 59 118 141 132v118h-774v-215c0 -98 40 -162 130 -162zM1210 188c0 -120 -75 -197 -200 -197c-137 0 -206 93 -206 217v124c0 73 -51 129 -126 129c-94 0 -128 -76 -128 -149v-312h-101v183
c-29 -55 -87 -95 -173 -95c-126 0 -211 92 -211 233c0 139 87 230 215 230c84 0 140 -39 169 -92v193h-473v88h2564v-88h-231v-124c85 -26 143 -104 143 -223c0 -142 -84 -248 -244 -248c-10 0 -21 1 -34 2v92c10 -1 21 -2 28 -2c92 0 144 63 144 154c0 80 -40 142 -118 142
c-83 0 -121 -69 -121 -164v-18h-88v18c0 93 -36 164 -116 164s-122 -60 -122 -142c0 -91 52 -154 144 -154c7 0 18 1 28 2v-92c-13 -1 -25 -2 -34 -2c-130 0 -210 70 -235 172c-34 -27 -79 -43 -134 -43c-111 0 -181 58 -209 149h-433v-132c0 -70 32 -122 100 -122
c64 0 101 46 101 112v12h101v-17z" />
    <glyph glyph-name="dvKH_KHA" horiz-adv-x="1612" 
d="M496 333c0 -76 50 -125 126 -125c77 0 127 49 127 125s-50 125 -127 125c-76 0 -126 -49 -126 -125zM1290 210c83 0 120 65 120 124s-35 124 -120 124c-67 0 -123 -45 -123 -122c0 -81 55 -126 123 -126zM1410 0v201c-26 -42 -72 -72 -142 -72c-12 0 -24 1 -35 3
c-39 -76 -115 -136 -225 -136c-128 0 -219 62 -249 173c-35 -27 -83 -41 -137 -41c-20 0 -40 2 -59 6c-39 -77 -115 -138 -226 -138c-157 0 -259 94 -259 257v147h33c82 0 140 33 140 144v108h-275v88h1660v-88h-122v-652h-104zM340 87c74 0 118 39 141 82
c-48 36 -78 92 -78 164c0 127 91 204 219 204c107 0 182 -55 205 -144c56 12 94 51 94 140v119h-565v-121c0 -145 -77 -202 -174 -207v-83c0 -91 58 -154 158 -154zM1011 87c72 0 116 37 139 79c-48 36 -77 95 -77 170c0 121 84 203 195 203c70 0 116 -31 142 -73v186h-384
v-121c0 -145 -76 -202 -173 -207v-83c0 -91 58 -154 158 -154z" />
    <glyph glyph-name="dvKH_TA" horiz-adv-x="1365" 
d="M622 208c77 0 127 49 127 125s-50 125 -127 125c-76 0 -126 -49 -126 -125s50 -125 126 -125zM340 87c74 0 117 38 141 82c-49 35 -78 91 -78 164c0 127 86 204 215 204c92 0 161 -39 193 -109c49 47 122 68 209 68h142v156h-806v-121c0 -145 -77 -202 -174 -207v-83
c0 -91 58 -154 158 -154zM619 128c-20 0 -38 2 -56 5c-39 -76 -115 -137 -226 -137c-157 0 -259 94 -259 257v147h33c82 0 140 33 140 144v108h-275v88h1413v-88h-122v-652h-105v406h-140c-111 0 -184 -53 -184 -160c0 -100 59 -161 170 -161h20v-83h-33
c-124 0 -214 53 -242 165c-35 -25 -81 -39 -134 -39z" />
    <glyph glyph-name="dvKHx_TA" horiz-adv-x="1365" 
d="M335 -211c-37 0 -66 28 -66 65c0 38 29 67 66 67c38 0 67 -29 67 -67c0 -37 -29 -65 -67 -65zM622 208c77 0 127 49 127 125s-50 125 -127 125c-76 0 -126 -49 -126 -125s50 -125 126 -125zM340 87c74 0 117 38 141 82c-49 35 -78 91 -78 164c0 127 86 204 215 204
c92 0 161 -39 193 -109c49 47 122 68 209 68h142v156h-806v-121c0 -145 -77 -202 -174 -207v-83c0 -91 58 -154 158 -154zM619 128c-20 0 -38 2 -56 5c-39 -76 -115 -137 -226 -137c-157 0 -259 94 -259 257v147h33c82 0 140 33 140 144v108h-275v88h1413v-88h-122v-652
h-105v406h-140c-111 0 -184 -53 -184 -160c0 -100 59 -161 170 -161h20v-83h-33c-124 0 -214 53 -242 165c-35 -25 -81 -39 -134 -39z" />
    <glyph glyph-name="dvKH_NA" horiz-adv-x="1489" 
d="M959 192c66 0 113 46 113 111c0 64 -47 111 -113 111c-68 0 -115 -46 -115 -112c0 -65 46 -110 115 -110zM622 208c77 0 127 49 127 125s-50 125 -127 125c-76 0 -126 -49 -126 -125s50 -125 126 -125zM340 87c74 0 118 39 141 82c-48 36 -78 92 -78 164
c0 127 86 204 215 204c87 0 153 -35 187 -98c37 41 94 63 162 63h319v150h-930v-121c0 -145 -77 -202 -174 -207v-83c0 -91 58 -154 158 -154zM622 128c-20 0 -40 2 -59 6c-39 -77 -115 -138 -226 -138c-157 0 -259 94 -259 257v147h33c82 0 140 33 140 144v108h-275v88
h1536v-88h-122v-652h-104v414h-174c26 -30 44 -71 44 -125c0 -118 -84 -186 -194 -186c-78 0 -142 34 -177 92c-36 -43 -93 -67 -163 -67z" />
    <glyph glyph-name="dvKH_MA" horiz-adv-x="1500" 
d="M1296 457v195h-167v-195h167zM496 333c0 -76 50 -125 126 -125c77 0 127 49 127 125s-50 125 -127 125c-76 0 -126 -49 -126 -125zM936 178c61 0 94 45 94 119v74h-82c-63 0 -108 -36 -108 -97c0 -59 41 -96 96 -96zM340 87c74 0 118 39 141 82c-48 36 -78 92 -78 164
c0 127 86 204 215 204c96 0 167 -43 197 -119c33 26 78 39 130 39h85v195h-674v-121c0 -145 -77 -202 -174 -207v-83c0 -91 58 -154 158 -154zM622 128c-20 0 -40 2 -59 6c-39 -77 -115 -138 -226 -138c-157 0 -259 94 -259 257v147h33c82 0 140 33 140 144v108h-275v88
h1548v-88h-123v-652h-105v371h-167v-69c0 -135 -65 -213 -188 -213c-81 0 -140 35 -169 92c-36 -34 -88 -53 -150 -53z" />
    <glyph glyph-name="dvKHx_MA" horiz-adv-x="1500" 
d="M318 -207c-37 0 -66 28 -66 65c0 38 29 67 66 67c38 0 67 -29 67 -67c0 -37 -29 -65 -67 -65zM496 333c0 -76 50 -125 126 -125c77 0 127 49 127 125s-50 125 -127 125c-76 0 -126 -49 -126 -125zM1296 457v195h-167v-195h167zM936 178c61 0 94 45 94 119v74h-82
c-63 0 -108 -36 -108 -97c0 -59 41 -96 96 -96zM340 87c74 0 118 39 141 82c-48 36 -78 92 -78 164c0 127 86 204 215 204c96 0 167 -43 197 -119c33 26 78 39 130 39h85v195h-674v-121c0 -145 -77 -202 -174 -207v-83c0 -91 58 -154 158 -154zM622 128c-20 0 -40 2 -59 6
c-39 -77 -115 -138 -226 -138c-157 0 -259 94 -259 257v147h33c82 0 140 33 140 144v108h-275v88h1548v-88h-123v-652h-105v371h-167v-69c0 -135 -65 -213 -188 -213c-81 0 -140 35 -169 92c-36 -34 -88 -53 -150 -53z" />
    <glyph glyph-name="dvKH_YA" horiz-adv-x="1421" 
d="M622 208c77 0 127 49 127 125s-50 125 -127 125c-76 0 -126 -49 -126 -125s50 -125 126 -125zM1030 191c109 0 188 74 188 180v281h-197v-91c0 -121 -43 -196 -173 -204c3 -105 69 -166 182 -166zM340 87c74 0 118 39 141 82c-48 36 -78 92 -78 164c0 127 91 204 219 204
c96 0 167 -45 197 -119c77 13 99 66 99 161v73h-562v-121c0 -145 -77 -202 -174 -207v-83c0 -91 58 -154 158 -154zM622 128c-20 0 -40 2 -59 6c-39 -77 -115 -138 -226 -138c-157 0 -259 94 -259 257v147h33c82 0 140 33 140 144v108h-275v88h1468v-88h-121v-652h-105v200
c-38 -56 -108 -97 -209 -97c-102 0 -170 39 -210 108c-36 -54 -99 -83 -177 -83z" />
    <glyph glyph-name="dvKHx_YA" horiz-adv-x="1421" 
d="M335 -211c-37 0 -66 28 -66 65c0 38 29 67 66 67c38 0 67 -29 67 -67c0 -37 -29 -65 -67 -65zM622 208c77 0 127 49 127 125s-50 125 -127 125c-76 0 -126 -49 -126 -125s50 -125 126 -125zM1030 191c109 0 188 74 188 180v281h-197v-91c0 -121 -43 -196 -173 -204
c3 -105 69 -166 182 -166zM340 87c74 0 118 39 141 82c-48 36 -78 92 -78 164c0 127 91 204 219 204c96 0 167 -45 197 -119c77 13 99 66 99 161v73h-562v-121c0 -145 -77 -202 -174 -207v-83c0 -91 58 -154 158 -154zM622 128c-20 0 -40 2 -59 6
c-39 -77 -115 -138 -226 -138c-157 0 -259 94 -259 257v147h33c82 0 140 33 140 144v108h-275v88h1468v-88h-121v-652h-105v200c-38 -56 -108 -97 -209 -97c-102 0 -170 39 -210 108c-36 -54 -99 -83 -177 -83z" />
    <glyph glyph-name="dvKH_VA" horiz-adv-x="1348" 
d="M1147 0v180c-34 -57 -95 -94 -179 -94c-87 0 -152 39 -187 104c-37 -40 -92 -62 -159 -62c-20 0 -40 2 -59 6c-39 -77 -115 -138 -226 -138c-157 0 -259 94 -259 257v147h33c82 0 140 33 140 144v108h-275v88h1395v-88h-121v-652h-103zM995 170c105 0 152 80 152 149v1
c0 73 -47 150 -152 150c-85 0 -151 -58 -151 -149c0 -93 64 -151 151 -151zM622 208c77 0 127 49 127 125s-50 125 -127 125c-76 0 -126 -49 -126 -125s50 -125 126 -125zM340 87c74 0 118 39 141 82c-48 36 -78 92 -78 164c0 127 86 204 215 204c74 0 134 -26 170 -73
c37 57 99 91 180 91c85 0 146 -37 179 -93v190h-791v-121c0 -145 -77 -202 -174 -207v-83c0 -91 58 -154 158 -154z" />
    <glyph glyph-name="dvKHx_VA" horiz-adv-x="1348" 
d="M335 -211c-37 0 -66 28 -66 65c0 38 29 67 66 67c38 0 67 -29 67 -67c0 -37 -29 -65 -67 -65zM622 208c77 0 127 49 127 125s-50 125 -127 125c-76 0 -126 -49 -126 -125s50 -125 126 -125zM1147 0v180c-34 -57 -95 -94 -179 -94c-87 0 -152 39 -187 104
c-37 -40 -92 -62 -159 -62c-20 0 -40 2 -59 6c-39 -77 -115 -138 -226 -138c-157 0 -259 94 -259 257v147h33c82 0 140 33 140 144v108h-275v88h1395v-88h-121v-652h-103zM995 170c105 0 152 80 152 149v1c0 73 -47 150 -152 150c-85 0 -151 -58 -151 -149
c0 -93 64 -151 151 -151zM340 87c74 0 118 39 141 82c-48 36 -78 92 -78 164c0 127 86 204 215 204c74 0 134 -26 170 -73c37 57 99 91 180 91c85 0 146 -37 179 -93v190h-791v-121c0 -145 -77 -202 -174 -207v-83c0 -91 58 -154 158 -154z" />
    <glyph glyph-name="dvKH_SHA" horiz-adv-x="1482" 
d="M340 87c74 0 117 38 141 82c-49 35 -78 91 -78 164c0 127 86 204 215 204c104 0 180 -51 205 -138h60c101 0 187 41 187 142c0 71 -42 117 -111 117c-13 0 -26 -2 -39 -6h-564v-121c0 -145 -77 -202 -174 -207v-83c0 -91 58 -154 158 -154zM622 208c77 0 127 49 127 125
s-50 125 -127 125c-76 0 -126 -49 -126 -125s50 -125 126 -125zM960 -8c-120 0 -197 62 -215 169c-34 -21 -77 -33 -126 -33c-20 0 -38 2 -56 5c-39 -76 -115 -137 -226 -137c-157 0 -259 94 -259 257v147h33c82 0 140 33 140 144v108h-275v88h922c19 6 40 9 63 9
c128 0 215 -77 215 -215c0 -151 -113 -224 -256 -224h-76v-98c0 -73 33 -129 113 -129c66 0 106 48 106 118v14h102v-15c0 -130 -79 -208 -205 -208zM1278 0v740h228v-90h-122v-650h-106z" />
    <glyph glyph-name="dvKHx_SHA" horiz-adv-x="1482" 
d="M340 87c74 0 117 38 141 82c-49 35 -78 91 -78 164c0 127 86 204 215 204c104 0 180 -51 205 -138h60c101 0 187 41 187 142c0 71 -42 117 -111 117c-13 0 -26 -2 -39 -6h-564v-121c0 -145 -77 -202 -174 -207v-83c0 -91 58 -154 158 -154zM335 -211c-37 0 -66 28 -66 65
c0 38 29 67 66 67c38 0 67 -29 67 -67c0 -37 -29 -65 -67 -65zM622 208c77 0 127 49 127 125s-50 125 -127 125c-76 0 -126 -49 -126 -125s50 -125 126 -125zM960 -8c-120 0 -197 62 -215 169c-34 -21 -77 -33 -126 -33c-20 0 -38 2 -56 5c-39 -76 -115 -137 -226 -137
c-157 0 -259 94 -259 257v147h33c82 0 140 33 140 144v108h-275v88h922c19 6 40 9 63 9c128 0 215 -77 215 -215c0 -151 -113 -224 -256 -224h-76v-98c0 -73 33 -129 113 -129c66 0 106 48 106 118v14h102v-15c0 -130 -79 -208 -205 -208zM1278 0v740h228v-90h-122v-650
h-106z" />
    <glyph glyph-name="dvKHx_SA" horiz-adv-x="1496" 
d="M335 -211c-37 0 -66 28 -66 65c0 38 29 67 66 67c38 0 67 -29 67 -67c0 -37 -29 -65 -67 -65zM622 208c77 0 127 49 127 125s-50 125 -127 125c-76 0 -126 -49 -126 -125s50 -125 126 -125zM340 87c74 0 117 38 141 82c-49 35 -78 91 -78 164c0 127 86 204 215 204
c99 0 173 -46 201 -126h20c113 0 163 63 163 157v84h-646v-121c0 -145 -77 -202 -174 -207v-83c0 -91 58 -154 158 -154zM1106 568c0 -62 -18 -111 -48 -147h235v231h-187v-84zM1158 188c0 -120 -75 -197 -200 -197c-121 0 -190 73 -204 176c-36 -25 -82 -39 -135 -39
c-20 0 -38 2 -56 5c-39 -76 -115 -137 -226 -137c-157 0 -259 94 -259 257v147h33c82 0 140 33 140 144v108h-275v88h1544v-88h-121v-652h-106v335h-437v-132c0 -70 31 -122 100 -122c63 0 100 46 100 112v12h101c1 -7 1 -14 1 -17z" />
    <glyph glyph-name="dvG_GA" horiz-adv-x="1230" 
d="M1028 0v652h-163v-257c0 -103 -51 -187 -176 -187c-118 0 -180 72 -180 181c0 10 0 21 1 31h102v-31c0 -46 18 -91 74 -91c60 0 74 48 74 93v261h-360v-257c0 -103 -51 -187 -176 -187c-118 0 -180 72 -180 181c0 10 0 21 1 31h102v-31c0 -46 18 -91 74 -91
c60 0 74 48 74 93v261h-319v88h1278v-88h-122v-652h-104z" />
    <glyph glyph-name="dvG_GHA" horiz-adv-x="1158" 
d="M774 188c101 0 181 69 181 171v293h-306v-63c0 -69 34 -109 123 -109h45v-85h-53c-91 0 -129 -44 -129 -100c0 -72 60 -107 139 -107zM1061 0h-106v205c-41 -65 -115 -103 -205 -103c-125 0 -221 62 -221 183c0 85 60 137 125 150v2c-61 12 -110 54 -110 147v68h-144
v-257c0 -103 -51 -187 -176 -187c-118 0 -180 72 -180 181c0 10 0 21 1 31h102v-31c0 -46 18 -91 74 -91c60 0 74 48 74 93v261h-319v88h1206v-88h-121v-652z" />
    <glyph glyph-name="dvG_JA" horiz-adv-x="1302" 
d="M1204 0h-105v406h-168v-76c0 -122 -77 -208 -204 -208c-131 0 -203 86 -203 208v166h106v-164c0 -71 36 -118 98 -118c63 0 101 47 101 118v164h270v156h-699v-257c0 -103 -51 -187 -176 -187c-118 0 -180 72 -180 181c0 10 0 21 1 31h102v-31c0 -46 18 -91 74 -91
c60 0 74 48 74 93v261h-319v88h1350v-88h-122v-652z" />
    <glyph glyph-name="dvG_NNA" horiz-adv-x="1326" 
d="M747 261c61 0 96 44 96 107v284h-193v-284c0 -63 37 -107 97 -107zM1228 0h-105v652h-177v-274c0 -119 -68 -206 -200 -206c-131 0 -199 90 -199 206v274h-147v-257c0 -103 -51 -187 -176 -187c-118 0 -180 72 -180 181c0 10 0 21 1 31h102v-31c0 -46 18 -91 74 -91
c60 0 74 48 74 93v261h-319v88h1374v-88h-122v-652z" />
    <glyph glyph-name="dvG_DA" horiz-adv-x="1069" 
d="M995 -21h-103v179c-29 -43 -84 -69 -150 -69c-123 0 -218 80 -218 227c0 156 117 235 266 235h62v101h-452v-257c0 -103 -51 -187 -176 -187c-118 0 -180 72 -180 181c0 10 0 21 1 31h102v-31c0 -46 18 -91 74 -91c60 0 74 48 74 93v261h-319v88h1117l-1 -88h-135v-191
h-157c-95 0 -169 -51 -169 -148c0 -85 54 -140 140 -140c61 0 127 38 127 123h97v-317z" />
    <glyph glyph-name="dvG_DHA" horiz-adv-x="1171" 
d="M752 92c-122 0 -220 60 -220 176c0 88 63 135 120 145v3c-64 16 -127 68 -127 165c0 26 5 50 14 71h-139v-257c0 -103 -51 -187 -176 -187c-118 0 -180 72 -180 181c0 10 0 21 1 31h102v-31c0 -46 18 -91 74 -91c60 0 74 48 74 93v261h-319v88h663c19 6 40 9 62 9
c108 0 170 -68 170 -162c0 -9 -1 -24 -2 -35h-79c1 12 1 18 1 23c0 48 -31 86 -87 86s-89 -40 -89 -91c0 -73 62 -111 145 -111h58v-85h-54c-82 0 -125 -38 -125 -95c0 -68 59 -100 138 -100c112 0 193 79 193 195v366h225v-88h-120v-652h-105v203
c-41 -69 -118 -111 -218 -111z" />
    <glyph glyph-name="dvG_DH_YA" horiz-adv-x="1643" 
d="M1253 191c108 0 187 74 187 180v281h-185v-80c0 -122 -62 -186 -187 -193v-4c0 -111 68 -184 185 -184zM773 91c-136 0 -241 57 -241 177c0 88 63 135 120 145v3c-64 16 -127 68 -127 165c0 26 5 50 14 71h-139v-257c0 -103 -51 -187 -176 -187c-118 0 -180 72 -180 181
c0 10 0 21 1 31h102v-31c0 -46 18 -91 74 -91c60 0 74 48 74 93v261h-319v88h663c19 6 40 9 62 9c108 0 170 -68 170 -162c0 -9 -1 -24 -2 -35h-79c1 12 1 18 1 23c0 48 -31 86 -87 86s-89 -40 -89 -91c0 -73 62 -111 145 -111h58v-85h-54c-82 0 -125 -38 -125 -95
c0 -72 69 -100 143 -100c121 0 185 84 183 203v0v3c0 16 1 34 3 51h13c113 0 170 44 170 154v62h-170v88h686v-88h-122v-652h-105v200c-38 -56 -108 -97 -209 -97c-107 0 -185 44 -227 119c-43 -82 -123 -131 -231 -131z" />
    <glyph glyph-name="dvG_DH_VA" horiz-adv-x="1582" 
d="M1484 0h-103v181c-33 -57 -94 -95 -179 -95c-99 0 -174 50 -208 131c-37 -77 -108 -126 -228 -126c-134 0 -234 57 -234 177c0 88 63 135 120 145v3c-64 16 -127 68 -127 165c0 26 5 50 14 71h-139v-257c0 -103 -51 -187 -176 -187c-118 0 -180 72 -180 181
c0 10 0 21 1 31h102v-31c0 -46 18 -91 74 -91c60 0 74 48 74 93v261h-319v88h663c19 6 40 9 62 9c108 0 170 -68 170 -162c0 -9 -1 -24 -2 -35h-79c1 12 1 18 1 23c0 48 -31 86 -87 86s-89 -40 -89 -91c0 -73 62 -111 145 -111h58v-85h-54c-82 0 -125 -38 -125 -95
c0 -72 69 -100 146 -100c102 0 173 50 189 158c6 129 97 218 228 218c86 0 146 -38 179 -94v191h-400v88h624v-88h-121v-652zM1229 170c105 0 152 80 152 149v1c0 73 -47 150 -152 150c-85 0 -152 -58 -152 -149c0 -93 65 -151 152 -151z" />
    <glyph glyph-name="dvG_NA" horiz-adv-x="1264" 
d="M735 192c66 0 113 46 113 111c0 64 -47 111 -113 111c-68 0 -116 -46 -116 -112c0 -65 47 -110 116 -110zM1166 0h-105v414h-174c26 -30 45 -71 45 -125c0 -118 -88 -186 -199 -186c-116 0 -209 76 -209 199c0 129 96 200 218 200h319v150h-661v-257
c0 -103 -51 -187 -176 -187c-118 0 -180 72 -180 181c0 10 0 21 1 31h102v-31c0 -46 18 -91 74 -91c60 0 74 48 74 93v261h-319v88h1312v-88h-122v-652z" />
    <glyph glyph-name="dvG_N_YA" horiz-adv-x="1722" 
d="M735 154c66 0 113 46 113 111s-47 111 -113 111c-68 0 -116 -46 -116 -112c0 -64 47 -110 116 -110zM1333 191c109 0 187 74 187 180v281h-185v-80c0 -113 -69 -177 -189 -187c7 -116 74 -194 187 -194zM1625 0h-105v200c-38 -56 -108 -97 -209 -97
c-159 0 -253 107 -265 274h-160c27 -29 46 -71 46 -125c0 -118 -88 -187 -199 -187c-116 0 -209 76 -209 199c0 129 96 200 218 200h319c113 0 170 33 170 126v62h-831v-257c0 -103 -51 -187 -176 -187c-118 0 -180 72 -180 181c0 10 0 21 1 31h102v-31c0 -46 18 -91 74 -91
c60 0 74 48 74 93v261h-319v88h1771v-88h-122v-652z" />
    <glyph glyph-name="dvG_BA" horiz-adv-x="1148" 
d="M949 0v175c-32 -54 -95 -93 -182 -93c-136 0 -243 95 -243 240c0 144 104 239 241 239c87 0 149 -41 184 -93v184h-549v-257c0 -103 -51 -187 -176 -187c-118 0 -180 72 -180 181c0 10 0 21 1 31h102v-31c0 -46 18 -91 74 -91c60 0 74 48 74 93v261h-319v88h1195v-88
h-121v-652h-101zM787 158c49 0 86 16 113 41l-259 216c-16 -25 -25 -57 -25 -93c0 -103 79 -164 171 -164zM786 491c-44 0 -83 -14 -113 -40l257 -216c16 27 24 59 24 89c0 83 -57 167 -168 167z" />
    <glyph glyph-name="dvG_BHA" horiz-adv-x="1266" 
d="M718 178c60 0 94 45 94 119v74h-82c-63 0 -108 -36 -108 -97c0 -59 41 -96 96 -96zM719 89c-117 0 -195 74 -195 185c0 120 89 183 203 183h85v89c0 68 -24 113 -82 113c-11 0 -23 -3 -33 -7h-297v-257c0 -103 -51 -187 -176 -187c-118 0 -180 72 -180 181
c0 10 0 21 1 31h102v-31c0 -46 18 -91 74 -91c60 0 74 48 74 93v261h-319v88h687c19 6 40 9 64 9c134 0 183 -93 183 -221v-71h152v283h228v-88h-123v-652h-105v371h-152v-69c0 -135 -67 -213 -191 -213z" />
    <glyph glyph-name="dvG_BH_YA" horiz-adv-x="1706" 
d="M718 178c60 0 94 45 94 119v74h-82c-64 0 -108 -36 -108 -97c0 -59 41 -96 96 -96zM719 89c-117 0 -195 74 -195 185c0 120 89 183 203 183h85v89c0 68 -24 113 -81 113c-12 0 -24 -2 -34 -7v0v0c-29 -13 -47 -43 -47 -86c0 -11 1 -23 4 -36h-105c-2 12 -4 27 -4 40
c0 30 5 58 16 82h-161v-257c0 -103 -51 -187 -176 -187c-118 0 -180 72 -180 181c0 10 0 21 1 31h102v-31c0 -46 18 -91 74 -91c60 0 74 48 74 93v261h-319v88h686c19 6 41 9 65 9c134 0 183 -93 183 -221v-71h157c91 0 148 28 148 133v62h-191v88h707v-88h-123v-652h-104
v200c-38 -56 -108 -97 -210 -97c-165 0 -261 105 -266 268h-118v-69c0 -135 -68 -213 -191 -213zM1317 191c108 0 187 74 187 180v281h-186v-80c0 -122 -62 -188 -186 -195v-2c0 -111 67 -184 185 -184z" />
    <glyph glyph-name="dvG_MA" horiz-adv-x="1274" 
d="M1071 457v195h-167v-195h167zM711 178c60 0 95 45 95 119v74h-83c-63 0 -108 -36 -108 -97c0 -59 41 -96 96 -96zM1176 0h-105v371h-167v-69c0 -135 -68 -213 -192 -213c-117 0 -194 74 -194 185c0 120 88 183 202 183h86v195h-406v-257c0 -103 -51 -187 -176 -187
c-118 0 -180 72 -180 181c0 10 0 21 1 31h102v-31c0 -46 18 -91 74 -91c60 0 74 48 74 93v261h-319v88h1322v-88h-122v-652z" />
    <glyph glyph-name="dvG_YA" horiz-adv-x="1203" 
d="M813 191c108 0 187 74 187 180v281h-185v-80c0 -122 -63 -186 -187 -193v-4c0 -111 67 -184 185 -184zM1105 0h-105v200c-38 -56 -108 -97 -209 -97c-171 0 -266 111 -266 282c0 16 1 34 3 51h13c113 0 170 44 170 154v62h-311v-257c0 -103 -51 -187 -176 -187
c-118 0 -180 72 -180 181c0 10 0 21 1 31h102v-31c0 -46 18 -91 74 -91c60 0 74 48 74 93v261h-319v88h1251v-88h-122v-652z" />
    <glyph glyph-name="dvG_R_YA" horiz-adv-x="1203" 
d="M813 191c108 0 187 74 187 180v281h-185v-80c0 -122 -63 -186 -187 -193v-4c0 -111 67 -184 185 -184zM791 103c-110 0 -188 46 -230 124l-246 -247h-121l338 327c-5 25 -7 50 -7 78c0 16 1 34 3 51h13c113 0 170 44 170 154v62h-311v-199c0 -103 -51 -187 -176 -187
c-118 0 -180 72 -180 181c0 10 0 21 1 31h102v-31c0 -46 18 -91 74 -91c60 0 74 48 74 92v204h-319v88h1251v-88h-122v-652h-105v200c-38 -56 -108 -97 -209 -97z" />
    <glyph glyph-name="dvG_LA" horiz-adv-x="1366" 
d="M1057 57c-10 0 -21 1 -34 2v92c10 -1 21 -2 28 -2c92 0 144 63 144 154c0 80 -40 142 -118 142c-83 0 -121 -69 -121 -164v-18h-88v18c0 93 -36 164 -116 164s-122 -60 -122 -142c0 -91 52 -154 144 -154c7 0 18 1 28 2v-92c-13 -1 -25 -2 -34 -2
c-160 0 -244 106 -244 248c0 149 92 232 214 232c103 0 153 -68 173 -135h3c18 59 59 118 141 132v118h-655v-257c0 -103 -51 -187 -176 -187c-118 0 -180 72 -180 181c0 10 0 21 1 31h102v-31c0 -46 18 -91 74 -91c60 0 74 48 74 93v261h-319v88h1413v-88h-231v-124
c85 -26 143 -104 143 -223c0 -142 -84 -248 -244 -248z" />
    <glyph glyph-name="dvG_VA" horiz-adv-x="1131" 
d="M778 170c105 0 153 80 153 149v1c0 73 -48 150 -153 150c-85 0 -151 -58 -151 -149c0 -93 64 -151 151 -151zM1155 652h-122v-652h-102v181c-33 -57 -94 -95 -180 -95c-137 0 -227 96 -227 238c0 136 92 231 227 231c86 0 147 -38 180 -94v191h-531v-257
c0 -103 -51 -187 -176 -187c-118 0 -180 72 -180 181c0 10 0 21 1 31h102v-31c0 -46 18 -91 74 -91c60 0 74 48 74 93v261h-319v88h1179v-88z" />
    <glyph glyph-name="dvG_SA" horiz-adv-x="1274" 
d="M883 568c0 -62 -18 -111 -48 -147h236v231h-188v-84zM935 188c0 -120 -75 -197 -200 -197c-137 0 -206 93 -206 217v203h87c113 0 163 63 163 157v84h-379v-257c0 -103 -51 -187 -176 -187c-118 0 -180 72 -180 181c0 10 0 21 1 31h102v-31c0 -46 18 -91 74 -91
c60 0 74 48 74 93v261h-319v88h1322v-88h-123v-652h-104v335h-439v-132c0 -70 32 -122 101 -122c64 0 100 46 100 112v12h101c1 -7 1 -14 1 -17z" />
    <glyph glyph-name="dvGH_NA" horiz-adv-x="1218" 
d="M689 192c66 0 113 46 113 111c0 64 -47 111 -113 111c-68 0 -116 -46 -116 -112c0 -65 47 -110 116 -110zM312 188c86 0 137 35 166 143l4 13c18 102 106 158 214 158h319v150h-817v-63c0 -69 34 -109 123 -109h40v-85h-48c-91 0 -129 -44 -129 -100
c0 -72 58 -107 128 -107zM1242 652h-122v-652h-105v414h-174c26 -30 45 -71 45 -125c0 -118 -88 -186 -199 -186c-83 0 -154 39 -188 106c-40 -77 -117 -107 -209 -107c-125 0 -212 62 -212 183c0 85 60 137 125 150v2c-61 12 -110 54 -110 147v68h-117v88h1266v-88z" />
    <glyph glyph-name="dvGH_MA" horiz-adv-x="1232" 
d="M1029 457v195h-167v-195h167zM669 178c60 0 95 45 95 119v74h-83c-63 0 -108 -36 -108 -97c0 -59 41 -96 96 -96zM312 188c81 0 138 30 164 119l7 22v0c23 84 100 128 195 128h86v195h-566v-63c0 -69 34 -109 123 -109h50v-85h-58c-91 0 -129 -44 -129 -100
c0 -72 58 -107 128 -107zM1256 652h-122v-652h-105v371h-167v-69c0 -135 -68 -213 -192 -213c-85 0 -148 39 -177 102c-41 -62 -113 -89 -200 -89c-127 0 -215 62 -215 183c0 85 60 137 125 150v2c-61 12 -110 54 -110 147v68h-117v88h1280v-88z" />
    <glyph glyph-name="dvGH_YA" horiz-adv-x="1181" 
d="M323 188c105 0 175 67 181 159c-1 12 -2 25 -2 38c0 16 1 34 3 51h13c113 0 170 44 170 154v62h-490v-63c0 -69 34 -109 123 -109h45v-85h-53c-91 0 -129 -44 -129 -100c0 -72 60 -107 139 -107zM790 191c108 0 187 74 187 180v281h-185v-80c0 -122 -63 -186 -187 -193
v-4c0 -111 67 -184 185 -184zM1204 652h-122v-652h-105v200c-38 -56 -108 -97 -209 -97s-176 39 -220 106c-45 -65 -123 -107 -225 -107c-149 0 -245 62 -245 183c0 85 60 137 125 150v2c-61 12 -110 54 -110 147v68h-117v88h1228v-88z" />
    <glyph glyph-name="dvC_CA" horiz-adv-x="1128" 
d="M375 182c87 0 135 63 155 139c7 51 33 92 74 119h-226c-84 0 -139 -55 -139 -131c0 -82 62 -127 136 -127zM1152 652h-122v-652h-105v191c-38 -60 -105 -96 -187 -96c-86 0 -159 39 -192 110c-38 -67 -98 -111 -190 -111c-122 0 -216 68 -216 198c0 64 27 116 76 148
h-166v83h753v-83h-37c-84 0 -139 -55 -139 -131c0 -82 64 -127 141 -127c95 1 157 76 157 173v297h-949v88h1176v-88z" />
    <glyph glyph-name="dvC_CHA" horiz-adv-x="1271" 
d="M852 115c169 0 281 83 281 226c0 84 -47 128 -97 128c-45 0 -93 -30 -93 -105c0 -27 6 -58 16 -88h-87c-11 30 -17 64 -17 99c0 102 60 152 133 167v110h-341v-91c0 -69 33 -109 117 -109h21v-85h-19c-97 0 -138 -51 -138 -112c0 -91 82 -140 224 -140zM1226 337
c0 -193 -147 -312 -375 -312c-156 0 -274 48 -314 143c-42 -46 -100 -73 -172 -74c-121 -2 -225 68 -225 198c0 64 27 116 76 148h-166v83h365v-83h-37c-84 0 -139 -55 -139 -131c0 -82 64 -127 141 -127c74 1 130 48 147 106c15 65 64 105 125 119v3
c-60 11 -109 54 -109 147v95h-567v88h1319v-88h-210v-110c82 -19 141 -89 141 -205z" />
    <glyph glyph-name="dvC_CH_VA" horiz-adv-x="1271" 
d="M846 -227c88 0 129 65 129 124v141c-38 -8 -79 -13 -120 -13v0c-87 -2 -136 -53 -136 -127c0 -77 53 -125 127 -125zM852 115c169 0 281 83 281 226c0 84 -47 128 -97 128c-45 0 -93 -30 -93 -105c0 -27 6 -58 16 -88h-87c-11 30 -17 64 -17 99c0 102 60 152 133 167v110
h-341v-91c0 -69 33 -109 117 -109h21v-85h-19c-97 0 -138 -51 -138 -112c0 -91 82 -140 224 -140zM1226 337c0 -121 -58 -213 -157 -265v-438h-94v136c-30 -47 -82 -78 -154 -78c-121 0 -201 80 -201 191c0 70 32 127 84 159c-82 22 -141 64 -167 126
c-42 -46 -100 -73 -172 -74c-121 -2 -225 68 -225 198c0 64 27 116 76 148h-166v83h365v-83h-37c-84 0 -139 -55 -139 -131c0 -82 64 -127 141 -127c74 1 130 48 147 106c15 65 64 105 125 119v3c-60 11 -109 54 -109 147v95h-567v88h1319v-88h-210v-110
c82 -19 141 -89 141 -205z" />
    <glyph glyph-name="dvC_NA" horiz-adv-x="1266" 
d="M726 192c66 0 113 46 113 111c0 64 -47 111 -113 111c-68 0 -116 -46 -116 -112c0 -65 47 -110 116 -110zM1279 652h-122v-652h-105v414h-174c26 -30 45 -71 45 -125c0 -118 -88 -186 -199 -186c-75 0 -141 32 -178 88c-36 -59 -100 -96 -182 -96
c-124 0 -224 69 -224 197c0 64 27 116 76 148h-166v83h365v-83h-37c-84 0 -139 -55 -139 -131c0 -81 62 -125 135 -125c79 1 128 53 141 120c1 128 97 198 218 198h319v150h-1076v88h1303v-88z" />
    <glyph glyph-name="dvC_MA" horiz-adv-x="1270" 
d="M1066 457v195h-167v-195h167zM706 178c60 0 95 45 95 119v74h-83c-63 0 -108 -36 -108 -97c0 -59 41 -96 96 -96zM1293 652h-122v-652h-105v371h-167v-69c0 -135 -68 -213 -192 -213c-79 0 -140 34 -171 90c-38 -53 -99 -85 -179 -85c-123 0 -217 70 -217 198
c0 64 27 116 76 148h-166v83h365v-83h-37c-84 0 -139 -55 -139 -131c0 -82 58 -127 131 -127c84 0 132 57 146 130v0c17 95 98 145 199 145h86v195h-825v88h1317v-88z" />
    <glyph glyph-name="dvC_YA" horiz-adv-x="1216" 
d="M826 191c108 0 187 74 187 180v281h-185v-80c0 -122 -63 -186 -187 -193v-4c0 -111 67 -184 185 -184zM1240 652h-122v-652h-105v200c-38 -56 -108 -97 -209 -97c-107 0 -184 43 -227 117c-41 -85 -117 -126 -210 -126c-131 0 -227 68 -227 198c0 64 27 116 76 148h-166
v83h365v-83h-37c-84 0 -139 -55 -139 -131c0 -82 61 -127 137 -127c90 1 162 62 162 215v0c1 13 1 26 3 39h13c113 0 170 44 170 154v62h-748v88h1264v-88z" />
    <glyph glyph-name="dvCH_YA" horiz-adv-x="1359" 
d="M400 115c169 0 281 83 281 226c0 84 -47 128 -97 128c-45 0 -93 -30 -93 -105c0 -27 6 -58 16 -88h-87c-11 30 -17 64 -17 99c0 124 89 172 182 172c66 0 123 -30 155 -87c85 5 128 41 128 127v65h-673v-91c0 -69 33 -109 117 -109h21v-85h-19c-97 0 -138 -51 -138 -112
c0 -91 82 -140 224 -140zM968 191c105 0 187 73 187 180v281h-185v-80c0 -123 -76 -189 -201 -194c18 -115 80 -187 199 -187zM1382 652h-121v-652h-106v197c-37 -55 -102 -94 -195 -94c-99 0 -173 38 -217 104c-51 -115 -175 -182 -344 -182c-194 0 -329 74 -329 220
c0 91 56 145 130 162v3c-60 11 -109 54 -109 147v95h-115v88h1406v-88z" />
    <glyph glyph-name="dvCH_R_YA" horiz-adv-x="1359" 
d="M400 115c169 0 281 83 281 226c0 84 -47 128 -97 128c-45 0 -93 -30 -93 -105c0 -27 6 -58 16 -88h-87c-11 30 -17 64 -17 99c0 124 89 172 182 172c66 0 123 -30 155 -87c85 5 128 41 128 127v65h-673v-91c0 -69 33 -109 117 -109h21v-85h-19c-97 0 -138 -51 -138 -112
c0 -91 82 -140 224 -140zM968 191c105 0 187 73 187 180v281h-185v-80c0 -123 -76 -189 -201 -194c18 -115 80 -187 199 -187zM543 -117l-122 139l-122 -139h-108l131 146c-152 18 -252 90 -252 216c0 91 56 145 130 162v3c-60 11 -109 54 -109 147v95h-115v88h1406v-88
h-121v-652h-106v197c-37 -55 -102 -94 -195 -94c-99 0 -173 38 -217 104c-39 -87 -119 -147 -229 -170l138 -154h-109z" />
    <glyph glyph-name="dvJ_KA" horiz-adv-x="1539" 
d="M1003 0v183c-29 -55 -87 -95 -173 -95c-126 0 -211 92 -211 233c0 31 4 59 12 85h-156v-76c0 -122 -77 -208 -204 -208c-131 0 -203 86 -203 208v166h106v-164c0 -71 36 -118 98 -118c63 0 101 47 101 118v164h313c38 35 88 55 148 55c84 0 140 -39 169 -92v193h-1027v88
h1587v-88h-459v-195c28 55 82 94 164 94c124 0 207 -96 207 -228c0 -145 -89 -229 -208 -229c-23 0 -44 2 -64 7v83c11 -3 25 -4 37 -4c73 0 129 51 129 141c0 84 -57 140 -132 140c-94 0 -133 -76 -133 -149v-312h-101zM864 176c95 0 139 77 139 143c0 69 -43 142 -139 142
c-77 0 -139 -54 -139 -141c0 -90 59 -144 139 -144z" />
    <glyph glyph-name="dvJ_JA" horiz-adv-x="1414" 
d="M1316 0h-105v406h-168v-76c0 -122 -77 -208 -204 -208c-131 0 -203 86 -203 208v76h-161v-76c0 -122 -77 -208 -204 -208c-131 0 -203 86 -203 208v166h106v-164c0 -71 36 -118 98 -118c63 0 101 47 101 118v164h369v-164c0 -71 36 -118 98 -118c63 0 101 47 101 118v164
h270v156h-1235v88h1462v-88h-122v-652z" />
    <glyph glyph-name="dvJx_JxA" horiz-adv-x="1414" 
d="M274 -83c-37 0 -66 28 -66 65c0 38 29 67 66 67c38 0 67 -29 67 -67c0 -37 -29 -65 -67 -65zM842 -83c-37 0 -66 28 -66 65c0 38 29 67 66 67c38 0 67 -29 67 -67c0 -37 -29 -65 -67 -65zM1316 0h-105v406h-168v-76c0 -122 -77 -208 -204 -208c-131 0 -203 86 -203 208
v76h-161v-76c0 -122 -77 -208 -204 -208c-131 0 -203 86 -203 208v166h106v-164c0 -71 36 -118 98 -118c63 0 101 47 101 118v164h369v-164c0 -71 36 -118 98 -118c63 0 101 47 101 118v164h270v156h-1235v88h1462v-88h-122v-652z" />
    <glyph glyph-name="dvJ_J_NYA" horiz-adv-x="1351" 
d="M1149 0v411h-188c51 -30 86 -82 86 -157c0 -110 -78 -182 -184 -182c-76 0 -133 33 -163 76v-148h-103v276h99c8 -76 67 -118 136 -118c76 0 120 54 120 122c0 86 -68 131 -149 131h-328v-81c0 -122 -77 -208 -204 -208c-131 0 -203 86 -203 208v165h106v-163
c0 -71 36 -118 98 -118c63 0 101 47 101 118v163h776v157h-1173v88h1398v-88h-122v-652h-103z" />
    <glyph glyph-name="dvJ_J_YA" horiz-adv-x="1869" 
d="M1479 191c109 0 188 74 188 180v281h-186v-80c0 -112 -68 -175 -186 -185v0c0 -119 67 -196 184 -196zM1772 0h-105v201c-38 -57 -108 -98 -210 -98c-159 0 -254 105 -265 269h-45h-104v-42c0 -122 -77 -208 -204 -208c-131 0 -203 86 -203 208v40h-161v-40
c0 -122 -77 -208 -204 -208c-131 0 -203 86 -203 208v130h106v-128c0 -71 36 -118 98 -118c63 0 101 47 101 118v128h368v-128c0 -71 37 -118 99 -118c63 0 100 47 100 118v128h268c113 0 170 37 170 130v62h-1402v88h1917v-88h-121v-652z" />
    <glyph glyph-name="dvJ_J_VA" horiz-adv-x="1791" 
d="M1438 170c105 0 153 80 153 149v1c0 73 -48 150 -153 150c-85 0 -151 -58 -151 -149c0 -93 64 -151 151 -151zM1815 652h-122v-652h-102v181c-33 -57 -94 -95 -180 -95c-137 0 -227 96 -227 238c0 29 4 57 12 82h-153v-76c0 -122 -77 -208 -204 -208
c-131 0 -203 86 -203 208v76h-161v-76c0 -122 -77 -208 -204 -208c-131 0 -203 86 -203 208v166h106v-164c0 -71 36 -118 98 -118c63 0 101 47 101 118v164h369v-164c0 -71 36 -118 98 -118c63 0 101 47 101 118v164h311c40 37 95 59 159 59c86 0 147 -38 180 -94v191h-1615
v88h1839v-88z" />
    <glyph glyph-name="dvJ_JHA" horiz-adv-x="1402" 
d="M823 326h378v326h-188v-182h-179c-49 0 -106 -13 -106 -73c0 -52 43 -71 95 -71zM1201 0v246l-168 1c22 -25 37 -59 37 -105c0 -85 -57 -151 -170 -151c-97 0 -143 52 -158 73v-143h-99v250h94c7 -56 51 -102 132 -102c72 0 104 40 104 86c0 59 -42 96 -125 96h-56
c-85 3 -169 44 -169 147v8h-148v-76c0 -122 -77 -208 -204 -208c-131 0 -203 86 -203 208v166h106v-164c0 -71 36 -118 98 -118c63 0 101 47 101 118v164h286c35 36 90 50 147 50h106v106h-936v88h1450v-88h-122v-652h-103z" />
    <glyph glyph-name="dvJ_NY_YA" horiz-adv-x="1313" 
d="M923 191c108 0 187 74 187 180v281h-185v-80c0 -120 -65 -190 -185 -204c12 -107 69 -177 183 -177zM1215 0h-105v200c-38 -56 -108 -97 -209 -97c-163 0 -247 102 -263 261c-14 43 -53 70 -111 70h-99c50 -29 85 -80 85 -154c0 -111 -78 -182 -185 -182
c-75 0 -132 33 -162 76v-149h-102v278h98c8 -77 67 -119 135 -119c76 0 120 52 120 119c0 86 -66 131 -148 131h-26v84h286c88 0 146 -30 177 -78c76 14 115 59 115 150v62h-845v88h1361v-88h-122v-652z" />
    <glyph glyph-name="dvJ_TTA" horiz-adv-x="1199" 
d="M890 36c-160 0 -275 102 -275 253c0 44 8 83 24 117h-164v-76c0 -122 -77 -208 -204 -208c-131 0 -203 86 -203 208v166h106v-164c0 -71 36 -118 98 -118c63 0 101 47 101 118v164h342c49 34 113 52 189 52h15v104h-943v88h1247v-88h-201v-193h-112
c-106 0 -190 -55 -190 -170c0 -95 69 -162 168 -162c102 0 170 70 170 170h100c0 -156 -106 -261 -268 -261z" />
    <glyph glyph-name="dvJ_DDA" horiz-adv-x="1098" 
d="M839 -16c-148 0 -245 75 -248 193h104c1 -67 52 -113 141 -113c79 0 119 39 119 92c0 72 -59 95 -125 95h-39c-82 0 -185 30 -185 150v5h-131v-76c0 -122 -77 -208 -204 -208c-131 0 -203 86 -203 208v166h106v-164c0 -71 36 -118 98 -118c63 0 101 47 101 118v164h269
c34 35 89 49 145 49h102v107h-913v88h1145v-88h-131v-182h-174c-49 0 -105 -13 -105 -72c0 -54 44 -72 93 -72h45c101 0 205 -42 205 -171c0 -101 -74 -171 -215 -171z" />
    <glyph glyph-name="dvJ_TA" horiz-adv-x="1252" 
d="M1154 0h-104v406h-141c-110 0 -184 -53 -184 -160c0 -100 59 -161 170 -161h20v-83h-35c-151 0 -259 82 -259 237c0 75 24 130 66 167h-212v-76c0 -122 -77 -208 -204 -208c-131 0 -203 86 -203 208v166h106v-164c0 -71 36 -118 98 -118c63 0 101 47 101 118v164h677v156
h-1074v88h1300v-88h-122v-652z" />
    <glyph glyph-name="dvJ_DA" horiz-adv-x="1163" 
d="M1089 -21h-103v179c-29 -43 -84 -69 -150 -69c-123 0 -218 80 -218 227c0 34 6 64 16 91h-159v-77c0 -122 -77 -208 -204 -208c-131 0 -203 86 -203 208v166h106v-164c0 -71 36 -118 98 -118c63 0 101 47 101 118v164h327c48 37 112 55 184 55h62v101h-970v88h1211
l-1 -88h-135v-191h-157c-95 0 -169 -51 -169 -148c0 -85 54 -140 140 -140c61 0 127 38 127 123h97v-317z" />
    <glyph glyph-name="dvJ_NA" horiz-adv-x="1354" 
d="M818 186c66 0 113 46 113 111s-47 111 -113 111c-67 0 -115 -45 -115 -112c0 -64 46 -110 115 -110zM1250 0h-105v409h-175c27 -29 46 -71 46 -125c0 -118 -88 -187 -199 -187c-116 0 -209 76 -209 199c0 43 11 80 30 110h-163v-76c0 -122 -77 -208 -204 -208
c-131 0 -203 86 -203 208v166h106v-164c0 -71 36 -118 98 -118c63 0 101 47 101 118v164h772v156h-1169v88h1396v-88h-122v-652z" />
    <glyph glyph-name="dvJ_BA" horiz-adv-x="1235" 
d="M874 158c49 0 86 16 113 41l-259 216c-16 -25 -25 -57 -25 -93c0 -103 79 -164 171 -164zM1036 0v175c-32 -54 -95 -93 -182 -93c-136 0 -243 95 -243 240c0 30 5 58 13 84h-149v-76c0 -122 -77 -208 -204 -208c-131 0 -203 86 -203 208v166h106v-164
c0 -71 36 -118 98 -118c63 0 101 47 101 118v164h308c43 41 103 65 171 65c87 0 149 -41 184 -93v184h-1060v88h1282v-88h-121v-652h-101zM873 491c-44 0 -83 -14 -113 -40l257 -216c16 27 24 59 24 89c0 83 -57 167 -168 167z" />
    <glyph glyph-name="dvJ_MA" horiz-adv-x="1362" 
d="M1159 481v171h-168v-171h168zM798 202c61 0 95 42 95 108v85h-82c-63 0 -108 -37 -108 -97c0 -59 41 -96 95 -96zM1264 0h-105v395h-168v-79c0 -128 -68 -203 -191 -203c-116 0 -194 72 -194 179c0 43 12 78 32 105h-163v-67c0 -122 -77 -208 -204 -208
c-131 0 -203 86 -203 208v151h106v-149c0 -71 36 -118 98 -118c63 0 101 47 101 118v149h520v171h-917v88h1410v-88h-122v-652z" />
    <glyph glyph-name="dvJ_YA" horiz-adv-x="1302" 
d="M911 191c109 0 187 74 187 180v281h-184v-80c0 -112 -69 -175 -187 -185v0c0 -119 67 -196 184 -196zM1204 0h-106v198c-39 -55 -108 -95 -208 -95c-160 0 -254 105 -265 269h-46h-104v-42c0 -122 -77 -208 -204 -208c-131 0 -203 86 -203 208v130h106v-128
c0 -71 36 -118 98 -118c63 0 101 47 101 118v128h267c113 0 170 37 170 130v62h-834v88h1349v-88h-121v-652z" />
    <glyph glyph-name="dvJx_YA" horiz-adv-x="1302" 
d="M911 191c109 0 187 74 187 180v281h-184v-80c0 -112 -69 -175 -187 -185v0c0 -119 67 -196 184 -196zM1204 0h-106v198c-39 -55 -108 -95 -208 -95c-160 0 -254 105 -265 269h-46h-104v-42c0 -122 -77 -208 -204 -208c-131 0 -203 86 -203 208v130h106v-128
c0 -71 36 -118 98 -118c63 0 101 47 101 118v128h267c113 0 170 37 170 130v62h-834v88h1349v-88h-121v-652zM274 -83c-37 0 -66 28 -66 65c0 38 29 67 66 67c38 0 67 -29 67 -67c0 -37 -29 -65 -67 -65z" />
    <glyph glyph-name="dvJ_VA" horiz-adv-x="1223" 
d="M870 170c105 0 153 80 153 149v1c0 73 -48 150 -153 150c-85 0 -151 -58 -151 -149c0 -93 64 -151 151 -151zM1247 652h-122v-652h-102v181c-33 -57 -94 -95 -180 -95c-137 0 -227 96 -227 238c0 29 4 57 12 82h-153v-76c0 -122 -77 -208 -204 -208
c-131 0 -203 86 -203 208v166h106v-164c0 -71 36 -118 98 -118c63 0 101 47 101 118v164h311c40 37 95 59 159 59c86 0 147 -38 180 -94v191h-1047v88h1271v-88z" />
    <glyph glyph-name="dvJH_NA" horiz-adv-x="1348" 
d="M276 326h333c11 114 103 176 217 176h319v150h-679v-182h-179c-49 0 -106 -13 -106 -73c0 -52 43 -71 95 -71zM819 192c66 0 113 46 113 111c0 64 -47 111 -113 111c-68 0 -116 -46 -116 -112c0 -65 47 -110 116 -110zM195 64v-143h-99v250h94c7 -56 51 -102 132 -102
c72 0 104 40 104 86c0 59 -42 96 -125 96h-56c-85 3 -169 44 -169 147c0 109 89 148 183 148h106v106h-389v88h1396v-88h-122v-652h-105v414h-174c26 -30 45 -71 45 -125c0 -118 -88 -186 -199 -186c-97 0 -178 53 -202 143l-129 1c22 -25 37 -59 37 -105
c0 -85 -57 -151 -170 -151c-97 0 -143 52 -158 73z" />
    <glyph glyph-name="dvJH_MA" horiz-adv-x="1370" 
d="M1166 457v195h-167v-195h167zM806 178c60 0 95 45 95 119v74h-83c-63 0 -108 -36 -108 -97c0 -59 41 -96 96 -96zM276 326h343c22 86 100 131 196 131h86v195h-435v-182h-179c-49 0 -106 -13 -106 -73c0 -52 43 -71 95 -71zM195 64v-143h-99v250h94
c7 -56 51 -102 132 -102c72 0 104 40 104 86c0 59 -42 96 -125 96h-56c-85 3 -169 44 -169 147c0 109 89 148 183 148h106v106h-389v88h1417v-88h-122v-652h-105v371h-167v-69c0 -135 -68 -213 -192 -213c-107 0 -180 62 -192 157l-129 1c22 -25 37 -59 37 -105
c0 -85 -57 -151 -170 -151c-97 0 -143 52 -158 73z" />
    <glyph glyph-name="dvJH_YA" horiz-adv-x="1291" 
d="M276 326h341c-3 19 -4 38 -4 59c0 16 1 34 3 51h13c113 0 170 44 170 154v62h-333v-182h-179c-49 0 -106 -13 -106 -73c0 -52 43 -71 95 -71zM901 191c108 0 187 74 187 180v281h-185v-80c0 -122 -63 -186 -187 -193v-4c0 -111 67 -184 185 -184zM195 64v-143h-99v250h94
c7 -56 51 -102 132 -102c72 0 104 40 104 86c0 59 -42 96 -125 96h-56c-85 3 -169 44 -169 147c0 109 89 148 183 148h106v106h-389v88h1339v-88h-122v-652h-105v200c-38 -56 -108 -97 -209 -97c-119 0 -201 53 -240 143l-153 1c22 -25 37 -59 37 -105
c0 -85 -57 -151 -170 -151c-97 0 -143 52 -158 73z" />
    <glyph glyph-name="dvNY_CA" horiz-adv-x="1262" 
d="M1164 0h-105v191c-38 -60 -105 -96 -187 -96c-103 0 -189 57 -207 158h-153c-22 -103 -101 -174 -223 -174c-132 0 -212 80 -224 180h99c13 -48 55 -91 126 -91c89 0 134 68 134 148c0 78 -45 147 -134 147c-73 0 -114 -45 -126 -91h-99c11 101 91 180 224 180
c139 0 222 -92 229 -217h149c9 44 34 80 71 105h-166v83h365v-83h-37c-84 0 -139 -55 -139 -131c0 -82 64 -127 141 -127c95 1 157 76 157 173v297h-1083v88h1310v-88h-122v-652z" />
    <glyph glyph-name="dvNY_CHA" horiz-adv-x="1360" 
d="M941 115c169 0 281 83 281 226c0 84 -47 128 -97 128c-45 0 -93 -30 -93 -105c0 -27 6 -58 16 -88h-87c-11 30 -17 64 -17 99c0 102 60 152 133 167v110h-341v-91c0 -69 33 -109 117 -109h21v-85h-19c-97 0 -138 -51 -138 -112c0 -91 82 -140 224 -140zM940 25
c-194 0 -329 74 -329 220c0 11 1 21 2 31h-97c-15 -115 -96 -197 -227 -197c-132 0 -212 80 -224 180h99c13 -48 55 -91 126 -91c89 0 134 68 134 148c0 78 -45 147 -134 147c-73 0 -114 -45 -126 -91h-99c11 101 91 180 224 180c128 0 208 -78 226 -187h144
c22 21 50 35 82 42v3c-60 11 -109 54 -109 147v95h-656v88h1408v-88h-210v-110c82 -19 141 -89 141 -205c0 -193 -147 -312 -375 -312z" />
    <glyph glyph-name="dvNY_JA" horiz-adv-x="1392" 
d="M1293 0h-105v406h-168v-76c0 -122 -77 -208 -204 -208c-111 0 -179 61 -198 154h-102c-15 -115 -96 -197 -227 -197c-132 0 -212 80 -224 180h99c13 -48 55 -91 126 -91c89 0 134 68 134 148c0 78 -45 147 -134 147c-73 0 -114 -45 -126 -91h-99c11 101 91 180 224 180
c128 0 208 -78 226 -187h98v131h106v-164c0 -71 36 -118 98 -118c63 0 101 47 101 118v164h270v156h-1212v88h1439v-88h-122v-652z" />
    <glyph glyph-name="dvNY_SHA" horiz-adv-x="1362" 
d="M839 -8c-142 0 -221 90 -221 227v58h-101c-15 -115 -96 -198 -228 -198s-212 80 -224 180h99c13 -48 55 -91 126 -91c89 0 134 68 134 148c0 78 -45 147 -134 147c-73 0 -114 -45 -126 -91h-99c11 101 91 180 224 180c127 0 207 -77 226 -186h103v33h144
c101 0 187 41 187 142c0 71 -41 117 -108 117s-108 -46 -108 -117c0 -14 1 -27 2 -41h-104c-2 15 -4 29 -4 44c0 41 9 78 27 108h-678v88h795c21 6 45 9 70 9c127 0 214 -77 214 -215c0 -151 -112 -224 -256 -224h-75v-98c0 -73 32 -129 112 -129c67 0 106 48 106 118v14
h102v-15c0 -130 -79 -208 -205 -208zM1157 0v740h228v-88h-122v-652h-106z" />
    <glyph glyph-name="dvTT_TTA" horiz-adv-x="679" 
d="M-24 652v88h727v-88h-223v-182h-139c-87 0 -157 -41 -157 -126c0 -75 57 -129 162 -129c113 0 165 58 165 142h100c0 -140 -87 -230 -262 -233c-86 -1 -165 -31 -165 -127c0 -75 57 -129 162 -129c113 0 165 59 165 143h100c0 -140 -89 -234 -262 -234
c-168 0 -271 88 -271 218c0 87 48 144 113 174c-70 34 -113 97 -113 179c0 133 103 211 257 211h42v93h-401z" />
    <glyph glyph-name="dvTT_TTHA" horiz-adv-x="682" 
d="M-24 652v88h730v-88h-225v-182h-139c-87 0 -157 -41 -157 -126c0 -75 57 -129 162 -129c109 0 165 58 165 142h100c0 -85 -38 -151 -111 -187c69 -33 113 -91 113 -178c0 -137 -112 -214 -267 -214c-156 0 -267 77 -267 214c0 86 44 145 112 177
c-75 36 -112 101 -112 179c0 133 102 211 256 211h42v93h-402zM347 -133c101 0 163 47 163 129c0 83 -62 130 -163 130s-163 -47 -163 -130c0 -82 62 -129 163 -129z" />
    <glyph glyph-name="dvTT_YA" horiz-adv-x="1277" 
d="M1076 0v154c-32 -57 -86 -95 -172 -95c-133 0 -220 83 -220 237c0 10 1 19 1 28h39c69 0 112 15 112 64c0 64 -64 71 -114 71h-362c-106 0 -190 -55 -190 -170c0 -95 66 -162 161 -162c96 0 160 66 160 160h100c0 -150 -102 -251 -258 -251s-268 102 -268 253
c0 165 116 259 289 259h15v104h-393v88h1325v-88h-122v-652h-103zM924 139c94 0 152 74 152 188v325h-604v-109h255c123 0 210 -41 210 -144c0 -74 -58 -116 -154 -121c2 -81 47 -139 141 -139z" />
    <glyph glyph-name="dvTT_VA" horiz-adv-x="658" 
d="M323 -123c87 0 129 65 129 125v136c-32 -9 -69 -14 -110 -14c-95 0 -146 -50 -146 -125s53 -122 127 -122zM-24 652v88h706v-88h-199v-182h-141c-89 0 -160 -41 -160 -126c0 -75 58 -129 166 -129c112 0 169 58 169 142h100c0 -71 -24 -128 -69 -169v-450h-96v137
c-30 -48 -84 -79 -158 -79c-120 0 -198 83 -198 197c0 77 38 138 98 170c-74 35 -116 102 -116 184c0 133 102 212 256 212h46v93h-404z" />
    <glyph glyph-name="dvTTH_TTHA" horiz-adv-x="669" 
d="M340 -134c98 0 158 48 158 130c0 83 -60 131 -158 131s-158 -48 -158 -131c0 -82 60 -130 158 -130zM340 214c98 0 158 48 158 131c0 82 -60 130 -158 130s-158 -48 -158 -130c0 -83 60 -131 158 -131zM340 -222c-152 0 -262 77 -262 214c0 83 39 140 102 173
c-64 36 -102 96 -102 180c0 128 90 197 209 213v94h-311v88h716v-88h-302v-94c121 -15 212 -84 212 -213c0 -84 -38 -144 -102 -180c63 -33 102 -90 102 -173c0 -137 -110 -214 -262 -214z" />
    <glyph glyph-name="dvTTH_YA" horiz-adv-x="1287" 
d="M337 130c100 0 169 69 169 165s-69 163 -169 163c-98 0 -168 -67 -168 -163s70 -165 168 -165zM934 147c94 0 152 73 152 187v318h-698v-111h349c123 0 210 -40 210 -142c0 -74 -58 -116 -154 -121c2 -75 46 -131 141 -131zM1086 0v162c-32 -57 -86 -95 -173 -95
c-132 0 -219 80 -219 229c0 10 0 19 1 28h39c68 0 111 15 111 64c0 63 -63 71 -110 71h-200c45 -41 71 -100 71 -170c0 -146 -113 -247 -269 -247c-154 0 -272 99 -272 253c0 140 97 228 219 248v109h-308v88h1334v-88h-122v-652h-102z" />
    <glyph glyph-name="dvTTH_VA" horiz-adv-x="666" 
d="M341 217c99 0 159 49 159 131c0 83 -60 130 -157 130c-101 0 -163 -47 -163 -130c0 -82 61 -131 161 -131zM312 -117c89 0 130 66 130 125v136c-31 -9 -66 -13 -104 -13c-91 0 -147 -43 -147 -125c0 -76 50 -123 121 -123zM539 -255h-97v137c-30 -49 -83 -80 -156 -80
c-117 0 -194 81 -194 200c0 78 36 137 94 167c-69 35 -110 96 -110 181c0 127 92 197 214 212v90h-314v88h713v-88h-295v-90c119 -15 209 -85 209 -214c0 -65 -23 -116 -64 -153v-450z" />
    <glyph glyph-name="dvDD_DDA" horiz-adv-x="586" 
d="M-24 652v88h634v-88h-144v-161h-175c-45 0 -95 -10 -95 -63c0 -50 50 -57 117 -57c127 0 217 -30 217 -144c0 -92 -76 -147 -216 -147c-84 0 -124 -17 -124 -62c0 -52 54 -57 120 -57c132 0 220 -30 220 -144c0 -93 -73 -148 -207 -148c-139 0 -242 59 -246 168h100
c2 -56 51 -98 145 -98c74 0 110 29 110 77c0 68 -61 78 -134 78c-118 0 -205 25 -205 122c0 52 31 86 78 103c-56 24 -94 70 -94 129h100c2 -54 51 -97 145 -97c74 0 110 30 110 77c0 67 -65 77 -135 77c-118 0 -204 28 -204 126c0 94 80 130 175 130h100v91h-392z" />
    <glyph glyph-name="dvDD_DDHA" horiz-adv-x="597" 
d="M-15 652v88h612v-88h-133v-161h-175c-45 0 -96 -10 -96 -63c0 -50 51 -57 117 -57c128 0 218 -30 218 -144c0 -89 -67 -138 -201 -147c-106 -5 -192 -59 -192 -171c0 -95 67 -158 188 -158c89 0 148 38 148 98c0 45 -28 77 -80 77c-45 0 -75 -25 -75 -65
c0 -5 1 -12 2 -17h-70c-2 10 -3 22 -3 31c0 77 59 121 149 121c103 0 162 -60 162 -146c0 -102 -82 -169 -231 -169c-159 0 -279 80 -279 231c0 104 54 171 136 202c-62 22 -107 70 -107 134h100c2 -54 51 -97 145 -97c73 0 109 30 109 77c0 67 -64 77 -134 77
c-118 0 -204 28 -204 126c0 94 80 130 174 130h101v91h-381z" />
    <glyph glyph-name="dvDD_YA" horiz-adv-x="1184" 
d="M983 0v160c-32 -56 -86 -93 -171 -93c-133 0 -220 80 -220 231c0 9 0 18 1 28h35c69 0 116 16 116 68c0 67 -68 76 -118 76h-336c-49 0 -105 -13 -105 -72c0 -54 44 -72 93 -72h45c101 0 205 -42 205 -171c0 -101 -74 -171 -215 -171c-148 0 -245 75 -248 193h104
c1 -67 52 -113 141 -113c79 0 119 39 119 92c0 72 -59 95 -125 95h-39c-82 0 -185 30 -185 150c0 105 88 144 181 144h102v107h-387v88h1232v-88h-121v-652h-104zM832 147c94 0 151 73 151 187v318h-519v-109h171c127 0 210 -40 210 -142c0 -75 -58 -116 -155 -121
c2 -76 47 -133 142 -133z" />
    <glyph glyph-name="dvDD_VA" horiz-adv-x="598" 
d="M285 -159c79 0 117 57 117 107v131c-24 -5 -51 -8 -81 -8c-95 0 -152 -40 -152 -119c0 -70 51 -111 116 -111zM-24 652v88h646v-88h-158v-161h-175c-44 0 -96 -11 -96 -65c0 -57 59 -57 132 -59c119 -4 203 -38 203 -147c0 -39 -13 -72 -37 -96v-425h-89v129
c-30 -40 -80 -62 -141 -62c-106 0 -182 70 -182 176c0 76 41 130 103 155c-64 27 -107 79 -107 141h100c2 -53 51 -96 145 -96c73 0 109 29 109 78c0 70 -64 80 -141 80c-88 0 -197 17 -197 131c0 94 80 130 174 130h101v91h-390z" />
    <glyph glyph-name="dvDDH_DDHA" horiz-adv-x="673" 
d="M-24 652v88h721v-88h-211v-155h-115c-110 0 -197 -56 -197 -170c0 -101 71 -167 198 -167c96 0 159 38 159 98c0 45 -30 77 -85 77c-49 0 -81 -26 -81 -65c0 -5 1 -12 3 -17h-71c-1 10 -3 22 -3 31c0 78 62 121 156 121c108 0 166 -60 166 -146
c0 -103 -94 -169 -238 -169c-112 0 -204 -56 -204 -172c0 -101 71 -166 198 -166c96 0 159 38 159 98c0 44 -30 77 -85 77c-49 0 -81 -26 -81 -65c0 -6 1 -13 3 -18h-71c-1 10 -3 22 -3 31c0 78 62 122 155 122c106 0 167 -61 167 -146c0 -103 -87 -170 -246 -170
c-167 0 -292 84 -292 237c0 102 54 171 135 204c-83 39 -135 110 -135 209c0 154 114 233 264 233h54v88h-420z" />
    <glyph glyph-name="dvDDH_YA" horiz-adv-x="1284" 
d="M1084 0v158c-32 -54 -86 -91 -172 -91c-133 0 -220 83 -220 237c0 9 0 19 1 28h33c70 -3 118 17 118 69c0 69 -65 78 -116 78h-338c-127 0 -224 -66 -224 -202c0 -114 78 -197 208 -197c89 0 156 47 156 121c0 52 -36 89 -87 89c-43 0 -79 -30 -79 -76c0 -6 1 -14 3 -19
h-77c-2 11 -3 23 -3 33c0 88 69 138 160 138c107 0 173 -68 173 -165c0 -120 -93 -198 -248 -198c-174 0 -307 105 -307 277c0 181 127 273 293 273h34v99h-416v88h1332v-88h-121v-652h-103zM932 147c94 0 152 69 152 176v329h-593v-102h249c124 0 205 -39 205 -142
c0 -83 -64 -120 -154 -123c2 -80 46 -138 141 -138z" />
    <glyph glyph-name="dvDDH_VA" horiz-adv-x="646" 
d="M-24 652v88h694v-88h-189v-155h-110c-110 0 -197 -56 -197 -170c0 -101 71 -167 198 -167c90 0 148 39 148 100c0 44 -29 75 -76 75c-48 0 -79 -26 -79 -65c0 -5 1 -12 3 -17h-71c-1 10 -3 22 -3 31c0 78 61 121 153 121c101 0 158 -59 158 -144c0 -56 -26 -102 -73 -131
v-431h-88v152c-29 -46 -79 -77 -148 -77c-116 0 -192 75 -192 183c0 79 42 137 105 164c-79 37 -131 109 -131 210c0 154 114 233 264 233h48v88h-414zM320 -145c85 0 124 66 124 126v116c-23 -5 -48 -7 -75 -7c-105 0 -167 -39 -167 -122c0 -70 51 -113 118 -113z" />
    <glyph glyph-name="dvNN_TTA" horiz-adv-x="1189" 
d="M288 261c61 0 96 44 96 107v284h-193v-284c0 -63 37 -107 97 -107zM1148 297c0 -156 -106 -261 -268 -261c-160 0 -275 102 -275 253c0 165 116 259 289 259h15v104h-422v-274c0 -119 -68 -206 -200 -206c-131 0 -199 90 -199 206v274h-112v88h1237v-88h-201v-193h-112
c-106 0 -190 -55 -190 -170c0 -95 69 -162 168 -162c102 0 170 70 170 170h100z" />
    <glyph glyph-name="dvNN_TTHA" horiz-adv-x="1230" 
d="M892 130c100 0 169 69 169 165s-69 163 -169 163c-98 0 -168 -67 -168 -163s70 -165 168 -165zM288 261c61 0 96 44 96 107v284h-193v-284c0 -63 37 -107 97 -107zM892 42c-154 0 -272 99 -272 253c0 140 97 228 219 248v109h-352v-274c0 -119 -68 -206 -200 -206
c-131 0 -199 90 -199 206v274h-112v88h1277v-88h-310v-109c124 -19 222 -107 222 -248c0 -154 -118 -253 -273 -253z" />
    <glyph glyph-name="dvNN_DDA" horiz-adv-x="1121" 
d="M288 261c61 0 96 44 96 107v284h-193v-284c0 -63 37 -107 97 -107zM863 -16c-148 0 -245 75 -248 193h104c1 -67 52 -113 141 -113c79 0 119 39 119 92c0 72 -59 95 -125 95h-39c-82 0 -185 30 -185 150c0 105 88 144 181 144h102v107h-426v-274
c0 -119 -68 -206 -200 -206c-131 0 -199 90 -199 206v274h-112v88h1169v-88h-131v-182h-174c-49 0 -105 -13 -105 -72c0 -54 44 -72 93 -72h45c101 0 205 -42 205 -171c0 -101 -74 -171 -215 -171z" />
    <glyph glyph-name="dvNN_DDHA" horiz-adv-x="1204" 
d="M288 261c61 0 96 44 96 107v284h-193v-284c0 -63 37 -107 97 -107zM1179 201c0 -120 -93 -198 -248 -198c-174 0 -307 105 -307 277c0 181 127 273 293 273h34v99h-464v-274c0 -119 -68 -206 -200 -206c-131 0 -199 90 -199 206v274h-112v88h1252v-88h-178v-173h-101
c-127 0 -224 -66 -224 -202c0 -114 78 -197 208 -197c89 0 156 47 156 121c0 52 -36 89 -87 89c-43 0 -79 -30 -79 -76c0 -6 1 -14 3 -19h-77c-2 11 -3 23 -3 33c0 88 69 138 160 138c107 0 173 -68 173 -165z" />
    <glyph glyph-name="dvNN_NNA" horiz-adv-x="1419" 
d="M288 261c61 0 96 44 96 107v284h-193v-284c0 -63 37 -107 97 -107zM839 261c61 0 96 44 96 107v284h-193v-284c0 -63 37 -107 97 -107zM1442 652h-122v-652h-105v652h-177v-274c0 -119 -68 -206 -200 -206c-131 0 -199 90 -199 206v274h-152v-274
c0 -119 -68 -206 -200 -206c-131 0 -199 90 -199 206v274h-112v88h1466v-88z" />
    <glyph glyph-name="dvNN_MA" horiz-adv-x="1346" 
d="M1142 457v195h-167v-195h167zM782 178c60 0 95 45 95 119v74h-83c-63 0 -108 -36 -108 -97c0 -59 41 -96 96 -96zM288 261c61 0 96 44 96 107v284h-193v-284c0 -63 37 -107 97 -107zM1369 652h-122v-652h-105v371h-167v-69c0 -135 -68 -213 -192 -213
c-117 0 -194 74 -194 185c0 120 88 183 202 183h86v195h-390v-274c0 -119 -68 -206 -200 -206c-131 0 -199 90 -199 206v274h-112v88h1393v-88z" />
    <glyph glyph-name="dvNN_YA" horiz-adv-x="1274" 
d="M1298 652h-122v-652h-105v200c-38 -56 -108 -97 -209 -97c-171 0 -266 111 -266 282c0 16 1 34 3 51h13c113 0 170 44 170 154v62h-295v-274c0 -119 -68 -206 -200 -206c-131 0 -199 90 -199 206v274h-112v88h1322v-88zM288 261c61 0 96 44 96 107v284h-193v-284
c0 -63 37 -107 97 -107zM884 191c108 0 187 74 187 180v281h-185v-80c0 -122 -63 -186 -187 -193v-4c0 -111 67 -184 185 -184z" />
    <glyph glyph-name="dvNN_VA" horiz-adv-x="1225" 
d="M872 170c105 0 153 80 153 149v1c0 73 -48 150 -153 150c-85 0 -151 -58 -151 -149c0 -93 64 -151 151 -151zM288 261c61 0 96 44 96 107v284h-193v-284c0 -63 37 -107 97 -107zM1249 652h-122v-652h-102v181c-33 -57 -94 -95 -180 -95c-137 0 -227 96 -227 238
c0 136 92 231 227 231c86 0 147 -38 180 -94v191h-538v-274c0 -119 -68 -206 -200 -206c-131 0 -199 90 -199 206v274h-112v88h1273v-88z" />
    <glyph glyph-name="dvT_KA" horiz-adv-x="1372" 
d="M835 0v183c-29 -55 -87 -95 -173 -95c-126 0 -211 92 -211 233c0 30 4 58 12 83h-108c-111 0 -184 -52 -184 -158c0 -100 58 -161 169 -161h21v-83h-36c-151 0 -260 79 -260 246c0 172 123 246 285 246h166c38 36 89 57 150 57c84 0 140 -39 169 -92v193h-859v88h1419
v-88h-459v-195c28 55 82 94 164 94c124 0 207 -96 207 -228c0 -145 -89 -229 -208 -229c-23 0 -44 2 -64 7v83c11 -3 25 -4 37 -4c73 0 129 51 129 141c0 84 -57 140 -132 140c-94 0 -133 -76 -133 -149v-312h-101zM696 176c95 0 139 77 139 143c0 69 -43 142 -139 142
c-77 0 -139 -54 -139 -141c0 -90 59 -144 139 -144z" />
    <glyph glyph-name="dvT_K_YA" horiz-adv-x="1860" 
d="M1095 546c90 1 145 -49 170 -114c69 16 104 62 104 147v73h-433v-197c27 52 80 90 159 91zM696 176c95 0 139 77 139 143c0 69 -43 142 -139 142c-77 0 -139 -54 -139 -141c0 -90 59 -144 139 -144zM1470 191c109 0 187 74 187 180v281h-185v-91
c0 -122 -63 -187 -187 -193v-4c0 -99 68 -173 185 -173zM936 312v-312h-101v183c-29 -55 -87 -95 -173 -95c-126 0 -211 92 -211 233c0 30 4 58 12 83h-108c-111 0 -184 -52 -184 -158c0 -100 58 -161 169 -161h21v-83h-36c-151 0 -260 79 -260 246c0 172 123 246 285 246
h166c38 36 89 57 150 57c84 0 140 -39 169 -92v193h-859v88h1908v-88h-122v-652h-105v199c-38 -56 -108 -96 -209 -96c-167 0 -262 108 -266 263c-8 48 -45 96 -118 95c-91 -2 -128 -76 -128 -149z" />
    <glyph glyph-name="dvT_K_RA" horiz-adv-x="1372" 
d="M835 0v188c-9 -16 -20 -31 -34 -44l-185 -190h-114l141 143c-112 8 -192 95 -192 224c0 30 4 58 12 83h-108c-111 0 -184 -52 -184 -158c0 -100 58 -161 169 -161h21v-83h-36c-151 0 -260 79 -260 246c0 172 123 246 285 246h166c38 36 89 57 150 57
c84 0 140 -39 169 -92v193h-859v88h1419v-88h-459v-195c28 55 82 94 164 94c124 0 207 -96 207 -228c0 -145 -89 -229 -208 -229c-23 0 -44 2 -64 7v83c11 -3 25 -4 37 -4c73 0 129 51 129 141c0 84 -57 140 -132 140c-94 0 -132 -77 -133 -149v-312h-101zM696 176
c10 0 20 1 29 3l4 4l6 -2c68 17 100 82 100 138c0 69 -43 142 -139 142c-77 0 -139 -54 -139 -141c0 -90 59 -144 139 -144z" />
    <glyph glyph-name="dvT_K_VA" horiz-adv-x="1797" 
d="M936 652v-194c27 51 78 88 158 88c63 0 112 -26 145 -71c40 50 102 80 178 80c86 0 147 -38 180 -94v191h-661zM696 176c95 0 139 77 139 143c0 69 -43 142 -139 142c-77 0 -139 -54 -139 -141c0 -90 59 -144 139 -144zM1444 170c105 0 153 80 153 149v1
c0 73 -48 150 -153 150c-85 0 -151 -58 -151 -149c0 -93 64 -151 151 -151zM1821 652h-122v-652h-102v181c-33 -57 -94 -95 -180 -95c-137 0 -227 96 -227 235v0c0 84 -51 140 -126 140c-94 0 -128 -76 -128 -149v-312h-101v183c-29 -55 -87 -95 -173 -95
c-126 0 -211 92 -211 233c0 31 4 59 12 85h-108c-111 0 -184 -53 -184 -160c0 -100 58 -161 169 -161h21v-83h-36c-151 0 -260 79 -260 246c0 173 123 248 285 248h168c38 35 88 55 148 55c84 0 140 -39 169 -92v193h-859v88h1845v-88z" />
    <glyph glyph-name="dvT_K_SSA" horiz-adv-x="1226" 
d="M596 560c0 -68 57 -113 137 -115c45 28 77 62 77 114c0 59 -46 100 -107 100c-56 0 -107 -34 -107 -99zM789 -57v158c-16 -29 -60 -70 -136 -70c-106 0 -177 69 -177 167v32c0 84 -40 176 -152 176c-92 0 -153 -55 -153 -160c0 -100 58 -161 169 -161h21v-83h-36
c-151 0 -260 79 -260 246c0 166 104 248 240 248c130 0 195 -82 220 -177c31 33 74 56 118 78c-76 19 -141 74 -141 170c0 32 7 61 20 85h-546v88h658c22 7 47 10 72 10c104 0 192 -60 192 -171c0 -61 -27 -102 -64 -135h193v296h223v-88h-122v-652h-101v367h-296
c-77 -37 -147 -68 -147 -148c0 -56 40 -101 104 -101c70 0 109 53 109 112h88v-287h-96z" />
    <glyph glyph-name="dvT_KHA" horiz-adv-x="1346" 
d="M745 87c72 0 116 37 139 79c-48 36 -77 96 -77 170c0 121 84 203 195 203c69 0 115 -29 141 -70v183h-382v-132c0 -145 -77 -202 -174 -207v-72c0 -91 58 -154 158 -154zM1143 0v199c-26 -41 -72 -70 -141 -70c-12 0 -24 1 -35 3c-40 -76 -115 -136 -225 -136
c-158 0 -259 94 -259 257v61c-11 43 -50 92 -144 92c-104 0 -168 -53 -168 -160c0 -100 58 -161 169 -161h21v-83h-36c-151 0 -260 79 -260 246c0 171 116 250 268 250c116 0 187 -45 220 -106c62 10 102 48 102 141v119h-679v88h1393v-88h-121v-652h-105zM1024 210
c83 0 119 65 119 124s-34 124 -119 124c-67 0 -123 -45 -123 -122c0 -81 54 -126 123 -126z" />
    <glyph glyph-name="dvT_KH_RA" horiz-adv-x="1346" 
d="M1143 0v199c-26 -41 -72 -70 -141 -70c-12 0 -24 1 -36 3c-13 -24 -30 -47 -50 -66l-191 -207h-112v6l129 135v0c-158 0 -259 93 -259 253v61c-11 43 -50 92 -144 92c-104 0 -168 -53 -168 -160c0 -100 58 -161 169 -161h21v-83h-36c-151 0 -260 79 -260 246
c0 171 116 250 268 250c116 0 187 -45 220 -106c62 10 102 48 102 141v119h-679v88h1393v-88h-121v-652h-105zM745 87c72 0 116 37 139 79c-48 36 -77 96 -77 170c0 121 84 203 195 203c69 0 115 -29 141 -70v183h-382v-132c0 -145 -77 -202 -174 -207v-72
c0 -91 58 -154 158 -154zM1024 210c83 0 119 65 119 124s-34 124 -119 124c-67 0 -123 -45 -123 -122c0 -81 54 -126 123 -126z" />
    <glyph glyph-name="dvT_TA" horiz-adv-x="742" 
d="M-24 652v88h790v-88h-122v-652h-105v406h-140c-111 0 -184 -55 -184 -166c0 -96 59 -155 170 -155h20v-83h-36c-150 0 -259 82 -259 229c0 83 31 141 77 177h-159v88h511v156h-563z" />
    <glyph glyph-name="dvT_T_YA" horiz-adv-x="1162" 
d="M772 191c108 0 187 74 187 180v281h-185v-80c0 -123 -71 -189 -186 -197v-11c0 -104 67 -173 184 -173zM1064 0h-105v199c-38 -56 -108 -96 -209 -96c-164 0 -259 99 -266 253c-11 29 -38 66 -124 66c-95 0 -158 -51 -158 -159c0 -97 59 -156 170 -156h20v-83h-36
c-150 0 -259 82 -259 229c0 81 26 137 65 171h-147v88h339c100 0 158 -33 190 -73c84 11 126 56 126 151v62h-707v88h1223v-88h-122v-652z" />
    <glyph glyph-name="dvT_T_VA" horiz-adv-x="1104" 
d="M751 170c105 0 153 80 153 149v1c0 73 -48 150 -153 150c-85 0 -151 -58 -151 -149c0 -93 64 -151 151 -151zM1128 652h-122v-652h-102v181c-33 -57 -94 -95 -180 -95c-137 0 -227 96 -227 238c0 29 4 57 12 82h-110c-111 0 -184 -55 -184 -166c0 -96 59 -155 170 -155
h20v-83h-36c-150 0 -259 82 -259 229c0 83 31 141 77 177h-159v88h537c40 37 95 59 159 59c86 0 147 -38 180 -94v191h-928v88h1152v-88z" />
    <glyph glyph-name="dvT_THA" horiz-adv-x="1165" 
d="M961 0v217c-27 -61 -103 -123 -223 -123c-161 0 -264 99 -275 259h-119c-107 0 -173 -43 -173 -131c0 -85 57 -137 163 -137h27v-83h-39c-149 0 -257 72 -257 223c0 150 116 214 274 214h228c102 0 193 25 193 128c0 51 -34 92 -93 92c-61 0 -98 -40 -98 -102
c0 -14 2 -28 4 -41h-95c-2 14 -4 31 -4 44c0 35 7 66 20 92h-518v88h627c20 6 42 9 65 9c115 0 192 -76 192 -185c0 -132 -97 -201 -254 -201h-42c1 -104 61 -181 189 -181c113 0 208 75 208 208v350h227v-88h-122v-652h-105z" />
    <glyph glyph-name="dvT_NA" horiz-adv-x="1173" 
d="M644 186c65 0 113 46 113 111s-48 111 -113 111c-68 0 -116 -46 -116 -112c0 -64 47 -110 116 -110zM1075 0h-105v409h-174c26 -29 45 -71 45 -125c0 -118 -88 -187 -198 -187c-117 0 -210 76 -210 199c0 43 11 80 30 110h-108c-111 0 -184 -53 -184 -160
c0 -100 58 -161 169 -161h21v-83h-36c-151 0 -260 79 -260 246c0 173 123 248 285 248h620v156h-994v88h1221v-88h-122v-652z" />
    <glyph glyph-name="dvT_N_YA" horiz-adv-x="1632" 
d="M644 154c66 0 113 46 113 111s-47 111 -113 111c-68 0 -116 -46 -116 -112c0 -64 47 -110 116 -110zM1242 191c109 0 187 74 187 180v281h-185v-80c0 -113 -69 -177 -189 -187c7 -116 74 -194 187 -194zM1534 0h-105v200c-38 -56 -108 -97 -209 -97
c-159 0 -253 107 -265 274h-160c27 -29 46 -71 46 -125c0 -118 -88 -187 -199 -187c-116 0 -209 76 -209 199c0 43 11 80 30 110h-110c-112 0 -182 -45 -182 -142c0 -92 58 -147 165 -147h25v-83h-36c-151 0 -260 75 -260 234s123 228 285 228h620c113 0 170 33 170 126v62
h-1164v88h1680v-88h-122v-652z" />
    <glyph glyph-name="dvT_PA" horiz-adv-x="1022" 
d="M684 275c88 0 136 66 136 144v233h-274v-215c0 -98 42 -162 138 -162zM924 0h-104v262c-32 -47 -87 -76 -162 -76c-135 0 -206 89 -216 220h-87c-111 0 -184 -53 -184 -160c0 -100 58 -161 169 -161h21v-83h-36c-151 0 -260 79 -260 246c0 173 123 248 285 248h91v156
h-465v88h1070v-88h-122v-652z" />
    <glyph glyph-name="dvT_P_RA" horiz-adv-x="1022" 
d="M684 275c88 0 136 66 136 144v233h-274v-215c0 -98 42 -162 138 -162zM820 0v265c-7 -10 -16 -20 -26 -28l-230 -253h-115l200 207c-129 4 -197 89 -207 215h-87c-111 0 -184 -53 -184 -160c0 -100 58 -161 169 -161h21v-83h-36c-151 0 -260 79 -260 246
c0 173 123 248 285 248h91v156h-465v88h1070v-88h-122v-652h-104z" />
    <glyph glyph-name="dvT_P_LA" horiz-adv-x="1631" 
d="M676 275c63 0 102 36 117 84c20 115 104 178 210 178c103 0 153 -68 173 -135h3c18 59 59 118 141 132v118h-774v-215c0 -98 40 -162 130 -162zM361 2h-36c-151 0 -260 79 -260 246c0 173 123 248 285 248h91v156h-465v88h1678v-88h-231v-124c85 -26 143 -104 143 -223
c0 -142 -84 -248 -244 -248c-10 0 -21 1 -34 2v92c10 -1 21 -2 28 -2c92 0 144 63 144 154c0 80 -40 142 -118 142c-83 0 -121 -69 -121 -164v-18h-88v18c0 93 -36 164 -116 164s-122 -60 -122 -142c0 -91 52 -154 144 -154c7 0 18 1 28 2v-92c-13 -1 -25 -2 -34 -2
c-130 0 -210 70 -235 172c-34 -27 -79 -43 -134 -43c-137 0 -212 89 -222 220h-87c-111 0 -184 -53 -184 -160c0 -100 58 -161 169 -161h21v-83z" />
    <glyph glyph-name="dvT_PHA" horiz-adv-x="1346" 
d="M674 275c83 0 127 64 127 139v238h-255v-220c0 -95 40 -157 128 -157zM906 0h-105v260c-31 -46 -82 -74 -152 -74c-130 0 -199 88 -207 220h-87c-111 0 -184 -53 -184 -160c0 -100 58 -161 169 -161h21v-83h-36c-151 0 -260 79 -260 246c0 173 123 248 285 248h91v156
h-465v88h1394v-88h-464v-195c29 54 86 94 170 94c122 0 206 -94 206 -225c0 -147 -88 -232 -208 -232c-23 0 -48 3 -67 8v82c12 -3 27 -5 41 -5c74 0 128 54 128 142c0 84 -56 140 -132 140c-97 0 -138 -79 -138 -160v-301z" />
    <glyph glyph-name="dvT_MA" horiz-adv-x="1192" 
d="M989 468v184h-168v-184h168zM628 189c61 0 95 45 95 119v74h-82c-63 0 -108 -37 -108 -97c0 -59 41 -96 95 -96zM1094 0h-105v382h-168v-68c0 -136 -68 -214 -191 -214c-117 0 -195 74 -195 185c0 36 8 67 23 93h-103c-111 0 -184 -47 -184 -144c0 -93 58 -149 169 -149
h21v-83h-36c-151 0 -260 75 -260 234c0 162 123 232 285 232h373v184h-747v88h1240v-88h-122v-652z" />
    <glyph glyph-name="dvT_M_YA" horiz-adv-x="1650" 
d="M629 175c60 0 95 45 95 119v73h-83c-63 0 -108 -36 -108 -96s41 -96 96 -96zM1011 454c92 0 147 36 147 136v62h-336v-198h189zM1260 191c108 0 187 74 187 180v281h-185v-80c0 -121 -71 -186 -187 -193v-4c0 -111 67 -184 185 -184zM1552 0h-105v200
c-38 -56 -108 -97 -209 -97c-165 0 -259 103 -266 264h-150v-68c0 -136 -68 -214 -192 -214c-117 0 -194 74 -194 185c0 37 8 68 23 94h-111c-107 0 -177 -45 -177 -139c0 -88 57 -140 164 -140h26v-83h-36c-151 0 -260 73 -260 227c0 157 120 225 280 225h379v198h-748v88
h1698v-88h-122v-652z" />
    <glyph glyph-name="dvT_YA" horiz-adv-x="1130" 
d="M739 191c109 0 188 74 188 180v281h-186v-80c0 -123 -71 -190 -186 -197v-11c0 -104 67 -173 184 -173zM1031 0h-104v200c-38 -56 -108 -97 -209 -97c-165 0 -260 100 -267 255c-11 29 -39 64 -124 64c-99 0 -156 -54 -156 -160c0 -100 58 -161 169 -161h21v-83h-36
c-151 0 -260 80 -260 247c0 170 106 247 256 247c100 0 158 -33 190 -73c84 10 127 56 127 151v62h-662v88h1177v-88h-122v-652z" />
    <glyph glyph-name="dvT_R_YA" horiz-adv-x="1169" 
d="M779 159c109 0 187 74 187 180v313h-185v-123c0 -121 -62 -186 -185 -193l-2 -2v-2c0 -104 67 -173 185 -173zM757 71c-134 0 -222 66 -253 174l-250 -245h-136v5l373 345v8c-27 50 -82 86 -154 86c-92 0 -166 -57 -166 -162h-105c0 146 105 246 265 246
c107 0 193 -50 240 -129c70 16 106 62 106 149v104h-701v88h1217v-88h-122v-652h-105v168c-38 -57 -108 -97 -209 -97z" />
    <glyph glyph-name="dvT_LA" horiz-adv-x="1287" 
d="M361 2h-36c-151 0 -260 79 -260 246c0 173 123 248 285 248h178c36 27 81 41 131 41c103 0 153 -68 173 -135h3c18 59 59 118 141 132v118h-1000v88h1334v-88h-231v-124c85 -26 143 -104 143 -223c0 -142 -84 -248 -244 -248c-10 0 -21 1 -34 2v92c10 -1 21 -2 28 -2
c92 0 144 63 144 154c0 80 -40 142 -118 142c-83 0 -121 -69 -121 -164v-18h-88v18c0 93 -36 164 -116 164s-122 -60 -122 -142c0 -91 52 -154 144 -154c7 0 18 1 28 2v-92c-13 -1 -25 -2 -34 -2c-160 0 -244 106 -244 248c0 38 6 72 17 101h-107c-111 0 -184 -53 -184 -160
c0 -100 58 -161 169 -161h21v-83z" />
    <glyph glyph-name="dvT_VA" horiz-adv-x="1061" 
d="M708 170c105 0 153 80 153 149v1c0 73 -48 150 -153 150c-85 0 -151 -58 -151 -149c0 -93 64 -151 151 -151zM1085 652h-122v-652h-102v181c-33 -57 -94 -95 -180 -95c-137 0 -227 96 -227 238c0 29 4 57 12 82h-111c-111 0 -184 -53 -184 -160c0 -100 58 -161 169 -161
h21v-83h-36c-151 0 -260 79 -260 246c0 173 123 248 285 248h172c40 37 95 59 159 59c86 0 147 -38 180 -94v191h-885v88h1109v-88z" />
    <glyph glyph-name="dvT_SA" horiz-adv-x="1232" 
d="M842 557c0 -62 -18 -111 -48 -147h235v242h-187v-95zM893 188c0 -120 -75 -197 -200 -197c-136 0 -206 93 -206 217v86c0 45 -37 112 -148 112c-104 0 -168 -53 -168 -160c0 -100 58 -161 169 -161h21v-83h-36c-151 0 -260 79 -260 246c0 171 116 250 268 250
c111 0 181 -41 216 -98h26c112 0 163 63 163 157v95h-762v88h1280v-88h-122v-652h-105v324h-438v-121c0 -70 32 -122 101 -122c63 0 100 46 100 112v12h101v-17z" />
    <glyph glyph-name="dvT_S_NA" horiz-adv-x="1735" 
d="M842 557c0 -62 -18 -111 -48 -147h230c37 60 107 92 189 92h319v150h-690v-95zM1206 192c66 0 113 46 113 111c0 64 -47 111 -113 111c-68 0 -116 -46 -116 -112c0 -65 47 -110 116 -110zM893 188c0 -120 -75 -197 -200 -197c-136 0 -206 93 -206 217v86
c0 45 -37 112 -148 112c-104 0 -168 -53 -168 -160c0 -100 58 -161 169 -161h21v-83h-36c-151 0 -260 79 -260 246c0 171 116 250 268 250c111 0 181 -41 216 -98h26c112 0 163 63 163 157v95h-762v88h1783v-88h-122v-652h-105v414h-174c26 -30 45 -71 45 -125
c0 -118 -88 -186 -199 -186c-116 0 -209 76 -209 199c0 8 0 15 1 22h-405v-121c0 -70 32 -122 101 -122c63 0 100 46 100 112v12h101v-17z" />
    <glyph glyph-name="dvT_S_YA" horiz-adv-x="1672" 
d="M1011 410c113 0 170 40 170 144v98h-339v-95c0 -62 -18 -111 -48 -147h217zM1282 171c109 0 187 74 187 180v301h-185v-116c0 -121 -68 -185 -184 -193v-19h-2c7 -92 73 -153 184 -153zM893 188c0 -120 -75 -197 -200 -197c-136 0 -206 93 -206 217v86
c0 45 -37 112 -148 112c-104 0 -168 -53 -168 -160c0 -100 58 -161 169 -161h21v-83h-36c-151 0 -260 79 -260 246c0 171 116 250 268 250c111 0 181 -41 216 -98h26c112 0 163 63 163 157v95h-762v88h1720v-88h-122v-652h-105v179c-38 -56 -108 -96 -209 -96
c-161 0 -256 94 -265 241h-404v-121c0 -70 32 -122 101 -122c63 0 100 46 100 112v12h101v-17z" />
    <glyph glyph-name="dvT_S_VA" horiz-adv-x="1595" 
d="M842 557c0 -62 -18 -111 -48 -147h208c30 88 109 145 213 145c86 0 147 -38 180 -94v191h-553v-95zM1242 170c105 0 153 80 153 149v1c0 73 -48 150 -153 150c-85 0 -151 -58 -151 -149c0 -93 64 -151 151 -151zM1619 652h-122v-652h-102v181c-33 -57 -94 -95 -180 -95
c-137 0 -227 96 -227 238h-397v-121c0 -70 32 -122 101 -122c63 0 100 46 100 112v12h101v-17c0 -120 -75 -197 -200 -197c-136 0 -206 93 -206 217v86c0 45 -37 112 -148 112c-104 0 -168 -53 -168 -160c0 -100 58 -161 169 -161h21v-83h-36c-151 0 -260 79 -260 246
c0 171 116 250 268 250c111 0 181 -41 216 -98h26c112 0 163 63 163 157v95h-762v88h1643v-88z" />
    <glyph glyph-name="dvTH_NA" horiz-adv-x="1305" 
d="M1328 652h-122v-652h-105v414h-174c26 -30 45 -71 45 -125c0 -118 -88 -186 -198 -186c-76 0 -142 32 -179 89c-48 -66 -130 -103 -229 -103c-183 0 -294 105 -294 281c0 19 1 38 4 58h95c102 0 200 26 200 133c0 55 -35 98 -94 98c-61 0 -98 -40 -98 -102
c0 -14 2 -28 4 -41h-95c-2 14 -4 31 -4 44c0 120 84 189 194 189c115 0 191 -78 191 -191c0 -136 -102 -206 -259 -206h-37c3 -99 63 -172 192 -175c105 -2 186 50 200 135c5 123 98 190 218 190h318v150h-529v88h756v-88zM775 192c66 0 113 46 113 111
c0 64 -47 111 -113 111c-68 0 -115 -46 -115 -112c0 -65 46 -110 115 -110z" />
    <glyph glyph-name="dvTH_YA" horiz-adv-x="1246" 
d="M362 94c-180 0 -290 103 -290 276c0 19 1 38 4 58h95c102 0 200 26 200 133c0 55 -35 98 -94 98c-61 0 -98 -40 -98 -102c0 -14 2 -28 4 -41h-95c-2 14 -4 31 -4 44c0 120 84 189 194 189c115 0 191 -78 191 -191c0 -136 -102 -206 -259 -206h-37c3 -97 61 -170 187 -170
c127 0 208 82 208 217v0c0 12 1 25 1 37h15c113 0 171 44 171 154v62h-184v88h699v-88h-122v-652h-105v200c-38 -56 -108 -97 -209 -97c-111 0 -190 47 -232 128c-46 -87 -133 -137 -240 -137zM856 191c109 0 187 74 187 180v281h-185v-80c0 -122 -63 -187 -187 -193v-4
c0 -111 67 -184 185 -184z" />
    <glyph glyph-name="dvTH_VA" horiz-adv-x="1173" 
d="M1075 652v-652h-103v180c-33 -57 -94 -94 -179 -94c-95 0 -167 46 -202 121c-48 -72 -128 -113 -227 -113c-182 0 -292 103 -292 276c0 19 1 38 4 58h95c102 0 200 26 200 133c0 55 -35 98 -94 98c-61 0 -98 -40 -98 -102c0 -14 2 -28 4 -41h-95c-2 14 -4 31 -4 44
c0 120 84 189 194 189c115 0 191 -78 191 -191c0 -136 -102 -206 -259 -206h-37c3 -97 65 -170 198 -170c103 0 172 58 195 156c6 129 97 217 227 217c85 0 146 -37 179 -93v190h-406v88h631v-88h-122zM820 170c105 0 152 80 152 149v1c0 73 -47 150 -152 150
c-85 0 -151 -58 -151 -149c0 -93 64 -151 151 -151z" />
    <glyph glyph-name="dvD_GA" horiz-adv-x="650" 
d="M-24 652v88h698v-88h-133v-189h-164c-96 0 -155 -41 -155 -121c0 -70 49 -116 126 -116c59 0 125 37 125 113h91v-552h-97v424c-26 -35 -70 -61 -125 -66v-104c0 -99 -49 -178 -167 -178c-107 0 -163 67 -163 163c0 10 0 20 1 30h89v-27c0 -39 18 -83 73 -83
c59 0 73 48 73 91v118c-82 26 -129 97 -129 188c0 137 101 208 249 208h68v101h-460z" />
    <glyph glyph-name="dvD_G_RA" horiz-adv-x="650" 
d="M-24 652v88h698v-88h-133v-189h-164c-96 0 -155 -41 -155 -121c0 -70 49 -116 126 -116c59 0 125 37 125 113h91v-552h-92v158l-205 -213h-104l304 303v176c-26 -35 -70 -61 -125 -66v-43c0 -99 -49 -177 -167 -177c-107 0 -163 66 -163 162c0 10 0 20 1 30h89v-27
c0 -39 18 -83 73 -83c59 0 73 48 73 91v57c-82 26 -129 97 -129 188c0 137 101 208 249 208h68v101h-460z" />
    <glyph glyph-name="dvD_GHA" horiz-adv-x="907" 
d="M294 -12c75 0 134 51 153 138c-54 37 -89 101 -89 190c0 44 9 81 26 113c-36 17 -70 25 -102 25c-74 0 -111 -41 -111 -91c0 -59 44 -94 119 -94h9v-83h-8c-75 0 -114 -41 -114 -96c0 -69 51 -102 117 -102zM-24 652v88h955v-88h-140v-191h-157c-94 0 -169 -51 -169 -148
c0 -85 55 -140 141 -140c60 0 126 38 126 123h97v-317h-103v178c-29 -42 -83 -68 -150 -68c-19 0 -37 2 -55 6c-22 -120 -116 -194 -241 -194c-115 0 -209 60 -209 177c0 88 61 138 120 147v4c-61 15 -123 59 -123 151c0 88 61 162 199 162c58 0 119 -20 168 -51
c48 40 115 60 189 60h62v101h-710z" />
    <glyph glyph-name="dvD_DA" horiz-adv-x="554" 
d="M398 -65v142c-25 -40 -75 -74 -159 -74c-101 0 -185 55 -185 158c0 73 47 122 113 133v3c-65 12 -115 56 -115 127c0 107 93 142 203 142c24 0 49 0 73 -1v87h-360v88h610v-88h-147v-157h-147c-70 0 -127 -20 -127 -81c0 -44 37 -79 110 -79h76v-76h-78
c-70 0 -103 -34 -103 -83c0 -59 44 -94 117 -94c84 0 134 47 134 128h87v-275h-102z" />
    <glyph glyph-name="dvD_DHA" horiz-adv-x="907" 
d="M-24 652v88h955v-88h-140v-191h-157c-94 0 -169 -51 -169 -148c0 -85 55 -140 141 -140c60 0 126 38 126 123h97v-317h-103v178c-29 -42 -83 -68 -150 -68c-19 0 -37 2 -55 6c-22 -120 -116 -194 -241 -194c-115 0 -209 60 -209 177c0 88 61 138 120 147v4
c-61 15 -123 59 -123 151c0 94 70 172 231 160v-86c-88 5 -128 -38 -128 -91c0 -59 44 -94 119 -94h9v-83h-8c-75 0 -114 -41 -114 -96c0 -69 51 -102 117 -102c75 0 134 51 153 138c-54 37 -89 101 -89 190c0 156 118 235 266 235h62v101h-710z" />
    <glyph glyph-name="dvD_NA" horiz-adv-x="1387" 
d="M556 -300l-124 206h105l127 -206h-108zM857 192c66 0 113 46 113 111c0 64 -47 111 -113 111c-68 0 -116 -46 -116 -112c0 -65 47 -110 116 -110zM536 -21h-103v179c-29 -43 -84 -69 -150 -69c-123 0 -218 80 -218 227c0 156 117 235 266 235h62v101h-417v88h1434v-88
h-122v-652h-105v414h-174c26 -30 45 -71 45 -125c0 -118 -88 -186 -199 -186c-116 0 -209 76 -209 199c0 129 96 200 218 200h319v150h-685v-191h-157c-95 0 -169 -51 -169 -148c0 -85 54 -140 140 -140c61 0 127 38 127 123h97v-317z" />
    <glyph glyph-name="dvD_BA" horiz-adv-x="612" 
d="M-24 652v88h660v-88h-135v-189h-164c-96 0 -155 -41 -155 -121c0 -70 57 -116 125 -116c60 0 125 37 125 113h91v-572h-92v145c-30 -55 -86 -86 -155 -86c-120 0 -199 83 -199 196c0 75 40 134 100 163c-57 30 -98 86 -98 166c0 133 101 200 249 200h68v101h-420z
M300 -101c47 0 82 22 104 52l-214 143c-14 -19 -22 -43 -22 -70c0 -78 56 -126 132 -125zM294 144c-29 -2 -55 -10 -75 -23l203 -135c6 16 9 33 9 49v180c-25 -40 -73 -65 -137 -71z" />
    <glyph glyph-name="dvD_B_RA" horiz-adv-x="612" 
d="M-24 652v88h660v-88h-135v-189h-164c-96 0 -155 -41 -155 -121c0 -70 57 -116 125 -116c60 0 125 37 125 113h91v-572h-92v145c-11 -19 -25 -36 -41 -49l-147 -154h-109l119 118c-107 10 -176 89 -176 195c0 75 40 134 100 163c-57 30 -98 86 -98 166
c0 133 101 200 249 200h68v101h-420zM300 -101c47 0 82 22 104 52l-214 143c-14 -19 -22 -43 -22 -70c0 -78 56 -126 132 -125zM294 144c-29 -2 -55 -10 -75 -23l203 -135c6 16 9 33 9 49v180c-25 -40 -73 -65 -137 -71z" />
    <glyph glyph-name="dvD_BHA" horiz-adv-x="1392" 
d="M556 -300l-124 206h105l127 -206h-108zM-24 652v88h658l-1 -88h-135v-191h-157c-95 0 -169 -51 -169 -148c0 -85 54 -140 140 -140c61 0 127 38 127 123h97v-317h-103v179c-29 -43 -84 -69 -150 -69c-123 0 -218 80 -218 227c0 156 117 235 266 235h62v101h-417zM844 178
c60 0 94 45 94 119v74h-82c-64 0 -108 -36 -108 -97c0 -59 41 -96 96 -96zM845 89c-117 0 -195 74 -195 185c0 120 89 183 203 183h85v89c0 68 -24 113 -81 113c-48 0 -81 -35 -81 -93c0 -11 1 -23 4 -36h-105c-2 12 -4 27 -4 40c0 105 65 179 182 179
c134 0 183 -93 183 -221v-71h152v283h228v-88h-123v-652h-105v371h-152v-69c0 -135 -68 -213 -191 -213z" />
    <glyph glyph-name="dvD_MA" horiz-adv-x="832" 
d="M283 -134c54 0 84 40 84 108v61h-73c-53 0 -97 -29 -97 -87c0 -48 35 -82 86 -82zM463 121h163v531h-180v-190h-170c-60 0 -104 -25 -104 -85c0 -53 44 -81 106 -81h186zM-24 652v88h879v-88h-124v-921h-105v304h-162v-51c0 -130 -63 -205 -180 -205
c-109 0 -180 67 -180 172c0 121 88 170 197 170h67v91h-101c-112 0 -199 57 -199 167c0 125 85 172 197 172h79v101h-368z" />
    <glyph glyph-name="dvD_YA" horiz-adv-x="704" 
d="M298 117c115 0 205 60 205 208v327h-149v-124h-76c-6 0 -13 0 -19 -1l-5 -9v9c-47 -5 -90 -26 -90 -77c0 -54 51 -78 115 -78h61v-80h-63c-65 0 -113 -23 -113 -83s54 -92 134 -92zM-8 652v88h736v-88h-122v-652h-103v155c-38 -78 -116 -117 -228 -117
c-124 0 -216 57 -216 161c0 88 65 122 115 130v3c-51 8 -116 39 -116 117c0 93 85 120 157 120h39v83h-262z" />
    <glyph glyph-name="dvD_VA" horiz-adv-x="605" 
d="M-24 652v88h653v-88h-134v-189h-164c-97 0 -155 -41 -155 -121c0 -70 48 -116 125 -116c60 0 125 37 125 113h91v-562h-97v135c-30 -47 -82 -72 -146 -72c-114 0 -188 79 -188 186c0 71 35 127 86 157c-59 28 -99 85 -99 168c0 133 101 200 249 200h68v101h-414zM301 -81
c80 0 119 62 119 116v173c-27 -35 -72 -59 -132 -64c-64 -5 -107 -48 -107 -112c0 -70 50 -114 120 -113z" />
    <glyph glyph-name="dvDH_NA" horiz-adv-x="1255" 
d="M1288 652h-122v-652h-105v414h-174c26 -30 45 -71 45 -125c0 -118 -88 -186 -199 -186c-83 0 -153 38 -187 104c-40 -75 -120 -116 -229 -116c-129 0 -234 57 -234 177c0 88 63 135 120 145v3c-64 16 -127 68 -127 165c0 100 73 168 176 168c108 0 170 -68 170 -162
c0 -9 -1 -24 -2 -35h-79c1 12 1 18 1 23c0 48 -31 86 -87 86s-89 -40 -89 -91c0 -73 62 -111 145 -111h58v-85h-54c-82 0 -125 -38 -125 -95c0 -72 69 -100 146 -100c107 0 175 47 188 136c7 121 99 187 218 187h319v150h-529v88h756v-88zM735 192c65 0 112 46 112 111
c0 64 -47 111 -112 111c-68 0 -116 -46 -116 -112c0 -65 47 -110 116 -110z" />
    <glyph glyph-name="dvDH_N_YA" horiz-adv-x="1720" 
d="M1743 652h-122v-652h-105v200c-38 -56 -108 -97 -209 -97c-159 0 -253 107 -265 274h-159c26 -29 45 -71 45 -125c0 -118 -88 -187 -198 -187c-89 0 -163 44 -195 118c-41 -60 -115 -92 -218 -92c-129 0 -234 57 -234 177c0 88 63 135 120 145v3c-64 16 -127 68 -127 165
c0 100 73 168 176 168c108 0 170 -68 170 -162c0 -9 -1 -24 -2 -35h-79c1 12 1 18 1 23c0 48 -31 86 -87 86s-89 -40 -89 -91c0 -73 62 -111 145 -111h58v-85h-54c-82 0 -125 -38 -125 -95c0 -72 69 -100 146 -100c102 0 163 37 185 108c11 114 102 177 217 177h319
c113 0 171 33 171 126v62h-702v88h1217v-88zM731 154c66 0 113 46 113 111s-47 111 -113 111c-68 0 -116 -46 -116 -112c0 -64 47 -110 116 -110zM1329 191c109 0 187 74 187 180v281h-185v-80c0 -113 -69 -177 -189 -187c7 -116 74 -194 187 -194z" />
    <glyph glyph-name="dvDH_MA" horiz-adv-x="1273" 
d="M1297 652h-122v-652h-106v371h-167v-69c0 -135 -68 -213 -191 -213c-77 0 -136 31 -168 83c-45 -51 -123 -81 -228 -81c-132 0 -232 57 -232 177c0 88 63 135 120 145v3c-64 16 -127 68 -127 165c0 100 73 168 176 168c108 0 170 -68 170 -162c0 -9 -1 -24 -2 -35h-79
c1 12 1 18 1 23c0 48 -31 86 -87 86s-89 -40 -89 -91c0 -73 62 -111 145 -111h58v-85h-54c-82 0 -125 -38 -125 -95c0 -72 69 -100 143 -100c110 0 171 48 183 113l1 4c10 106 95 161 202 161h85v195h-272v88h765v-88zM709 178c61 0 95 45 95 119v74h-83
c-63 0 -107 -36 -107 -97c0 -59 40 -96 95 -96zM1069 457v195h-167v-195h167z" />
    <glyph glyph-name="dvDH_YA" horiz-adv-x="1194" 
d="M324 91c-136 0 -241 57 -241 177c0 88 63 135 120 145v3c-64 16 -127 68 -127 165c0 100 73 168 176 168c108 0 170 -68 170 -162c0 -9 -1 -24 -2 -35h-79c1 12 1 18 1 23c0 48 -31 86 -87 86s-89 -40 -89 -91c0 -73 62 -111 145 -111h58v-85h-54
c-82 0 -125 -38 -125 -95c0 -72 69 -100 143 -100c121 0 185 84 183 203v0v3c0 16 1 34 3 51h13c113 0 170 44 170 154v62h-170v88h686v-88h-122v-652h-105v200c-38 -56 -108 -97 -209 -97c-107 0 -185 44 -227 119c-43 -82 -123 -131 -231 -131zM804 191
c108 0 187 74 187 180v281h-185v-80c0 -122 -62 -186 -187 -193v-4c0 -111 68 -184 185 -184z" />
    <glyph glyph-name="dvDH_VA" horiz-adv-x="1102" 
d="M1035 652v-652h-103v181c-33 -57 -94 -95 -179 -95c-99 0 -174 50 -208 131c-37 -77 -108 -126 -228 -126c-134 0 -234 57 -234 177c0 88 63 135 120 145v3c-64 16 -127 68 -127 165c0 100 73 168 176 168c108 0 170 -68 170 -162c0 -9 -1 -24 -2 -35h-79c1 12 1 18 1 23
c0 48 -31 86 -87 86s-89 -40 -89 -91c0 -73 62 -111 145 -111h58v-85h-54c-82 0 -125 -38 -125 -95c0 -72 69 -100 146 -100c102 0 173 50 189 158c6 129 97 218 228 218c86 0 146 -38 179 -94v191h-400v88h624v-88h-121zM780 170c105 0 152 80 152 149v1
c0 73 -47 150 -152 150c-85 0 -152 -58 -152 -149c0 -93 65 -151 152 -151z" />
    <glyph glyph-name="dvN_KA" horiz-adv-x="1494" 
d="M270 192c66 0 113 46 113 111c0 64 -47 111 -113 111c-68 0 -116 -46 -116 -112c0 -65 47 -110 116 -110zM818 176c95 0 139 77 139 143c0 69 -43 142 -139 142c-77 0 -139 -54 -139 -141c0 -90 59 -144 139 -144zM957 0v183c-29 -55 -87 -95 -173 -95
c-126 0 -211 92 -211 233c0 34 5 65 15 93h-166c26 -30 45 -71 45 -125c0 -118 -88 -186 -199 -186c-116 0 -209 76 -209 199c0 129 96 200 218 200h370c37 31 85 49 141 49c84 0 140 -39 169 -92v193h-981v88h1541v-88h-459v-195c28 55 82 94 164 94
c124 0 207 -96 207 -228c0 -145 -89 -229 -208 -229c-23 0 -44 2 -64 7v83c11 -3 25 -4 37 -4c73 0 129 51 129 141c0 84 -57 140 -132 140c-94 0 -133 -76 -133 -149v-312h-101z" />
    <glyph glyph-name="dvN_K_SA" horiz-adv-x="2057" 
d="M270 192c66 0 113 46 113 111c0 64 -47 111 -113 111c-68 0 -116 -46 -116 -112c0 -65 47 -110 116 -110zM818 176c95 0 139 77 139 143c0 69 -43 142 -139 142c-77 0 -139 -54 -139 -141c0 -90 59 -144 139 -144zM1399 411c113 0 163 63 163 157v84h-504v-198
c27 51 79 88 159 88c92 0 154 -54 178 -131h4zM1666 568c0 -62 -18 -111 -48 -147h236v231h-188v-84zM1718 188c0 -120 -75 -197 -200 -197c-137 0 -206 93 -206 217v124c0 73 -51 129 -126 129c-94 0 -128 -76 -128 -149v-312h-101v183c-29 -55 -87 -95 -173 -95
c-126 0 -211 92 -211 233c0 34 5 65 15 93h-166c26 -30 45 -71 45 -125c0 -118 -88 -186 -199 -186c-116 0 -209 76 -209 199c0 129 96 200 218 200h370c37 31 85 49 141 49c84 0 140 -39 169 -92v193h-981v88h2105v-88h-123v-652h-104v335h-439v-132
c0 -70 32 -122 101 -122c64 0 100 46 100 112v12h101c1 -7 1 -14 1 -17z" />
    <glyph glyph-name="dvN_CA" horiz-adv-x="1191" 
d="M1215 652h-122v-652h-105v191c-38 -60 -105 -96 -187 -96c-121 0 -210 68 -210 188c0 60 27 110 75 141h-248c28 -30 49 -73 49 -129c0 -118 -88 -187 -199 -187c-116 0 -209 76 -209 199c0 129 96 200 218 200h589v-83h-37c-87 0 -139 -53 -139 -123
c0 -77 63 -119 138 -119c100 0 160 76 160 173v297h-1012v88h1239v-88zM270 197c66 0 113 47 113 111c0 65 -47 111 -113 111c-68 0 -116 -45 -116 -112c0 -64 47 -110 116 -110z" />
    <glyph glyph-name="dvN_CHA" horiz-adv-x="1339" 
d="M270 192c66 0 113 46 113 111c0 64 -47 111 -113 111c-68 0 -116 -46 -116 -112c0 -65 47 -110 116 -110zM920 115c168 0 280 83 280 226c0 84 -46 128 -97 128c-44 0 -92 -30 -92 -105c0 -27 6 -58 15 -88h-87c-10 30 -16 64 -16 99c0 102 60 153 133 167v110h-341v-87
c0 -70 33 -110 116 -110h22v-85h-20c-96 0 -137 -52 -137 -115c0 -91 81 -140 224 -140zM918 25c-186 0 -318 69 -327 205c-29 93 -89 160 -164 179c23 -30 40 -70 40 -120c0 -118 -88 -186 -199 -186c-116 0 -209 76 -209 199c0 129 96 200 218 200h56
c124 0 230 -50 285 -158c23 35 60 58 102 68v3c-60 11 -110 52 -110 144v93h-634v88h1387v-88h-210v-111c81 -19 140 -88 140 -204c0 -193 -147 -312 -375 -312z" />
    <glyph glyph-name="dvN_TTA" horiz-adv-x="1148" 
d="M270 192c66 0 113 46 113 111c0 64 -47 111 -113 111c-68 0 -116 -46 -116 -112c0 -65 47 -110 116 -110zM840 36c-160 0 -275 102 -275 253c0 48 10 90 28 125h-171c26 -30 45 -71 45 -125c0 -118 -88 -186 -199 -186c-116 0 -209 76 -209 199c0 129 96 200 218 200h397
c47 30 109 46 180 46h15v104h-893v88h1197v-88h-201v-193h-112c-106 0 -190 -55 -190 -170c0 -95 69 -162 168 -162c102 0 170 70 170 170h100c0 -156 -106 -261 -268 -261z" />
    <glyph glyph-name="dvN_DDA" horiz-adv-x="1064" 
d="M270 192c66 0 113 46 113 111c0 64 -47 111 -113 111c-68 0 -116 -46 -116 -112c0 -65 47 -110 116 -110zM805 -16c-148 0 -245 75 -248 193h104c1 -67 52 -113 141 -113c79 0 119 39 119 92c0 72 -59 95 -125 95h-39c-82 0 -185 30 -185 150v13h-150
c26 -30 45 -71 45 -125c0 -118 -88 -186 -199 -186c-116 0 -209 76 -209 199c0 129 96 200 218 200h337c35 30 86 43 139 43h102v107h-879v88h1111v-88h-131v-182h-174c-49 0 -105 -13 -105 -72c0 -54 44 -72 93 -72h45c101 0 205 -42 205 -171c0 -101 -74 -171 -215 -171z
" />
    <glyph glyph-name="dvN_TA" horiz-adv-x="1205" 
d="M270 186c66 0 113 46 113 111s-47 111 -113 111c-68 0 -116 -46 -116 -112c0 -64 47 -110 116 -110zM1107 0h-105v406h-140c-111 0 -184 -53 -184 -160c0 -100 58 -161 169 -161h21v-83h-36c-151 0 -260 79 -260 246c0 69 19 122 53 161h-204c27 -29 46 -71 46 -125
c0 -118 -88 -187 -199 -187c-116 0 -209 76 -209 199c0 129 96 200 218 200h725v156h-1026v88h1253v-88h-122v-652z" />
    <glyph glyph-name="dvN_T_YA" horiz-adv-x="1638" 
d="M270 203c66 0 113 45 113 111c0 64 -47 110 -113 110c-68 0 -116 -45 -116 -111c0 -65 47 -110 116 -110zM1247 191c109 0 188 74 188 180v281h-186v-80c0 -123 -71 -190 -186 -197v-11c0 -104 67 -173 184 -173zM1539 0h-104v200c-38 -56 -108 -97 -209 -97
c-165 0 -260 100 -267 255c-11 29 -39 64 -124 64c-99 0 -156 -54 -156 -160c0 -100 58 -161 169 -161h21v-83h-36c-151 0 -260 80 -260 247c0 68 17 121 47 160h-198c26 -29 45 -71 45 -125c0 -118 -88 -186 -199 -186c-116 0 -209 76 -209 198c0 130 96 200 218 200h554v0
c99 0 156 -33 188 -73c84 10 127 56 127 151v62h-1170v88h1685v-88h-122v-652z" />
    <glyph glyph-name="dvN_T_RA" horiz-adv-x="1168" 
d="M270 132c66 0 113 46 113 111s-47 111 -113 111c-68 0 -116 -46 -116 -112c0 -64 47 -110 116 -110zM969 0v243l-246 -243h-136v5l376 347c-27 53 -85 92 -159 92c-60 0 -117 -27 -145 -89h-238c27 -29 46 -71 46 -125c0 -112 -87 -187 -200 -187
c-117 0 -208 75 -208 195c0 128 96 202 218 202h315c43 55 108 87 186 87c93 0 155 -44 190 -90v215h-992v88h1216v-88h-121v-652h-102z" />
    <glyph glyph-name="dvN_T_SA" horiz-adv-x="1740" 
d="M270 188c66 0 113 46 113 112c0 64 -47 110 -113 110c-68 0 -116 -45 -116 -112c0 -64 47 -110 116 -110zM1349 557c0 -62 -18 -111 -48 -147h235v242h-187v-95zM1400 188c0 -120 -75 -197 -200 -197c-136 0 -206 93 -206 217v86c0 45 -37 112 -148 112
c-104 0 -168 -53 -168 -160c0 -100 58 -161 169 -161h21v-83h-36c-151 0 -260 79 -260 246c0 69 19 123 51 163h-201c26 -29 45 -71 45 -125c0 -118 -88 -186 -199 -186c-116 0 -209 75 -209 198c0 129 96 200 218 200h558v0h5c111 0 181 -41 216 -98h26
c112 0 163 63 163 157v95h-1269v88h1787v-88h-122v-652h-105v324h-438v-121c0 -70 32 -122 101 -122c63 0 100 46 100 112v12h101v-17z" />
    <glyph glyph-name="dvN_THA" horiz-adv-x="1278" 
d="M270 130c66 0 113 46 113 111s-47 111 -113 111c-68 0 -116 -46 -116 -112c0 -64 47 -110 116 -110zM1075 0v217c-28 -61 -103 -123 -224 -123c-160 0 -264 99 -275 259h-155c27 -29 46 -71 46 -125c0 -118 -88 -187 -199 -187c-116 0 -209 76 -209 198
c0 130 96 200 218 200h397c103 0 200 25 200 129c0 51 -35 91 -94 91c-61 0 -98 -40 -98 -102c0 -14 2 -28 5 -41h-95c-3 14 -4 31 -4 44c0 35 7 66 20 92h-632v88h740c20 6 42 9 65 9c116 0 192 -75 192 -184c0 -133 -102 -202 -260 -202h-36c1 -104 61 -181 189 -181
c114 0 209 75 209 208v350h226v-88h-121v-652h-105z" />
    <glyph glyph-name="dvN_TH_YA" horiz-adv-x="1750" 
d="M270 119c66 0 113 46 113 111s-47 111 -113 111c-68 0 -116 -46 -116 -112c0 -64 47 -110 116 -110zM1360 191c109 0 187 74 187 180v281h-185v-80c0 -122 -63 -187 -187 -193v-4c0 -111 67 -184 185 -184zM866 94c-170 0 -277 92 -289 247h-155c26 -29 45 -71 45 -124
c0 -118 -88 -187 -199 -187c-116 0 -209 76 -209 198c0 130 96 200 218 200h398c102 0 200 26 200 133c0 55 -35 98 -94 98c-61 0 -98 -40 -98 -102c0 -14 2 -28 4 -41h-95c-2 14 -4 31 -4 44c0 35 7 66 20 92h-632v88h741c20 6 42 9 65 9c115 0 191 -78 191 -191
c0 -136 -102 -206 -259 -206h-37c3 -97 61 -170 187 -170c127 0 208 82 208 217v0c0 12 1 25 1 37h15c113 0 171 44 171 154v62h-184v88h699v-88h-122v-652h-105v200c-38 -56 -108 -97 -209 -97c-111 0 -190 47 -232 128c-46 -87 -133 -137 -240 -137z" />
    <glyph glyph-name="dvN_TH_VA" horiz-adv-x="1676" 
d="M270 119c66 0 113 46 113 111s-47 111 -113 111c-68 0 -116 -46 -116 -112c0 -64 47 -110 116 -110zM1578 652v-652h-103v180c-33 -57 -94 -94 -179 -94c-95 0 -167 46 -202 121c-48 -72 -128 -113 -227 -113c-172 0 -279 92 -291 247h-154c26 -29 45 -71 45 -124
c0 -118 -88 -187 -199 -187c-116 0 -209 76 -209 198c0 130 96 200 218 200h397c102 0 200 26 200 133c0 55 -35 98 -94 98c-61 0 -98 -40 -98 -102c0 -14 2 -28 4 -41h-95c-2 14 -4 31 -4 44c0 35 7 66 20 92h-631v88h740c20 6 42 9 65 9c115 0 191 -78 191 -191
c0 -136 -102 -206 -259 -206h-37c3 -97 65 -170 198 -170c103 0 172 58 195 156c6 129 97 217 227 217c85 0 146 -37 179 -93v190h-406v88h631v-88h-122zM1323 170c105 0 152 80 152 149v1c0 73 -47 150 -152 150c-85 0 -151 -58 -151 -149c0 -93 64 -151 151 -151z" />
    <glyph glyph-name="dvN_DA" horiz-adv-x="1110" 
d="M270 192c66 0 113 46 113 111c0 64 -47 111 -113 111c-68 0 -116 -46 -116 -112c0 -65 47 -110 116 -110zM1036 -21h-103v179c-29 -43 -84 -69 -150 -69c-123 0 -218 80 -218 227c0 37 7 70 19 98h-162c26 -30 45 -71 45 -125c0 -118 -88 -186 -199 -186
c-116 0 -209 76 -209 199c0 129 96 200 218 200h378c47 33 108 49 176 49h62v101h-917v88h1158l-1 -88h-135v-191h-157c-95 0 -169 -51 -169 -148c0 -85 54 -140 140 -140c61 0 127 38 127 123h97v-317z" />
    <glyph glyph-name="dvN_D_RA" horiz-adv-x="1109" 
d="M270 192c66 0 113 46 113 111c0 64 -47 111 -113 111c-68 0 -116 -46 -116 -112c0 -65 47 -110 116 -110zM914 137l-193 -199h-114l155 156c-113 8 -197 86 -197 222c0 37 7 70 19 98h-162c26 -30 45 -71 45 -125c0 -118 -88 -186 -199 -186c-116 0 -209 76 -209 199
c0 129 96 200 218 200h378c47 33 108 49 176 49h62v101h-917v88h1157v-88h-135v-191h-157c-95 0 -169 -51 -169 -148c0 -85 54 -140 140 -140c61 0 127 38 127 123h97v-317h-103v180c-6 -8 -12 -15 -20 -22h1z" />
    <glyph glyph-name="dvN_D_VA" horiz-adv-x="1098" 
d="M270 192c66 0 113 46 113 111c0 64 -47 111 -113 111c-68 0 -116 -46 -116 -112c0 -65 47 -110 116 -110zM794 -81c80 0 119 62 119 116v173c-27 -35 -72 -59 -132 -64c-64 -5 -107 -48 -107 -112c0 -70 50 -114 120 -113zM1010 -223h-97v135c-30 -47 -82 -72 -146 -72
c-114 0 -188 79 -188 186c0 71 35 127 86 157c-59 28 -99 85 -99 168c0 23 3 44 9 63h-153c26 -30 45 -71 45 -125c0 -118 -88 -186 -199 -186c-116 0 -209 76 -209 199c0 129 96 200 218 200h360c43 33 105 49 178 49h68v101h-907v88h1146v-88h-134v-189h-164
c-97 0 -155 -41 -155 -121c0 -70 48 -116 125 -116c60 0 125 37 125 113h91v-562z" />
    <glyph glyph-name="dvN_DHA" horiz-adv-x="1221" 
d="M802 92c-122 0 -220 60 -220 176v1c-20 75 -77 124 -155 139c23 -29 40 -69 40 -119c0 -118 -88 -186 -199 -186c-116 0 -209 76 -209 199c0 129 96 200 218 200h56c135 0 236 -49 283 -137c24 27 56 43 87 48v3c-65 16 -127 68 -127 165c0 26 5 50 14 71h-614v88h714
c18 6 39 9 61 9c108 0 170 -68 170 -162c0 -9 -1 -24 -2 -35h-79c1 12 1 18 1 23c0 48 -31 86 -86 86c-56 0 -89 -40 -89 -91c0 -73 61 -111 144 -111h58v-85h-53c-83 0 -126 -38 -126 -95c0 -68 60 -100 138 -100c112 0 193 79 193 195v366h225v-88h-120v-652h-105v203
c-41 -69 -117 -111 -218 -111zM270 192c66 0 113 46 113 111c0 64 -47 111 -113 111c-68 0 -116 -46 -116 -112c0 -65 47 -110 116 -110z" />
    <glyph glyph-name="dvN_DH_YA" horiz-adv-x="1693" 
d="M270 192c66 0 113 46 113 111c0 64 -47 111 -113 111c-68 0 -116 -46 -116 -112c0 -65 47 -110 116 -110zM1303 191c108 0 187 74 187 180v281h-185v-80c0 -122 -62 -186 -187 -193v-4c0 -111 68 -184 185 -184zM823 91c-136 0 -241 57 -241 177v1
c-20 75 -77 124 -155 139c23 -29 40 -69 40 -119c0 -118 -88 -186 -199 -186c-116 0 -209 76 -209 199c0 129 96 200 218 200h56c135 0 236 -49 283 -137c24 27 56 43 86 48v3c-64 16 -127 68 -127 165c0 26 5 50 14 71h-613v88h713c19 6 40 9 62 9c108 0 170 -68 170 -162
c0 -9 -1 -24 -2 -35h-79c1 12 1 18 1 23c0 48 -31 86 -87 86s-89 -40 -89 -91c0 -73 62 -111 145 -111h58v-85h-54c-82 0 -125 -38 -125 -95c0 -72 69 -100 143 -100c121 0 185 84 183 203v0v3c0 16 1 34 3 51h13c113 0 170 44 170 154v62h-170v88h686v-88h-122v-652h-105
v200c-38 -56 -108 -97 -209 -97c-107 0 -185 44 -227 119c-43 -82 -123 -131 -231 -131z" />
    <glyph glyph-name="dvN_DH_RA" horiz-adv-x="1221" 
d="M270 192c66 0 113 46 113 111c0 64 -47 111 -113 111c-68 0 -116 -46 -116 -112c0 -65 47 -110 116 -110zM802 94c-122 0 -220 59 -220 174v1c-20 75 -77 124 -155 139c23 -29 40 -69 40 -119c0 -118 -88 -186 -199 -186c-116 0 -209 76 -209 199c0 129 96 200 218 200
h56c135 0 236 -49 283 -137c24 27 56 43 86 48v3c-64 16 -127 68 -127 165c0 26 5 50 14 71h-613v88h713c19 6 40 9 62 9c108 0 170 -68 170 -162c0 -9 -1 -24 -2 -35h-79c1 12 1 18 1 23c0 48 -31 86 -87 86s-89 -40 -89 -91c0 -73 62 -111 145 -111h58v-85h-54
c-82 0 -125 -38 -125 -95c0 -68 59 -100 138 -100c112 0 193 79 193 195v366h225v-88h-120v-652h-105v204c-9 -15 -19 -28 -31 -40h1l-218 -230h-115l160 160h-15z" />
    <glyph glyph-name="dvN_DH_VA" horiz-adv-x="1582" 
d="M270 192c66 0 113 46 113 111c0 64 -47 111 -113 111c-68 0 -116 -46 -116 -112c0 -65 47 -110 116 -110zM1534 0h-103v181c-33 -57 -94 -95 -179 -95c-99 0 -174 50 -208 131c-37 -77 -108 -126 -228 -126c-134 0 -234 57 -234 177v1c-20 75 -77 124 -155 139
c23 -29 40 -69 40 -119c0 -118 -88 -186 -199 -186c-116 0 -209 76 -209 199c0 129 96 200 218 200h56c135 0 236 -49 283 -137c24 27 56 43 86 48v3c-64 16 -127 68 -127 165c0 26 5 50 14 71h-613v88h713c19 6 40 9 62 9c108 0 170 -68 170 -162c0 -9 -1 -24 -2 -35h-79
c1 12 1 18 1 23c0 48 -31 86 -87 86s-89 -40 -89 -91c0 -73 62 -111 145 -111h58v-85h-54c-82 0 -125 -38 -125 -95c0 -72 69 -100 146 -100c102 0 173 50 189 158c6 129 97 218 228 218c86 0 146 -38 179 -94v191h-400v88h624v-88h-121v-652zM1279 170
c105 0 152 80 152 149v1c0 73 -47 150 -152 150c-85 0 -152 -58 -152 -149c0 -93 65 -151 152 -151z" />
    <glyph glyph-name="dvN_NA" horiz-adv-x="1314" 
d="M270 192c66 0 113 46 113 111c0 64 -47 111 -113 111c-68 0 -116 -46 -116 -112c0 -65 47 -110 116 -110zM785 192c66 0 113 46 113 111c0 64 -47 111 -113 111c-68 0 -116 -46 -116 -112c0 -65 47 -110 116 -110zM1216 0h-105v414h-174c26 -30 45 -71 45 -125
c0 -118 -88 -186 -199 -186c-116 0 -209 76 -209 199c0 44 11 82 31 112h-183c26 -30 45 -71 45 -125c0 -118 -88 -186 -199 -186c-116 0 -209 76 -209 199c0 129 96 200 218 200h834v150h-1135v88h1362v-88h-122v-652z" />
    <glyph glyph-name="dvN_N_YA" horiz-adv-x="1773" 
d="M270 154c66 0 113 46 113 111s-47 111 -113 111c-68 0 -116 -46 -116 -112c0 -64 47 -110 116 -110zM785 154c66 0 113 46 113 111s-47 111 -113 111c-68 0 -116 -46 -116 -112c0 -64 47 -110 116 -110zM1383 191c109 0 187 74 187 180v281h-185v-80
c0 -113 -69 -177 -189 -187c7 -116 74 -194 187 -194zM1675 0h-105v200c-38 -56 -108 -97 -209 -97c-159 0 -253 107 -265 274h-160c27 -29 46 -71 46 -125c0 -118 -88 -187 -199 -187c-116 0 -209 76 -209 199c0 45 12 83 32 113h-185c27 -29 46 -71 46 -125
c0 -118 -88 -187 -199 -187c-116 0 -209 76 -209 199c0 129 96 200 218 200h834c113 0 170 33 170 126v62h-1305v88h1821v-88h-122v-652z" />
    <glyph glyph-name="dvN_PA" horiz-adv-x="1156" 
d="M270 192c66 0 113 46 113 111c0 64 -47 111 -113 111c-68 0 -116 -46 -116 -112c0 -65 47 -110 116 -110zM817 275c88 0 136 66 136 144v233h-274v-215c0 -98 42 -162 138 -162zM1057 0h-104v262c-32 -47 -87 -76 -162 -76c-137 0 -209 92 -216 228h-153
c26 -30 45 -71 45 -125c0 -118 -88 -186 -199 -186c-116 0 -209 76 -209 199c0 129 96 200 218 200h297v150h-598v88h1203v-88h-122v-652z" />
    <glyph glyph-name="dvN_P_RA" horiz-adv-x="1156" 
d="M270 192c66 0 113 46 113 111c0 64 -47 111 -113 111c-68 0 -116 -46 -116 -112c0 -65 47 -110 116 -110zM817 275c88 0 136 66 136 144v233h-274v-215c0 -98 42 -162 138 -162zM953 0v265c-7 -10 -16 -20 -26 -28l-230 -253h-115l200 207c-131 4 -200 92 -207 223h-153
c26 -30 45 -71 45 -125c0 -118 -88 -186 -199 -186c-116 0 -209 76 -209 199c0 129 96 200 218 200h297v150h-598v88h1203v-88h-122v-652h-104z" />
    <glyph glyph-name="dvN_PHA" horiz-adv-x="1480" 
d="M270 192c66 0 113 46 113 111c0 64 -47 111 -113 111c-68 0 -116 -46 -116 -112c0 -65 47 -110 116 -110zM808 275c83 0 127 64 127 139v238h-255v-220c0 -95 40 -157 128 -157zM1040 0h-105v260c-31 -46 -82 -74 -152 -74c-132 0 -202 92 -208 228h-153
c26 -30 45 -71 45 -125c0 -118 -88 -186 -199 -186c-116 0 -209 76 -209 199c0 129 96 200 218 200h298v150h-599v88h1528v-88h-464v-195c29 54 86 94 170 94c122 0 206 -94 206 -225c0 -147 -88 -232 -208 -232c-23 0 -48 3 -67 8v82c12 -3 27 -5 41 -5
c74 0 128 54 128 142c0 84 -56 140 -132 140c-97 0 -138 -79 -138 -160v-301z" />
    <glyph glyph-name="dvN_PH_RA" horiz-adv-x="1480" 
d="M270 192c66 0 113 46 113 111c0 64 -47 111 -113 111c-68 0 -116 -46 -116 -112c0 -65 47 -110 116 -110zM808 275c83 0 127 64 127 139v238h-255v-220c0 -95 40 -157 128 -157zM935 0v263c-7 -10 -15 -19 -24 -27l-223 -252h-115l196 207c-123 7 -188 95 -194 223h-153
c26 -30 45 -71 45 -125c0 -118 -88 -186 -199 -186c-116 0 -209 76 -209 199c0 129 96 200 218 200h298v150h-599v88h1528v-88h-464v-195c29 54 86 94 170 94c122 0 206 -94 206 -225c0 -147 -88 -232 -208 -232c-23 0 -48 3 -67 8v82c12 -3 27 -5 41 -5
c74 0 128 54 128 142c0 84 -56 140 -132 140c-97 0 -138 -79 -138 -160v-301h-105z" />
    <glyph glyph-name="dvN_BHA" horiz-adv-x="1300" 
d="M775 188c61 0 95 45 95 119v74h-82c-64 0 -108 -37 -108 -97c0 -59 41 -96 95 -96zM777 99c-117 0 -195 74 -195 185c0 38 9 70 24 96h-184c26 -29 45 -71 45 -125c0 -118 -88 -186 -199 -186c-116 0 -209 76 -209 198c0 130 96 200 218 200h593v79c0 68 -24 113 -82 113
c-47 0 -80 -35 -80 -93c0 -11 1 -23 4 -36h-105c-2 12 -4 27 -4 40c0 30 5 58 16 82h-643v88h744c19 6 41 9 65 9c133 0 183 -93 183 -221v-61h152v273h228v-88h-123v-652h-105v381h-152v-69c0 -135 -68 -213 -191 -213zM270 157c66 0 113 46 113 112c0 64 -47 110 -113 110
c-68 0 -116 -45 -116 -111c0 -65 47 -111 116 -111z" />
    <glyph glyph-name="dvN_BH_YA" horiz-adv-x="1765" 
d="M270 148c66 0 113 45 113 111c0 65 -47 110 -113 110c-68 0 -116 -45 -116 -111c0 -65 47 -110 116 -110zM776 178c60 0 94 45 94 119v74h-82c-64 0 -108 -36 -108 -97c0 -59 41 -96 96 -96zM777 89c-117 0 -195 74 -195 185c0 38 9 70 24 96h-184c26 -29 45 -71 45 -125
c0 -117 -88 -186 -199 -186c-116 0 -209 76 -209 198c0 130 96 200 218 200h593v89c0 68 -24 113 -81 113c-48 0 -81 -35 -81 -93c0 -11 1 -23 4 -36h-105c-2 12 -4 27 -4 40c0 30 5 58 16 82h-643v88h744c19 6 41 9 65 9c134 0 183 -93 183 -221v-71h157
c91 0 148 28 148 133v62h-191v88h707v-88h-123v-652h-104v200c-38 -56 -108 -97 -210 -97c-165 0 -261 105 -266 268h-118v-69c0 -135 -68 -213 -191 -213zM1375 191c108 0 187 74 187 180v281h-186v-80c0 -122 -62 -188 -186 -195v-2c0 -111 67 -184 185 -184z" />
    <glyph glyph-name="dvN_BH_VA" horiz-adv-x="1703" 
d="M270 148c66 0 113 45 113 111c0 65 -47 110 -113 110c-68 0 -116 -45 -116 -111c0 -65 47 -110 116 -110zM776 178c60 0 94 45 94 119v74h-82c-64 0 -108 -36 -108 -97c0 -59 41 -96 96 -96zM777 89c-117 0 -195 74 -195 185c0 38 9 70 24 96h-184c26 -29 45 -71 45 -125
c0 -117 -88 -186 -199 -186c-116 0 -209 76 -209 198c0 130 96 200 218 200h593v89c0 68 -24 113 -81 113c-48 0 -81 -35 -81 -93c0 -11 1 -23 4 -36h-105c-2 12 -4 27 -4 40c0 30 5 58 16 82h-643v88h744c19 6 41 9 65 9c134 0 183 -93 183 -221v-71h164
c39 61 107 98 192 98s146 -38 179 -94v191h-418v88h642v-88h-121v-652h-103v181c-33 -57 -94 -95 -179 -95c-138 0 -228 96 -228 238c0 16 1 32 4 47h-132v-69c0 -135 -68 -213 -191 -213zM1350 170c106 0 153 80 153 149v1c0 73 -47 150 -153 150c-85 0 -151 -58 -151 -149
c0 -93 64 -151 151 -151z" />
    <glyph glyph-name="dvN_MA" horiz-adv-x="1339" 
d="M775 188c61 0 94 45 94 119v74h-82c-63 0 -108 -37 -108 -97c0 -59 41 -96 96 -96zM270 157c66 0 113 46 113 112c0 64 -47 110 -113 110c-68 0 -116 -45 -116 -111c0 -65 47 -111 116 -111zM1135 467v185h-167v-185h167zM1241 0h-106v381h-167v-69
c0 -135 -68 -213 -191 -213c-118 0 -196 74 -196 185c0 38 9 70 24 96h-183c26 -29 45 -71 45 -125c0 -118 -88 -186 -199 -186c-116 0 -209 76 -209 198c0 130 96 200 218 200h592v185h-893v88h1386v-88h-121v-652z" />
    <glyph glyph-name="dvN_M_YA" horiz-adv-x="1797" 
d="M270 144c66 0 113 46 113 111s-47 111 -113 111c-68 0 -116 -46 -116 -112c0 -64 47 -110 116 -110zM775 175c60 0 95 45 95 119v73h-83c-63 0 -108 -36 -108 -96s41 -96 96 -96zM1157 454c92 0 147 36 147 136v62h-336v-198h189zM1406 191c108 0 187 74 187 180v281
h-185v-80c0 -121 -71 -186 -187 -193v-4c0 -111 67 -184 185 -184zM1698 0h-105v200c-38 -56 -108 -97 -209 -97c-165 0 -259 103 -266 264h-150v-68c0 -136 -68 -214 -192 -214c-117 0 -194 74 -194 185c0 39 9 71 25 98h-187c27 -30 47 -72 47 -127
c0 -117 -88 -186 -199 -186c-116 0 -209 76 -209 199c0 129 96 200 218 200h593v198h-894v88h1844v-88h-122v-652z" />
    <glyph glyph-name="dvN_YA" horiz-adv-x="1258" 
d="M270 154c66 0 113 46 113 111s-47 111 -113 111c-68 0 -116 -46 -116 -112c0 -64 47 -110 116 -110zM868 191c109 0 187 74 187 180v281h-185v-80c0 -113 -69 -177 -189 -187c7 -116 74 -194 187 -194zM1160 0h-105v200c-38 -56 -108 -97 -209 -97
c-159 0 -253 107 -265 274h-160c27 -29 46 -71 46 -125c0 -118 -88 -187 -199 -187c-116 0 -209 76 -209 199c0 129 96 200 218 200h319c113 0 170 33 170 126v62h-790v88h1306v-88h-122v-652z" />
    <glyph glyph-name="dvN_VA" horiz-adv-x="1174" 
d="M270 192c66 0 113 46 113 111c0 64 -47 111 -113 111c-68 0 -116 -46 -116 -112c0 -65 47 -110 116 -110zM833 170c105 0 153 80 153 149v1c0 73 -48 150 -153 150c-85 0 -151 -58 -151 -149c0 -93 64 -151 151 -151zM1210 652h-122v-652h-102v181
c-33 -57 -94 -95 -180 -95c-137 0 -227 96 -227 238c0 33 5 63 15 90h-172c26 -30 45 -71 45 -125c0 -118 -88 -186 -199 -186c-116 0 -209 76 -209 199c0 129 96 200 218 200h377c39 34 91 53 152 53c86 0 147 -38 180 -94v191h-1010v88h1234v-88z" />
    </font>
</defs>
</svg>
