<?xml version="1.0" standalone="no"?>
<!DOCTYPE svg PUBLIC "-//W3C//DTD SVG 1.1//EN" "http://www.w3.org/Graphics/SVG/1.1/DTD/svg11.dtd" >
<svg xmlns="http://www.w3.org/2000/svg" xmlns:xlink="http://www.w3.org/1999/xlink" version="1.1">
<metadata>
Created by FontForge 20170910 at Fri Dec 22 02:55:37 2017
 By Jimmy Wärting
Copyright 2014-2017 Indian Type Foundry (info@indiantypefoundry.com)
</metadata>
<defs>
<font id="Poppins-ThinItalic" horiz-adv-x="271" >
  <font-face 
    font-family="Poppins Thin"
    font-weight="250"
    font-style="italic"
    font-stretch="normal"
    units-per-em="1000"
    panose-1="0 0 3 0 0 0 0 0 0 0"
    ascent="800"
    descent="-200"
    x-height="540"
    cap-height="704"
    bbox="-491.461 -543 2707 1026"
    underline-thickness="50"
    underline-position="-100"
    slope="-10"
    unicode-range="U+000D-FB02"
  />
<missing-glyph horiz-adv-x="500" 
d="M0 0v700h500v-700h-500zM250 395l170 255h-340zM280 350l170 -255v510zM80 50h340l-170 255zM50 605v-510l170 255z" />
    <glyph glyph-name=".notdef" horiz-adv-x="500" 
d="M0 0v700h500v-700h-500zM250 395l170 255h-340zM280 350l170 -255v510zM80 50h340l-170 255zM50 605v-510l170 255z" />
    <glyph glyph-name="NULL" horiz-adv-x="0" 
 />
    <glyph glyph-name="NULL" horiz-adv-x="0" 
 />
    <glyph glyph-name="CR" unicode="&#xd;" horiz-adv-x="290" 
 />
    <glyph glyph-name="space" unicode=" " horiz-adv-x="290" 
 />
    <glyph glyph-name="dvA" unicode="&#x905;" horiz-adv-x="816" 
d="M303 424c119 0 183 80 195 148c18 103 -50 161 -143 161c-99 0 -191 -58 -207 -156h-17c19 109 117 172 227 172c106 0 176 -67 158 -173c-14 -79 -69 -143 -165 -159v-1c19 -2 36 -7 51 -15h276l60 339h178l-2 -16h-162l-128 -724h-17l68 385l-250 1
c40 -33 55 -89 45 -148c-20 -114 -112 -190 -232 -190c-119 0 -196 79 -175 196h17c-19 -107 50 -180 160 -180c111 0 195 71 213 174c14 78 -18 170 -153 170h-34l3 16h34z" />
    <glyph glyph-name="dvAA" unicode="&#x906;" horiz-adv-x="1087" 
d="M303 424c119 0 183 80 195 148c18 103 -50 161 -143 161c-99 0 -191 -58 -207 -156h-17c19 109 117 172 227 172c106 0 176 -67 158 -173c-14 -79 -69 -143 -165 -159v-1c19 -2 36 -7 51 -15h276l60 339h449l-3 -16h-162l-127 -724h-17l127 724h-253l-128 -724h-17
l68 385l-250 1c40 -33 55 -89 45 -148c-20 -114 -112 -190 -232 -190c-119 0 -196 79 -175 196h17c-19 -107 50 -180 160 -180c111 0 195 71 213 174c14 78 -18 170 -153 170h-34l3 16h34z" />
    <glyph glyph-name="dvI" unicode="&#x907;" horiz-adv-x="582" 
d="M19 724l2 16h682l-2 -16h-171l-29 -162v0l-3 -16h-169c-77 0 -176 -18 -193 -117c-16 -86 52 -115 131 -115h45c100 0 198 -38 175 -164c-15 -85 -83 -159 -212 -159c-143 0 -186 90 -189 129l-33 -190h-16l44 254h15c-6 -99 52 -177 182 -177c114 0 179 68 192 143
c21 118 -73 148 -162 148h-45c-92 0 -160 40 -144 131c18 106 121 133 205 133h160l29 162h-494z" />
    <glyph glyph-name="dvII" unicode="&#x908;" horiz-adv-x="582" 
d="M86 120l-33 -190h-16l44 254h15c-6 -99 52 -177 182 -177c114 0 179 68 192 143c21 118 -73 148 -162 148h-45c-92 0 -160 40 -144 131c18 106 121 133 205 133h160l29 162h-494l2 16h494l15 83c20 114 81 171 168 171c81 0 121 -58 107 -136h-16c12 68 -23 120 -94 120
c-80 0 -132 -54 -149 -156l-14 -82h171l-2 -16h-171l-29 -162v0l-3 -16h-169c-77 0 -176 -18 -193 -117c-16 -86 52 -115 131 -115h45c100 0 198 -38 175 -164c-15 -85 -83 -159 -212 -159c-143 0 -186 90 -189 129z" />
    <glyph glyph-name="dvU" unicode="&#x909;" horiz-adv-x="584" 
d="M27 724l3 16h654l-3 -16h-152l-25 -142c-15 -84 -80 -146 -155 -157l-1 -1c100 -17 144 -107 127 -208c-22 -123 -117 -214 -250 -214c-132 0 -212 95 -191 215h17c-20 -112 58 -199 177 -199s209 83 230 198c16 90 -19 199 -166 199h-34l3 16h34c117 0 179 75 193 154
l24 139h-485z" />
    <glyph glyph-name="dvUU" unicode="&#x90a;" horiz-adv-x="876" 
d="M27 724l3 16h946l-3 -16h-444l-25 -142c-15 -84 -80 -146 -155 -157l-1 -1h233c120 0 221 -51 196 -197c-26 -145 -130 -192 -231 -192c-12 0 -24 1 -36 2l3 15c13 -1 25 -2 36 -2c95 0 187 45 211 177c24 136 -70 181 -181 181h-182c65 -34 92 -109 78 -192
c-22 -123 -117 -214 -250 -214c-132 0 -212 95 -191 215h17c-20 -112 58 -199 177 -199s209 83 230 198c16 90 -19 199 -166 199h-34l3 16h34c117 0 179 75 193 154l24 139h-485z" />
    <glyph glyph-name="dvvR" unicode="&#x90b;" horiz-adv-x="994" 
d="M453 0l66 377v0v0l-417 -377h-18l1 4l437 395c8 103 -54 181 -168 181c-126 0 -235 -86 -260 -228h-17c27 151 145 244 278 244c102 0 164 -54 179 -132l46 260h-553l3 16h1064l-3 -16h-494l-52 -298h209c70 0 104 32 116 77l17 95h17l-60 -341v0l-3 -16h-12
c-94 0 -157 -62 -170 -137c-17 -97 43 -134 118 -134c22 0 45 5 59 10l-3 -16c-12 -5 -38 -10 -59 -10c-83 0 -151 45 -132 150c15 84 85 153 185 153l35 198c-23 -28 -59 -45 -112 -45h-208l-72 -410h-17z" />
    <glyph glyph-name="dvvRR" unicode="&#x960;" horiz-adv-x="994" 
d="M452 0l67 378l-418 -378h-18l1 4l438 395c8 103 -55 181 -169 181c-126 0 -235 -86 -260 -228h-17c27 151 145 244 278 244c103 0 164 -54 180 -133l46 261h-553l3 16h1064l-3 -16h-494l-53 -298h209c78 0 111 40 120 94l8 48h1l5 30h17l-60 -341v0l-3 -16h-44
c-57 0 -118 -24 -131 -97c-12 -68 37 -95 104 -95h37l-3 -16h-44c-57 0 -118 -24 -131 -97c-12 -68 37 -95 104 -95c36 0 76 8 97 16l-3 -16c-20 -8 -59 -16 -97 -16c-75 0 -132 33 -118 111c11 61 56 95 100 104l1 2c-47 12 -74 46 -64 102c15 82 84 113 151 113h27l35 200
c-23 -29 -59 -47 -113 -47h-208l-72 -410h-17z" />
    <glyph glyph-name="dvvL" unicode="&#x90c;" horiz-adv-x="895" 
d="M27 724l3 16h965l-3 -16h-294l-29 -164c113 -6 155 -101 136 -219c-6 -36 -17 -70 -34 -100h-8c-94 0 -157 -62 -170 -137c-17 -97 43 -134 118 -134c22 0 45 5 59 10l-3 -16c-12 -5 -38 -10 -59 -10c-83 0 -151 45 -132 150c15 84 85 153 185 153c12 26 22 54 27 84
c20 111 -18 203 -129 203c-113 0 -196 -92 -215 -241l-1 -8h-17l1 8c18 146 -13 241 -120 241c-116 0 -190 -88 -210 -203c-22 -124 28 -220 166 -220c10 0 20 1 32 2l-3 -17c-12 -1 -23 -2 -34 -2c-147 0 -201 104 -178 237c22 126 101 219 226 219c112 0 145 -96 141 -173
h2c25 78 86 173 203 173l29 164h-654z" />
    <glyph glyph-name="dvvLL" unicode="&#x961;" horiz-adv-x="903" 
d="M35 724l3 16h965l-3 -16h-301l-29 -164c112 -6 154 -101 135 -219c-6 -36 -17 -70 -33 -100h-44c-57 0 -118 -24 -131 -97c-12 -68 37 -95 104 -95h37l-3 -16h-44c-57 0 -118 -24 -131 -97c-12 -68 37 -95 104 -95c36 0 76 8 97 16l-3 -16c-20 -8 -59 -16 -97 -16
c-75 0 -132 33 -118 112c11 60 57 94 100 103l1 2c-47 12 -74 46 -64 102c15 82 84 113 151 113h31c12 26 21 54 26 84c20 111 -18 203 -129 203c-113 0 -196 -92 -215 -241l-1 -8h-17l1 8c18 146 -13 241 -120 241c-116 0 -190 -88 -210 -203c-22 -124 28 -220 166 -220
c10 0 20 1 32 2l-3 -17c-12 -1 -23 -2 -34 -2c-147 0 -201 104 -178 237c22 126 101 219 226 219c112 0 145 -96 141 -173h2c25 78 86 173 204 173l29 164h-647z" />
    <glyph glyph-name="dvE" unicode="&#x90f;" horiz-adv-x="650" 
d="M26 724l3 16h721l-3 -16h-134l-26 -148c-26 -146 -87 -202 -214 -194l3 16c116 -8 170 44 194 178l26 148h-398l-79 -446c-28 -147 33 -243 180 -243c129 0 207 79 230 215h17c-24 -144 -109 -231 -250 -231c-160 0 -222 104 -194 259l79 446h-155z" />
    <glyph glyph-name="dvAI" unicode="&#x910;" horiz-adv-x="650" 
d="M296 19c-160 0 -222 104 -194 259l79 446h-155l3 16h568c-90 198 -132 208 -237 208h-32l3 16h32c111 0 157 -9 252 -224h135l-3 -16h-134l-26 -148c-26 -146 -87 -202 -214 -194l3 16c116 -8 170 44 194 178l26 148h-398l-79 -446c-28 -147 33 -243 180 -243
c129 0 207 79 230 215h17c-24 -144 -109 -231 -250 -231z" />
    <glyph glyph-name="dvO" unicode="&#x913;" horiz-adv-x="1087" 
d="M624 0h-17l68 385l-250 1c40 -33 55 -89 45 -148c-20 -114 -112 -190 -232 -190c-119 0 -196 79 -175 196h17c-19 -107 50 -180 160 -180c111 0 195 71 213 174c14 78 -18 170 -153 170h-34l3 16h34c119 0 183 80 195 148c18 103 -50 161 -143 161
c-99 0 -191 -58 -207 -156h-17c19 109 117 172 227 172c106 0 176 -67 158 -173c-14 -79 -69 -143 -165 -159v-1c19 -2 36 -7 51 -15h276l60 339h352c-91 198 -132 208 -237 208h-32l3 16h32c111 0 156 -9 252 -224h79l-3 -16h-162l-127 -724h-17l127 724h-253z" />
    <glyph glyph-name="dvAU" unicode="&#x914;" horiz-adv-x="1087" 
d="M624 0h-17l68 385l-250 1c40 -33 55 -89 45 -148c-20 -114 -112 -190 -232 -190c-119 0 -196 79 -175 196h17c-19 -107 50 -180 160 -180c111 0 195 71 213 174c14 78 -18 170 -153 170h-34l3 16h34c119 0 183 80 195 148c18 103 -50 161 -143 161
c-99 0 -191 -58 -207 -156h-17c19 109 117 172 227 172c106 0 176 -67 158 -173c-14 -79 -69 -143 -165 -159v-1c19 -2 36 -7 51 -15h276l60 339h355c-103 112 -148 118 -253 118h-32l3 16h32c103 0 150 -4 245 -110c-80 223 -121 234 -223 234h-32l2 16h32
c111 0 156 -11 244 -274h76l-3 -16h-162l-127 -724h-17l127 724h-253z" />
    <glyph glyph-name="dvEcandra" unicode="&#x90d;" horiz-adv-x="651" 
d="M391 854c-120 0 -157 81 -146 145h16c-10 -58 24 -129 133 -129c108 0 167 71 177 129h16c-11 -64 -77 -145 -196 -145zM3 724l3 16h721l-3 -16h-134l-26 -148c-26 -146 -87 -202 -214 -194l3 16c116 -8 170 44 194 178l26 148h-398l-79 -446c-28 -147 33 -243 180 -243
c129 0 207 79 230 215h17c-24 -144 -109 -231 -250 -231c-160 0 -222 104 -194 259l79 446h-155z" />
    <glyph glyph-name="dvAcandra" unicode="&#x972;" horiz-adv-x="816" 
d="M303 424c119 0 183 80 195 148c18 103 -50 161 -143 161c-99 0 -191 -58 -207 -156h-17c19 109 117 172 227 172c106 0 176 -67 158 -173c-14 -79 -69 -143 -165 -159v-1c19 -2 36 -7 51 -15h276l60 339h178l-2 -16h-162l-128 -724h-17l68 385l-250 1
c40 -33 55 -89 45 -148c-20 -114 -112 -190 -232 -190c-119 0 -196 79 -175 196h17c-19 -107 50 -180 160 -180c111 0 195 71 213 174c14 78 -18 170 -153 170h-34l3 16h34zM872 854c-120 0 -162 81 -150 145h16c-10 -58 23 -129 132 -129c108 0 168 71 178 129h16
c-12 -64 -73 -145 -192 -145z" />
    <glyph glyph-name="dvOcandra" unicode="&#x911;" horiz-adv-x="1087" 
d="M303 424c119 0 183 80 195 148c18 103 -50 161 -143 161c-99 0 -191 -58 -207 -156h-17c19 109 117 172 227 172c106 0 176 -67 158 -173c-14 -79 -69 -143 -165 -159v-1c19 -2 36 -7 51 -15h276l60 339h449l-3 -16h-162l-127 -724h-17l127 724h-253l-128 -724h-17
l68 385l-250 1c40 -33 55 -89 45 -148c-20 -114 -112 -190 -232 -190c-119 0 -196 79 -175 196h17c-19 -107 50 -180 160 -180c111 0 195 71 213 174c14 78 -18 170 -153 170h-34l3 16h34zM998 854c-120 0 -162 81 -150 145h16c-10 -58 23 -129 132 -129
c108 0 168 71 178 129h16c-12 -64 -73 -145 -192 -145z" />
    <glyph glyph-name="dvmAA" unicode="&#x93e;" 
d="M62 0l127 724h-162l3 16h341l-3 -16h-162l-127 -724h-17z" />
    <glyph glyph-name="dvmI" unicode="&#x93f;" 
d="M206 724l-128 -724h-17l128 724h-162l3 16h161l1 5c30 193 241 220 394 220c152 0 347 -42 316 -215l-3 -17h-17l3 17c29 163 -166 199 -302 199c-138 0 -346 -21 -374 -204l-1 -5h163l-3 -16h-162z" />
    <glyph glyph-name="dvmII" unicode="&#x940;" horiz-adv-x="270" 
d="M-81 734l10 52c18 96 70 179 176 179s130 -81 112 -179l-9 -46h162l-2 -16h-162l-128 -724h-17l128 724h-162l2 16h162l9 46c16 86 -2 163 -98 163s-139 -77 -156 -163l-10 -52h-17z" />
    <glyph glyph-name="dvmU" unicode="&#x941;" horiz-adv-x="0" 
d="M-297 -264c-114 0 -198 61 -169 189h16c-28 -120 49 -173 156 -173c96 0 171 47 186 134c10 57 -19 114 -87 114h-14l3 16h14c77 0 113 -66 101 -132c-17 -94 -94 -148 -206 -148z" />
    <glyph glyph-name="dvmUU" unicode="&#x942;" horiz-adv-x="0" 
d="M-261 -262c-78 0 -140 52 -125 135c14 87 87 143 188 143c126 0 218 -90 183 -257c-1 -4 -2 -9 -3 -13h-16l4 21c29 147 -51 233 -167 233c-94 0 -160 -53 -172 -128c-13 -70 35 -117 108 -117c10 0 23 1 35 3l-3 -17c-10 -2 -20 -3 -32 -3z" />
    <glyph glyph-name="dvmvR" unicode="&#x943;" horiz-adv-x="0" 
d="M-254 -287c-81 0 -154 59 -137 158c14 84 85 145 190 145h11l-2 -16h-12c-94 0 -158 -54 -170 -129c-15 -91 50 -142 123 -142c25 0 51 5 67 10l-3 -16c-14 -5 -43 -10 -67 -10z" />
    <glyph glyph-name="dvmvRR" unicode="&#x944;" horiz-adv-x="0" 
d="M-302 -416c-75 0 -133 39 -119 116c11 58 56 90 101 99v2c-47 12 -74 46 -64 102c15 82 84 113 151 113h43l-2 -16h-44c-57 0 -118 -24 -131 -97c-12 -68 37 -95 104 -95h37l-2 -16h-44c-57 0 -120 -23 -132 -92c-12 -67 38 -100 105 -100c36 0 75 8 97 16l-3 -16
c-21 -8 -59 -16 -97 -16z" />
    <glyph glyph-name="dvmvL" unicode="&#x962;" horiz-adv-x="0" 
d="M-41 -451c-61 0 -111 33 -98 107c11 61 59 109 134 112c7 17 13 36 16 55c14 79 -10 142 -89 142s-128 -67 -148 -168l-1 -5h-16l1 5c20 102 -10 168 -85 168c-80 0 -131 -61 -145 -142c-15 -85 21 -152 116 -152c7 0 17 1 22 2l-3 -15c-5 -1 -16 -2 -24 -2
c-104 0 -143 74 -127 167c16 91 76 157 164 157c81 0 102 -68 99 -123h2c18 55 62 123 150 123c85 0 115 -69 100 -157c-4 -24 -11 -48 -23 -70h-6c-66 0 -112 -43 -121 -95c-12 -67 34 -94 85 -94c16 0 32 3 42 7l-3 -16c-9 -3 -26 -6 -42 -6z" />
    <glyph glyph-name="dvmvLL" unicode="&#x963;" horiz-adv-x="0" 
d="M-6 -532c-14 -5 -41 -11 -68 -11c-54 0 -94 25 -84 80c8 43 40 67 71 73v1c-34 9 -52 35 -45 75c10 58 59 82 107 82h20c7 17 13 36 16 55c14 79 -10 142 -89 142s-128 -67 -148 -168l-1 -5h-16l1 5c20 102 -10 168 -85 168c-80 0 -131 -61 -145 -142
c-15 -85 21 -152 116 -152c7 0 17 1 22 2l-3 -15c-5 -1 -16 -2 -24 -2c-104 0 -143 74 -127 167c16 91 76 157 164 157c81 0 102 -68 99 -123h2c18 55 62 123 150 123c85 0 115 -69 100 -157c-4 -24 -11 -48 -23 -70h-32c-38 0 -81 -17 -89 -67c-8 -49 25 -68 71 -68h25
l-2 -15h-27c-40 0 -85 -15 -94 -67c-8 -45 26 -65 72 -65c26 0 53 6 68 12z" />
    <glyph glyph-name="dvmE" unicode="&#x947;" horiz-adv-x="0" 
d="M-79 737c-92 201 -132 211 -238 211h-32l3 16h32c111 0 156 -9 253 -227h-18z" />
    <glyph glyph-name="dvmAI" unicode="&#x948;" horiz-adv-x="0" 
d="M-62 737h-16c-105 115 -150 121 -256 121h-32l3 16h32c103 0 150 -4 245 -110c-80 223 -121 234 -223 234h-32l2 16h32c111 0 156 -11 245 -277z" />
    <glyph glyph-name="dvmO" unicode="&#x94b;" 
d="M78 0h-17l128 724h-162l3 16h160c-91 198 -132 208 -237 208h-32l3 16h32c111 0 156 -9 252 -224h163l-3 -16h-162z" />
    <glyph glyph-name="dvmAU" unicode="&#x94c;" 
d="M55 0h-17l127 724h-162l3 16h161c-103 112 -148 118 -253 118h-32l3 16h32c103 0 150 -4 245 -110c-80 223 -121 234 -223 234h-32l2 16h32c111 0 156 -11 244 -274h162l-3 -16h-162z" />
    <glyph glyph-name="dvmEcandra" unicode="&#x945;" horiz-adv-x="0" 
d="M-52 824c-120 0 -162 81 -150 145h16c-10 -58 23 -129 132 -129c108 0 168 71 178 129h16c-12 -64 -73 -145 -192 -145z" />
    <glyph glyph-name="dvmOcandra" unicode="&#x949;" 
d="M220 824c-120 0 -162 81 -150 145h16c-10 -58 23 -129 132 -129c108 0 168 71 178 129h16c-12 -64 -73 -145 -192 -145zM62 0l127 724h-162l3 16h341l-3 -16h-162l-127 -724h-17z" />
    <glyph glyph-name="dvKA" unicode="&#x915;" horiz-adv-x="1021" 
d="M442 0l47 266c-38 -74 -115 -139 -226 -139c-123 0 -206 85 -180 232c25 140 137 225 257 225c114 0 168 -66 180 -141l49 281h-542l3 16h1091l-3 -16h-533l-50 -283c38 76 111 143 223 143c116 0 201 -85 176 -225c-26 -147 -131 -232 -252 -232c-21 0 -43 3 -56 6l3 16
c16 -4 37 -6 56 -6c107 0 208 78 232 216c23 131 -54 209 -160 209c-141 0 -216 -112 -236 -207l-63 -361h-16zM264 143c145 0 220 116 238 201l3 16c15 93 -20 208 -166 208c-108 0 -216 -78 -239 -209c-24 -138 51 -216 164 -216z" />
    <glyph glyph-name="dvKHA" unicode="&#x916;" horiz-adv-x="909" 
d="M700 0l50 284c-34 -66 -103 -125 -202 -125c-16 0 -32 2 -46 5c-45 -87 -131 -164 -247 -164c-132 0 -206 82 -183 214l32 180h44c64 0 154 25 179 169l28 161h-328l3 16h979l-3 -16h-162l-127 -724h-17zM551 175c129 0 198 105 212 186c16 86 -19 188 -152 188
c-99 0 -192 -68 -212 -183c-21 -122 50 -191 152 -191zM259 16c102 0 189 74 227 153c-74 24 -121 94 -104 197c21 124 120 199 231 199c104 0 153 -58 164 -124l50 283h-455l-28 -161c-27 -153 -117 -185 -205 -185h-21l-29 -164c-21 -120 45 -198 170 -198z" />
    <glyph glyph-name="dvGA" unicode="&#x917;" horiz-adv-x="683" 
d="M474 0l127 724h-224l-55 -310c-13 -74 -58 -141 -150 -141c-90 0 -118 70 -106 139l6 30h17l-6 -31c-10 -57 6 -122 89 -122c87 0 122 64 133 125l55 310h-333l3 16h753l-3 -16h-162l-127 -724h-17z" />
    <glyph glyph-name="dvGHA" unicode="&#x918;" horiz-adv-x="721" 
d="M287 132c137 0 264 95 289 229l64 363h-441l-19 -102c-17 -101 25 -155 151 -155h54l-3 -16h-54c-142 0 -211 -69 -226 -152c-20 -114 64 -167 185 -167zM27 724l3 16h791l-3 -16h-161l-128 -724h-17l49 276c-52 -96 -157 -160 -277 -160c-133 0 -220 62 -199 183
c17 96 100 152 185 159v2c-72 8 -126 53 -107 162l19 102h-155z" />
    <glyph glyph-name="dvNGA" unicode="&#x919;" horiz-adv-x="623" 
d="M573 391c-15 0 -23 10 -20 24c2 14 14 24 29 24c14 0 22 -10 20 -24c-3 -14 -15 -24 -29 -24zM28 724l3 16h692l-3 -16h-195l-29 -162v0l-3 -16h-169c-76 0 -173 -18 -191 -117c-15 -86 52 -115 129 -115h45c99 0 197 -42 175 -164c-16 -88 -93 -159 -226 -159
c-154 0 -219 89 -200 193h17c-17 -96 36 -177 186 -177c119 0 192 65 206 143c21 118 -73 148 -162 148h-45c-86 0 -158 41 -142 132c19 106 118 132 201 132h162l29 162h-480z" />
    <glyph glyph-name="dvCA" unicode="&#x91a;" horiz-adv-x="718" 
d="M27 724l3 16h788l-3 -16h-161l-128 -724h-17l45 254c-44 -79 -134 -139 -233 -139c-116 0 -205 78 -182 209c17 97 84 172 179 201h-242l3 16h357l-3 -16h-29c-133 0 -228 -89 -248 -201c-22 -124 60 -193 167 -193c120 0 223 94 244 197l70 396h-610z" />
    <glyph glyph-name="dvCHA" unicode="&#x91b;" horiz-adv-x="808" 
d="M25 724l2 16h881l-2 -16h-246l-29 -163c81 -4 149 -67 125 -205c-36 -204 -216 -323 -424 -323c-174 0 -297 77 -272 218c19 108 106 166 196 174v2c-71 8 -126 53 -106 162l24 135h-149zM334 49c195 0 371 118 404 306c24 133 -46 190 -119 190
c-62 0 -149 -35 -169 -148c-6 -32 -5 -68 1 -107h-17c-7 39 -7 75 -1 107c21 118 108 161 181 164l29 163h-452l-24 -135c-18 -101 24 -155 150 -155h24l-2 -16h-24c-145 0 -222 -76 -238 -167c-24 -135 98 -202 257 -202z" />
    <glyph glyph-name="dvJA" unicode="&#x91c;" horiz-adv-x="823" 
d="M27 724l3 16h893l-3 -16h-161l-128 -724h-17l87 493h-257l-27 -153c-19 -106 -92 -182 -199 -181c-95 1 -145 78 -127 181l30 169h17l-30 -170c-17 -96 26 -164 114 -164c92 0 161 68 178 164l30 170h274l38 215h-715z" />
    <glyph glyph-name="dvJHA" unicode="&#x91d;" horiz-adv-x="838" 
d="M756 724h-226l-29 -162v0l-3 -16h-169c-73 0 -176 -18 -193 -117c-16 -86 52 -115 131 -115h417zM628 0l53 299l-284 1c61 -17 105 -66 90 -150c-15 -80 -80 -150 -205 -150c-138 0 -182 88 -187 117l-34 -188h-17l44 244h15c-1 -81 51 -157 183 -157
c114 0 172 64 184 134c17 92 -40 148 -161 148h-45c-92 0 -161 40 -145 131c18 106 121 133 205 133h160l29 162h-479l3 16h901l-3 -16h-162l-128 -724h-17z" />
    <glyph glyph-name="dvNYA" unicode="&#x91e;" horiz-adv-x="787" 
d="M27 724l3 16h857l-3 -16h-162l-127 -724h-17l61 347h-130c-23 -114 -109 -226 -257 -226c-133 0 -178 87 -184 155h17c6 -63 48 -138 168 -138c136 0 220 101 240 216c20 111 -28 213 -164 213c-122 0 -192 -78 -217 -139h-17c28 72 102 155 237 155
c148 0 196 -110 179 -220h131l63 361h-678z" />
    <glyph glyph-name="dvTTA" unicode="&#x91f;" horiz-adv-x="649" 
d="M22 724l3 16h724l-3 -16h-248l-30 -167h-68c-151 0 -284 -78 -314 -245c-25 -136 64 -233 203 -233c142 0 250 100 274 241h17c-26 -151 -138 -257 -294 -257c-146 0 -244 104 -217 250c32 180 173 260 334 260h52l26 151h-459z" />
    <glyph glyph-name="dvTTHA" unicode="&#x920;" horiz-adv-x="675" 
d="M283 79c131 0 254 93 278 228c24 136 -59 236 -196 236c-131 0 -254 -92 -278 -228c-24 -135 61 -236 196 -236zM280 63c-143 0 -236 107 -210 252c25 142 146 240 289 244l29 165h-366l3 16h750l-3 -16h-367l-29 -165c139 -4 227 -110 202 -252
c-26 -145 -152 -244 -298 -244z" />
    <glyph glyph-name="dvDDA" unicode="&#x921;" horiz-adv-x="583" 
d="M28 724l3 16h652l-3 -16h-163l-32 -178h-161c-76 0 -173 -18 -191 -117c-15 -86 52 -115 129 -115h45c99 0 197 -42 175 -164c-16 -88 -93 -159 -226 -159c-154 0 -219 89 -200 193h17c-17 -96 36 -177 186 -177c119 0 192 65 206 143c21 118 -73 148 -162 148h-45
c-86 0 -158 41 -142 132c19 106 118 132 201 132h154l29 162h-472z" />
    <glyph glyph-name="dvDDHA" unicode="&#x922;" horiz-adv-x="626" 
d="M25 724l3 16h698l-3 -16h-204l-29 -167h-76c-155 0 -296 -85 -327 -262c-27 -152 69 -256 220 -256c118 0 214 73 232 172c15 83 -33 144 -115 144c-72 0 -137 -47 -148 -123c-1 -7 -2 -14 -2 -22h-17c0 6 1 16 2 23c15 86 85 138 168 138c88 0 145 -67 129 -160
c-19 -109 -122 -188 -252 -188c-159 0 -262 111 -234 271c34 193 183 279 347 279h59l26 151h-477z" />
    <glyph glyph-name="dvNNA" unicode="&#x923;" horiz-adv-x="820" 
d="M239 234c92 0 158 68 175 164l57 326h-292l-57 -326c-17 -96 27 -164 117 -164zM27 724l3 16h890l-3 -16h-162l-127 -724h-17l127 724h-250l-57 -325c-19 -106 -89 -181 -191 -181s-155 75 -135 181l57 325h-135z" />
    <glyph glyph-name="dvTA" unicode="&#x924;" horiz-adv-x="681" 
d="M27 724l3 16h751l-3 -16h-161l-128 -724h-17l86 487h-166c-163 0 -282 -73 -311 -234c-26 -150 47 -235 202 -235h24l-3 -16h-24c-159 0 -244 92 -216 251c31 173 157 250 330 250h167l39 221h-573z" />
    <glyph glyph-name="dvTHA" unicode="&#x925;" horiz-adv-x="740" 
d="M531 0l47 264c-30 -67 -123 -150 -253 -150c-163 0 -254 105 -225 262c2 11 5 23 8 35h108c100 0 230 28 255 170c15 84 -28 152 -123 152c-117 0 -187 -88 -187 -208h-17c0 130 80 224 204 224c104 0 157 -75 140 -168c-26 -147 -154 -186 -274 -186h-93
c-37 -164 46 -265 206 -265c124 0 242 89 264 213l70 397h179l-2 -16h-162l-128 -724h-17z" />
    <glyph glyph-name="dvDA" unicode="&#x926;" horiz-adv-x="607" 
d="M27 724l3 16h677l-3 -16h-170l-27 -152h-121c-133 0 -260 -67 -286 -214c-22 -127 48 -213 173 -213c80 0 197 48 219 176h15l-56 -321h-17l42 241c-33 -64 -114 -112 -205 -112c-134 0 -212 95 -188 229c29 163 164 230 305 230h104l25 136h-490z" />
    <glyph glyph-name="dvDHA" unicode="&#x927;" horiz-adv-x="693" 
d="M266 116c-112 0 -199 62 -179 171c17 91 88 137 154 143v2c-66 12 -122 63 -104 162c15 87 87 155 183 155c101 0 150 -70 121 -176h-17c28 100 -16 160 -107 160c-83 0 -150 -62 -163 -140c-16 -89 31 -153 149 -153h54l-3 -16h-54c-119 0 -183 -62 -196 -137
c-17 -102 62 -155 165 -155c131 0 255 95 279 228l65 372l1 8h179l-2 -16h-162l-128 -724h-17l48 275c-51 -96 -152 -159 -266 -159z" />
    <glyph glyph-name="dvNA" unicode="&#x928;" horiz-adv-x="760" 
d="M225 176c95 0 174 71 191 160c18 93 -40 159 -135 159c-98 0 -178 -65 -195 -161c-17 -93 39 -158 139 -158zM27 724l3 16h830l-3 -16h-161l-128 -724h-17l88 496h-287c56 -19 96 -78 81 -160c-18 -103 -105 -176 -211 -176c-108 0 -171 73 -153 174
c18 106 104 177 220 177h352l38 213h-652z" />
    <glyph glyph-name="dvPA" unicode="&#x92a;" horiz-adv-x="635" 
d="M285 247c118 0 198 85 217 183l51 294h-374l-45 -255c-24 -139 27 -222 151 -222zM27 724l3 16h705l-3 -16h-162l-127 -724h-17l62 351c-39 -73 -111 -120 -204 -120c-132 0 -193 89 -167 238l45 255h-135z" />
    <glyph glyph-name="dvPHA" unicode="&#x92b;" horiz-adv-x="986" 
d="M275 247c113 0 190 87 208 191v0l50 286h-354l-45 -255c-24 -139 17 -222 141 -222zM27 724l3 16h1056l-3 -16h-533l-50 -286c37 77 111 146 225 146c116 0 199 -85 174 -225c-26 -147 -133 -232 -252 -232c-21 0 -43 3 -56 6l3 16c16 -4 37 -6 56 -6
c109 0 208 78 232 216c23 131 -54 209 -160 209c-141 0 -217 -113 -236 -209l-63 -359h-17l62 353c-38 -74 -108 -122 -197 -122c-131 0 -180 89 -154 238l45 255h-135z" />
    <glyph glyph-name="dvBA" unicode="&#x92c;" horiz-adv-x="690" 
d="M481 0l48 268c-40 -78 -124 -148 -244 -148c-130 0 -229 87 -203 233c26 149 146 240 278 240c122 0 184 -72 198 -152l50 283h-581l3 16h760l-3 -16h-162l-127 -724h-17zM360 577c-60 0 -119 -21 -166 -59l268 -312c46 44 73 100 81 149c19 103 -30 222 -183 222z
M286 136c69 0 124 25 165 60l-268 312c-42 -37 -72 -90 -84 -155c-24 -138 65 -217 187 -217z" />
    <glyph glyph-name="dvBHA" unicode="&#x92d;" horiz-adv-x="742" 
d="M210 152c82 0 144 62 163 172l19 105h-122c-87 0 -158 -54 -173 -139c-15 -83 34 -138 113 -138zM210 136c-91 0 -146 63 -130 154c17 94 94 155 192 155h122l20 111c19 108 -7 176 -95 176c-72 0 -133 -51 -149 -140c-2 -14 -3 -28 -3 -44h-17c0 15 1 30 3 44
c17 98 84 157 166 157c96 0 133 -72 112 -192l-20 -112h200l52 295h179l-2 -16h-162l-128 -724h-17l75 429h-200l-18 -104c-22 -127 -88 -189 -180 -189z" />
    <glyph glyph-name="dvMA" unicode="&#x92e;" horiz-adv-x="735" 
d="M171 152c82 0 143 62 163 172l18 105h-122c-87 0 -157 -54 -172 -139c-15 -83 34 -138 113 -138zM604 445l49 279h-232l-49 -279h232zM27 724l3 16h805l-3 -16h-162l-127 -724h-17l75 429h-232l-18 -104c-22 -127 -88 -189 -180 -189c-91 0 -146 63 -130 154
c16 94 94 155 192 155h122l49 279h-377z" />
    <glyph glyph-name="dvYA" unicode="&#x92f;" horiz-adv-x="720" 
d="M310 154c122 0 238 81 264 207l64 363h-251l-15 -89c-28 -155 -131 -196 -259 -196h-3c-2 -8 -3 -15 -4 -19c-31 -167 51 -266 204 -266zM27 724l3 16h790l-3 -16h-162l-127 -724h-17l50 283c-36 -70 -124 -145 -255 -145c-161 0 -247 111 -216 282c2 11 5 25 8 35h18
c109 0 212 31 239 180l15 89h-343z" />
    <glyph glyph-name="dvRA" unicode="&#x930;" horiz-adv-x="540" 
d="M28 724l3 16h609l-3 -16h-150l-23 -133c-27 -151 -123 -217 -253 -217h-93l-29 -170c-22 -115 25 -197 135 -197c100 0 167 72 186 181l2 11h17c-1 -4 -2 -8 -2 -11c-20 -120 -93 -197 -203 -197c-120 0 -177 87 -152 214l32 185h110c120 0 208 62 233 201l23 133h-442z
" />
    <glyph glyph-name="dvLA" unicode="&#x932;" horiz-adv-x="886" 
d="M538 104c-12 0 -25 1 -37 2l3 17c11 -1 21 -2 31 -2c138 0 222 96 244 220c19 111 -18 203 -129 203c-113 0 -189 -93 -215 -241l-1 -8h-17l1 8c27 145 -13 241 -124 241c-116 0 -186 -88 -206 -203c-22 -124 28 -220 166 -220c10 0 20 1 31 2l-3 -17
c-10 -1 -18 -2 -29 -2c-147 0 -207 104 -182 237c22 126 99 219 224 219c117 0 149 -96 146 -173h2c24 76 84 168 200 173l29 164h-654l3 16h965l-3 -16h-294l-29 -164c114 -5 157 -102 136 -219c-23 -133 -111 -237 -258 -237z" />
    <glyph glyph-name="dvVA" unicode="&#x935;" horiz-adv-x="681" 
d="M278 141c157 0 239 121 256 213c18 101 -23 218 -180 218c-117 0 -230 -79 -254 -213c-24 -139 57 -218 178 -218zM778 724h-162l-127 -724h-17l47 268c-39 -76 -120 -143 -241 -143c-131 0 -221 86 -195 234c25 142 143 229 270 229c125 0 184 -68 196 -148l50 284h-572
l3 16h751z" />
    <glyph glyph-name="dvSHA" unicode="&#x936;" horiz-adv-x="777" 
d="M236 -9c-127 0 -178 87 -155 214l28 160h153c118 0 222 66 243 185c20 115 -43 183 -141 183c-125 0 -207 -100 -207 -233h-17c0 144 92 249 224 249c111 0 180 -81 157 -203c-24 -130 -131 -197 -262 -197h-136l-25 -145c-21 -115 22 -197 137 -197
c101 0 178 75 196 192h17c-18 -116 -90 -208 -212 -208zM568 0l130 740h179l-3 -16h-162l-127 -724h-17z" />
    <glyph glyph-name="dvSSA" unicode="&#x937;" horiz-adv-x="635" 
d="M290 247c89 0 158 53 192 126l-306 331l-42 -235c-25 -139 38 -222 156 -222zM503 438l50 286h-373l309 -336c6 16 11 33 14 50zM27 724l3 16h705l-3 -16h-162l-127 -724h-17l62 350c-39 -72 -110 -119 -202 -119c-123 0 -196 89 -169 238l45 255h-135z" />
    <glyph glyph-name="dvSA" unicode="&#x938;" horiz-adv-x="811" 
d="M465 611c-23 -123 -98 -183 -167 -202h376l55 315h-243zM27 724l3 16h881l-3 -16h-162l-127 -724h-17l69 394h-550l-33 -190c-20 -116 24 -197 137 -197c106 0 170 84 186 192h17c-17 -115 -85 -208 -204 -208s-175 87 -153 214l36 205h110c120 0 209 77 232 201l21 113
h-443z" />
    <glyph glyph-name="dvHA" unicode="&#x939;" horiz-adv-x="596" 
d="M468 48c-27 -63 -104 -145 -231 -145c-147 0 -203 102 -184 212c15 86 74 165 164 198c-38 12 -96 49 -82 128c16 91 96 124 185 124h175l28 159h-487l3 16h657l-3 -16h-153l-28 -159l-3 -16h-192c-75 0 -152 -27 -166 -109c-12 -67 33 -105 94 -119c20 4 41 7 64 7
c129 0 178 -82 183 -145h-17c-5 56 -50 129 -169 129c-132 0 -218 -97 -236 -197c-19 -104 31 -195 167 -195c113 0 187 70 214 128h17z" />
    <glyph glyph-name="dvLLA" unicode="&#x933;" horiz-adv-x="1019" 
d="M254 149c120 0 215 85 236 202c22 123 -42 209 -164 209c-116 0 -217 -82 -239 -209c-21 -120 51 -202 167 -202zM674 149c116 0 218 82 239 202c22 127 -49 209 -165 209c-122 0 -216 -86 -238 -209c-21 -117 44 -202 164 -202zM673 133c-117 0 -181 77 -182 161h-2
c-31 -84 -119 -161 -236 -161c-128 0 -205 92 -183 218c24 136 132 225 257 225c127 0 178 -82 184 -159h2c32 77 109 159 234 159l26 148h-757l3 16h1100l-3 -16h-326l-26 -148c116 -7 189 -94 166 -225c-22 -126 -129 -218 -257 -218z" />
    <glyph glyph-name="dvK_SSA" horiz-adv-x="747" 
d="M167 588c-17 -103 58 -160 165 -164c69 38 128 83 143 165c16 92 -48 145 -129 145c-79 0 -163 -52 -179 -146zM328 -47l30 171c-11 -29 -66 -95 -166 -95c-101 0 -152 69 -136 158c22 125 141 169 247 222c-94 11 -171 73 -153 179s109 162 196 162
c91 0 164 -60 146 -161c-14 -80 -67 -127 -129 -165h253l56 316h179l-3 -16h-162l-128 -724h-17l72 408h-279c-111 -58 -239 -97 -261 -221c-14 -79 28 -142 121 -142c94 0 162 67 177 152h17l-43 -244h-17z" />
    <glyph glyph-name="dvJ_NYA" horiz-adv-x="772" 
d="M563 0l93 529h-290c83 -25 133 -93 115 -197c-20 -114 -110 -192 -223 -192c-111 0 -171 69 -177 127l-35 -203h-17l46 262h16c-8 -115 75 -170 167 -170c108 0 189 76 207 178c22 124 -61 195 -192 195h-2l3 16h385l31 179h-663l3 16h842l-3 -16h-162l-127 -724h-17z
" />
    <glyph glyph-name="dvKxA" unicode="&#x958;" horiz-adv-x="1021" 
d="M442 0l47 266c-38 -74 -115 -139 -226 -139c-123 0 -206 85 -180 232c25 140 137 225 257 225c114 0 168 -66 180 -141l49 281h-542l3 16h1091l-3 -16h-533l-50 -283c38 76 111 143 223 143c116 0 201 -85 176 -225c-26 -147 -131 -232 -252 -232c-21 0 -43 3 -56 6l3 16
c16 -4 37 -6 56 -6c107 0 208 78 232 216c23 131 -54 209 -160 209c-141 0 -216 -112 -236 -207l-63 -361h-16zM264 143c145 0 220 116 238 201l3 16c15 93 -20 208 -166 208c-108 0 -216 -78 -239 -209c-24 -138 51 -216 164 -216zM229 -21c-14 0 -23 10 -21 24
s14 24 29 24c13 0 22 -10 20 -24s-14 -24 -28 -24z" />
    <glyph glyph-name="dvKHxA" unicode="&#x959;" horiz-adv-x="909" 
d="M700 0l50 284c-34 -66 -103 -125 -202 -125c-16 0 -32 2 -46 5c-45 -87 -131 -164 -247 -164c-132 0 -206 82 -183 214l32 180h44c64 0 154 25 179 169l28 161h-328l3 16h979l-3 -16h-162l-127 -724h-17zM217 -148c-14 0 -23 10 -21 24s14 24 29 24c13 0 22 -10 20 -24
s-14 -24 -28 -24zM551 175c129 0 198 105 212 186c16 86 -19 188 -152 188c-99 0 -192 -68 -212 -183c-21 -122 50 -191 152 -191zM259 16c102 0 189 74 227 153c-74 24 -121 94 -104 197c21 124 120 199 231 199c104 0 153 -58 164 -124l50 283h-455l-28 -161
c-27 -153 -117 -185 -205 -185h-21l-29 -164c-21 -120 45 -198 170 -198z" />
    <glyph glyph-name="dvGxA" unicode="&#x95a;" horiz-adv-x="683" 
d="M474 0l127 724h-224l-55 -310c-13 -74 -58 -141 -150 -141c-90 0 -118 70 -106 139l6 30h17l-6 -31c-10 -57 6 -122 89 -122c87 0 122 64 133 125l55 310h-333l3 16h753l-3 -16h-162l-127 -724h-17zM150 118c-14 0 -23 10 -21 24s14 24 29 24c13 0 22 -10 20 -24
s-14 -24 -28 -24z" />
    <glyph glyph-name="dvJxA" unicode="&#x95b;" horiz-adv-x="823" 
d="M27 724l3 16h893l-3 -16h-161l-128 -724h-17l87 493h-257l-27 -153c-19 -106 -92 -182 -199 -181c-95 1 -145 78 -127 181l30 169h17l-30 -170c-17 -96 26 -164 114 -164c92 0 161 68 178 164l30 170h274l38 215h-715zM199 11c-14 0 -23 10 -21 24s14 24 29 24
c13 0 22 -10 20 -24s-14 -24 -28 -24z" />
    <glyph glyph-name="dvDDxA" unicode="&#x95c;" horiz-adv-x="583" 
d="M28 724l3 16h652l-3 -16h-163l-32 -178h-161c-76 0 -173 -18 -191 -117c-15 -86 52 -115 129 -115h45c99 0 197 -42 175 -164c-16 -88 -93 -159 -226 -159c-154 0 -219 89 -200 193h17c-17 -96 36 -177 186 -177c119 0 192 65 206 143c21 118 -73 148 -162 148h-45
c-86 0 -158 41 -142 132c19 106 118 132 201 132h154l29 162h-472zM223 -157c-14 0 -23 10 -21 24s14 24 29 24c13 0 22 -10 20 -24s-14 -24 -28 -24z" />
    <glyph glyph-name="dvDDHxA" unicode="&#x95d;" horiz-adv-x="626" 
d="M25 724l3 16h698l-3 -16h-204l-29 -167h-76c-155 0 -296 -85 -327 -262c-27 -152 69 -256 220 -256c118 0 214 73 232 172c15 83 -33 144 -115 144c-72 0 -137 -47 -148 -123c-1 -7 -2 -14 -2 -22h-17c0 6 1 16 2 23c15 86 85 138 168 138c88 0 145 -67 129 -160
c-19 -109 -122 -188 -252 -188c-159 0 -262 111 -234 271c34 193 183 279 347 279h59l26 151h-477zM250 -125c-14 0 -23 10 -21 24s14 24 29 24c13 0 22 -10 20 -24s-14 -24 -28 -24z" />
    <glyph glyph-name="dvPHxA" unicode="&#x95e;" horiz-adv-x="986" 
d="M275 247c113 0 190 87 208 191v0l50 286h-354l-45 -255c-24 -139 17 -222 141 -222zM27 724l3 16h1056l-3 -16h-533l-50 -286c37 77 111 146 225 146c116 0 199 -85 174 -225c-26 -147 -133 -232 -252 -232c-21 0 -43 3 -56 6l3 16c16 -4 37 -6 56 -6
c109 0 208 78 232 216c23 131 -54 209 -160 209c-141 0 -217 -113 -236 -209l-63 -359h-17l62 353c-38 -74 -108 -122 -197 -122c-131 0 -180 89 -154 238l45 255h-135zM239 83c-14 0 -23 10 -21 24s14 24 29 24c13 0 22 -10 20 -24s-14 -24 -28 -24z" />
    <glyph glyph-name="dvRxA" unicode="&#x931;" horiz-adv-x="540" 
d="M28 724l3 16h609l-3 -16h-150l-23 -133c-27 -151 -123 -217 -253 -217h-93l-29 -170c-22 -115 25 -197 135 -197c100 0 167 72 186 181l2 11h17c-1 -4 -2 -8 -2 -11c-20 -120 -93 -197 -203 -197c-120 0 -177 87 -152 214l32 185h110c120 0 208 62 233 201l23 133h-442z
M47 -112c-14 0 -23 10 -21 24s14 24 29 24c13 0 22 -10 20 -24s-14 -24 -28 -24z" />
    <glyph glyph-name="dvK" horiz-adv-x="771" 
d="M442 0l47 266c-38 -74 -115 -139 -226 -139c-123 0 -206 85 -180 232c25 140 137 225 257 225c114 0 168 -66 180 -141l49 281h-542l3 16h971l-3 -16h-413l-50 -283c38 76 111 143 223 143c116 0 201 -85 176 -225h-17c23 131 -54 209 -160 209
c-141 0 -216 -112 -236 -207l-63 -361h-16zM264 143c145 0 220 116 238 201l3 16c15 93 -20 208 -166 208c-108 0 -216 -78 -239 -209c-24 -138 51 -216 164 -216z" />
    <glyph glyph-name="dvKH" horiz-adv-x="679" 
d="M554 176c114 0 202 74 222 186c20 114 -42 187 -156 187c-113 0 -201 -73 -221 -187c-20 -112 42 -186 155 -186zM27 724l3 16h829l-3 -16h-484l-28 -161c-27 -153 -117 -185 -205 -185h-21l-29 -164c-21 -120 45 -198 170 -198c107 0 189 74 227 153
c-81 24 -122 95 -104 193c22 125 117 203 240 203c124 0 193 -78 171 -203s-120 -202 -242 -202c-18 0 -34 2 -49 5c-42 -86 -127 -165 -243 -165c-132 0 -211 82 -187 214l32 180h44c69 0 154 25 179 169l28 161h-328z" />
    <glyph glyph-name="dvG" horiz-adv-x="444" 
d="M27 724l3 16h490l-3 -16h-140l-55 -310c-13 -74 -58 -141 -150 -141c-90 0 -118 70 -106 139l6 30h17l-6 -31c-10 -57 6 -122 89 -122c87 0 122 64 133 125l55 310h-333z" />
    <glyph glyph-name="dvGH" horiz-adv-x="466" 
d="M27 724l3 16h627l-3 -16h-456l-18 -102c-18 -101 25 -155 151 -155h54l-3 -16h-54c-142 0 -211 -69 -226 -152c-20 -114 64 -167 185 -167c137 0 265 95 289 232h15c-26 -144 -154 -248 -307 -248c-137 0 -220 62 -199 183c17 96 100 152 184 159l1 2
c-72 8 -126 53 -107 162l18 102h-154z" />
    <glyph glyph-name="dvNG" horiz-adv-x="622" 
d="M573 391c-15 0 -24 10 -21 24s14 24 29 24c14 0 22 -10 20 -24s-14 -24 -28 -24zM308 -287l-83 178h18l84 -178h-19zM28 724l3 16h692l-3 -16h-196l-29 -162v0l-3 -16h-168c-76 0 -173 -18 -191 -117c-15 -86 52 -115 129 -115h45c99 0 197 -42 175 -164
c-16 -88 -93 -159 -226 -159c-154 0 -219 89 -200 193h17c-17 -96 36 -177 186 -177c119 0 192 65 206 143c21 118 -73 148 -162 148h-45c-86 0 -158 41 -142 132c19 106 118 132 201 132h161l29 162h-479z" />
    <glyph glyph-name="dvC" horiz-adv-x="477" 
d="M76 525l3 16h357l-3 -16h-29c-133 0 -229 -89 -248 -201c-22 -124 60 -193 167 -193c120 0 226 96 244 202h14c-16 -114 -130 -218 -260 -218c-113 0 -206 76 -182 209c18 97 84 172 178 201h-241zM27 724l3 16h623l-3 -16h-623z" />
    <glyph glyph-name="dvCH" horiz-adv-x="808" 
d="M25 724l2 16h881l-2 -16h-715l-24 -135c-18 -101 24 -155 150 -155h24l-2 -16h-24c-145 0 -222 -76 -238 -167c-24 -135 98 -202 257 -202c195 0 371 118 404 306c24 133 -46 190 -119 190c-62 0 -149 -35 -169 -148c-6 -32 -5 -68 1 -107h-17c-7 39 -7 75 -1 107
c22 123 115 164 189 164c85 0 159 -62 134 -205c-36 -204 -216 -323 -424 -323c-174 0 -297 77 -272 218c19 108 106 166 196 174v2c-71 8 -126 53 -106 162l24 135h-149z" />
    <glyph glyph-name="dvJ" horiz-adv-x="555" 
d="M218 159c-95 1 -145 78 -127 181l30 169h17l-30 -170c-17 -96 26 -164 114 -164c92 0 161 68 178 164l30 170h278l-2 -16h-262l-27 -153c-19 -106 -92 -182 -199 -181zM27 724l3 16h719l-3 -16h-719z" />
    <glyph glyph-name="dvJH" horiz-adv-x="570" 
d="M34 724l3 16h711l-3 -16h-215l-29 -162v0l-3 -16h-169c-73 0 -176 -18 -193 -117c-16 -86 52 -115 131 -115h405l-2 -15l-273 1c61 -17 105 -66 90 -150c-15 -80 -80 -150 -205 -150c-138 0 -182 88 -187 117l-34 -188h-17l44 244h15c-1 -81 51 -157 183 -157
c114 0 172 64 184 134c17 92 -40 148 -161 148h-45c-92 0 -161 40 -145 131c18 106 121 133 205 133h160l29 162h-479z" />
    <glyph glyph-name="dvNY" horiz-adv-x="562" 
d="M252 121c-133 0 -178 87 -184 155h17c6 -63 48 -138 168 -138c136 0 220 101 240 216c20 111 -28 213 -164 213c-122 0 -192 -78 -217 -139h-17c28 72 102 155 237 155c148 0 196 -110 179 -220h137l-3 -16h-136c-23 -114 -109 -226 -257 -226zM27 724l3 16h685l-3 -16
h-685z" />
    <glyph glyph-name="dvTT" horiz-adv-x="649" 
d="M340 -215l-84 178h18l85 -178h-19zM22 724l3 16h724l-3 -16h-248l-30 -167h-68c-151 0 -284 -78 -314 -245c-25 -136 64 -233 203 -233c142 0 250 100 274 241h17c-26 -151 -138 -257 -294 -257c-146 0 -244 104 -217 250c32 180 173 260 334 260h52l26 151h-459z" />
    <glyph glyph-name="dvTTH" horiz-adv-x="675" 
d="M338 -215l-84 178h18l85 -178h-19zM283 79c131 0 254 93 278 228c24 136 -59 236 -196 236c-131 0 -254 -92 -278 -228c-24 -135 61 -236 196 -236zM280 63c-143 0 -236 107 -210 252c25 142 146 240 289 244l29 165h-366l3 16h750l-3 -16h-367l-29 -165
c139 -4 227 -110 202 -252c-26 -145 -152 -244 -298 -244z" />
    <glyph glyph-name="dvDD" horiz-adv-x="583" 
d="M315 -287l-83 178h18l84 -178h-19zM28 724l3 16h652l-3 -16h-163l-32 -178h-161c-76 0 -173 -18 -191 -117c-15 -86 52 -115 129 -115h45c99 0 197 -42 175 -164c-16 -88 -93 -159 -226 -159c-154 0 -219 89 -200 193h17c-17 -96 36 -177 186 -177c119 0 192 65 206 143
c21 118 -73 148 -162 148h-45c-86 0 -158 41 -142 132c19 106 118 132 201 132h154l29 162h-472z" />
    <glyph glyph-name="dvDDH" horiz-adv-x="626" 
d="M348 -255l-83 178h18l84 -178h-19zM25 724l3 16h698l-3 -16h-204l-29 -167h-76c-155 0 -296 -85 -327 -262c-27 -152 69 -256 220 -256c118 0 214 73 232 172c15 83 -33 144 -115 144c-72 0 -137 -47 -148 -123c-1 -7 -2 -14 -2 -22h-17c0 6 1 16 2 23
c15 86 85 138 168 138c88 0 145 -67 129 -160c-19 -109 -122 -188 -252 -188c-159 0 -262 111 -234 271c34 193 183 279 347 279h59l26 151h-477z" />
    <glyph glyph-name="dvNN" horiz-adv-x="565" 
d="M27 724l3 16h616l-3 -16h-155l-57 -325c-19 -106 -89 -181 -191 -181s-155 75 -135 181l57 325h-135zM239 234c92 0 158 68 175 164l57 326h-292l-57 -326c-17 -96 27 -164 117 -164z" />
    <glyph glyph-name="dvT" horiz-adv-x="400" 
d="M280 2c-159 0 -244 92 -216 251c31 173 157 250 330 250h166l-3 -16h-165c-163 0 -282 -73 -311 -234c-26 -150 47 -235 202 -235h24l-3 -16h-24zM27 724l3 16h572l-3 -16h-572z" />
    <glyph glyph-name="dvTH" horiz-adv-x="479" 
d="M607 343c-22 -132 -147 -229 -284 -229c-178 0 -261 122 -214 297h108c100 0 229 28 254 170c15 84 -27 152 -122 152c-118 0 -188 -87 -188 -208h-17c0 128 77 224 207 224c101 0 153 -75 137 -168c-25 -146 -153 -186 -273 -186h-94c-36 -164 44 -265 206 -265
c118 0 241 88 264 213h16z" />
    <glyph glyph-name="dvD" horiz-adv-x="607" 
d="M500 -278l-83 178h18l84 -178h-19zM27 724l3 16h677l-3 -16h-170l-27 -152h-121c-133 0 -260 -67 -286 -214c-22 -127 48 -213 173 -213c80 0 197 48 219 176h15l-56 -321h-17l42 241c-33 -64 -114 -112 -205 -112c-134 0 -212 95 -188 229c29 163 164 230 305 230h104
l25 136h-490z" />
    <glyph glyph-name="dvDH" horiz-adv-x="439" 
d="M266 116c-118 0 -199 57 -179 168c17 93 88 140 154 146v2c-66 12 -122 63 -104 162c15 87 87 155 183 155c101 0 150 -70 121 -176h-17c28 100 -16 160 -107 160c-83 0 -150 -62 -163 -140c-16 -89 31 -153 149 -153h54l-3 -16h-54c-119 0 -183 -63 -196 -140
c-19 -104 62 -152 165 -152c141 0 253 83 274 202h15c-23 -127 -135 -218 -292 -218z" />
    <glyph glyph-name="dvN" horiz-adv-x="519" 
d="M222 160c-108 0 -171 73 -153 174c18 106 104 177 220 177h379l-3 -15h-313c56 -19 96 -78 81 -160c-18 -103 -105 -176 -211 -176zM225 176c95 0 174 71 191 160c18 93 -40 159 -135 159c-98 0 -178 -65 -195 -161c-17 -93 39 -158 139 -158zM27 724l3 16h678l-3 -16
h-678z" />
    <glyph glyph-name="dvP" horiz-adv-x="398" 
d="M27 724l3 16h542l-3 -16h-390l-45 -255c-24 -139 27 -222 151 -222c118 0 198 85 217 185h15c-21 -116 -109 -201 -233 -201c-132 0 -193 89 -167 238l45 255h-135z" />
    <glyph glyph-name="dvPH" horiz-adv-x="771" 
d="M275 247c113 0 190 87 208 191v0l50 286h-354l-45 -255c-24 -139 17 -222 141 -222zM27 724l3 16h936l-3 -16h-413l-50 -286c37 77 111 146 225 146c116 0 199 -85 174 -225h-17c23 131 -54 209 -160 209c-141 0 -217 -113 -236 -209l-63 -359h-17l62 353
c-38 -74 -108 -122 -197 -122c-131 0 -180 89 -154 238l45 255h-135z" />
    <glyph glyph-name="dvB" horiz-adv-x="449" 
d="M285 120c-131 0 -229 87 -204 233c27 149 148 240 280 240c166 0 216 -132 198 -238c-22 -124 -128 -235 -274 -235zM360 577c-60 0 -119 -21 -166 -59l268 -311c45 43 72 100 81 148c18 103 -30 222 -183 222zM27 724l3 16h597l-3 -16h-597zM285 136c69 0 124 25 166 60
l-269 313c-42 -38 -72 -91 -84 -156c-24 -138 67 -217 187 -217z" />
    <glyph glyph-name="dvBH" horiz-adv-x="495" 
d="M210 152c82 0 144 62 163 172l19 105h-122c-87 0 -158 -54 -173 -139c-15 -83 34 -138 113 -138zM210 136c-91 0 -146 63 -130 154c17 94 94 155 192 155h122l20 111c19 108 -7 176 -95 176c-72 0 -133 -51 -149 -140c-2 -14 -3 -28 -3 -44h-17c0 15 1 30 3 44
c17 98 84 157 166 157c96 0 133 -72 112 -192l-20 -112h193l-2 -16h-194l-18 -104c-22 -127 -88 -189 -180 -189z" />
    <glyph glyph-name="dvM" horiz-adv-x="492" 
d="M171 152c82 0 143 62 163 172l18 105h-122c-87 0 -157 -54 -172 -139c-15 -83 34 -138 113 -138zM27 724l3 16h624l-3 -16h-230l-49 -279h230l-3 -16h-230l-18 -104c-22 -127 -88 -189 -180 -189c-91 0 -146 63 -130 154c16 94 94 155 192 155h122l49 279h-377z" />
    <glyph glyph-name="dvY" horiz-adv-x="470" 
d="M27 724l3 16h627l-3 -16h-267l-15 -89c-28 -155 -131 -196 -259 -196h-3c-2 -8 -3 -15 -4 -19c-31 -167 51 -266 204 -266c125 0 244 85 266 216h16c-22 -133 -137 -232 -286 -232c-161 0 -247 111 -216 282c2 11 5 25 8 35h18c109 0 212 31 239 180l15 89h-343z" />
    <glyph glyph-name="dvR" horiz-adv-x="539" 
d="M268 -289l-83 178h18l84 -178h-19zM28 724l3 16h609l-3 -16h-150l-23 -133c-27 -151 -123 -217 -253 -217h-93l-29 -170c-22 -115 25 -197 135 -197c100 0 167 72 186 181l2 11h17c-1 -4 -2 -8 -2 -11c-20 -120 -93 -197 -203 -197c-120 0 -177 87 -152 214l32 185h110
c120 0 208 62 233 201l23 133h-442z" />
    <glyph glyph-name="dvL" horiz-adv-x="697" 
d="M253 104c-147 0 -207 104 -182 237c22 126 99 219 224 219c117 0 149 -96 146 -173h2c25 78 87 173 209 173c120 0 165 -99 144 -219h-17c19 111 -18 203 -129 203c-113 0 -189 -93 -215 -241l-1 -8h-17l1 8c27 145 -13 241 -124 241c-116 0 -186 -88 -206 -203
c-22 -124 28 -220 166 -220c10 0 20 1 31 2l-3 -17c-10 -1 -18 -2 -29 -2zM18 724l3 16h845l-3 -16h-845z" />
    <glyph glyph-name="dvV" horiz-adv-x="437" 
d="M280 125c-132 0 -223 86 -197 234c25 142 145 229 274 229c167 0 212 -130 194 -233c-18 -102 -107 -230 -271 -230zM281 141c155 0 237 121 253 214c18 100 -24 217 -177 217c-119 0 -233 -79 -257 -213c-24 -139 58 -218 181 -218zM27 724l3 16h589l-3 -16h-589z" />
    <glyph glyph-name="dvSH" horiz-adv-x="525" 
d="M236 -9c-127 0 -178 87 -155 214l28 160h153c118 0 222 66 243 185c20 113 -43 183 -141 183c-125 0 -207 -100 -207 -233h-17c0 144 92 249 224 249c112 0 180 -81 157 -203c-24 -130 -133 -197 -262 -197h-136l-25 -145c-21 -115 22 -197 137 -197
c101 0 178 75 196 192h17c-18 -116 -90 -208 -212 -208z" />
    <glyph glyph-name="dvSS" horiz-adv-x="390" 
d="M285 247c113 0 173 74 197 125l-306 332l-42 -235c-25 -139 40 -222 151 -222zM27 724l3 16h535l-3 -16h-383v0l321 -348c-25 -64 -93 -145 -213 -145c-124 0 -197 89 -170 238l45 255h-135z" />
    <glyph glyph-name="dvS" horiz-adv-x="536" 
d="M27 724l3 16h671l-3 -16h-212l-21 -113c-23 -123 -98 -183 -167 -202h345l-3 -15h-519l-33 -190c-20 -116 24 -197 137 -197c106 0 170 84 186 192h17c-17 -115 -85 -208 -204 -208s-175 87 -153 214l36 205h110c120 0 209 77 232 201l21 113h-443z" />
    <glyph glyph-name="dvH" horiz-adv-x="587" 
d="M288 -374l-84 178h18l85 -178h-19zM468 48c-27 -63 -104 -145 -231 -145c-147 0 -203 102 -184 212c15 86 74 165 164 198c-38 12 -96 49 -82 128c16 91 96 124 185 124h175l28 159h-487l3 16h657l-3 -16h-153l-28 -159l-3 -16h-192c-75 0 -152 -27 -166 -109
c-12 -67 33 -105 94 -119c20 4 41 7 64 7c129 0 178 -82 183 -145h-17c-5 56 -50 129 -169 129c-132 0 -218 -97 -236 -197c-19 -104 31 -195 167 -195c113 0 187 70 214 128h17z" />
    <glyph glyph-name="dvLL" horiz-adv-x="1019" 
d="M253 133c-128 0 -205 92 -183 218c24 136 132 225 257 225c127 0 178 -82 184 -159h2c32 77 109 159 236 159c125 0 205 -89 181 -225c-22 -126 -129 -218 -257 -218c-117 0 -181 77 -182 161h-2c-31 -84 -119 -161 -236 -161zM254 149c120 0 215 85 236 202
c22 123 -42 209 -164 209c-116 0 -217 -82 -239 -209c-21 -120 51 -202 167 -202zM674 149c116 0 218 82 239 202c22 127 -49 209 -165 209c-122 0 -216 -86 -238 -209c-21 -117 44 -202 164 -202zM16 724l3 16h1100l-3 -16h-1100z" />
    <glyph glyph-name="dvK_SS" horiz-adv-x="503" 
d="M167 588c-17 -103 58 -160 165 -164c69 38 128 83 143 165c16 92 -48 145 -129 145c-79 0 -163 -52 -179 -146zM328 -47l30 171c-11 -29 -66 -95 -166 -95c-101 0 -152 69 -136 158c22 125 141 169 247 222c-94 11 -171 73 -153 179s109 162 196 162
c91 0 164 -60 146 -161c-14 -80 -67 -127 -129 -165h252l-3 -16h-278c-111 -58 -239 -97 -261 -221c-14 -79 28 -142 121 -142c94 0 162 67 177 152h17l-43 -244h-17z" />
    <glyph glyph-name="dvJ_NY" horiz-adv-x="525" 
d="M27 724l3 16h731l-3 -16h-731zM271 529l3 16h452l-3 -16h-357c83 -25 133 -93 115 -197c-20 -114 -110 -192 -223 -192c-111 0 -171 69 -177 127l-35 -203h-17l46 262h16c-8 -115 75 -170 167 -170c108 0 189 76 207 178c22 124 -61 195 -192 195h-2z" />
    <glyph glyph-name="dvKx" horiz-adv-x="771" 
d="M442 0l47 266c-38 -74 -115 -139 -226 -139c-123 0 -206 85 -180 232c25 140 137 225 257 225c114 0 168 -66 180 -141l49 281h-542l3 16h971l-3 -16h-413l-50 -283c38 76 111 143 223 143c116 0 201 -85 176 -225h-17c23 131 -54 209 -160 209
c-141 0 -216 -112 -236 -207l-63 -361h-16zM264 143c145 0 220 116 238 201l3 16c15 93 -20 208 -166 208c-108 0 -216 -78 -239 -209c-24 -138 51 -216 164 -216zM229 -21c-14 0 -23 10 -21 24s14 24 29 24c13 0 22 -10 20 -24s-14 -24 -28 -24z" />
    <glyph glyph-name="dvKHx" horiz-adv-x="679" 
d="M217 -148c-14 0 -23 10 -21 24s14 24 29 24c13 0 22 -10 20 -24s-14 -24 -28 -24zM554 176c114 0 202 74 222 186c20 114 -42 187 -156 187c-113 0 -201 -73 -221 -187c-20 -112 42 -186 155 -186zM27 724l3 16h829l-3 -16h-484l-28 -161c-27 -153 -117 -185 -205 -185
h-21l-29 -164c-21 -120 45 -198 170 -198c107 0 189 74 227 153c-81 24 -122 95 -104 193c22 125 117 203 240 203c124 0 193 -78 171 -203s-120 -202 -242 -202c-18 0 -34 2 -49 5c-42 -86 -127 -165 -243 -165c-132 0 -211 82 -187 214l32 180h44c69 0 154 25 179 169
l28 161h-328z" />
    <glyph glyph-name="dvGx" horiz-adv-x="444" 
d="M27 724l3 16h490l-3 -16h-140l-55 -310c-13 -74 -58 -141 -150 -141c-90 0 -118 70 -106 139l6 30h17l-6 -31c-10 -57 6 -122 89 -122c87 0 122 64 133 125l55 310h-333zM150 118c-14 0 -23 10 -21 24s14 24 29 24c13 0 22 -10 20 -24s-14 -24 -28 -24z" />
    <glyph glyph-name="dvJx" horiz-adv-x="555" 
d="M218 159c-95 1 -145 78 -127 181l30 169h17l-30 -170c-17 -96 26 -164 114 -164c92 0 161 68 178 164l30 170h278l-2 -16h-262l-27 -153c-19 -106 -92 -182 -199 -181zM27 724l3 16h719l-3 -16h-719zM199 11c-14 0 -23 10 -21 24s14 24 29 24c13 0 22 -10 20 -24
s-14 -24 -28 -24z" />
    <glyph glyph-name="dvPHx" horiz-adv-x="771" 
d="M275 247c113 0 190 87 208 191v0l50 286h-354l-45 -255c-24 -139 17 -222 141 -222zM27 724l3 16h936l-3 -16h-413l-50 -286c37 77 111 146 225 146c116 0 199 -85 174 -225h-17c23 131 -54 209 -160 209c-141 0 -217 -113 -236 -209l-63 -359h-17l62 353
c-38 -74 -108 -122 -197 -122c-131 0 -180 89 -154 238l45 255h-135zM239 83c-14 0 -23 10 -21 24s14 24 29 24c13 0 22 -10 20 -24s-14 -24 -28 -24z" />
    <glyph glyph-name="dvAnusvara" unicode="&#x902;" horiz-adv-x="0" 
d="M-48 855c-14 0 -23 10 -21 24s14 24 28 24c15 0 23 -10 21 -24s-14 -24 -28 -24z" />
    <glyph glyph-name="dvCandrabindu" unicode="&#x901;" horiz-adv-x="0" 
d="M-52 824c-120 0 -162 81 -150 145h16c-10 -58 23 -129 132 -129c108 0 168 71 178 129h16c-12 -64 -73 -145 -192 -145zM-29 978c-15 0 -22 10 -20 24s14 24 29 24c14 0 23 -10 20 -24s-15 -24 -29 -24z" />
    <glyph glyph-name="dvVisarga" unicode="&#x903;" horiz-adv-x="189" 
d="M119 489c-15 0 -24 10 -21 24c2 14 14 24 29 24c14 0 22 -10 20 -24c-3 -14 -14 -24 -28 -24zM63 173c-15 0 -23 10 -21 24c3 14 14 24 29 24c14 0 23 -10 20 -24c-2 -14 -14 -24 -28 -24z" />
    <glyph glyph-name="dvAvagraha" unicode="&#x93d;" horiz-adv-x="558" 
d="M40 75l3 16h241c68 0 108 40 115 86c25 138 -245 240 -217 395c14 79 83 100 152 100h182l-3 -16h-178c-57 0 -124 -16 -136 -85c-25 -143 244 -246 217 -395c-7 -48 -43 -101 -135 -101h-241z" />
    <glyph glyph-name="dvVirama" unicode="&#x94d;" horiz-adv-x="0" 
d="M-134 -244l-83 178h18l84 -178h-19z" />
    <glyph glyph-name="dvNukta" unicode="&#x93c;" horiz-adv-x="0" 
d="M-431 -45c-14 0 -23 10 -21 24s14 24 29 24c13 0 22 -10 20 -24s-14 -24 -28 -24z" />
    <glyph glyph-name="dvZero" unicode="&#x966;" horiz-adv-x="588" 
d="M85 354c36 203 99 357 287 357c187 0 197 -154 161 -357c-36 -205 -101 -361 -288 -361c-188 0 -196 156 -160 361zM513 354c34 193 29 339 -144 339s-230 -146 -264 -339c-35 -195 -30 -343 143 -343s230 148 265 343z" />
    <glyph glyph-name="dvOne" unicode="&#x967;" horiz-adv-x="226" 
d="M73 0l121 686h-106l4 18h126l-125 -704h-20z" />
    <glyph glyph-name="dvTwo" unicode="&#x968;" horiz-adv-x="567" 
d="M2 0l2 11c274 159 483 340 512 504c16 91 -9 178 -148 178c-136 0 -215 -94 -245 -213h-20c36 143 134 231 268 231c100 0 191 -50 165 -196c-33 -190 -308 -398 -492 -497h429l-4 -18h-467z" />
    <glyph glyph-name="dvThree" unicode="&#x969;" horiz-adv-x="575" 
d="M109 516c34 119 130 195 266 195c129 0 184 -76 167 -174c-13 -74 -67 -156 -204 -167l-1 -6c104 -12 175 -73 155 -185c-18 -101 -96 -186 -245 -186c-132 0 -207 75 -207 204h20c1 -105 63 -184 191 -184c131 0 205 74 221 166c21 118 -69 178 -231 178h-17l4 19h18
c176 0 259 62 276 161c16 91 -35 156 -150 156c-99 0 -204 -48 -243 -177h-20z" />
    <glyph glyph-name="dvFour" unicode="&#x96a;" horiz-adv-x="574" 
d="M369 0l34 190h-397l3 16l485 498h20l-88 -496h122l-3 -18h-122l-34 -190h-20zM34 208h372l82 464z" />
    <glyph glyph-name="dvFive" unicode="&#x96b;" horiz-adv-x="592" 
d="M158 704h422l-4 -18h-402l-56 -320c48 56 135 95 224 95c166 0 209 -109 189 -225c-22 -124 -107 -243 -276 -243c-125 0 -202 75 -199 199h20c2 -119 75 -179 182 -179c147 0 231 96 253 223c22 126 -36 207 -172 207c-93 0 -177 -42 -229 -110h-18z" />
    <glyph glyph-name="dvSix" unicode="&#x96c;" horiz-adv-x="614" 
d="M569 522h-20c5 106 -44 172 -154 172c-152 0 -262 -106 -300 -397c35 106 145 171 262 171c149 0 215 -94 189 -244c-20 -115 -101 -231 -268 -231c-218 0 -227 168 -196 346c40 225 130 373 316 373c124 0 177 -77 171 -190zM354 450c-105 0 -238 -64 -262 -205
c-20 -113 22 -234 189 -234c123 0 221 79 245 213c26 149 -43 226 -172 226z" />
    <glyph glyph-name="dvSeven" unicode="&#x96d;" horiz-adv-x="502" 
d="M87 704h452l-4 -18l-401 -686h-23l405 686h-433z" />
    <glyph glyph-name="dvEight" unicode="&#x96e;" horiz-adv-x="608" 
d="M244 362c-106 23 -137 91 -123 170c19 107 117 179 261 179s216 -72 197 -179c-14 -79 -69 -147 -183 -170c104 -18 158 -85 141 -185c-22 -124 -127 -202 -285 -202s-235 78 -213 202c17 100 95 167 205 185zM379 693c-124 0 -219 -55 -238 -161
c-18 -103 53 -161 181 -161s219 58 237 161c19 106 -56 161 -180 161zM319 353c-122 0 -238 -48 -260 -176c-22 -120 59 -184 196 -184s240 64 262 184c22 128 -76 176 -198 176z" />
    <glyph glyph-name="dvNine" unicode="&#x96f;" horiz-adv-x="614" 
d="M73 182h20c-4 -106 45 -172 155 -172c152 0 262 106 300 397c-36 -106 -145 -171 -262 -171c-149 0 -215 94 -189 244c20 115 101 231 268 231c218 0 227 -168 196 -346c-40 -225 -130 -373 -316 -373c-124 0 -177 77 -172 190zM289 254c105 0 237 64 262 205
c20 113 -22 234 -189 234c-123 0 -221 -79 -245 -213c-26 -149 43 -226 172 -226z" />
    <glyph glyph-name="dvOm" unicode="&#x950;" horiz-adv-x="1042" 
d="M216 14c-119 0 -196 79 -175 196h17c-19 -107 50 -180 160 -180c109 0 195 75 215 184c14 80 -18 174 -153 174h-34l3 16h34c119 0 184 85 197 158c19 109 -50 171 -145 171c-97 0 -185 -59 -203 -156h-17c19 109 115 172 223 172s179 -71 160 -183
c-15 -84 -70 -153 -166 -169v-1c22 -3 41 -10 57 -20h63c70 0 135 31 153 134c18 101 74 180 199 180c132 0 156 -103 130 -248l-27 -150c-29 -168 -103 -259 -285 -259c-28 0 -60 4 -94 10l3 16c35 -6 68 -10 94 -10c171 0 238 91 265 243l27 150c25 140 3 232 -116 232
c-112 0 -163 -74 -179 -164c-20 -112 -88 -150 -173 -150h-38c36 -34 49 -88 39 -146c-22 -120 -114 -200 -234 -200zM646 761c-127 0 -168 81 -155 145h16c-11 -58 24 -129 138 -129c112 0 161 71 172 129h16c-11 -64 -64 -145 -187 -145zM664 915c-14 0 -23 10 -21 24
s14 24 29 24c13 0 22 -10 20 -24s-14 -24 -28 -24z" />
    <glyph glyph-name="dvAbbreviationsign" unicode="&#x970;" horiz-adv-x="509" 
d="M282 516c93 0 149 -65 133 -158c-16 -90 -90 -154 -183 -154c-95 0 -154 65 -138 156s93 156 188 156zM282 500c-86 0 -157 -58 -171 -140s35 -140 121 -140c83 0 151 57 166 138c14 83 -33 142 -116 142z" />
    <glyph glyph-name="danda" unicode="&#x964;" horiz-adv-x="227" 
d="M247 742l-130 -742h-17l130 742h17z" />
    <glyph glyph-name="doubledanda" unicode="&#x965;" horiz-adv-x="382" 
d="M247 742l-130 -742h-17l130 742h17zM402 742l-130 -742h-17l130 742h17z" />
    <glyph glyph-name="rupee" unicode="&#x20a8;" horiz-adv-x="990" 
d="M509 505c20 109 -22 179 -173 179h-158l-63 -356h158c151 0 218 73 236 177zM162 704h178c160 0 210 -82 189 -199c-21 -125 -107 -193 -244 -198l162 -307h-25l-161 307h-149l-55 -307h-20zM597 407c15 86 91 140 189 140c108 0 166 -64 160 -165h-20
c5 76 -35 147 -143 147c-91 0 -153 -50 -166 -122c-32 -181 326 -65 289 -274c-15 -82 -88 -140 -182 -140c-114 0 -183 64 -177 165h20c-6 -78 43 -147 161 -147c88 0 146 53 158 122c33 188 -324 73 -289 274z" />
    <glyph glyph-name="indianrupee" unicode="&#x20b9;" horiz-adv-x="674" 
d="M138 686l4 18h544l-4 -18h-168l-24 -138c-2 -9 -3 -18 -5 -27h168l-3 -18h-169c-37 -150 -111 -180 -333 -180l-22 -129c-21 -118 21 -186 132 -186c104 0 168 63 188 176h20c-23 -129 -102 -194 -211 -194c-126 0 -170 80 -149 198l27 153c239 0 298 28 329 162h-356
l3 18h357c1 9 3 19 5 29l24 136h-357z" />
    <glyph glyph-name="zerowidthnonjoiner" unicode="&#x200c;" horiz-adv-x="0" 
d="M24 -230h-47v1041h47v-1041z" />
    <glyph glyph-name="zerowidthjoiner" unicode="&#x200d;" horiz-adv-x="0" 
d="M128 593l-33 -33l-72 75v-865h-47v865l-69 -73l-33 33l93 93l-95 95l33 33l95 -95l96 95l32 -32l-96 -96z" />
    <glyph glyph-name="dottedcircle" unicode="&#x25cc;" horiz-adv-x="651" 
d="M557 409c0 -25 -18 -42 -43 -42s-43 17 -43 42s18 42 43 42s43 -17 43 -42zM181 123c0 -25 -18 -42 -43 -42s-43 17 -43 42s18 42 43 42s43 -17 43 -42zM279 47c0 -25 -18 -42 -43 -42s-43 17 -43 42s18 42 43 42s43 -17 43 -42zM136 236c0 -25 -18 -42 -43 -42
s-43 17 -43 42s18 42 43 42s43 -17 43 -42zM403 33c0 -25 -18 -42 -43 -42s-43 17 -43 42s18 42 43 42s43 -17 43 -42zM151 357c0 -25 -18 -42 -43 -42s-43 17 -43 42s18 42 43 42s43 -17 43 -42zM518 79c0 -25 -18 -42 -43 -42s-43 17 -43 42s18 42 43 42s43 -17 43 -42z
M227 456c0 -25 -18 -42 -43 -42s-43 17 -43 42s18 42 43 42s43 -17 43 -42zM591 175c0 -25 -18 -42 -43 -42s-43 17 -43 42s18 42 43 42s43 -17 43 -42zM344 498c0 -25 -18 -42 -43 -42s-43 17 -43 42s18 42 43 42s43 -17 43 -42zM601 295c0 -25 -18 -42 -43 -42
s-43 17 -43 42s18 42 43 42s43 -17 43 -42zM465 483c0 -25 -18 -42 -43 -42s-43 17 -43 42s18 42 43 42s43 -17 43 -42z" />
    <glyph glyph-name="dvReph" horiz-adv-x="0" 
d="M-167 733l16 90c20 114 81 171 168 171c81 0 121 -58 107 -136h-16c12 68 -23 120 -94 120c-80 0 -130 -54 -148 -156l-16 -89h-17z" />
    <glyph glyph-name="dvEyelash" horiz-adv-x="240" 
d="M298 425c-13 -3 -42 -6 -73 -6c-102 0 -215 44 -191 178h16c-22 -123 84 -161 180 -161c33 0 52 3 69 5zM-10 724l3 16h332l-3 -16h-332z" />
    <glyph glyph-name="dvRashtrasign" horiz-adv-x="0" 
d="M-388 -97l217 179h23l153 -179h-21l-144 169l-203 -169h-25z" />
    <glyph glyph-name="dvK_RA" horiz-adv-x="1021" 
d="M442 0l47 266c-19 -35 -46 -69 -82 -95l-285 -217h-23l243 185c-24 -8 -50 -12 -79 -12c-123 0 -206 85 -180 232c25 140 137 225 257 225c114 0 168 -66 180 -141l49 281h-542l3 16h1091l-3 -16h-533l-50 -283c38 76 111 143 223 143c116 0 201 -85 176 -225
c-26 -147 -131 -232 -252 -232c-21 0 -43 3 -56 6l3 16c16 -4 37 -6 56 -6c107 0 208 78 232 216c23 131 -54 209 -160 209c-141 0 -216 -112 -236 -207l-63 -361h-16zM264 143c145 0 220 116 238 201l3 16c15 93 -20 208 -166 208c-108 0 -216 -78 -239 -209
c-24 -138 51 -216 164 -216z" />
    <glyph glyph-name="dvKH_RA" horiz-adv-x="909" 
d="M700 0l50 284c-34 -66 -103 -125 -202 -125c-16 0 -32 2 -46 5c-22 -42 -54 -82 -94 -112l-265 -203h-24v2l211 160c-24 -7 -48 -11 -75 -11c-132 0 -206 82 -183 214l32 180h44c64 0 154 25 179 169l28 161h-328l3 16h979l-3 -16h-162l-127 -724h-17zM551 175
c129 0 198 105 212 186c16 86 -19 188 -152 188c-99 0 -192 -68 -212 -183c-21 -122 50 -191 152 -191zM259 16c102 0 189 74 227 153c-74 24 -121 94 -104 197c21 124 120 199 231 199c104 0 153 -58 164 -124l50 283h-455l-28 -161c-27 -153 -117 -185 -205 -185h-21
l-29 -164c-21 -120 45 -198 170 -198z" />
    <glyph glyph-name="dvG_RA" horiz-adv-x="683" 
d="M474 0l54 307l-384 -327h-25l413 353l69 391h-224l-48 -270c-13 -74 -57 -141 -150 -141c-94 0 -118 75 -105 144l5 25h17l-6 -31c-11 -57 6 -122 89 -122c87 0 122 64 133 125l48 270h-333l3 16h753l-3 -16h-162l-127 -724h-17z" />
    <glyph glyph-name="dvGH_RA" horiz-adv-x="721" 
d="M287 132c132 0 264 95 289 229l64 363h-441l-19 -102c-17 -101 25 -155 156 -155h49l-3 -16h-46c-145 0 -218 -69 -234 -152c-20 -114 64 -167 185 -167zM27 724l3 16h791l-3 -16h-161l-128 -724h-17l49 276c-21 -39 -51 -73 -87 -99l-308 -235h-24l254 194
c-35 -13 -73 -20 -112 -20c-131 0 -220 62 -199 183c17 96 100 152 185 159v2c-72 8 -126 53 -107 162l19 102h-155z" />
    <glyph glyph-name="dvNG_RA" horiz-adv-x="623" 
d="M573 391c-15 0 -23 10 -20 24c2 14 14 24 29 24c14 0 22 -10 20 -24c-3 -14 -15 -24 -29 -24zM28 724l3 16h692l-3 -16h-195l-29 -162v0l-3 -16h-169c-76 0 -173 -18 -191 -117c-15 -86 52 -115 129 -115h45c99 0 197 -42 175 -164c-15 -84 -86 -153 -209 -159l146 -170
h-21l-144 169l-203 -169h-25l207 171c-137 8 -195 93 -177 192h17c-17 -96 36 -177 186 -177c119 0 192 65 206 143c21 118 -73 148 -162 148h-45c-86 0 -158 41 -142 132c19 106 118 132 201 132h162l29 162h-480z" />
    <glyph glyph-name="dvC_RA" horiz-adv-x="718" 
d="M27 724l3 16h788l-3 -16h-161l-128 -724h-17l45 254c-19 -33 -46 -63 -78 -87l-279 -213h-23l228 175c-25 -9 -53 -14 -81 -14c-116 0 -205 78 -182 209c17 97 84 172 179 201h-242l3 16h357l-3 -16h-29c-133 0 -228 -89 -248 -201c-22 -124 60 -193 167 -193
c120 0 223 94 244 197l70 396h-610z" />
    <glyph glyph-name="dvCH_RA" horiz-adv-x="808" 
d="M334 49c195 0 371 118 404 306c24 133 -46 190 -119 190c-62 0 -149 -35 -169 -148c-6 -32 -5 -68 1 -107h-17c-7 39 -7 75 -1 107c21 118 108 161 181 164l29 163h-452l-24 -135c-18 -101 24 -155 150 -155h24l-2 -16h-24c-145 0 -222 -76 -238 -167
c-24 -135 98 -202 257 -202zM25 724l2 16h881l-2 -16h-246l-29 -163c81 -4 149 -67 125 -205c-33 -185 -184 -300 -367 -320l148 -172h-23l-144 169l-203 -169h-23l204 169h-16c-174 0 -297 77 -272 218c19 108 106 166 196 174v2c-71 8 -126 53 -106 162l24 135h-149z" />
    <glyph glyph-name="dvJ_RA" horiz-adv-x="823" 
d="M27 724l3 16h893l-3 -16h-161l-128 -724h-17l54 307l-384 -327h-25l413 352l29 161h-258l-14 -83c-18 -106 -94 -181 -193 -181s-152 75 -133 181l18 99h17l-18 -100c-17 -96 25 -164 114 -164c92 0 162 68 178 164l17 100h274l39 215h-715z" />
    <glyph glyph-name="dvJH_RA" horiz-adv-x="880" 
d="M798 724h-268l-29 -162v0l-3 -16h-169c-73 0 -176 -18 -193 -117c-16 -86 52 -115 131 -115h459zM670 0l39 219l-272 -319h-22l299 349l9 50l-326 1c61 -17 105 -66 90 -150c-15 -80 -80 -150 -205 -150c-138 0 -182 88 -187 117l-34 -188h-17l44 244h15
c-1 -81 51 -157 183 -157c114 0 172 64 184 134c17 92 -40 148 -161 148h-45c-92 0 -161 40 -145 131c18 106 121 133 205 133h160l29 162h-479l3 16h943l-3 -16h-162l-128 -724h-17z" />
    <glyph glyph-name="dvNY_RA" horiz-adv-x="837" 
d="M28 724l2 16h907l-2 -16h-163l-127 -724h-17l45 254l-380 -324h-24l408 348l16 89h-181c-19 -108 -102 -216 -253 -216c-134 0 -187 88 -185 155h17c-2 -62 48 -138 168 -138c136 0 218 94 237 202c18 103 -29 197 -165 197c-124 0 -192 -78 -219 -139h-17
c29 69 100 155 237 155c146 0 195 -99 183 -200h180l60 341h-727z" />
    <glyph glyph-name="dvTT_RA" horiz-adv-x="649" 
d="M22 724l3 16h724l-3 -16h-248l-30 -167h-68c-151 0 -284 -78 -314 -245c-25 -136 64 -233 203 -233c142 0 250 100 274 241h17c-25 -148 -133 -253 -284 -257l145 -170h-21l-144 169l-203 -169h-25l208 172c-129 13 -212 112 -187 248c32 180 173 260 334 260h52l26 151
h-459z" />
    <glyph glyph-name="dvTTH_RA" horiz-adv-x="675" 
d="M283 79c131 0 254 93 278 228c24 136 -59 236 -196 236c-131 0 -254 -92 -278 -228c-24 -135 61 -236 196 -236zM426 -107l-144 169l-203 -169h-25l207 171c-132 9 -216 113 -191 251c25 142 146 240 289 244l29 165h-366l3 16h750l-3 -16h-367l-29 -165
c139 -4 227 -110 202 -252c-25 -138 -140 -234 -277 -243l146 -171h-21z" />
    <glyph glyph-name="dvDD_RA" horiz-adv-x="583" 
d="M28 724l3 16h652l-3 -16h-163l-32 -178h-161c-76 0 -173 -18 -191 -117c-15 -86 52 -115 129 -115h45c99 0 197 -42 175 -164c-16 -86 -89 -156 -216 -159l145 -170h-21l-144 169l-203 -169h-25l208 171c-133 11 -188 95 -170 192h17c-17 -96 36 -177 186 -177
c119 0 192 65 206 143c21 118 -73 148 -162 148h-45c-86 0 -158 41 -142 132c19 106 118 132 201 132h154l29 162h-472z" />
    <glyph glyph-name="dvDDH_RA" horiz-adv-x="626" 
d="M25 724l3 16h698l-3 -16h-204l-29 -167h-76c-155 0 -296 -85 -327 -262c-27 -152 69 -256 220 -256c118 0 214 73 232 172c15 83 -33 144 -115 144c-72 0 -137 -47 -148 -123c-1 -7 -2 -14 -2 -22h-17c0 6 1 16 2 23c15 86 85 138 168 138c88 0 145 -67 129 -160
c-19 -109 -122 -188 -247 -188l145 -170h-21l-144 169l-203 -169h-25l208 172c-139 15 -225 121 -199 269c34 193 183 279 347 279h59l26 151h-477z" />
    <glyph glyph-name="dvNN_RA" horiz-adv-x="820" 
d="M251 301c92 0 158 68 175 164l45 259h-292l-45 -259c-17 -96 27 -164 117 -164zM27 724l3 16h890l-3 -16h-162l-127 -724h-17l54 306l-383 -326h-25l412 352l69 392h-250l-45 -258c-19 -106 -88 -181 -192 -181c-101 0 -153 75 -134 181l45 258h-135z" />
    <glyph glyph-name="dvT_RA" horiz-adv-x="681" 
d="M27 724l3 16h751l-3 -16h-161l-128 -724h-17l61 345l-405 -345h-23v2l432 368c-12 89 -80 157 -195 157c-117 0 -226 -77 -250 -214h-17c26 149 143 230 270 230c121 0 178 -69 199 -131l56 312h-573z" />
    <glyph glyph-name="dvTH_RA" horiz-adv-x="740" 
d="M531 0l47 264c-16 -36 -50 -76 -98 -106l-344 -236h-24v2l294 201c-25 -7 -52 -11 -81 -11c-163 0 -254 105 -225 262c2 11 5 23 8 35h108c100 0 230 28 255 170c15 84 -28 152 -123 152c-117 0 -187 -88 -187 -208h-17c0 130 80 224 204 224c104 0 157 -75 140 -168
c-26 -147 -154 -186 -274 -186h-93c-37 -164 46 -265 206 -265c124 0 242 89 264 213l70 397h179l-2 -16h-162l-128 -724h-17z" />
    <glyph glyph-name="dvD_RA" horiz-adv-x="607" 
d="M27 724l3 16h677l-3 -16h-170l-27 -152h-121c-133 0 -260 -67 -286 -214c-22 -127 48 -213 173 -213c80 0 197 48 219 176h15l-56 -321h-17l42 241c-14 -27 -36 -50 -64 -69l-281 -215h-23l243 185c-25 -8 -52 -13 -80 -13c-134 0 -212 95 -188 229
c29 163 164 230 305 230h104l25 136h-490z" />
    <glyph glyph-name="dvDH_RA" horiz-adv-x="693" 
d="M266 116c-112 0 -199 62 -179 171c17 91 88 137 154 143v2c-66 12 -121 63 -104 162c15 87 87 155 183 155c101 0 150 -70 121 -176h-17c28 100 -16 160 -107 160c-83 0 -149 -62 -163 -140c-16 -89 31 -153 149 -153h54l-3 -16h-54c-119 0 -183 -62 -196 -137
c-18 -102 62 -155 165 -155c131 0 255 95 279 228l65 372l1 8h179l-2 -16h-162l-128 -724h-17l48 275c-22 -41 -53 -77 -90 -103l-301 -230h-25l251 191c-32 -11 -66 -17 -101 -17z" />
    <glyph glyph-name="dvN_RA" horiz-adv-x="781" 
d="M225 176c95 0 174 71 191 160c18 93 -40 159 -135 159c-98 0 -178 -65 -195 -161c-17 -93 39 -158 139 -158zM28 724l3 16h850l-3 -16h-162l-128 -724h-17l47 265l-382 -325h-24l410 349l37 207h-307c56 -19 96 -78 81 -160c-18 -103 -105 -176 -211 -176
c-108 0 -171 73 -153 174c18 106 104 177 220 177h372l38 213h-671z" />
    <glyph glyph-name="dvP_RA" horiz-adv-x="635" 
d="M285 247c113 0 199 85 216 182l52 295h-374l-45 -255c-24 -139 27 -222 151 -222zM27 724l3 16h705l-3 -16h-162l-127 -724h-17l62 352c-17 -30 -39 -56 -66 -77l-343 -274h-24l302 241c-23 -7 -48 -11 -75 -11c-129 0 -191 89 -165 238l45 255h-135z" />
    <glyph glyph-name="dvPH_RA" horiz-adv-x="986" 
d="M275 247c113 0 190 87 208 191v0l50 286h-354l-45 -255c-24 -139 17 -222 141 -222zM27 724l3 16h1056l-3 -16h-533l-50 -286c37 77 111 146 225 146c116 0 199 -85 174 -225c-26 -147 -133 -232 -252 -232c-21 0 -43 3 -56 6l3 16c16 -4 37 -6 56 -6
c109 0 208 78 232 216c23 131 -54 209 -160 209c-141 0 -217 -113 -236 -209l-63 -359h-17l62 353c-17 -32 -39 -60 -67 -80l-340 -273h-23l302 242c-21 -7 -44 -11 -69 -11c-131 0 -180 89 -154 238l45 255h-135z" />
    <glyph glyph-name="dvB_RA" horiz-adv-x="690" 
d="M457 180l-296 -226h-24l239 182c-27 -10 -58 -16 -93 -16c-127 0 -227 86 -201 233c26 149 144 240 281 240c119 0 182 -72 195 -152l50 283h-581l3 16h760l-3 -16h-162l-127 -724h-17l48 269c-16 -32 -39 -62 -72 -89zM361 577c-61 0 -120 -21 -167 -59l268 -312
c46 44 73 100 81 149c19 103 -29 222 -182 222zM286 136c69 0 124 25 165 60l-268 312c-42 -38 -73 -90 -84 -155c-24 -138 65 -217 187 -217z" />
    <glyph glyph-name="dvBH_RA" horiz-adv-x="763" 
d="M214 172c82 0 144 62 163 172l15 85h-122c-85 0 -154 -46 -169 -119c-15 -83 34 -138 113 -138zM214 156c-91 0 -146 63 -130 154c17 82 92 135 188 135h123l19 111c19 108 -7 176 -95 176c-74 0 -133 -51 -149 -140c-2 -14 -3 -28 -3 -44h-17c0 15 1 30 3 44
c17 98 84 157 166 157c96 0 133 -72 112 -192l-20 -112h221l52 295h179l-3 -16h-162l-128 -724h-17l47 265l-381 -325h-26l411 350l25 139h-220l-15 -84c-22 -127 -88 -189 -180 -189z" />
    <glyph glyph-name="dvM_RA" horiz-adv-x="735" 
d="M175 182c82 0 143 62 163 172l19 105h-123c-87 0 -157 -54 -172 -139c-15 -83 34 -138 113 -138zM609 475l44 249h-232l-44 -249h232zM27 724l3 16h805l-3 -16h-162l-128 -724h-17l48 267l-385 -327h-26l414 352l30 167h-232l-19 -104c-23 -127 -88 -189 -180 -189
c-91 0 -146 63 -130 154c17 94 94 155 192 155h123l44 249h-377z" />
    <glyph glyph-name="dvY_RA" horiz-adv-x="720" 
d="M310 154c122 0 238 81 264 207l64 363h-251l-15 -89c-28 -155 -131 -196 -259 -196h-3c-2 -8 -3 -15 -4 -19c-31 -167 51 -266 204 -266zM27 724l3 16h790l-3 -16h-162l-127 -724h-17l50 283c-18 -36 -50 -72 -94 -100l-351 -241h-23v2l299 206c-26 -8 -55 -12 -86 -12
c-161 0 -247 111 -216 282c2 11 5 25 8 35h18c109 0 212 31 239 180l15 89h-343z" />
    <glyph glyph-name="dvL_RA" horiz-adv-x="886" 
d="M538 104c-12 0 -25 1 -37 2l3 17c11 -1 21 -2 31 -2c138 0 222 96 244 220c19 111 -18 203 -129 203c-113 0 -189 -93 -215 -241l-1 -8h-17l1 8c27 145 -13 241 -124 241c-116 0 -186 -88 -206 -203c-22 -124 28 -220 166 -220c10 0 20 1 31 2l-3 -17
c-10 -1 -18 -2 -29 -2c-147 0 -207 104 -182 237c22 126 99 219 224 219c117 0 149 -96 146 -173h2c24 76 84 168 200 173l29 164h-654l3 16h965l-3 -16h-294l-29 -164c114 -5 157 -102 136 -219c-23 -133 -111 -237 -258 -237zM272 -135l217 179h23l153 -179h-21l-144 169
l-203 -169h-25z" />
    <glyph glyph-name="dvV_RA" horiz-adv-x="681" 
d="M278 141c157 0 239 121 256 213c18 101 -23 218 -180 218c-117 0 -230 -79 -254 -213c-24 -139 57 -218 178 -218zM778 724h-162l-127 -724h-17l47 268c-17 -33 -43 -65 -76 -90l-292 -221h-23l242 182c-28 -9 -58 -14 -92 -14c-131 0 -221 86 -195 234
c25 142 143 229 270 229c125 0 184 -68 196 -148l50 284h-572l3 16h751z" />
    <glyph glyph-name="dvSH_RA" horiz-adv-x="755" 
d="M276 393l23 -14l31 21c78 52 130 104 144 187c14 75 -31 146 -128 146c-86 0 -159 -67 -171 -140c-15 -89 25 -152 101 -200zM546 0l32 183l-84 54l-300 -237h-22v2l308 243l-181 114l-239 -159h-22v3l246 166l-18 11c-85 54 -123 125 -107 213c15 86 91 156 190 156
c105 0 157 -79 142 -163c-15 -86 -69 -144 -151 -199l-27 -18l268 -169l95 540h179l-2 -16h-162l-128 -724h-17z" />
    <glyph glyph-name="dvSS_RA" horiz-adv-x="635" 
d="M290 247c89 0 158 53 192 126l-306 331l-42 -235c-25 -139 38 -222 156 -222zM503 438l50 286h-373l309 -336c6 16 11 33 14 50zM27 724l3 16h705l-3 -16h-162l-127 -724h-17l62 350c-17 -31 -40 -58 -68 -78l-339 -271h-25l300 240c-21 -7 -45 -10 -70 -10
c-123 0 -196 89 -169 238l45 255h-135z" />
    <glyph glyph-name="dvS_RA" horiz-adv-x="841" 
d="M465 611c-23 -123 -98 -183 -167 -202h407l55 315h-274zM27 724l3 16h881l-3 -16h-131l-128 -724h-17l51 289l-307 -339h-22l335 369l13 75h-581l-33 -190c-18 -116 21 -197 121 -197c97 0 137 80 152 182h17c-16 -109 -60 -198 -170 -198c-106 0 -157 87 -137 214
l36 205h110c120 0 209 77 232 201l21 113h-443z" />
    <glyph glyph-name="dvH_RA" horiz-adv-x="587" 
d="M464 26c-27 -64 -108 -145 -230 -145c-149 0 -204 108 -183 224c16 90 76 176 168 208c-40 11 -98 52 -84 128c16 91 96 124 185 124h175l28 159h-487l3 16h657l-3 -16h-153l-28 -159l-3 -16h-192c-77 0 -151 -27 -166 -109c-12 -67 33 -105 93 -119c18 4 37 6 57 6
c99 0 153 -53 170 -105l-163 -133h-23l167 136c-18 43 -66 86 -151 86c-126 0 -213 -98 -233 -206c-20 -110 29 -207 165 -207c113 0 187 70 214 128h17z" />
    <glyph glyph-name="dvLL_RA" horiz-adv-x="1019" 
d="M254 149c120 0 215 85 236 202c22 123 -42 209 -164 209c-116 0 -217 -82 -239 -209c-21 -120 51 -202 167 -202zM674 149c116 0 218 82 239 202c22 127 -49 209 -165 209c-122 0 -216 -86 -238 -209c-21 -117 44 -202 164 -202zM818 -37l-144 169l-203 -169h-25l207 171
c-104 8 -161 81 -162 160h-2c-31 -84 -119 -161 -236 -161c-128 0 -205 92 -183 218c24 136 132 225 257 225c127 0 178 -82 184 -159h2c32 77 109 159 234 159l26 148h-757l3 16h1100l-3 -16h-326l-26 -148c116 -7 189 -94 166 -225c-21 -119 -118 -208 -237 -217l146 -171
h-21z" />
    <glyph glyph-name="dvKx_RA" horiz-adv-x="1021" 
d="M442 0l47 266c-19 -35 -46 -69 -82 -95l-285 -217h-23l243 185c-24 -8 -50 -12 -79 -12c-123 0 -206 85 -180 232c25 140 137 225 257 225c114 0 168 -66 180 -141l49 281h-562l3 16h1111l-3 -16h-533l-50 -283c38 76 111 143 223 143c116 0 201 -85 176 -225
c-26 -147 -131 -232 -252 -232c-21 0 -43 3 -56 6l3 16c16 -4 37 -6 56 -6c107 0 208 78 232 216c23 131 -54 209 -160 209c-141 0 -216 -112 -236 -207l-63 -361h-16zM264 143c145 0 220 116 238 201l3 16c15 93 -20 208 -166 208c-108 0 -216 -78 -239 -209
c-24 -138 51 -216 164 -216zM7 47c-14 0 -23 10 -21 24s14 24 29 24c13 0 22 -10 20 -24s-14 -24 -28 -24z" />
    <glyph glyph-name="dvKHx_RA" horiz-adv-x="909" 
d="M700 0l50 284c-34 -66 -103 -125 -202 -125c-16 0 -32 2 -46 5c-22 -42 -54 -82 -94 -112l-265 -203h-24v2l211 160c-24 -7 -48 -11 -75 -11c-132 0 -206 82 -183 214l32 180h44c64 0 154 25 179 169l28 161h-328l3 16h979l-3 -16h-162l-127 -724h-17zM24 -83
c-14 0 -23 10 -21 24s14 24 29 24c13 0 22 -10 20 -24s-14 -24 -28 -24zM551 175c129 0 198 105 212 186c16 86 -19 188 -152 188c-99 0 -192 -68 -212 -183c-21 -122 50 -191 152 -191zM259 16c102 0 189 74 227 153c-74 24 -121 94 -104 197c21 124 120 199 231 199
c104 0 153 -58 164 -124l50 283h-455l-28 -161c-27 -153 -117 -185 -205 -185h-21l-29 -164c-21 -120 45 -198 170 -198z" />
    <glyph glyph-name="dvGx_RA" horiz-adv-x="683" 
d="M474 0l54 307l-384 -327h-25l413 353l69 391h-224l-48 -270c-13 -74 -57 -141 -150 -141c-94 0 -118 75 -105 144l5 25h17l-6 -31c-11 -57 6 -122 89 -122c87 0 122 64 133 125l48 270h-333l3 16h753l-3 -16h-162l-127 -724h-17zM38 107c-14 0 -23 10 -21 24s14 24 29 24
c13 0 22 -10 20 -24s-14 -24 -28 -24z" />
    <glyph glyph-name="dvJx_RA" horiz-adv-x="823" 
d="M27 724l3 16h893l-3 -16h-161l-128 -724h-17l54 307l-384 -327h-25l413 352l29 161h-258l-14 -83c-18 -106 -94 -181 -193 -181s-152 75 -133 181l18 99h17l-18 -100c-17 -96 25 -164 114 -164c92 0 162 68 178 164l17 100h274l39 215h-715zM75 37c-14 0 -23 10 -21 24
s14 24 29 24c13 0 22 -10 20 -24s-14 -24 -28 -24z" />
    <glyph glyph-name="dvPHx_RA" horiz-adv-x="986" 
d="M275 247c113 0 190 87 208 191v0l50 286h-354l-45 -255c-24 -139 17 -222 141 -222zM-13 724l3 16h1096l-3 -16h-533l-50 -286c37 77 111 146 225 146c116 0 199 -85 174 -225c-26 -147 -133 -232 -252 -232c-21 0 -43 3 -56 6l3 16c16 -4 37 -6 56 -6
c109 0 208 78 232 216c23 131 -54 209 -160 209c-141 0 -217 -113 -236 -209l-63 -359h-17l62 353c-17 -32 -39 -60 -67 -80l-340 -273h-23l302 242c-21 -7 -44 -11 -69 -11c-131 0 -180 89 -154 238l45 255h-175zM-17 137c-14 0 -23 10 -21 24s14 24 29 24
c13 0 22 -10 20 -24s-14 -24 -28 -24z" />
    <glyph glyph-name="dvK_R" horiz-adv-x="771" 
d="M442 0l47 266c-19 -35 -46 -69 -82 -95l-285 -217h-23l243 185c-24 -8 -50 -12 -79 -12c-123 0 -206 85 -180 232c25 140 137 225 257 225c114 0 168 -66 180 -141l49 281h-542l3 16h971l-3 -16h-413l-50 -283c38 76 111 143 223 143c116 0 201 -85 176 -225h-17
c23 131 -54 209 -160 209c-141 0 -216 -112 -236 -207l-63 -361h-16zM264 143c145 0 220 116 238 201l3 16c15 93 -20 208 -166 208c-108 0 -216 -78 -239 -209c-24 -138 51 -216 164 -216z" />
    <glyph glyph-name="dvKH_R" horiz-adv-x="679" 
d="M554 176c114 0 202 74 222 186c20 114 -42 187 -156 187c-113 0 -201 -73 -221 -187c-20 -112 42 -186 155 -186zM27 724l3 16h829l-3 -16h-484l-28 -161c-27 -153 -117 -185 -205 -185h-21l-29 -164c-21 -120 45 -198 170 -198c107 0 189 74 227 153
c-81 24 -122 95 -104 193c22 125 117 203 240 203c124 0 193 -78 171 -203s-120 -202 -242 -202c-18 0 -34 2 -49 5c-22 -45 -55 -87 -98 -118l-259 -198h-24v2l210 160c-23 -7 -47 -11 -72 -11c-132 0 -211 82 -187 214l32 180h44c69 0 154 25 179 169l28 161h-328z" />
    <glyph glyph-name="dvG_R" horiz-adv-x="420" 
d="M119 -20l415 354l-3 -23l-387 -331h-25zM27 724l3 16h574l-3 -16h-224l-48 -270c-13 -74 -57 -141 -150 -141c-94 0 -119 75 -105 144l5 25h17l-6 -31c-11 -57 6 -122 89 -122c87 0 122 64 133 125l48 270h-333z" />
    <glyph glyph-name="dvGH_R" horiz-adv-x="466" 
d="M27 724l3 16h627l-3 -16h-456l-18 -102c-18 -101 25 -155 151 -155h54l-3 -16h-54c-142 0 -211 -69 -226 -152c-20 -114 64 -167 185 -167c137 0 265 95 289 232h15c-14 -77 -57 -143 -118 -188l-307 -234h-24l254 194c-35 -13 -72 -20 -112 -20c-137 0 -220 62 -199 183
c17 96 100 152 184 159l1 2c-72 8 -126 53 -107 162l18 102h-154z" />
    <glyph glyph-name="dvNG_R" horiz-adv-x="623" 
d="M301 -357l-83 178h18l84 -178h-19zM573 391c-15 0 -23 10 -20 24c2 14 14 24 29 24c14 0 22 -10 20 -24c-3 -14 -15 -24 -29 -24zM28 724l3 16h692l-3 -16h-195l-29 -162v0l-3 -16h-169c-76 0 -173 -18 -191 -117c-15 -86 52 -115 129 -115h45c99 0 197 -42 175 -164
c-15 -84 -86 -153 -209 -159l146 -170h-21l-144 169l-203 -169h-25l207 171c-137 8 -195 93 -177 192h17c-17 -96 36 -177 186 -177c119 0 192 65 206 143c21 118 -73 148 -162 148h-45c-86 0 -158 41 -142 132c19 106 118 132 201 132h162l29 162h-480z" />
    <glyph glyph-name="dvC_R" horiz-adv-x="477" 
d="M27 724l3 16h623l-3 -16h-623zM76 525l3 16h357l-3 -16h-29c-133 0 -229 -89 -248 -201c-22 -124 60 -193 167 -193c120 0 226 96 244 202h14c-9 -66 -52 -129 -111 -170l-273 -209h-23l228 175c-26 -9 -53 -14 -81 -14c-113 0 -206 76 -182 209c18 97 84 172 178 201
h-241z" />
    <glyph glyph-name="dvCH_R" horiz-adv-x="808" 
d="M25 724l2 16h881l-2 -16h-715l-24 -135c-18 -101 24 -155 150 -155h24l-2 -16h-24c-145 0 -222 -76 -238 -167c-24 -135 98 -202 257 -202c195 0 371 118 404 306c24 133 -46 190 -119 190c-62 0 -149 -35 -169 -148c-6 -32 -5 -68 1 -107h-17c-7 39 -7 75 -1 107
c22 123 115 164 189 164c85 0 159 -62 134 -205c-33 -185 -184 -300 -367 -320l148 -172h-23l-144 169l-203 -169h-23l204 169h-16c-174 0 -297 77 -272 218c19 108 106 166 196 174v2c-71 8 -126 53 -106 162l24 135h-149z" />
    <glyph glyph-name="dvJ_R" horiz-adv-x="555" 
d="M259 -20l422 360l-5 -25l-392 -335h-25zM29 724l3 16h719l-3 -16h-719zM236 229c-99 0 -152 75 -133 181l18 99h17l-18 -100c-17 -96 25 -164 114 -164c92 0 162 68 178 164l17 100h282l-3 -16h-265l-14 -83c-18 -106 -94 -181 -193 -181z" />
    <glyph glyph-name="dvJH_R" horiz-adv-x="577" 
d="M415 -100l233 271l-6 -30l-205 -241h-22zM34 724l3 16h711l-3 -16h-215l-29 -162v0l-3 -16h-169c-73 0 -176 -18 -193 -117c-16 -86 52 -115 131 -115h406l-2 -15l-274 1c61 -17 105 -66 90 -150c-15 -80 -80 -150 -205 -150c-138 0 -182 88 -187 117l-34 -188h-17
l44 244h15c-1 -81 51 -157 183 -157c114 0 172 64 184 134c17 92 -40 148 -161 148h-45c-92 0 -161 40 -145 131c18 106 121 133 205 133h160l29 162h-479z" />
    <glyph glyph-name="dvNY_R" horiz-adv-x="552" 
d="M259 151c-134 0 -187 88 -185 155h17c-2 -62 48 -138 168 -138c136 0 218 94 237 202c18 103 -29 197 -165 197c-124 0 -192 -78 -219 -139h-17c29 69 100 155 237 155c146 0 195 -99 183 -200h137l-2 -16h-138c-19 -108 -102 -216 -253 -216zM622 210l-329 -280h-24
l357 304zM28 724l2 16h685l-2 -16h-685z" />
    <glyph glyph-name="dvTT_R" horiz-adv-x="649" 
d="M324 -285l-84 178h18l85 -178h-19zM22 724l3 16h724l-3 -16h-248l-30 -167h-68c-151 0 -284 -78 -314 -245c-25 -136 64 -233 203 -233c142 0 250 100 274 241h17c-25 -148 -133 -253 -284 -257l145 -170h-21l-144 169l-203 -169h-25l208 172c-129 13 -212 112 -187 248
c32 180 173 260 334 260h52l26 151h-459z" />
    <glyph glyph-name="dvTTH_R" horiz-adv-x="675" 
d="M323 -285l-84 178h18l85 -178h-19zM283 79c131 0 254 93 278 228c24 136 -59 236 -196 236c-131 0 -254 -92 -278 -228c-24 -135 61 -236 196 -236zM426 -107l-144 169l-203 -169h-25l207 171c-132 9 -216 113 -191 251c25 142 146 240 289 244l29 165h-366l3 16h750
l-3 -16h-367l-29 -165c139 -4 227 -110 202 -252c-25 -138 -140 -234 -277 -243l146 -171h-21z" />
    <glyph glyph-name="dvDD_R" horiz-adv-x="583" 
d="M289 -357l-83 178h18l84 -178h-19zM28 724l3 16h652l-3 -16h-163l-32 -178h-161c-76 0 -173 -18 -191 -117c-15 -86 52 -115 129 -115h45c99 0 197 -42 175 -164c-16 -86 -89 -156 -216 -159l145 -170h-21l-144 169l-203 -169h-25l208 171c-133 11 -188 95 -170 192h17
c-17 -96 36 -177 186 -177c119 0 192 65 206 143c21 118 -73 148 -162 148h-45c-86 0 -158 41 -142 132c19 106 118 132 201 132h154l29 162h-472z" />
    <glyph glyph-name="dvDDH_R" horiz-adv-x="626" 
d="M340 -325l-84 178h18l85 -178h-19zM25 724l3 16h698l-3 -16h-204l-29 -167h-76c-155 0 -296 -85 -327 -262c-27 -152 69 -256 220 -256c118 0 214 73 232 172c15 83 -33 144 -115 144c-72 0 -137 -47 -148 -123c-1 -7 -2 -14 -2 -22h-17c0 6 1 16 2 23
c15 86 85 138 168 138c88 0 145 -67 129 -160c-19 -109 -122 -188 -247 -188l145 -170h-21l-144 169l-203 -169h-25l208 172c-139 15 -225 121 -199 269c34 193 183 279 347 279h59l26 151h-477z" />
    <glyph glyph-name="dvNN_R" horiz-adv-x="546" 
d="M257 -20l379 323l-4 -25l-350 -298h-25zM27 724l3 16h683l-3 -16h-222l-45 -258c-19 -106 -88 -181 -192 -181c-101 0 -153 75 -134 181l45 258h-135zM251 301c92 0 158 68 175 164l45 259h-292l-45 -259c-17 -96 27 -164 117 -164z" />
    <glyph glyph-name="dvT_R" horiz-adv-x="439" 
d="M75 313c26 149 145 230 275 230c132 0 197 -84 204 -177l-429 -366h-23v2l435 371c-12 87 -76 154 -190 154c-120 0 -231 -77 -255 -214h-17zM27 724l3 16h590l-3 -16h-590z" />
    <glyph glyph-name="dvTH_R" horiz-adv-x="469" 
d="M607 343c-12 -73 -56 -135 -115 -176v0l-356 -245h-24v2l295 202c-27 -8 -55 -12 -84 -12c-178 0 -261 122 -214 297h108c100 0 229 28 254 170c15 84 -27 152 -122 152c-118 0 -188 -87 -188 -208h-17c0 128 77 224 207 224c101 0 153 -75 137 -168
c-25 -146 -153 -186 -273 -186h-94c-36 -164 44 -265 206 -265c118 0 241 88 264 213h16z" />
    <glyph glyph-name="dvD_R" horiz-adv-x="607" 
d="M499 -278l-83 178h18l84 -178h-19zM27 724l3 16h677l-3 -16h-170l-27 -152h-121c-133 0 -260 -67 -286 -214c-22 -127 48 -213 173 -213c80 0 197 48 219 176h15l-56 -321h-17l42 241c-14 -27 -36 -50 -64 -69l-281 -215h-23l243 185c-25 -8 -52 -13 -80 -13
c-134 0 -212 95 -188 229c29 163 164 230 305 230h104l25 136h-490z" />
    <glyph glyph-name="dvDH_R" horiz-adv-x="429" 
d="M266 116c-118 0 -199 57 -179 168c17 93 88 140 154 146v2c-66 12 -122 63 -104 162c15 87 87 155 183 155c101 0 150 -70 121 -176h-17c28 100 -16 160 -107 160c-83 0 -150 -62 -163 -140c-16 -89 31 -153 149 -153h54l-3 -16h-54c-119 0 -183 -63 -196 -140
c-19 -104 62 -152 165 -152c141 0 253 83 274 202h15c-12 -65 -47 -121 -100 -159l-305 -233h-24l255 193c-35 -12 -75 -19 -118 -19z" />
    <glyph glyph-name="dvN_R" horiz-adv-x="505" 
d="M222 160c-108 0 -171 73 -153 174c18 106 104 177 220 177h379l-3 -15h-313c56 -19 96 -78 81 -160c-18 -103 -105 -176 -211 -176zM225 176c95 0 174 71 191 160c18 93 -40 159 -135 159c-98 0 -178 -65 -195 -161c-17 -93 39 -158 139 -158zM212 -60l418 356l-2 -22
l-392 -334h-24zM28 724l3 16h678l-3 -16h-678z" />
    <glyph glyph-name="dvP_R" horiz-adv-x="378" 
d="M27 724l3 16h542l-3 -16h-390l-45 -255c-24 -139 20 -222 151 -222c118 0 199 86 217 188h16c-11 -66 -44 -121 -93 -158v0l-345 -276h-23l304 243c-25 -9 -52 -13 -80 -13c-138 0 -190 89 -164 238l45 255h-135z" />
    <glyph glyph-name="dvPH_R" horiz-adv-x="771" 
d="M275 247c113 0 190 87 208 191v0l50 286h-354l-45 -255c-24 -139 17 -222 141 -222zM27 724l3 16h936l-3 -16h-413l-50 -286c37 77 111 146 225 146c116 0 199 -85 174 -225h-17c23 131 -54 209 -160 209c-141 0 -217 -113 -236 -209l-63 -359h-17l62 353
c-17 -32 -39 -60 -67 -80l-340 -273h-23l302 242c-21 -7 -44 -11 -69 -11c-131 0 -180 89 -154 238l45 255h-135z" />
    <glyph glyph-name="dvB_R" horiz-adv-x="449" 
d="M27 724l3 16h597l-3 -16h-597zM285 120c-131 0 -229 87 -204 233c27 149 148 240 280 240c166 0 216 -132 198 -238c-13 -72 -53 -139 -114 -183l-282 -218h-23l235 181c-28 -10 -58 -15 -90 -15zM360 577c-60 0 -119 -21 -166 -59l268 -311c45 43 72 100 81 148
c18 103 -30 222 -183 222zM285 136c69 0 124 25 166 60l-269 313c-42 -38 -72 -91 -84 -156c-24 -138 67 -217 187 -217z" />
    <glyph glyph-name="dvBH_R" horiz-adv-x="483" 
d="M214 172c82 0 144 62 163 172l15 85h-122c-85 0 -154 -46 -169 -119c-15 -83 34 -138 113 -138zM214 156c-91 0 -146 63 -130 154c17 82 92 135 188 135h123l19 111c19 108 -7 176 -95 176c-74 0 -133 -51 -149 -140c-2 -14 -3 -28 -3 -44h-17c0 15 1 30 3 44
c17 98 84 157 166 157c96 0 133 -72 112 -192l-20 -112h194l-3 -16h-193l-15 -84c-22 -127 -88 -189 -180 -189zM193 -60l380 323l-4 -24l-350 -299h-26z" />
    <glyph glyph-name="dvM_R" horiz-adv-x="480" 
d="M175 182c82 0 143 62 163 172l19 105h-123c-87 0 -157 -54 -172 -139c-15 -83 34 -138 113 -138zM162 -60l410 348l-4 -24l-380 -324h-26zM27 724l3 16h624l-3 -16h-230l-44 -249h229l-3 -16h-229l-19 -104c-23 -127 -88 -189 -180 -189c-91 0 -146 63 -130 154
c17 94 94 155 192 155h123l44 249h-377z" />
    <glyph glyph-name="dvY_R" horiz-adv-x="458" 
d="M27 724l3 16h627l-3 -16h-267l-15 -89c-28 -155 -131 -196 -259 -196h-3c-2 -8 -3 -15 -4 -19c-31 -167 51 -266 204 -266c125 0 244 85 266 216h16c-13 -79 -59 -147 -126 -188l-350 -240h-23v2l299 206c-27 -8 -56 -12 -86 -12c-161 0 -247 111 -216 282
c2 11 5 25 8 35h18c109 0 212 31 239 180l15 89h-343z" />
    <glyph glyph-name="dvL_R" horiz-adv-x="886" 
d="M546 -313l-83 178h18l84 -178h-19zM538 104c-12 0 -25 1 -37 2l3 17c11 -1 21 -2 31 -2c138 0 222 96 244 220c19 111 -18 203 -129 203c-113 0 -189 -93 -215 -241l-1 -8h-17l1 8c27 145 -13 241 -124 241c-116 0 -186 -88 -206 -203c-22 -124 28 -220 166 -220
c10 0 20 1 31 2l-3 -17c-10 -1 -18 -2 -29 -2c-147 0 -207 104 -182 237c22 126 99 219 224 219c117 0 149 -96 146 -173h2c24 76 84 168 200 173l29 164h-654l3 16h965l-3 -16h-294l-29 -164c114 -5 157 -102 136 -219c-23 -133 -111 -237 -258 -237zM272 -135l217 179h23
l153 -179h-21l-144 169l-203 -169h-25z" />
    <glyph glyph-name="dvV_R" horiz-adv-x="426" 
d="M27 724l3 16h589l-3 -16h-589zM281 141c155 0 237 121 253 214c18 100 -24 217 -177 217c-119 0 -233 -79 -257 -213c-24 -139 58 -218 181 -218zM280 125c-132 0 -223 86 -197 234c25 142 145 229 274 229c167 0 212 -130 194 -233c-11 -63 -49 -136 -115 -182
l-282 -216h-23l239 182c-27 -9 -57 -14 -90 -14z" />
    <glyph glyph-name="dvSH_R" horiz-adv-x="477" 
d="M276 393l23 -14l31 21c78 52 130 104 144 187c14 75 -31 146 -128 146c-86 0 -159 -67 -171 -140c-15 -89 25 -152 101 -200zM493 237l-299 -237h-22v2l307 244l-180 113l-239 -159h-22v3l246 166l-18 11c-85 54 -123 125 -107 213c15 86 91 156 190 156
c105 0 157 -79 142 -163c-15 -86 -69 -144 -151 -199l-26 -18l182 -115z" />
    <glyph glyph-name="dvSS_R" horiz-adv-x="390" 
d="M285 247c113 0 173 74 197 125l-306 332l-42 -235c-25 -139 40 -222 151 -222zM27 724l3 16h535l-3 -16h-383v0l321 -348c-13 -34 -38 -72 -76 -101l-339 -274h-23l299 241c-22 -7 -47 -11 -74 -11c-124 0 -197 89 -170 238l45 255h-135z" />
    <glyph glyph-name="dvS_R" horiz-adv-x="536" 
d="M354 -50l257 283l-5 -29l-230 -254h-22zM28 724l3 16h670l-3 -16h-212l-21 -113c-23 -123 -98 -183 -167 -202h344l-2 -15h-519l-33 -190c-18 -116 21 -197 121 -197c97 0 137 80 152 182h17c-16 -109 -60 -198 -170 -198c-106 0 -157 87 -137 214l36 205h110
c120 0 209 77 232 201l21 113h-442z" />
    <glyph glyph-name="dvH_R" horiz-adv-x="587" 
d="M285 -397l-84 178h18l85 -178h-19zM464 26c-27 -64 -108 -145 -230 -145c-149 0 -204 108 -183 224c16 90 76 176 168 208c-40 11 -98 52 -84 128c16 91 96 124 185 124h175l28 159h-487l3 16h657l-3 -16h-153l-28 -159l-3 -16h-192c-77 0 -151 -27 -166 -109
c-12 -67 33 -105 93 -119c18 4 37 6 57 6c99 0 153 -53 170 -105l-163 -133h-23l167 136c-18 43 -66 86 -151 86c-126 0 -213 -98 -233 -206c-20 -110 29 -207 165 -207c113 0 187 70 214 128h17z" />
    <glyph glyph-name="dvLL_R" horiz-adv-x="1019" 
d="M253 133c-128 0 -205 92 -183 218c24 136 132 225 257 225c127 0 178 -82 184 -159h2c32 77 109 159 236 159c125 0 205 -89 181 -225c-21 -119 -118 -208 -237 -217l146 -171h-21l-144 169l-203 -169h-25l207 171c-104 8 -161 81 -162 160h-2
c-31 -84 -119 -161 -236 -161zM254 149c120 0 215 85 236 202c22 123 -42 209 -164 209c-116 0 -217 -82 -239 -209c-21 -120 51 -202 167 -202zM674 149c116 0 218 82 239 202c22 127 -49 209 -165 209c-122 0 -216 -86 -238 -209c-21 -117 44 -202 164 -202zM16 724l3 16
h1100l-3 -16h-1100z" />
    <glyph glyph-name="dvKx_R" horiz-adv-x="771" 
d="M442 0l47 266c-19 -35 -46 -69 -82 -95l-285 -217h-23l243 185c-24 -8 -50 -12 -79 -12c-123 0 -206 85 -180 232c25 140 137 225 257 225c114 0 168 -66 180 -141l49 281h-542l3 16h971l-3 -16h-413l-50 -283c38 76 111 143 223 143c116 0 201 -85 176 -225h-17
c23 131 -54 209 -160 209c-141 0 -216 -112 -236 -207l-63 -361h-16zM264 143c145 0 220 116 238 201l3 16c15 93 -20 208 -166 208c-108 0 -216 -78 -239 -209c-24 -138 51 -216 164 -216zM7 47c-14 0 -23 10 -21 24s14 24 29 24c13 0 22 -10 20 -24s-14 -24 -28 -24z" />
    <glyph glyph-name="dvKHx_R" horiz-adv-x="679" 
d="M24 -83c-14 0 -23 10 -21 24s14 24 29 24c13 0 22 -10 20 -24s-14 -24 -28 -24zM554 176c114 0 202 74 222 186c20 114 -42 187 -156 187c-113 0 -201 -73 -221 -187c-20 -112 42 -186 155 -186zM27 724l3 16h829l-3 -16h-484l-28 -161c-27 -153 -117 -185 -205 -185h-21
l-29 -164c-21 -120 45 -198 170 -198c107 0 189 74 227 153c-81 24 -122 95 -104 193c22 125 117 203 240 203c124 0 193 -78 171 -203s-120 -202 -242 -202c-18 0 -34 2 -49 5c-22 -45 -55 -87 -98 -118l-259 -198h-24v2l210 160c-23 -7 -47 -11 -72 -11
c-132 0 -211 82 -187 214l32 180h44c69 0 154 25 179 169l28 161h-328z" />
    <glyph glyph-name="dvGx_R" horiz-adv-x="420" 
d="M119 -20l415 354l-3 -23l-387 -331h-25zM27 724l3 16h574l-3 -16h-224l-48 -270c-13 -74 -57 -141 -150 -141c-94 0 -119 75 -105 144l5 25h17l-6 -31c-11 -57 6 -122 89 -122c87 0 122 64 133 125l48 270h-333zM38 107c-14 0 -23 10 -21 24s14 24 29 24
c13 0 22 -10 20 -24s-14 -24 -28 -24z" />
    <glyph glyph-name="dvJx_R" horiz-adv-x="555" 
d="M259 -20l422 360l-5 -25l-392 -335h-25zM29 724l3 16h719l-3 -16h-719zM236 229c-99 0 -152 75 -133 181l18 99h17l-18 -100c-17 -96 25 -164 114 -164c92 0 162 68 178 164l17 100h282l-3 -16h-265l-14 -83c-18 -106 -94 -181 -193 -181zM75 37c-14 0 -23 10 -21 24
s14 24 29 24c13 0 22 -10 20 -24s-14 -24 -28 -24z" />
    <glyph glyph-name="dvPHx_R" horiz-adv-x="771" 
d="M275 247c113 0 190 87 208 191v0l50 286h-354l-45 -255c-24 -139 17 -222 141 -222zM-13 724l3 16h976l-3 -16h-413l-50 -286c37 77 111 146 225 146c116 0 199 -85 174 -225h-17c23 131 -54 209 -160 209c-141 0 -217 -113 -236 -209l-63 -359h-17l62 353
c-17 -32 -39 -60 -67 -80l-340 -273h-23l302 242c-21 -7 -44 -11 -69 -11c-131 0 -180 89 -154 238l45 255h-175zM-17 137c-14 0 -23 10 -21 24s14 24 29 24c13 0 22 -10 20 -24s-14 -24 -28 -24z" />
    <glyph glyph-name="dvK_KA" horiz-adv-x="1835" 
d="M749 584c95 0 162 -57 169 -156c44 99 137 156 236 156c114 0 168 -66 180 -141l49 281h-798l-49 -277c36 74 104 137 213 137zM264 143c145 0 220 116 238 201l3 16c15 93 -20 208 -166 208c-108 0 -216 -78 -239 -209c-24 -138 51 -216 164 -216zM1256 0l47 266
c-38 -74 -115 -139 -226 -139c-123 0 -206 85 -180 232c23 131 -43 209 -149 209c-140 0 -208 -111 -227 -207l-63 -361h-16l47 266c-38 -74 -115 -139 -226 -139c-123 0 -206 85 -180 232c25 140 137 225 257 225c114 0 168 -66 180 -141l49 281h-542l3 16h1905l-3 -16
h-533l-50 -283c38 76 111 143 223 143c116 0 201 -85 176 -225c-26 -147 -131 -232 -252 -232c-21 0 -43 3 -56 6l3 16c16 -4 37 -6 56 -6c107 0 208 78 232 216c23 131 -54 209 -160 209c-141 0 -216 -112 -236 -207l-63 -361h-16zM1078 143c145 0 220 116 238 201l3 16
c15 93 -20 208 -166 208c-108 0 -216 -78 -239 -209c-24 -138 51 -216 164 -216z" />
    <glyph glyph-name="dvKx_KxA" horiz-adv-x="1837" 
d="M754 584c93 0 159 -57 166 -155c44 98 137 155 236 155c114 0 168 -66 180 -141l49 281h-800l-49 -279c36 74 106 139 218 139zM264 143c145 0 220 116 238 201l3 16c15 93 -20 208 -166 208c-108 0 -216 -78 -239 -209c-24 -138 51 -216 164 -216zM229 -21
c-14 0 -23 10 -21 24s14 24 29 24c13 0 22 -10 20 -24s-14 -24 -28 -24zM1045 -21c-14 0 -23 10 -21 24s14 24 29 24c13 0 22 -10 20 -24s-14 -24 -28 -24zM1258 0l47 266c-38 -74 -115 -139 -226 -139c-123 0 -206 85 -180 232c23 131 -47 209 -146 209
c-141 0 -213 -111 -232 -207l-63 -361h-16l47 266c-38 -74 -115 -139 -226 -139c-123 0 -206 85 -180 232c25 140 137 225 257 225c114 0 168 -66 180 -141l49 281h-542l3 16h1907l-3 -16h-533l-50 -283c38 76 111 143 223 143c116 0 201 -85 176 -225
c-26 -147 -131 -232 -252 -232c-21 0 -43 3 -56 6l3 16c16 -4 37 -6 56 -6c107 0 208 78 232 216c23 131 -54 209 -160 209c-141 0 -216 -112 -236 -207l-63 -361h-16zM1080 143c145 0 220 116 238 201l3 16c15 93 -20 208 -166 208c-108 0 -216 -78 -239 -209
c-24 -138 51 -216 164 -216z" />
    <glyph glyph-name="dvK_KHA" horiz-adv-x="1708" 
d="M947 394c64 0 154 25 179 169l28 161h-569l-49 -277c36 74 104 137 213 137c106 0 177 -71 169 -190h29zM264 143c145 0 220 116 238 201l3 16c15 93 -20 208 -166 208c-108 0 -216 -78 -239 -209c-24 -138 51 -216 164 -216zM1499 0l50 284c-34 -66 -103 -125 -202 -125
c-16 0 -32 2 -46 5c-45 -87 -131 -164 -247 -164c-132 0 -206 82 -183 214l28 156c17 124 -48 198 -151 198c-140 0 -208 -111 -227 -207l-63 -361h-16l47 266c-38 -74 -115 -139 -226 -139c-123 0 -206 85 -180 232c25 140 137 225 257 225c114 0 168 -66 180 -141l49 281
h-542l3 16h1778l-3 -16h-162l-127 -724h-17zM1350 175c129 0 198 105 212 186c16 86 -19 188 -152 188c-99 0 -192 -68 -212 -183c-21 -122 50 -191 152 -191zM1058 16c102 0 189 74 227 153c-74 24 -121 94 -104 197c21 124 120 199 231 199c104 0 153 -58 164 -124l50 283
h-455l-28 -161c-27 -153 -117 -185 -205 -185h-21l-3 -17v-2v0l-26 -145c-21 -120 45 -198 170 -198z" />
    <glyph glyph-name="dvK_CA" horiz-adv-x="1408" 
d="M1013 131c120 0 223 94 244 197l70 396h-742l-53 -304c37 74 113 135 236 135h361l-3 -16h-29c-133 0 -228 -90 -251 -211c-24 -124 58 -197 167 -197zM264 143c145 0 220 116 238 201l3 16c15 93 -20 208 -166 208c-108 0 -216 -78 -239 -209c-24 -138 51 -216 164 -216
zM458 0h-16l47 266c-38 -74 -115 -139 -226 -139c-123 0 -206 85 -180 232c25 140 137 225 257 225c114 0 168 -66 180 -141l49 281h-542l3 16h1478l-3 -16h-161l-128 -724h-17l45 254c-44 -79 -134 -139 -233 -139c-118 0 -206 82 -182 213c19 104 87 182 182 211h-246
c-154 0 -228 -103 -248 -201z" />
    <glyph glyph-name="dvK_JA" horiz-adv-x="1626" 
d="M264 143c145 0 220 116 238 201l3 16c15 93 -20 208 -166 208c-108 0 -216 -78 -239 -209c-24 -138 51 -216 164 -216zM914 359l-3 -20c-14 -96 26 -164 114 -164c92 0 161 68 178 164l30 170h274l38 215h-960l-49 -278c36 74 105 138 215 138c121 0 188 -95 163 -225z
M897 359c23 121 -36 209 -147 209c-140 0 -210 -111 -229 -207l-63 -361h-16l47 266c-38 -74 -115 -139 -226 -139c-123 0 -206 85 -180 232c25 140 137 225 257 225c114 0 168 -66 180 -141l49 281h-542l3 16h1696l-3 -16h-161l-128 -724h-17l87 493h-257l-27 -153
c-19 -106 -92 -182 -199 -181c-95 1 -143 77 -127 181z" />
    <glyph glyph-name="dvK_TTA" horiz-adv-x="1466" 
d="M748 584c92 0 169 -58 171 -173c58 111 173 162 301 162h52l26 151h-713l-49 -278c36 74 105 138 212 138zM264 143c145 0 220 116 238 201l3 16c15 93 -20 208 -166 208c-108 0 -216 -78 -239 -209c-24 -138 51 -216 164 -216zM747 568c-137 0 -207 -111 -226 -207
l-63 -361h-16l47 266c-38 -74 -115 -139 -226 -139c-123 0 -206 85 -180 232c25 140 137 225 257 225c114 0 168 -66 180 -141l49 281h-542l3 16h1536l-3 -16h-248l-30 -167h-68c-151 0 -284 -78 -314 -245c-25 -136 64 -233 203 -233c142 0 250 100 274 241h17
c-26 -151 -138 -257 -294 -257c-146 0 -244 104 -217 250c3 16 7 31 11 46c24 140 -52 209 -150 209z" />
    <glyph glyph-name="dvK_NNA" horiz-adv-x="1617" 
d="M585 724l-49 -280c35 75 103 140 214 140c80 0 146 -43 163 -121l46 261h-374zM264 143c145 0 220 116 238 201l3 16c15 93 -20 208 -166 208c-108 0 -216 -78 -239 -209c-24 -138 51 -216 164 -216zM1036 234c92 0 158 68 175 164l57 326h-292l-57 -326
c-17 -96 27 -164 117 -164zM747 568c-141 0 -207 -116 -226 -209l-63 -359h-16l47 266c-38 -74 -115 -139 -226 -139c-123 0 -206 85 -180 232c25 140 137 225 257 225c114 0 168 -66 180 -141l49 281h-542l3 16h1687l-3 -16h-162l-127 -724h-17l127 724h-250l-57 -325
c-19 -106 -89 -181 -191 -181c-99 0 -152 71 -137 172c10 112 -53 178 -153 178z" />
    <glyph glyph-name="dvK_TA" horiz-adv-x="1099" 
d="M27 724l3 16h1169l-3 -16h-568l-67 -385c40 78 121 147 245 147c121 0 211 -87 188 -227c-26 -158 -136 -251 -275 -251c-31 0 -53 3 -66 6l3 16c16 -4 37 -6 66 -6c125 0 231 86 255 235c21 131 -61 211 -172 211c-148 0 -232 -103 -256 -198l-48 -272h-16l82 467h-156
c-163 0 -281 -70 -308 -224c-26 -144 48 -225 203 -225h24l-3 -16h-24c-164 0 -244 88 -217 241c23 134 117 205 218 225h-251l3 15h514l42 241h-585z" />
    <glyph glyph-name="dvKx_TA" horiz-adv-x="1461" 
d="M741 579c98 0 168 -63 148 -207c57 90 159 131 285 131h167l39 221h-795l-50 -284c36 74 104 139 206 139zM264 143c145 0 220 116 238 201l3 16c15 93 -20 208 -166 208c-108 0 -216 -78 -239 -209c-24 -138 51 -216 164 -216zM229 -21c-14 0 -23 10 -21 24s14 24 29 24
c13 0 22 -10 20 -24s-14 -24 -28 -24zM738 563c-130 0 -199 -113 -217 -206l-63 -357h-16l47 266c-38 -74 -115 -139 -226 -139c-123 0 -206 85 -180 232c25 140 137 225 257 225c114 0 168 -66 180 -141l49 281h-542l3 16h1531l-3 -16h-161l-128 -724h-17l86 487h-166
c-163 0 -282 -73 -311 -234c-26 -150 47 -235 202 -235h24l-3 -16h-24c-159 0 -244 92 -216 251c4 24 10 46 18 66c46 172 -23 244 -124 244z" />
    <glyph glyph-name="dvK_T_YA" horiz-adv-x="1908" 
d="M743 584c104 0 166 -62 154 -168c53 80 139 117 233 117c119 0 153 -45 162 -78h12c109 0 212 31 239 180l15 89h-973l-49 -281c36 75 106 141 207 141zM264 143c145 0 220 116 238 201l3 16c15 93 -20 208 -166 208c-108 0 -216 -78 -239 -209
c-24 -138 51 -216 164 -216zM1498 154c122 0 238 81 264 207l64 363h-251l-15 -89c-28 -155 -131 -196 -259 -196h-3c-2 -8 -3 -15 -4 -19c-31 -167 51 -266 204 -266zM742 568c-122 0 -201 -112 -221 -208l-63 -360h-16l47 266c-38 -74 -115 -139 -226 -139
c-123 0 -206 85 -180 232c25 140 137 225 257 225c114 0 168 -66 180 -141l49 281h-542l3 16h1978l-3 -16h-162l-127 -724h-17l50 283c-36 -70 -124 -145 -255 -145c-161 0 -247 111 -216 282v1v0c1 4 17 96 -149 96c-126 0 -238 -73 -266 -234c-26 -150 47 -235 202 -235
h24l-3 -16h-24c-159 0 -244 92 -216 251c5 28 12 53 21 76c43 131 -14 209 -125 209z" />
    <glyph glyph-name="dvK_T_RA" horiz-adv-x="1505" 
d="M753 584c96 0 170 -65 169 -197c46 102 143 156 247 156c121 0 178 -69 199 -131l56 312h-839l-49 -282c37 76 109 142 217 142zM264 143c145 0 220 116 238 201l3 16c15 93 -20 208 -166 208c-108 0 -216 -78 -239 -209c-24 -138 51 -216 164 -216zM750 568
c-131 0 -209 -112 -229 -207l-63 -361h-16l47 266c-38 -74 -115 -139 -226 -139c-123 0 -206 85 -180 232c25 140 137 225 257 225c114 0 168 -66 180 -141l49 281h-542l3 16h1575l-3 -16h-161l-128 -724h-17l61 348l-408 -348h-20v2l432 368c-12 89 -80 157 -195 157
c-117 0 -226 -77 -250 -214h-17c0 3 1 5 1 8c29 168 -50 247 -150 247z" />
    <glyph glyph-name="dvK_T_VA" horiz-adv-x="1861" 
d="M758 584c96 0 166 -79 147 -192c59 76 155 111 271 111h158c52 54 124 85 199 85c125 0 184 -68 196 -148l50 284h-1194l-50 -283c38 76 111 143 223 143zM264 143c145 0 220 116 238 201l3 16c15 93 -20 208 -166 208c-108 0 -216 -78 -239 -209
c-24 -138 51 -216 164 -216zM1458 141c157 0 239 121 256 213c18 101 -23 218 -180 218c-117 0 -230 -79 -254 -213c-24 -139 57 -218 178 -218zM1958 724h-162l-127 -724h-17l47 268c-39 -76 -120 -143 -241 -143c-131 0 -221 86 -195 234c9 50 29 93 57 128h-146
c-163 0 -282 -73 -311 -234c-26 -150 47 -235 202 -235h24l-3 -16h-24c-159 0 -244 92 -216 251c6 34 16 65 29 91c49 129 -18 224 -118 224c-141 0 -216 -112 -236 -207l-63 -361h-16l47 266c-38 -74 -115 -139 -226 -139c-123 0 -206 85 -180 232c25 140 137 225 257 225
c114 0 168 -66 180 -141l49 281h-542l3 16h1931z" />
    <glyph glyph-name="dvK_THA" horiz-adv-x="1540" 
d="M264 143c145 0 220 116 238 201l3 16c15 93 -20 208 -166 208c-108 0 -216 -78 -239 -209c-24 -138 51 -216 164 -216zM759 584c96 0 164 -70 160 -173h96c100 0 230 28 255 170c15 84 -28 152 -123 152c-22 0 -41 -3 -60 -9h-502l-50 -283c37 76 109 143 224 143z
M1330 0l47 264c-36 -74 -127 -150 -253 -150c-158 0 -253 103 -225 262v1v0c20 113 -47 191 -143 191c-147 0 -219 -125 -235 -210l-63 -358h-16l47 266c-38 -74 -115 -139 -226 -139c-123 0 -206 85 -180 232c25 140 137 225 257 225c114 0 168 -66 180 -141l49 281h-542
l3 16h1057c19 6 41 9 63 9c104 0 154 -75 137 -168c-26 -147 -154 -186 -274 -186h-93c-36 -171 53 -265 208 -265c116 0 240 85 262 213l70 397h179l-2 -16h-162l-128 -724h-17z" />
    <glyph glyph-name="dvK_DA" horiz-adv-x="1421" 
d="M750 584c95 0 162 -57 168 -156c51 113 165 160 284 160h104l25 136h-746l-50 -283c37 76 109 143 215 143zM264 143c145 0 220 116 238 201l3 16c15 93 -20 208 -166 208c-108 0 -216 -78 -239 -209c-24 -138 51 -216 164 -216zM750 568c-134 0 -213 -126 -229 -210
l-63 -358h-16l47 266c-38 -74 -115 -139 -226 -139c-123 0 -206 85 -180 232c25 140 137 225 257 225c114 0 168 -66 180 -141l49 281h-542l3 16h1491l-3 -16h-170l-27 -152h-121c-133 0 -260 -67 -286 -214c-22 -127 48 -213 173 -213c80 0 197 48 219 176h15l-56 -321h-17
l42 241c-33 -64 -114 -112 -205 -112c-134 0 -212 95 -188 229v1v0c23 131 -44 209 -147 209z" />
    <glyph glyph-name="dvK_NA" horiz-adv-x="1582" 
d="M750 584c102 0 170 -66 168 -175c37 63 107 102 193 102h352l38 213h-916l-50 -285c36 77 108 145 215 145zM264 143c145 0 220 116 238 201l3 16c15 93 -20 208 -166 208c-108 0 -216 -78 -239 -209c-24 -138 51 -216 164 -216zM1047 176c95 0 174 71 191 160
c18 93 -40 159 -135 159c-98 0 -178 -65 -195 -161c-17 -93 39 -158 139 -158zM750 568c-139 0 -213 -126 -229 -210l-63 -358h-16l47 266c-38 -74 -115 -139 -226 -139c-123 0 -206 85 -180 232c25 140 137 225 257 225c114 0 168 -66 180 -141l49 281h-542l3 16h1652
l-3 -16h-161l-128 -724h-17l88 496h-287c56 -19 96 -78 81 -160c-18 -103 -105 -176 -211 -176c-108 0 -171 73 -153 174c2 9 4 19 6 28c22 129 -45 206 -147 206z" />
    <glyph glyph-name="dvK_PA" horiz-adv-x="1395" 
d="M585 724l-50 -283c36 76 105 143 205 143c69 0 120 -37 139 -102l43 242h-337zM264 143c145 0 220 116 238 201l3 16c15 93 -20 208 -166 208c-108 0 -216 -78 -239 -209c-24 -138 51 -216 164 -216zM1045 247c118 0 198 85 217 183l51 294h-374l-45 -255
c-24 -139 27 -222 151 -222zM740 568c-128 0 -203 -125 -219 -210l-63 -358h-16l47 266c-38 -74 -115 -139 -226 -139c-123 0 -206 85 -180 232c25 140 137 225 257 225c114 0 168 -66 180 -141l49 281h-542l3 16h1465l-3 -16h-162l-127 -724h-17l62 351
c-39 -73 -111 -120 -204 -120c-119 0 -180 72 -172 195c-4 89 -57 142 -132 142z" />
    <glyph glyph-name="dvK_P_RA" horiz-adv-x="1395" 
d="M585 724l-50 -283c36 76 105 143 205 143c69 0 120 -37 139 -102l43 242h-337zM264 143c145 0 220 116 238 201l3 16c15 93 -20 208 -166 208c-108 0 -216 -78 -239 -209c-24 -138 51 -216 164 -216zM1045 247c113 0 199 85 216 182l52 295h-374l-45 -255
c-24 -139 27 -222 151 -222zM740 568c-128 0 -203 -125 -219 -210l-63 -358h-16l47 266c-38 -74 -115 -139 -226 -139c-123 0 -206 85 -180 232c25 140 137 225 257 225c114 0 168 -66 180 -141l49 281h-542l3 16h1465l-3 -16h-162l-127 -724h-17l62 352
c-17 -30 -39 -56 -66 -77l-343 -274h-24l302 241c-23 -7 -48 -11 -75 -11c-116 0 -178 72 -170 194c-4 90 -57 143 -132 143z" />
    <glyph glyph-name="dvK_PHA" horiz-adv-x="1775" 
d="M585 724l-50 -284c36 77 105 144 208 144c83 0 143 -39 164 -107l44 247h-366zM264 143c145 0 220 116 238 201l3 16c15 93 -20 208 -166 208c-108 0 -216 -78 -239 -209c-24 -138 51 -216 164 -216zM1064 247c113 0 190 87 208 191v0l50 286h-354l-45 -255
c-24 -139 17 -222 141 -222zM743 568c-131 0 -206 -125 -222 -210l-63 -358h-16l47 266c-38 -74 -115 -139 -226 -139c-123 0 -206 85 -180 232c25 140 137 225 257 225c114 0 168 -66 180 -141l49 281h-542l3 16h1845l-3 -16h-533l-50 -286c37 77 111 146 225 146
c116 0 199 -85 174 -225c-26 -147 -133 -232 -252 -232c-21 0 -43 3 -56 6l3 16c16 -4 37 -6 56 -6c109 0 208 78 232 216c23 131 -54 209 -160 209c-141 0 -217 -113 -236 -209l-63 -359h-17l62 353c-38 -74 -108 -122 -197 -122c-116 0 -167 69 -160 188
c-2 94 -64 149 -157 149z" />
    <glyph glyph-name="dvKx_PHA" horiz-adv-x="1775" 
d="M585 724l-50 -284c36 77 105 144 208 144c83 0 143 -39 164 -107l44 247h-366zM264 143c145 0 220 116 238 201l3 16c15 93 -20 208 -166 208c-108 0 -216 -78 -239 -209c-24 -138 51 -216 164 -216zM1064 247c113 0 190 87 208 191v0l50 286h-354l-45 -255
c-24 -139 17 -222 141 -222zM743 568c-131 0 -206 -125 -222 -210l-63 -358h-16l47 266c-38 -74 -115 -139 -226 -139c-123 0 -206 85 -180 232c25 140 137 225 257 225c114 0 168 -66 180 -141l49 281h-542l3 16h1845l-3 -16h-533l-50 -286c37 77 111 146 225 146
c116 0 199 -85 174 -225c-26 -147 -133 -232 -252 -232c-21 0 -43 3 -56 6l3 16c16 -4 37 -6 56 -6c109 0 208 78 232 216c23 131 -54 209 -160 209c-141 0 -217 -113 -236 -209l-63 -359h-17l62 353c-38 -74 -108 -122 -197 -122c-116 0 -167 69 -160 188
c-2 94 -64 149 -157 149zM229 -21c-14 0 -23 10 -21 24s14 24 29 24c13 0 22 -10 20 -24s-14 -24 -28 -24z" />
    <glyph glyph-name="dvKx_PHxA" horiz-adv-x="1775" 
d="M229 -21c-14 0 -23 10 -21 24s14 24 29 24c13 0 22 -10 20 -24s-14 -24 -28 -24zM1031 83c-14 0 -23 10 -21 24s14 24 29 24c13 0 22 -10 20 -24s-14 -24 -28 -24zM585 724l-50 -284c36 77 105 144 208 144c83 0 143 -39 164 -107l44 247h-366zM264 143
c145 0 220 116 238 201l3 16c15 93 -20 208 -166 208c-108 0 -216 -78 -239 -209c-24 -138 51 -216 164 -216zM1064 247c113 0 190 87 208 191v0l50 286h-354l-45 -255c-24 -139 17 -222 141 -222zM743 568c-131 0 -206 -125 -222 -210l-63 -358h-16l47 266
c-38 -74 -115 -139 -226 -139c-123 0 -206 85 -180 232c25 140 137 225 257 225c114 0 168 -66 180 -141l49 281h-542l3 16h1845l-3 -16h-533l-50 -286c37 77 111 146 225 146c116 0 199 -85 174 -225c-26 -147 -133 -232 -252 -232c-21 0 -43 3 -56 6l3 16
c16 -4 37 -6 56 -6c109 0 208 78 232 216c23 131 -54 209 -160 209c-141 0 -217 -113 -236 -209l-63 -359h-17l62 353c-38 -74 -108 -122 -197 -122c-116 0 -167 69 -160 188c-2 94 -64 149 -157 149z" />
    <glyph glyph-name="dvKx_BA" horiz-adv-x="1506" 
d="M748 584c99 0 166 -56 172 -157c47 105 148 166 256 166c122 0 184 -72 198 -152l50 283h-839l-49 -281c36 75 106 141 212 141zM264 143c145 0 220 116 238 201l3 16c15 93 -20 208 -166 208c-108 0 -216 -78 -239 -209c-24 -138 51 -216 164 -216zM229 -21
c-14 0 -23 10 -21 24s14 24 29 24c13 0 22 -10 20 -24s-14 -24 -28 -24zM1297 0l48 268c-40 -78 -124 -148 -244 -148c-130 0 -229 87 -203 233c0 3 1 5 1 8c22 132 -46 207 -153 207c-123 0 -201 -106 -223 -200l-65 -368h-16l47 266c-38 -74 -115 -139 -226 -139
c-123 0 -206 85 -180 232c25 140 137 225 257 225c114 0 168 -66 180 -141l49 281h-542l3 16h1576l-3 -16h-162l-127 -724h-17zM1176 577c-60 0 -119 -21 -166 -59l268 -312c46 44 73 100 81 149c19 103 -30 222 -183 222zM1102 136c69 0 124 25 165 60l-268 312
c-40 -36 -70 -86 -83 -148v-2v0l-1 -5c-24 -138 65 -217 187 -217z" />
    <glyph glyph-name="dvK_MA" horiz-adv-x="1563" 
d="M750 584c108 0 179 -73 168 -196c35 36 86 57 143 57h122l49 279h-647l-50 -284c37 77 108 144 215 144zM264 143c145 0 220 116 238 201l3 16c15 93 -20 208 -166 208c-108 0 -216 -78 -239 -209c-24 -138 51 -216 164 -216zM999 152c82 0 143 62 163 172l18 105h-122
c-87 0 -157 -54 -172 -139c-15 -83 34 -138 113 -138zM1432 445l49 279h-232l-49 -279h232zM747 568c-135 0 -210 -125 -226 -210l-63 -358h-16l47 266c-38 -74 -115 -139 -226 -139c-123 0 -206 85 -180 232c25 140 137 225 257 225c114 0 168 -66 180 -141l49 281h-542
l3 16h1633l-3 -16h-162l-127 -724h-17l75 429h-232l-18 -104c-22 -127 -88 -189 -180 -189c-91 0 -146 63 -130 154c5 27 15 52 29 73c21 129 -46 205 -151 205z" />
    <glyph glyph-name="dvKx_MA" horiz-adv-x="1563" 
d="M750 584c108 0 179 -73 168 -196c35 36 86 57 143 57h122l49 279h-647l-50 -284c37 77 108 144 215 144zM264 143c145 0 220 116 238 201l3 16c15 93 -20 208 -166 208c-108 0 -216 -78 -239 -209c-24 -138 51 -216 164 -216zM999 152c82 0 143 62 163 172l18 105h-122
c-87 0 -157 -54 -172 -139c-15 -83 34 -138 113 -138zM1432 445l49 279h-232l-49 -279h232zM747 568c-135 0 -210 -125 -226 -210l-63 -358h-16l47 266c-38 -74 -115 -139 -226 -139c-123 0 -206 85 -180 232c25 140 137 225 257 225c114 0 168 -66 180 -141l49 281h-542
l3 16h1633l-3 -16h-162l-127 -724h-17l75 429h-232l-18 -104c-22 -127 -88 -189 -180 -189c-91 0 -146 63 -130 154c5 27 15 52 29 73c21 129 -46 205 -151 205zM229 -21c-14 0 -23 10 -21 24s14 24 29 24c13 0 22 -10 20 -24s-14 -24 -28 -24z" />
    <glyph glyph-name="dvK_YA" horiz-adv-x="1528" 
d="M585 724l-50 -283c37 77 107 143 215 143c102 0 153 -59 162 -129h12c109 0 212 31 239 180l15 89h-593zM264 143c145 0 220 116 238 201l3 16c15 93 -20 208 -166 208c-108 0 -216 -78 -239 -209c-24 -138 51 -216 164 -216zM1118 154c122 0 238 81 264 207l64 363h-251
l-15 -89c-28 -155 -131 -196 -259 -196h-3c-2 -8 -3 -15 -4 -19c-31 -167 51 -266 204 -266zM747 568c-121 0 -206 -111 -226 -207l-63 -361h-16l47 266c-38 -74 -115 -139 -226 -139c-123 0 -206 85 -180 232c25 140 137 225 257 225c114 0 168 -66 180 -141l49 281h-542
l3 16h1598l-3 -16h-162l-127 -724h-17l50 283c-36 -70 -124 -145 -255 -145c-157 0 -242 105 -218 268c8 80 -31 162 -149 162z" />
    <glyph glyph-name="dvK_LA" horiz-adv-x="1708" 
d="M1265 387c24 76 84 168 200 173l29 164h-909l-50 -285c36 77 108 145 215 145c95 0 162 -59 168 -160c36 82 103 136 199 136c117 0 149 -96 146 -173h2zM264 143c145 0 220 116 238 201l3 16c15 93 -20 208 -166 208c-108 0 -216 -78 -239 -209
c-24 -138 51 -216 164 -216zM520 353l-62 -353h-16l47 266c-38 -74 -115 -139 -226 -139c-123 0 -206 85 -180 232c25 140 137 225 257 225c114 0 168 -66 180 -141l49 281h-542l3 16h1778l-3 -16h-294l-29 -164c114 -5 157 -102 136 -219c-23 -133 -111 -237 -258 -237
c-12 0 -25 1 -37 2l3 17c11 -1 21 -2 31 -2c138 0 222 96 244 220c19 111 -18 203 -129 203c-113 0 -189 -93 -215 -241l-1 -8h-17l1 8c27 145 -13 241 -124 241c-116 0 -186 -88 -206 -203c-22 -124 28 -220 166 -220c10 0 20 1 31 2l-3 -17c-10 -1 -18 -2 -29 -2
c-147 0 -207 104 -182 237c1 8 3 16 5 24c20 127 -47 203 -148 203c-139 0 -213 -126 -230 -215z" />
    <glyph glyph-name="dvK_VA" horiz-adv-x="1495" 
d="M750 584c93 0 161 -57 168 -156c45 101 144 160 249 160c125 0 184 -68 196 -148l50 284h-828l-49 -280c35 75 103 140 214 140zM264 143c145 0 220 116 238 201l3 16c15 93 -20 208 -166 208c-108 0 -216 -78 -239 -209c-24 -138 51 -216 164 -216zM1092 141
c157 0 239 121 256 213c18 101 -23 218 -180 218c-117 0 -230 -79 -254 -213c-24 -139 57 -218 178 -218zM1592 724h-162l-127 -724h-17l47 268c-39 -76 -120 -143 -241 -143c-131 0 -221 86 -195 234c23 131 -44 209 -147 209c-144 0 -213 -126 -229 -210l-63 -358h-16
l47 266c-38 -74 -115 -139 -226 -139c-123 0 -206 85 -180 232c25 140 137 225 257 225c114 0 168 -66 180 -141l49 281h-542l3 16h1565z" />
    <glyph glyph-name="dvK_V_YA" horiz-adv-x="1987" 
d="M1378 425c112 0 211 31 238 180l21 119h-1052l-50 -283c38 76 111 143 223 143c95 0 156 -57 161 -155c46 100 146 159 254 159c124 0 189 -80 194 -163h11zM264 143c145 0 220 116 238 201l3 16c15 93 -20 208 -166 208c-108 0 -216 -78 -239 -209
c-24 -138 51 -216 164 -216zM1090 141c155 0 232 122 255 214c2 8 3 16 5 26v0l1 2h-1c16 91 -45 189 -179 189c-119 0 -234 -83 -257 -213c-24 -139 56 -218 176 -218zM1570 154c120 0 241 78 270 200l65 370h-251l-21 -119c-28 -155 -130 -196 -258 -196h-7
c0 -9 -1 -20 -3 -28c-26 -143 54 -227 205 -227zM757 568c-141 0 -216 -112 -236 -207l-63 -361h-16l47 266c-38 -74 -115 -139 -226 -139c-123 0 -206 85 -180 232c25 140 137 225 257 225c114 0 168 -66 180 -141l49 281h-542l3 16h2057l-3 -16h-162l-127 -724h-17l50 286
c-35 -70 -128 -148 -262 -148c-136 0 -210 66 -219 172c-34 -91 -119 -185 -260 -185c-126 0 -215 86 -190 234c23 131 -34 209 -140 209z" />
    <glyph glyph-name="dvK_SHA" horiz-adv-x="1566" 
d="M264 143c145 0 220 116 238 201l3 16c15 93 -20 208 -166 208c-108 0 -216 -78 -239 -209c-24 -138 51 -216 164 -216zM750 584c116 0 189 -85 165 -219h136c118 0 222 66 243 185c20 115 -43 183 -141 183c-22 0 -43 -3 -62 -9h-506l-49 -280c35 75 103 140 214 140z
M1025 -9c-127 0 -178 87 -155 214l28 159c20 128 -46 204 -151 204c-141 0 -208 -119 -226 -209l-63 -359h-16l47 266c-38 -74 -115 -139 -226 -139c-123 0 -206 85 -180 232c25 140 137 225 257 225c114 0 168 -66 180 -141l49 281h-542l3 16h1061c21 6 44 9 62 9
c111 0 180 -81 157 -203c-24 -130 -131 -197 -262 -197h-136l-25 -145c-21 -115 22 -197 137 -197c101 0 178 75 196 192h17c-18 -116 -90 -208 -212 -208zM1357 0l130 740h179l-3 -16h-162l-127 -724h-17z" />
    <glyph glyph-name="dvK_SS_MA" horiz-adv-x="1236" 
d="M669 131c82 0 144 62 163 172l18 105h-122c-87 0 -157 -54 -172 -139c-15 -83 34 -138 113 -138zM1101 424l53 300h-232l-52 -300h231zM167 588c-17 -103 58 -160 165 -164c69 38 128 83 143 165c16 92 -48 145 -129 145c-79 0 -163 -52 -179 -146zM328 -47l30 171
c-11 -29 -66 -95 -166 -95c-101 0 -152 69 -136 158c22 125 141 169 247 222c-94 11 -171 73 -153 179s109 162 196 162c91 0 164 -60 146 -161c-14 -80 -67 -127 -129 -165h490l52 300h-286l3 16h714l-3 -16h-162l-127 -724h-17l72 408h-232l-18 -104
c-22 -127 -88 -189 -180 -189c-91 0 -146 63 -130 154c12 66 53 115 110 139h-315c-111 -58 -239 -97 -261 -221c-14 -79 28 -142 121 -142c94 0 162 67 177 152h17l-43 -244h-17z" />
    <glyph glyph-name="dvK_SS_M_YA" horiz-adv-x="1706" 
d="M167 588c-17 -103 58 -160 165 -164c69 38 128 83 143 165c16 92 -48 145 -129 145c-79 0 -163 -52 -179 -146zM328 -47l30 171c-11 -29 -66 -95 -166 -95c-101 0 -152 69 -136 158c22 125 141 169 247 222c-94 11 -171 73 -153 179s109 162 196 162
c91 0 164 -60 146 -161c-14 -80 -67 -127 -129 -165h490l53 300h-287l3 16h1184l-3 -16h-162l-127 -724h-17l49 282c-35 -73 -128 -175 -259 -175c-161 0 -247 111 -216 282c1 6 2 13 4 19h-208l-18 -104c-22 -127 -88 -189 -180 -189c-91 0 -146 63 -130 154
c12 66 53 115 110 139h-315c-111 -58 -239 -97 -261 -221c-14 -79 28 -142 121 -142c94 0 162 67 177 152h17l-43 -244h-17zM669 131c82 0 144 62 163 172l19 105h-123c-87 0 -157 -54 -172 -139c-15 -83 34 -138 113 -138zM1097 424c109 0 213 31 244 211l15 89h-433
l-53 -300h227zM1291 123c122 0 243 110 269 237l64 364h-251l-15 -89c-32 -186 -136 -227 -264 -227h-3c-2 -8 -3 -15 -4 -19c-31 -167 51 -266 204 -266z" />
    <glyph glyph-name="dvK_SS_YA" horiz-adv-x="1203" 
d="M793 154c122 0 238 81 264 207l64 363h-250l-16 -95c-30 -186 -135 -221 -263 -221h-3c-2 -8 -3 -15 -4 -19c-31 -157 55 -235 208 -235zM167 588c-17 -103 58 -160 165 -164c69 38 128 83 143 165c16 92 -48 145 -129 145c-79 0 -163 -52 -179 -146zM328 -47l30 171
c-11 -29 -66 -95 -166 -95c-101 0 -152 69 -136 158c22 125 141 169 247 222c-94 11 -171 73 -153 179s109 162 196 162c91 0 164 -60 146 -161c-14 -80 -67 -127 -129 -165h232c109 0 214 25 243 205l16 95h-224l3 16h670l-3 -16h-162l-127 -724h-17l50 283
c-36 -70 -124 -145 -255 -145c-161 0 -250 87 -220 251c1 6 2 13 4 19h-239c-111 -58 -239 -97 -261 -221c-14 -79 28 -142 121 -142c94 0 162 67 177 152h17l-43 -244h-17z" />
    <glyph glyph-name="dvK_SS_VA" horiz-adv-x="1161" 
d="M167 588c-17 -103 58 -161 165 -164c70 38 129 83 143 165c16 92 -48 145 -129 145c-79 0 -163 -52 -179 -146zM328 -47l30 171c-11 -29 -66 -95 -166 -95c-101 0 -152 69 -136 158c23 125 142 169 248 222c-94 10 -172 73 -154 179s109 162 196 162
c91 0 164 -60 146 -161c-14 -80 -67 -127 -129 -165h219c45 103 145 164 251 164c125 0 184 -68 196 -148l50 284h-451l3 16h630l-3 -16h-162l-127 -724h-17l47 268c-39 -76 -120 -143 -241 -143c-131 0 -221 86 -195 234c3 17 7 34 13 49h-242c-111 -58 -239 -97 -261 -221
c-14 -79 28 -142 121 -142c94 0 162 67 177 152h17l-43 -244h-17zM758 141c157 0 239 121 256 213c18 101 -23 218 -180 218c-117 0 -231 -79 -254 -213c-24 -139 57 -218 178 -218z" />
    <glyph glyph-name="dvK_SA" horiz-adv-x="1611" 
d="M1017 410c120 0 209 77 232 201l21 113h-685l-50 -284c35 77 103 144 216 144c107 0 178 -70 171 -174h95zM264 143c145 0 220 116 238 201l3 16c15 93 -20 208 -166 208c-108 0 -216 -78 -239 -209c-24 -138 51 -216 164 -216zM1265 611c-23 -123 -98 -183 -167 -202
h376l55 315h-243zM1228 199c-17 -115 -85 -208 -204 -208s-175 87 -153 214l31 177v0c20 111 -48 186 -151 186c-141 0 -212 -123 -229 -204l-64 -364h-16l47 266c-38 -74 -115 -139 -226 -139c-123 0 -206 85 -180 232c25 140 137 225 257 225c114 0 168 -66 180 -141
l49 281h-542l3 16h1681l-3 -16h-162l-127 -724h-17l69 394h-550l-33 -190c-20 -116 24 -197 137 -197c106 0 170 84 186 192h17z" />
    <glyph glyph-name="dvK_S_TTA" horiz-adv-x="1993" 
d="M1017 410c120 0 209 77 232 201l21 113h-685l-50 -284c35 77 103 144 216 144c107 0 178 -70 171 -174h95zM264 143c145 0 220 116 238 201l3 16c15 93 -20 208 -166 208c-108 0 -216 -78 -239 -209c-24 -138 51 -216 164 -216zM1265 611c-23 -123 -98 -183 -167 -202
h346c58 113 174 164 303 164h52l26 151h-539zM1228 199c-17 -115 -85 -208 -204 -208s-175 87 -153 214l31 177v0c20 111 -48 186 -151 186c-141 0 -212 -123 -229 -204l-64 -364h-16l47 266c-38 -74 -115 -139 -226 -139c-123 0 -206 85 -180 232c25 140 137 225 257 225
c114 0 168 -66 180 -141l49 281h-542l3 16h2063l-3 -16h-248l-30 -167h-68c-151 0 -284 -78 -314 -245c-25 -136 64 -233 203 -233c142 0 250 100 274 241h17c-26 -151 -138 -257 -294 -257c-146 0 -244 104 -217 250c5 30 14 57 24 81h-516l-33 -190
c-20 -116 24 -197 137 -197c106 0 170 84 186 192h17z" />
    <glyph glyph-name="dvK_S_DDA" horiz-adv-x="1943" 
d="M1017 410c120 0 209 77 232 201l21 113h-685l-50 -284c35 77 103 144 216 144c107 0 178 -70 171 -174h95zM264 143c145 0 220 116 238 201l3 16c15 93 -20 208 -166 208c-108 0 -216 -78 -239 -209c-24 -138 51 -216 164 -216zM1265 611c-23 -123 -98 -183 -167 -202
h376c0 7 1 14 2 21c19 106 118 132 201 132h154l29 162h-574zM1616 -9c-154 0 -219 89 -200 193h17c-17 -96 36 -177 186 -177c119 0 192 65 206 143c21 118 -73 148 -162 148h-45c-74 0 -137 30 -144 96h-553l-33 -190c-20 -116 24 -197 137 -197c106 0 170 84 186 192h17
c-17 -115 -85 -208 -204 -208s-175 87 -153 214l31 177v0c20 111 -48 186 -151 186c-141 0 -212 -123 -229 -204l-64 -364h-16l47 266c-38 -74 -115 -139 -226 -139c-123 0 -206 85 -180 232c25 140 137 225 257 225c114 0 168 -66 180 -141l49 281h-542l3 16h2013l-3 -16
h-163l-32 -178h-161c-76 0 -173 -18 -191 -117c-15 -86 52 -115 129 -115h45c99 0 197 -42 175 -164c-16 -88 -93 -159 -226 -159z" />
    <glyph glyph-name="dvK_S_TA" horiz-adv-x="2019" 
d="M1017 410c120 0 209 77 232 201l21 113h-685l-50 -284c35 77 103 144 216 144c107 0 178 -70 171 -174h95zM264 143c145 0 220 116 238 201l3 16c15 93 -20 208 -166 208c-108 0 -216 -78 -239 -209c-24 -138 51 -216 164 -216zM1265 611c-23 -123 -98 -183 -167 -202
h377c60 64 149 94 257 94h167l39 221h-652zM1228 199c-17 -115 -85 -208 -204 -208s-175 87 -153 214l31 177v0c20 111 -48 186 -151 186c-141 0 -212 -123 -229 -204l-64 -364h-16l47 266c-38 -74 -115 -139 -226 -139c-123 0 -206 85 -180 232c25 140 137 225 257 225
c114 0 168 -66 180 -141l49 281h-542l3 16h2089l-3 -16h-161l-128 -724h-17l86 487h-166c-163 0 -282 -73 -311 -234c-26 -150 47 -235 202 -235h24l-3 -16h-24c-159 0 -244 92 -216 251c10 57 31 104 60 141h-541l-33 -190c-20 -116 24 -197 137 -197c106 0 170 84 186 192
h17z" />
    <glyph glyph-name="dvK_S_P_RA" horiz-adv-x="1976" 
d="M1017 410c120 0 209 77 232 201l21 113h-685l-50 -284c35 77 103 144 216 144c107 0 178 -70 171 -174h95zM264 143c145 0 220 116 238 201l3 16c15 93 -20 208 -166 208c-108 0 -216 -78 -239 -209c-24 -138 51 -216 164 -216zM1265 611c-23 -123 -98 -183 -167 -202
h354c0 19 2 39 6 60l45 255h-217zM1626 247c113 0 199 85 216 182l52 295h-374l-45 -255c-24 -139 27 -222 151 -222zM1228 199c-17 -115 -85 -208 -204 -208s-175 87 -153 214l31 177v0c20 111 -48 186 -151 186c-141 0 -212 -123 -229 -204l-64 -364h-16l47 266
c-38 -74 -115 -139 -226 -139c-123 0 -206 85 -180 232c25 140 137 225 257 225c114 0 168 -66 180 -141l49 281h-542l3 16h2046l-3 -16h-162l-127 -724h-17l62 352c-17 -30 -39 -56 -66 -77l-343 -274h-24l302 241c-23 -7 -48 -11 -75 -11c-105 0 -166 60 -171 163h-531
l-33 -190c-20 -116 24 -197 137 -197c106 0 170 84 186 192h17z" />
    <glyph glyph-name="dvK_S_P_LA" horiz-adv-x="2607" 
d="M1017 410c120 0 209 77 232 201l21 113h-685l-50 -284c35 77 103 144 216 144c107 0 178 -70 171 -174h95zM264 143c145 0 220 116 238 201l3 16c15 93 -20 208 -166 208c-108 0 -216 -78 -239 -209c-24 -138 51 -216 164 -216zM1265 611c-23 -123 -98 -183 -167 -202
h354c1 19 3 39 7 60l45 255h-218zM1612 247c100 0 163 62 191 141c32 101 104 172 213 172c117 0 149 -96 146 -173h2c24 76 84 168 200 173l29 164h-872l-45 -255c-24 -139 12 -222 136 -222zM1228 199c-17 -115 -85 -208 -204 -208s-175 87 -153 214l31 177v0
c20 111 -48 186 -151 186c-141 0 -212 -123 -229 -204l-64 -364h-16l47 266c-38 -74 -115 -139 -226 -139c-123 0 -206 85 -180 232c25 140 137 225 257 225c114 0 168 -66 180 -141l49 281h-542l3 16h2677l-3 -16h-294l-29 -164c114 -5 157 -102 136 -219
c-23 -133 -111 -237 -258 -237c-12 0 -25 1 -37 2l3 17c11 -1 21 -2 31 -2c138 0 222 96 244 220c19 111 -18 203 -129 203c-113 0 -189 -93 -215 -241l-1 -8h-17l1 8c27 145 -13 241 -124 241c-116 0 -186 -88 -206 -203c-22 -124 28 -220 166 -220c10 0 20 1 31 2l-3 -17
c-10 -1 -18 -2 -29 -2c-141 0 -202 96 -185 221c-37 -57 -98 -94 -178 -94c-107 0 -158 59 -159 163h-531l-33 -190c-20 -116 24 -197 137 -197c106 0 170 84 186 192h17z" />
    <glyph glyph-name="dvKH_KHA" horiz-adv-x="1587" 
d="M1378 0l50 284c-34 -66 -103 -125 -202 -125c-16 0 -32 2 -46 5c-45 -87 -131 -164 -247 -164c-132 0 -206 82 -183 214l11 59c-43 -71 -120 -113 -210 -113c-18 0 -34 2 -49 5c-42 -86 -127 -165 -243 -165c-132 0 -211 82 -187 214l32 180h44c69 0 154 25 179 169
l28 161h-328l3 16h1657l-3 -16h-162l-127 -724h-17zM554 176c114 0 202 74 222 186c20 114 -42 187 -156 187c-113 0 -201 -73 -221 -187c-20 -112 42 -186 155 -186zM1229 175c129 0 198 105 212 186c16 86 -19 188 -152 188c-99 0 -192 -68 -212 -183
c-21 -122 50 -191 152 -191zM259 16c107 0 189 74 227 153c-81 24 -122 95 -104 193c22 125 117 203 240 203c113 0 180 -65 175 -171h29c64 0 154 25 179 169l28 161h-661l-28 -161c-27 -153 -117 -185 -205 -185h-21l-29 -164c-21 -120 45 -198 170 -198zM937 16
c102 0 189 74 227 153c-74 24 -121 94 -104 197c21 124 120 199 231 199c104 0 153 -58 164 -124l50 283h-455l-28 -161c-27 -153 -117 -185 -205 -185h-21l-29 -164c-21 -120 45 -198 170 -198z" />
    <glyph glyph-name="dvKH_TA" horiz-adv-x="1363" 
d="M554 176c94 0 170 50 205 131c3 8 6 15 9 23c3 10 6 21 8 32c20 114 -42 187 -156 187c-113 0 -201 -73 -221 -187c-20 -112 42 -186 155 -186zM259 16c107 0 189 74 227 153c-81 24 -121 95 -104 193c22 125 117 203 240 203c118 0 186 -71 174 -185
c58 84 157 123 280 123h167l39 221h-910l-28 -161c-27 -153 -117 -185 -205 -185h-21l-29 -164c-21 -120 45 -198 170 -198zM1460 724h-161l-128 -724h-17l86 487h-166c-137 0 -243 -51 -290 -163c-3 -7 -6 -15 -9 -22c-5 -15 -9 -32 -12 -49c-26 -150 47 -235 202 -235h24
l-3 -16h-24c-159 0 -244 92 -216 250c-45 -59 -115 -92 -195 -92c-18 0 -34 2 -49 5c-42 -86 -127 -165 -243 -165c-132 0 -210 82 -187 214l32 180h44c69 0 154 25 179 169l28 161h-328l3 16h1433z" />
    <glyph glyph-name="dvKHx_TA" horiz-adv-x="1363" 
d="M217 -148c-14 0 -23 10 -21 24s14 24 29 24c13 0 22 -10 20 -24s-14 -24 -28 -24zM554 176c94 0 170 50 205 131c3 8 6 15 9 23c3 10 6 21 8 32c20 114 -42 187 -156 187c-113 0 -201 -73 -221 -187c-20 -112 42 -186 155 -186zM259 16c107 0 189 74 227 153
c-81 24 -121 95 -104 193c22 125 117 203 240 203c118 0 186 -71 174 -185c58 84 157 123 280 123h167l39 221h-910l-28 -161c-27 -153 -117 -185 -205 -185h-21l-29 -164c-21 -120 45 -198 170 -198zM1460 724h-161l-128 -724h-17l86 487h-166c-137 0 -243 -51 -290 -163
c-3 -7 -6 -15 -9 -22c-5 -15 -9 -32 -12 -49c-26 -150 47 -235 202 -235h24l-3 -16h-24c-159 0 -244 92 -216 250c-45 -59 -115 -92 -195 -92c-18 0 -34 2 -49 5c-42 -86 -127 -165 -243 -165c-132 0 -210 82 -187 214l32 180h44c69 0 154 25 179 169l28 161h-328l3 16h1433
z" />
    <glyph glyph-name="dvKH_NA" horiz-adv-x="1461" 
d="M554 176c107 0 190 65 217 164c1 6 2 11 4 16l1 6c20 114 -42 187 -156 187c-113 0 -201 -73 -221 -187c-20 -112 42 -186 155 -186zM259 16c107 0 189 74 227 153c-81 24 -122 95 -104 193c22 125 117 203 240 203c107 0 173 -58 175 -156c38 63 107 102 193 102h352
l38 213h-1008l-28 -161c-27 -153 -117 -185 -205 -185h-21l-29 -164c-21 -120 45 -198 170 -198zM926 176c95 0 174 71 191 160c18 93 -40 159 -135 159c-92 0 -168 -57 -191 -143c-1 -4 -2 -9 -3 -13l-1 -5c-17 -93 39 -158 139 -158zM1558 724h-161l-128 -724h-17l88 496
h-287c56 -19 96 -78 81 -160c-18 -103 -105 -176 -211 -176c-90 0 -149 51 -155 126c-42 -79 -122 -126 -217 -126c-18 0 -34 2 -49 5c-42 -86 -127 -165 -243 -165c-132 0 -211 82 -187 214l32 180h44c69 0 154 25 179 169l28 161h-328l3 16h1531z" />
    <glyph glyph-name="dvKH_MA" horiz-adv-x="1451" 
d="M887 152c82 0 143 62 163 172l18 105h-122c-75 0 -137 -40 -162 -105c-2 -4 -3 -8 -4 -11c-3 -8 -5 -15 -6 -23c-15 -83 34 -138 113 -138zM554 176c98 0 176 54 209 141c2 4 3 7 4 11c4 11 7 22 9 34c20 114 -42 187 -156 187c-113 0 -201 -73 -221 -187
c-20 -112 42 -186 155 -186zM1320 445l49 279h-232l-49 -279h232zM259 16c107 0 189 74 227 153c-81 24 -122 95 -104 193c22 125 117 203 240 203c119 0 188 -72 173 -189c35 43 90 69 154 69h122l49 279h-748l-28 -161c-27 -153 -117 -185 -205 -185h-21l-29 -164
c-21 -120 45 -198 170 -198zM1548 724h-162l-127 -724h-17l75 429h-232l-18 -104c-22 -127 -88 -189 -180 -189c-82 0 -135 51 -133 128c-44 -66 -117 -104 -203 -104c-18 0 -34 2 -49 5c-42 -86 -127 -165 -243 -165c-132 0 -211 82 -187 214l32 180h44
c69 0 154 25 179 169l28 161h-328l3 16h1521z" />
    <glyph glyph-name="dvKHx_MA" horiz-adv-x="1451" 
d="M217 -148c-14 0 -23 10 -21 24s14 24 29 24c13 0 22 -10 20 -24s-14 -24 -28 -24zM887 152c82 0 143 62 163 172l18 105h-122c-75 0 -137 -40 -162 -105c-2 -4 -3 -8 -4 -11c-3 -8 -5 -15 -6 -23c-15 -83 34 -138 113 -138zM554 176c98 0 176 54 209 141c2 4 3 7 4 11
c4 11 7 22 9 34c20 114 -42 187 -156 187c-113 0 -201 -73 -221 -187c-20 -112 42 -186 155 -186zM1320 445l49 279h-232l-49 -279h232zM259 16c107 0 189 74 227 153c-81 24 -122 95 -104 193c22 125 117 203 240 203c119 0 188 -72 173 -189c35 43 90 69 154 69h122
l49 279h-748l-28 -161c-27 -153 -117 -185 -205 -185h-21l-29 -164c-21 -120 45 -198 170 -198zM1548 724h-162l-127 -724h-17l75 429h-232l-18 -104c-22 -127 -88 -189 -180 -189c-82 0 -135 51 -133 128c-44 -66 -117 -104 -203 -104c-18 0 -34 2 -49 5
c-42 -86 -127 -165 -243 -165c-132 0 -211 82 -187 214l32 180h44c69 0 154 25 179 169l28 161h-328l3 16h1521z" />
    <glyph glyph-name="dvKH_YA" horiz-adv-x="1414" 
d="M554 176c114 0 202 74 222 186c20 114 -42 187 -156 187c-113 0 -201 -73 -221 -187c-20 -112 42 -186 155 -186zM259 16c107 0 189 74 227 153c-81 24 -122 95 -104 193c22 125 117 203 240 203c105 0 171 -56 175 -150h7c109 0 223 42 244 192l17 117h-693l-28 -161
c-27 -153 -117 -185 -205 -185h-21l-29 -164c-21 -120 45 -198 170 -198zM1004 154c122 0 238 81 264 207l64 363h-250l-17 -117c-22 -156 -136 -208 -264 -208h-3c-1 -5 -1 -10 -2 -14c-1 -8 -2 -15 -3 -20c-11 -121 63 -211 211 -211zM1511 724h-162l-127 -724h-17l50 283
c-36 -70 -124 -145 -255 -145s-209 72 -222 170c-38 -93 -124 -148 -227 -148c-18 0 -34 2 -49 5c-42 -86 -127 -165 -243 -165c-132 0 -211 82 -187 214l32 180h44c69 0 154 25 179 169l28 161h-328l3 16h1484z" />
    <glyph glyph-name="dvKHx_YA" horiz-adv-x="1414" 
d="M217 -148c-14 0 -23 10 -21 24s14 24 29 24c13 0 22 -10 20 -24s-14 -24 -28 -24zM554 176c114 0 202 74 222 186c20 114 -42 187 -156 187c-113 0 -201 -73 -221 -187c-20 -112 42 -186 155 -186zM259 16c107 0 189 74 227 153c-81 24 -122 95 -104 193
c22 125 117 203 240 203c105 0 171 -56 175 -150h7c109 0 223 42 244 192l17 117h-693l-28 -161c-27 -153 -117 -185 -205 -185h-21l-29 -164c-21 -120 45 -198 170 -198zM1004 154c122 0 238 81 264 207l64 363h-250l-17 -117c-22 -156 -136 -208 -264 -208h-3
c-1 -5 -1 -10 -2 -14c-1 -8 -2 -15 -3 -20c-11 -121 63 -211 211 -211zM1511 724h-162l-127 -724h-17l50 283c-36 -70 -124 -145 -255 -145s-209 72 -222 170c-38 -93 -124 -148 -227 -148c-18 0 -34 2 -49 5c-42 -86 -127 -165 -243 -165c-132 0 -211 82 -187 214l32 180
h44c69 0 154 25 179 169l28 161h-328l3 16h1484z" />
    <glyph glyph-name="dvKH_VA" horiz-adv-x="1373" 
d="M1164 0l47 268c-39 -76 -120 -143 -241 -143c-110 0 -191 61 -199 168c-40 -84 -122 -133 -220 -133c-18 0 -34 2 -49 5c-42 -86 -127 -165 -243 -165c-132 0 -211 82 -187 214l32 180h44c69 0 154 25 179 169l28 161h-328l3 16h1443l-3 -16h-162l-127 -724h-17zM259 16
c107 0 189 74 227 153c-81 24 -122 95 -104 193c22 125 117 203 240 203c100 0 165 -51 174 -137c45 101 144 160 249 160c125 0 184 -68 196 -148l50 284h-919l-28 -161c-27 -153 -117 -185 -205 -185h-21l-29 -164c-21 -120 45 -198 170 -198zM554 176
c110 0 196 69 220 174c0 3 0 6 1 9c1 4 2 8 2 12c16 109 -46 178 -157 178c-113 0 -201 -73 -221 -187c-20 -112 42 -186 155 -186zM970 141c157 0 239 121 256 213c18 101 -23 218 -180 218c-113 0 -223 -74 -252 -201c0 -3 0 -6 -1 -9c-1 -4 -2 -8 -2 -12
c-19 -133 61 -209 179 -209z" />
    <glyph glyph-name="dvKHx_VA" horiz-adv-x="1373" 
d="M217 -148c-14 0 -23 10 -21 24s14 24 29 24c13 0 22 -10 20 -24s-14 -24 -28 -24zM1164 0l47 268c-39 -76 -120 -143 -241 -143c-110 0 -191 61 -199 168c-40 -84 -122 -133 -220 -133c-18 0 -34 2 -49 5c-42 -86 -127 -165 -243 -165c-132 0 -211 82 -187 214l32 180h44
c69 0 154 25 179 169l28 161h-328l3 16h1443l-3 -16h-162l-127 -724h-17zM259 16c107 0 189 74 227 153c-81 24 -122 95 -104 193c22 125 117 203 240 203c100 0 165 -51 174 -137c45 101 144 160 249 160c125 0 184 -68 196 -148l50 284h-919l-28 -161
c-27 -153 -117 -185 -205 -185h-21l-29 -164c-21 -120 45 -198 170 -198zM554 176c110 0 196 69 220 174c0 3 0 6 1 9c1 4 2 8 2 12c16 109 -46 178 -157 178c-113 0 -201 -73 -221 -187c-20 -112 42 -186 155 -186zM970 141c157 0 239 121 256 213c18 101 -23 218 -180 218
c-113 0 -223 -74 -252 -201c0 -3 0 -6 -1 -9c-1 -4 -2 -8 -2 -12c-19 -133 61 -209 179 -209z" />
    <glyph glyph-name="dvKH_SHA" horiz-adv-x="1444" 
d="M259 16c107 0 189 74 227 153c-81 24 -122 95 -104 193c22 125 117 203 240 203c124 0 193 -78 171 -200h136c122 0 222 66 243 185c20 115 -37 183 -141 183c-21 0 -43 -3 -62 -9h-597l-28 -161c-27 -153 -117 -185 -205 -185h-21l-29 -164c-21 -120 45 -198 170 -198z
M899 -9c-120 0 -176 83 -150 219l12 64c-43 -72 -120 -114 -210 -114c-18 0 -34 2 -49 5c-42 -86 -127 -165 -243 -165c-132 0 -211 82 -187 214l32 180h44c69 0 154 25 179 169l28 161h-328l3 16h937c18 6 45 9 67 9c114 0 177 -73 155 -199c-23 -130 -132 -201 -263 -201
h-135l-26 -145c-21 -113 20 -197 137 -197c100 0 174 72 194 181l2 11h17c-1 -4 -2 -8 -2 -11c-21 -120 -98 -197 -214 -197zM554 176c114 0 202 74 222 186c20 114 -42 187 -156 187c-113 0 -201 -73 -221 -187c-20 -112 42 -186 155 -186zM1235 0l130 740h179l-3 -16h-162
l-127 -724h-17z" />
    <glyph glyph-name="dvKHx_SHA" horiz-adv-x="1444" 
d="M217 -148c-14 0 -23 10 -21 24s14 24 29 24c13 0 22 -10 20 -24s-14 -24 -28 -24zM554 176c114 0 202 74 222 186c20 114 -42 187 -156 187c-113 0 -201 -73 -221 -187c-20 -112 42 -186 155 -186zM259 16c107 0 189 74 227 153c-81 24 -122 95 -104 193
c22 125 117 203 240 203c124 0 193 -78 171 -200h136c122 0 222 66 243 185c20 115 -37 183 -141 183c-21 0 -43 -3 -62 -9h-597l-28 -161c-27 -153 -117 -185 -205 -185h-21l-29 -164c-21 -120 45 -198 170 -198zM899 -9c-120 0 -176 83 -150 219l12 64
c-43 -72 -120 -114 -210 -114c-18 0 -34 2 -49 5c-42 -86 -127 -165 -243 -165c-132 0 -211 82 -187 214l32 180h44c69 0 154 25 179 169l28 161h-328l3 16h937c18 6 45 9 67 9c114 0 177 -73 155 -199c-23 -130 -132 -201 -263 -201h-135l-26 -145
c-21 -113 20 -197 137 -197c100 0 174 72 194 181l2 11h17c-1 -4 -2 -8 -2 -11c-21 -120 -98 -197 -214 -197zM1235 0l130 740h179l-3 -16h-162l-127 -724h-17z" />
    <glyph glyph-name="dvKHx_SA" horiz-adv-x="1489" 
d="M217 -148c-14 0 -23 10 -21 24s14 24 29 24c13 0 22 -10 20 -24s-14 -24 -28 -24zM554 176c114 0 202 74 222 186c20 114 -42 187 -156 187c-113 0 -201 -73 -221 -187c-20 -112 42 -186 155 -186zM259 16c107 0 189 74 227 153c-81 24 -122 95 -104 193
c22 125 117 203 240 203c107 0 173 -58 175 -155h98c120 0 209 77 232 201l21 113h-776l-28 -161c-27 -153 -117 -185 -205 -185h-21l-29 -164c-21 -120 45 -198 170 -198zM1143 611c-23 -123 -98 -183 -167 -202h376l55 315h-243zM1106 199c-17 -115 -85 -208 -204 -208
s-175 87 -153 214l12 70c-43 -73 -120 -115 -210 -115c-18 0 -34 2 -49 5c-42 -86 -127 -165 -243 -165c-132 0 -211 82 -187 214l32 180h44c69 0 154 25 179 169l28 161h-328l3 16h1559l-3 -16h-162l-127 -724h-17l69 394h-550l-33 -190c-20 -116 24 -197 137 -197
c106 0 170 84 186 192h17z" />
    <glyph glyph-name="dvG_GA" horiz-adv-x="1087" 
d="M878 0l127 724h-224l-55 -310c-13 -74 -58 -141 -150 -141c-90 0 -118 70 -106 139l6 30h17l-6 -31c-10 -57 6 -122 89 -122c87 0 122 64 133 125l55 310h-387l-55 -310c-13 -74 -58 -141 -150 -141c-90 0 -118 70 -106 139l6 30h17l-6 -31c-10 -57 6 -122 89 -122
c87 0 122 64 133 125l55 310h-333l3 16h1157l-3 -16h-162l-127 -724h-17z" />
    <glyph glyph-name="dvG_GHA" horiz-adv-x="1103" 
d="M669 132c137 0 264 95 289 229l64 363h-441l-19 -102c-17 -101 25 -155 151 -155h54l-3 -16h-54c-142 0 -211 -69 -226 -152c-20 -114 64 -167 185 -167zM911 0h-17l49 276c-52 -96 -157 -160 -277 -160c-133 0 -220 62 -199 183c17 96 100 152 185 159v2
c-72 8 -126 53 -107 162l19 102h-187l-55 -310c-13 -74 -58 -141 -150 -141c-90 0 -118 70 -106 139l6 30h17l-6 -31c-10 -57 6 -122 89 -122c87 0 122 64 133 125l55 310h-333l3 16h1173l-3 -16h-161z" />
    <glyph glyph-name="dvG_JA" horiz-adv-x="1207" 
d="M1015 0h-17l87 493h-257l-27 -153c-19 -106 -92 -182 -199 -181c-95 1 -145 78 -127 181l30 169h17l-30 -170c-17 -96 26 -164 114 -164c92 0 161 68 178 164l30 170h274l38 215h-749l-55 -310c-13 -74 -58 -141 -150 -141c-90 0 -118 70 -106 139l6 30h17l-6 -31
c-10 -57 6 -122 89 -122c87 0 122 64 133 125l55 310h-333l3 16h1277l-3 -16h-161z" />
    <glyph glyph-name="dvG_NNA" horiz-adv-x="1230" 
d="M649 234c92 0 158 68 175 164l57 326h-292l-57 -326c-17 -96 27 -164 117 -164zM1038 0h-17l127 724h-250l-57 -325c-19 -106 -89 -181 -191 -181s-155 75 -135 181l57 325h-195l-55 -310c-13 -74 -58 -141 -150 -141c-90 0 -118 70 -106 139l6 30h17l-6 -31
c-10 -57 6 -122 89 -122c87 0 122 64 133 125l55 310h-333l3 16h1300l-3 -16h-162z" />
    <glyph glyph-name="dvG_DA" horiz-adv-x="1002" 
d="M846 0h-17l42 241c-33 -64 -114 -112 -205 -112c-134 0 -212 95 -188 229c29 163 164 230 305 230h104l25 136h-535l-55 -310c-13 -74 -58 -141 -150 -141c-90 0 -118 70 -106 139l6 30h17l-6 -31c-10 -57 6 -122 89 -122c87 0 122 64 133 125l55 310h-333l3 16h1072
l-3 -16h-170l-27 -152h-121c-133 0 -260 -67 -286 -214c-22 -127 48 -213 173 -213c80 0 197 48 219 176h15z" />
    <glyph glyph-name="dvG_DHA" horiz-adv-x="1085" 
d="M658 116c-112 0 -199 62 -179 171c17 91 88 137 154 143v2c-66 12 -122 63 -104 162c10 55 42 103 89 130h-241l-55 -310c-13 -74 -58 -141 -150 -141c-90 0 -118 70 -106 139l6 30h17l-6 -31c-10 -57 6 -122 89 -122c87 0 122 64 133 125l55 310h-333l3 16h624
c18 6 37 9 58 9c101 0 150 -70 121 -176h-17c28 100 -16 160 -107 160c-83 0 -150 -62 -163 -140c-16 -89 31 -153 149 -153h54l-3 -16h-54c-119 0 -183 -62 -196 -137c-17 -102 62 -155 165 -155c131 0 255 95 279 228l65 372l1 8h179l-2 -16h-162l-128 -724h-17l48 275
c-51 -96 -152 -159 -266 -159z" />
    <glyph glyph-name="dvG_DH_YA" horiz-adv-x="1571" 
d="M1161 154c122 0 238 81 264 207l64 363h-251l-15 -89c-28 -155 -131 -196 -259 -196h-3c-2 -8 -3 -15 -4 -19c-31 -167 51 -266 204 -266zM658 116c-109 0 -199 61 -179 171c17 90 88 137 154 143v2c-66 12 -122 63 -104 162c10 55 42 103 89 130h-241l-55 -310
c-13 -74 -58 -141 -150 -141c-90 0 -118 70 -106 139l6 30h17l-6 -31c-10 -57 6 -122 89 -122c87 0 122 64 133 125l55 310h-333l3 16h624c18 6 37 9 58 9c101 0 150 -70 121 -176h-17c28 100 -16 160 -107 160c-83 0 -150 -62 -163 -140c-16 -89 31 -153 149 -153h54
l-3 -16h-54c-119 0 -181 -63 -196 -140c-19 -97 62 -152 161 -152c140 0 254 105 280 264c1 8 3 16 4 24c2 11 5 25 8 35h18c109 0 212 31 239 180l15 89h-220l3 16h667l-3 -16h-162l-127 -724h-17l50 283c-36 -70 -124 -145 -255 -145s-212 73 -221 192
c-44 -130 -147 -214 -278 -214z" />
    <glyph glyph-name="dvG_DH_VA" horiz-adv-x="1546" 
d="M658 116c-118 0 -199 57 -179 168c17 93 88 140 154 146v2c-66 12 -122 63 -104 162c10 55 42 103 89 130h-241l-55 -310c-13 -74 -58 -141 -150 -141c-90 0 -118 70 -106 139l6 30h17l-6 -31c-10 -57 6 -122 89 -122c87 0 122 64 133 125l55 310h-333l3 16h624
c18 6 37 9 58 9c101 0 150 -70 121 -176h-17c28 100 -16 160 -107 160c-83 0 -150 -62 -163 -140c-16 -89 31 -153 149 -153h54l-3 -16h-54c-119 0 -183 -63 -196 -140c-19 -104 62 -152 165 -152c141 0 249 83 290 242v0c30 133 145 214 267 214c125 0 184 -68 196 -148
l50 284h-463l3 16h642l-3 -16h-162l-127 -724h-17l47 268c-39 -76 -120 -143 -241 -143c-114 0 -198 66 -199 182c-53 -124 -152 -191 -286 -191zM1143 141c157 0 239 121 256 213c18 101 -23 218 -180 218c-117 0 -230 -79 -254 -213c-24 -139 57 -218 178 -218z" />
    <glyph glyph-name="dvG_NA" horiz-adv-x="1165" 
d="M630 176c95 0 174 71 191 160c18 93 -40 159 -135 159c-98 0 -178 -65 -195 -161c-17 -93 39 -158 139 -158zM973 0h-17l88 496h-287c56 -19 96 -78 81 -160c-18 -103 -105 -176 -211 -176c-108 0 -171 73 -153 174c18 106 104 177 220 177h352l38 213h-707l-55 -310
c-13 -74 -58 -141 -150 -141c-90 0 -118 70 -106 139l6 30h17l-6 -31c-10 -57 6 -122 89 -122c87 0 122 64 133 125l55 310h-333l3 16h1235l-3 -16h-161z" />
    <glyph glyph-name="dvG_N_YA" horiz-adv-x="1631" 
d="M1221 154c122 0 238 81 264 207l64 363h-251l-15 -89c-24 -141 -122 -181 -259 -181h-3c-2 -8 -3 -15 -4 -19c-30 -158 49 -281 204 -281zM625 135c95 0 174 71 191 160c18 93 -40 159 -135 159c-98 0 -177 -65 -195 -161c-17 -93 39 -158 139 -158zM1439 0h-17l50 283
c-36 -70 -124 -145 -255 -145c-158 0 -247 126 -216 297c1 6 3 13 4 20h-253c56 -19 96 -78 81 -160c-19 -103 -105 -176 -211 -176c-108 0 -170 73 -153 174c18 106 104 177 220 177h338c118 0 216 30 239 165l15 89h-904l-55 -310c-13 -74 -58 -141 -150 -141
c-90 0 -118 70 -106 139l6 30h17l-6 -31c-10 -57 6 -122 89 -122c87 0 122 64 133 125l55 310h-333l3 16h1701l-3 -16h-162z" />
    <glyph glyph-name="dvG_BA" horiz-adv-x="1085" 
d="M876 0l48 268c-40 -78 -124 -148 -244 -148c-130 0 -229 87 -203 233c26 149 146 240 278 240c122 0 184 -72 198 -152l50 283h-626l-55 -310c-13 -74 -58 -141 -150 -141c-90 0 -118 70 -106 139l6 30h17l-6 -31c-10 -57 6 -122 89 -122c87 0 122 64 133 125l55 310
h-333l3 16h1155l-3 -16h-162l-127 -724h-17zM681 136c69 0 124 25 165 60l-268 312c-42 -37 -72 -90 -84 -155c-24 -138 65 -217 187 -217zM755 577c-60 0 -119 -21 -166 -59l268 -312c46 44 73 100 81 149c19 103 -30 222 -183 222z" />
    <glyph glyph-name="dvG_BHA" horiz-adv-x="1127" 
d="M595 152c82 0 144 62 163 172l19 105h-122c-87 0 -158 -54 -173 -139c-15 -83 34 -138 113 -138zM592 136c-87 0 -143 63 -127 154c17 94 94 155 192 155h122l20 111c19 108 -7 176 -95 176c-16 0 -32 -3 -47 -8h-280l-55 -310c-13 -74 -58 -141 -150 -141
c-90 0 -120 70 -106 139l6 30h17l-6 -31c-11 -57 6 -122 89 -122c87 0 122 64 133 125l55 310h-333l3 16h622c17 6 36 9 55 9c97 0 130 -73 109 -192l-20 -112h200l52 295h179l-2 -16h-162l-128 -724h-17l75 429h-200l-18 -104c-22 -127 -86 -189 -183 -189z" />
    <glyph glyph-name="dvG_BH_YA" horiz-adv-x="1587" 
d="M1177 154c122 0 238 81 264 207l64 363h-251l-15 -89c-27 -152 -127 -204 -252 -206v0h-10c-2 -8 -3 -15 -4 -19c-33 -167 51 -256 204 -256zM595 152c82 0 144 62 163 172l19 105h-122c-87 0 -158 -54 -173 -139c-15 -83 34 -138 113 -138zM595 136
c-91 0 -146 63 -130 154c17 94 94 155 192 155h122l20 111c19 108 -7 176 -95 176c-16 0 -32 -3 -47 -8v0h-1c-50 -18 -89 -64 -101 -132c-2 -14 -3 -28 -3 -44h-17c0 15 1 30 3 44c10 60 40 106 80 132h-241l-55 -310c-13 -74 -58 -141 -150 -141c-90 0 -118 70 -106 139
l6 30h17l-6 -31c-10 -57 6 -122 89 -122c87 0 122 64 133 125l55 310h-333l3 16h621c16 6 34 9 53 9c96 0 133 -72 112 -192l-20 -112h187c109 0 213 41 239 190l15 89h-246l3 16h693l-3 -16h-162l-127 -724h-17l50 283c-36 -70 -124 -145 -255 -145
c-161 0 -247 101 -216 272c1 6 2 13 4 19h-168l-18 -104c-22 -127 -88 -189 -180 -189z" />
    <glyph glyph-name="dvG_MA" horiz-adv-x="1147" 
d="M1016 445l49 279h-232l-49 -279h232zM583 152c82 0 143 62 163 172l18 105h-122c-87 0 -157 -54 -172 -139c-15 -83 34 -138 113 -138zM955 0h-17l75 429h-232l-18 -104c-22 -127 -88 -189 -180 -189c-91 0 -146 63 -130 154c16 94 94 155 192 155h122l49 279h-439
l-55 -310c-13 -74 -58 -141 -150 -141c-90 0 -118 70 -106 139l6 30h17l-6 -31c-10 -57 6 -122 89 -122c87 0 122 64 133 125l55 310h-333l3 16h1217l-3 -16h-162z" />
    <glyph glyph-name="dvG_YA" horiz-adv-x="1119" 
d="M709 154c122 0 238 81 264 207l64 363h-251l-15 -89c-28 -155 -131 -196 -259 -196h-3c-2 -8 -3 -15 -4 -19c-31 -167 51 -266 204 -266zM927 0h-17l50 283c-36 -70 -124 -145 -255 -145c-161 0 -247 111 -216 282c2 11 5 25 8 35h18c109 0 212 31 239 180l15 89h-392
l-55 -310c-13 -74 -58 -141 -150 -141c-90 0 -118 70 -106 139l6 30h17l-6 -31c-10 -57 6 -122 89 -122c87 0 122 64 133 125l55 310h-333l3 16h1189l-3 -16h-162z" />
    <glyph glyph-name="dvG_R_YA" horiz-adv-x="1120" 
d="M710 154c122 0 238 81 264 207l64 363h-251l-15 -89c-28 -155 -131 -196 -259 -196h-3c-2 -8 -3 -15 -4 -19c-31 -167 51 -266 204 -266zM706 138c-111 0 -186 52 -212 141l-350 -299h-25l371 316c-8 37 -8 78 0 124c2 11 5 25 8 35h18c109 0 212 31 239 180l15 89h-393
l-48 -270c-13 -74 -57 -141 -150 -141c-94 0 -118 75 -105 144l5 25h17l-6 -31c-11 -57 6 -122 89 -122c87 0 122 64 133 125l48 270h-333l3 16h1190l-3 -16h-162l-127 -724h-17l50 283c-36 -70 -124 -145 -255 -145z" />
    <glyph glyph-name="dvG_LA" horiz-adv-x="1291" 
d="M943 104c-12 0 -25 1 -37 2l3 17c11 -1 21 -2 31 -2c138 0 222 96 244 220c19 111 -18 203 -129 203c-113 0 -189 -93 -215 -241l-1 -8h-17l1 8c27 145 -13 241 -124 241c-116 0 -186 -88 -206 -203c-22 -124 28 -220 166 -220c10 0 20 1 31 2l-3 -17
c-10 -1 -18 -2 -29 -2c-147 0 -207 104 -182 237c22 126 99 219 224 219c117 0 149 -96 146 -173h2c24 76 84 168 200 173l29 164h-700l-55 -310c-13 -74 -58 -141 -150 -141c-90 0 -118 70 -106 139l6 30h17l-6 -31c-10 -57 6 -122 89 -122c87 0 122 64 133 125l55 310
h-333l3 16h1361l-3 -16h-294l-29 -164c114 -5 157 -102 136 -219c-23 -133 -111 -237 -258 -237z" />
    <glyph glyph-name="dvG_VA" horiz-adv-x="1076" 
d="M673 141c157 0 239 121 256 213c18 101 -23 218 -180 218c-117 0 -230 -79 -254 -213c-24 -139 57 -218 178 -218zM1173 724h-162l-127 -724h-17l47 268c-39 -76 -120 -143 -241 -143c-131 0 -221 86 -195 234c25 142 143 229 270 229c125 0 184 -68 196 -148l50 284
h-617l-55 -310c-13 -74 -58 -141 -150 -141c-90 0 -118 70 -106 139l6 30h17l-6 -31c-10 -57 6 -122 89 -122c87 0 122 64 133 125l55 310h-333l3 16h1146z" />
    <glyph glyph-name="dvG_SA" horiz-adv-x="1192" 
d="M846 611c-23 -123 -98 -183 -167 -202h376l55 315h-243zM809 199c-17 -115 -85 -208 -204 -208s-175 87 -153 214l36 205h110c120 0 209 77 232 201l21 113h-474l-55 -310c-13 -74 -58 -141 -150 -141c-90 0 -118 70 -106 139l6 30h17l-6 -31c-10 -57 6 -122 89 -122
c87 0 122 64 133 125l55 310h-333l3 16h1262l-3 -16h-162l-127 -724h-17l69 394h-550l-33 -190c-20 -116 24 -197 137 -197c106 0 170 84 186 192h17z" />
    <glyph glyph-name="dvGH_NA" horiz-adv-x="1222" 
d="M687 176c95 0 174 71 191 160c18 93 -40 159 -135 159c-98 0 -178 -65 -195 -161c-17 -93 39 -158 139 -158zM287 132c129 0 207 101 248 222l2 6c26 91 108 151 214 151h352l38 213h-943l-18 -102c-18 -101 25 -155 151 -155h54l-3 -16h-54c-142 0 -211 -69 -226 -152
c-21 -114 64 -167 185 -167zM1319 724h-161l-128 -724h-17l88 496h-287c56 -19 96 -78 81 -160c-18 -103 -105 -176 -211 -176c-93 0 -153 55 -156 135c-44 -101 -122 -179 -244 -179c-137 0 -220 62 -199 183c17 96 100 152 184 159l1 2c-72 8 -126 53 -107 162l18 102
h-154l3 16h1292z" />
    <glyph glyph-name="dvGH_MA" horiz-adv-x="1214" 
d="M1083 445l49 279h-232l-49 -279h232zM650 152c82 0 143 62 163 172l18 105h-122c-87 0 -157 -54 -172 -139c-15 -83 34 -138 113 -138zM287 132c126 0 205 91 238 181l3 7c26 77 97 125 184 125h122l49 279h-685l-18 -102c-18 -101 25 -155 151 -155h54l-3 -16h-54
c-142 0 -211 -69 -226 -152c-20 -114 64 -167 185 -167zM1311 724h-162l-127 -724h-17l75 429h-232l-18 -104c-22 -127 -88 -189 -180 -189c-79 0 -131 48 -133 122c-37 -70 -114 -142 -233 -142c-137 0 -220 62 -199 183c17 96 100 152 184 159l1 2c-72 8 -126 53 -107 162
l18 102h-154l3 16h1284z" />
    <glyph glyph-name="dvGH_YA" horiz-adv-x="1212" 
d="M287 132c138 0 265 110 292 269v0c1 6 2 13 3 19c2 11 5 25 8 35h18c109 0 212 31 239 180l15 89h-664l-18 -102c-18 -101 25 -155 151 -155h54l-3 -16h-54c-142 0 -211 -69 -226 -152c-20 -114 64 -167 185 -167zM802 154c122 0 238 81 264 207l64 363h-251l-15 -89
c-28 -155 -131 -196 -259 -196h-3c-2 -8 -3 -15 -4 -19c-31 -167 51 -266 204 -266zM1309 724h-162l-127 -724h-17l50 283c-36 -70 -124 -145 -255 -145c-132 0 -214 75 -222 197c-47 -131 -159 -219 -292 -219c-137 0 -220 62 -199 183c17 96 100 152 184 159l1 2
c-72 8 -126 53 -107 162l18 102h-154l3 16h1282z" />
    <glyph glyph-name="dvC_CA" horiz-adv-x="1145" 
d="M323 131c120 0 217 96 244 199c19 94 85 167 178 195h-341c-133 0 -229 -89 -248 -201c-22 -124 60 -193 167 -193zM1242 724h-161l-128 -724h-17l45 254c-44 -79 -134 -139 -233 -139c-101 0 -182 59 -186 162c-42 -90 -133 -162 -241 -162c-113 0 -206 76 -182 209
c18 97 84 172 178 201h-241l3 16h784l-3 -16h-29c-133 0 -228 -89 -248 -201c-22 -124 60 -193 167 -193c120 0 223 94 244 197l70 396h-1037l3 16h1215z" />
    <glyph glyph-name="dvC_CHA" horiz-adv-x="1289" 
d="M815 49c195 0 371 118 404 306c24 133 -46 190 -119 190c-62 0 -149 -35 -169 -148c-6 -32 -5 -68 1 -107h-17c-7 39 -7 75 -1 107c21 118 108 161 181 164l29 163h-452l-24 -135c-18 -101 24 -155 150 -155h24l-2 -16h-24c-145 0 -222 -76 -238 -167
c-24 -135 98 -202 257 -202zM1237 356c-36 -204 -216 -323 -424 -323c-167 0 -288 71 -274 202c-48 -68 -129 -120 -218 -120c-113 0 -206 76 -182 209c18 97 84 172 178 201h-241l3 16h357l-3 -16h-29c-133 0 -229 -89 -248 -201c-22 -124 60 -193 167 -193
c100 0 189 71 226 152c29 87 107 135 188 142v2c-71 8 -126 53 -106 162l24 135h-628l3 16h1359l-2 -16h-246l-29 -163c81 -4 149 -67 125 -205z" />
    <glyph glyph-name="dvC_CH_VA" horiz-adv-x="1292" 
d="M728 -307c127 0 197 97 210 172v0l34 193c-49 -16 -103 -25 -159 -25h-10v0c-120 -4 -201 -74 -219 -169c-20 -111 50 -171 144 -171zM815 49c195 0 371 118 404 306c24 133 -46 190 -119 190c-62 0 -149 -35 -169 -148c-6 -32 -5 -68 1 -107h-17c-7 39 -7 75 -1 107
c21 118 108 161 181 164l29 163h-452l-24 -135c-18 -101 24 -155 150 -155h24l-2 -16h-24c-145 0 -222 -76 -238 -167c-24 -135 98 -202 257 -202zM1237 356c-25 -143 -121 -244 -247 -292l-81 -454h-16l32 180c-34 -60 -102 -113 -200 -113c-99 0 -178 68 -157 187
c16 95 91 158 171 174c-127 18 -212 87 -200 197c-48 -68 -129 -120 -218 -120c-113 0 -206 76 -182 209c18 97 84 172 178 201h-241l3 16h357l-3 -16h-29c-133 0 -229 -89 -248 -201c-22 -124 60 -193 167 -193c100 0 189 71 226 152c29 87 107 135 188 142v2
c-71 8 -126 53 -106 162l24 135h-628l3 16h1359l-2 -16h-246l-29 -163c81 -4 149 -67 125 -205z" />
    <glyph glyph-name="dvC_NA" horiz-adv-x="1231" 
d="M696 176c95 0 174 71 191 160c18 93 -40 159 -135 159c-98 0 -178 -65 -195 -161c-17 -93 39 -158 139 -158zM1328 724h-161l-128 -724h-17l88 496h-287c56 -19 96 -78 81 -160c-18 -103 -105 -176 -211 -176c-85 0 -142 45 -154 114c-33 -88 -111 -159 -218 -159
c-113 0 -206 76 -182 209c18 97 84 172 178 201h-241l3 16h357l-3 -16h-29c-133 0 -229 -89 -248 -201c-22 -124 60 -193 167 -193c118 0 196 92 216 196c0 2 1 5 1 7c18 106 104 177 220 177h352l38 213h-1123l3 16h1301z" />
    <glyph glyph-name="dvC_MA" horiz-adv-x="1222" 
d="M1091 445l49 279h-232l-49 -279h232zM658 152c82 0 143 62 163 172l18 105h-122c-87 0 -157 -54 -172 -139c-15 -83 34 -138 113 -138zM1319 724h-162l-127 -724h-17l75 429h-232l-18 -104c-22 -127 -88 -189 -180 -189c-77 0 -128 45 -132 115
c-39 -76 -110 -136 -205 -136c-113 0 -206 76 -182 209c18 97 84 172 178 201h-241l3 16h357l-3 -16h-29c-133 0 -229 -89 -248 -201c-22 -124 60 -193 167 -193s180 83 208 175c22 85 97 139 189 139h122l49 279h-864l3 16h1292z" />
    <glyph glyph-name="dvC_YA" horiz-adv-x="1215" 
d="M805 154c122 0 238 81 264 207l64 363h-251l-15 -89c-28 -155 -131 -196 -259 -196h-3c-2 -8 -3 -15 -4 -19c-31 -167 51 -266 204 -266zM1312 724h-162l-127 -724h-17l50 283c-36 -70 -124 -145 -255 -145c-133 0 -215 76 -222 199c-42 -130 -126 -222 -258 -222
c-113 0 -206 76 -182 209c18 97 84 172 178 201h-241l3 16h357l-3 -16h-29c-133 0 -229 -89 -248 -201c-22 -124 60 -193 167 -193c146 0 228 121 261 281c0 2 0 5 1 8c2 11 5 25 8 35h18c109 0 212 31 239 180l15 89h-838l3 16h1285z" />
    <glyph glyph-name="dvCH_YA" horiz-adv-x="1382" 
d="M334 49c195 0 371 118 404 306c24 133 -46 190 -119 190c-62 0 -149 -35 -169 -148c-6 -32 -5 -68 1 -107h-17c-7 39 -7 75 -1 107c22 123 115 164 189 164c62 0 118 -33 134 -106c141 -3 235 34 261 180l15 89h-841l-24 -135c-18 -101 24 -155 150 -155h24l-2 -16h-24
c-145 0 -222 -76 -238 -167c-24 -135 98 -202 257 -202zM972 154c122 0 238 81 264 207l64 363h-251l-15 -89c-27 -150 -122 -197 -275 -196c3 -19 3 -40 0 -64c-7 -139 74 -221 213 -221zM1479 724h-162l-127 -724h-17l50 283c-36 -70 -124 -145 -255 -145
c-124 0 -204 66 -222 175c-52 -178 -221 -280 -414 -280c-174 0 -297 77 -272 218c19 108 106 166 196 174v2c-71 8 -126 53 -106 162l24 135h-149l2 16h1455z" />
    <glyph glyph-name="dvCH_R_YA" horiz-adv-x="1382" 
d="M334 49c195 0 371 118 404 306c24 133 -46 190 -119 190c-62 0 -149 -35 -169 -148c-6 -32 -5 -68 1 -107h-17c-7 39 -7 75 -1 107c22 123 115 164 189 164c62 0 118 -33 134 -106c141 -3 235 34 261 180l15 89h-841l-24 -135c-18 -101 24 -155 150 -155h24l-2 -16h-24
c-145 0 -222 -76 -238 -167c-24 -135 98 -202 257 -202zM972 154c122 0 238 81 264 207l64 363h-251l-15 -89c-27 -150 -122 -197 -275 -196c3 -19 3 -40 0 -64c-7 -139 74 -221 213 -221zM517 -136l-144 169l-203 -169h-23l204 169h-19c-174 0 -297 77 -272 218
c19 108 106 166 196 174v2c-71 8 -126 53 -106 162l24 135h-149l2 16h1455l-3 -16h-162l-127 -724h-17l50 283c-36 -70 -124 -145 -255 -145c-124 0 -204 66 -222 175c-47 -159 -187 -258 -354 -277l148 -172h-23z" />
    <glyph glyph-name="dvJ_KA" horiz-adv-x="1569" 
d="M990 0l47 266c-38 -74 -115 -139 -226 -139c-123 0 -206 85 -180 232c9 53 32 98 62 134h-249l-27 -153c-19 -106 -92 -182 -199 -181c-95 1 -145 78 -127 181l30 169h17l-30 -170c-17 -96 26 -164 114 -164c92 0 161 68 178 164l30 170h278c48 48 113 75 180 75
c114 0 168 -66 180 -141l49 281h-1090l3 16h1639l-3 -16h-533l-50 -283c38 76 111 143 223 143c116 0 201 -85 176 -225c-26 -147 -131 -232 -252 -232c-21 0 -43 3 -56 6l3 16c16 -4 37 -6 56 -6c107 0 208 78 232 216c23 131 -54 209 -160 209c-141 0 -216 -112 -236 -207
l-63 -361h-16zM812 143c145 0 220 116 238 201l3 16c15 93 -20 208 -166 208c-108 0 -216 -78 -239 -209c-24 -138 51 -216 164 -216z" />
    <glyph glyph-name="dvJ_JA" horiz-adv-x="1394" 
d="M1202 0h-17l87 493h-257l-27 -153c-19 -106 -92 -182 -199 -181c-95 1 -145 78 -127 181l27 153h-245l-27 -153c-19 -106 -92 -182 -199 -181c-95 1 -145 78 -127 181l30 169h17l-30 -170c-17 -96 26 -164 114 -164c92 0 161 68 178 164l30 170h279l-30 -170
c-17 -96 26 -164 114 -164c92 0 161 68 178 164l30 170h274l38 215h-1286l3 16h1464l-3 -16h-161z" />
    <glyph glyph-name="dvJx_JxA" horiz-adv-x="1394" 
d="M1202 0h-17l87 493h-257l-27 -153c-19 -106 -92 -182 -199 -181c-95 1 -145 78 -127 181l27 153h-245l-27 -153c-19 -106 -92 -182 -199 -181c-95 1 -145 78 -127 181l30 169h17l-30 -170c-17 -96 26 -164 114 -164c92 0 161 68 178 164l30 170h279l-30 -170
c-17 -96 26 -164 114 -164c92 0 161 68 178 164l30 170h274l38 215h-1286l3 16h1464l-3 -16h-161zM199 11c-14 0 -23 10 -21 24s14 24 29 24c13 0 22 -10 20 -24s-14 -24 -28 -24zM770 11c-14 0 -23 10 -21 24s14 24 29 24c13 0 22 -10 20 -24s-14 -24 -28 -24z" />
    <glyph glyph-name="dvJ_J_NYA" horiz-adv-x="1292" 
d="M1083 0l86 493h-289c83 -25 134 -91 115 -195c-20 -114 -110 -194 -226 -194c-109 0 -166 67 -174 124l-35 -200h-17l46 262h16c-8 -115 75 -170 167 -170c108 0 188 76 206 178c22 124 -60 195 -191 195h-343l-27 -153c-19 -106 -92 -182 -199 -181
c-95 1 -145 78 -127 181l30 169h17l-30 -170c-17 -96 26 -164 114 -164c92 0 161 68 178 164l30 170h742l38 215h-1183l3 16h1362l-3 -16h-162l-127 -724h-17z" />
    <glyph glyph-name="dvJ_J_YA" horiz-adv-x="1852" 
d="M1442 154c122 0 238 81 264 207l64 363h-251l-15 -89c-23 -133 -124 -173 -252 -173h-3c-2 -8 -3 -15 -4 -19c-33 -167 44 -289 197 -289zM1660 0h-17l50 283c-36 -70 -124 -145 -255 -145c-161 0 -240 134 -209 305c1 6 2 13 4 19h-16h-208l-21 -122
c-19 -107 -92 -182 -199 -181c-95 1 -145 78 -127 181l27 153h-245l-27 -153c-19 -106 -92 -182 -199 -181c-95 1 -145 78 -127 181l30 169h17l-30 -170c-17 -96 26 -164 114 -164c92 0 161 68 178 164l30 170h279l-30 -170c-17 -96 26 -164 114 -164c92 0 161 67 178 164
l24 139h260c109 0 210 30 232 157l15 89h-1475l3 16h1922l-3 -16h-162z" />
    <glyph glyph-name="dvJ_J_VA" horiz-adv-x="1794" 
d="M1391 141c157 0 239 121 256 213c18 101 -23 218 -180 218c-117 0 -230 -79 -254 -213c-24 -139 57 -218 178 -218zM1891 724h-162l-127 -724h-17l47 268c-39 -76 -120 -143 -241 -143c-131 0 -221 86 -195 234c9 53 31 98 62 134h-243l-27 -153
c-19 -106 -92 -182 -199 -181c-95 1 -145 78 -127 181l27 153h-245l-27 -153c-19 -106 -92 -182 -199 -181c-95 1 -145 78 -127 181l30 169h17l-30 -170c-17 -96 26 -164 114 -164c92 0 161 68 178 164l30 170h279l-30 -170c-17 -96 26 -164 114 -164c92 0 161 68 178 164
l30 170h272c51 51 121 79 193 79c125 0 184 -68 196 -148l50 284h-1685l3 16h1864z" />
    <glyph glyph-name="dvJ_JHA" horiz-adv-x="1383" 
d="M1301 724h-226l-29 -162v0l-3 -16h-169c-73 0 -176 -18 -193 -117c-16 -86 52 -115 131 -115h417zM1173 0l53 299l-284 1c61 -17 105 -66 90 -150c-15 -80 -80 -150 -205 -150c-138 0 -182 88 -187 117l-34 -188h-17l44 244h15c-1 -81 51 -157 183 -157
c114 0 172 64 184 134c17 92 -40 148 -161 148h-45c-92 0 -161 40 -145 131c4 26 14 47 27 64h-247l-27 -153c-19 -106 -92 -182 -199 -181c-95 1 -145 78 -127 181l30 169h17l-30 -170c-17 -96 26 -164 114 -164c92 0 161 68 178 164l30 170h275c42 41 107 53 164 53h160
l29 162h-1031l3 16h1453l-3 -16h-162l-128 -724h-17z" />
    <glyph glyph-name="dvJ_NY_YA" horiz-adv-x="1298" 
d="M888 154c122 0 238 81 264 207l64 363h-251l-15 -89c-28 -155 -131 -196 -259 -196h-3c-1 -4 -2 -8 -2 -11c-1 -3 -1 -5 -2 -8c-31 -167 51 -266 204 -266zM1106 0h-17l50 283c-36 -70 -124 -145 -255 -145c-161 0 -247 111 -216 282c1 3 1 6 2 9c10 63 -39 100 -121 100
h-183c83 -25 133 -93 115 -197c-20 -114 -110 -192 -223 -192c-111 0 -171 69 -177 127l-35 -203h-17l46 262h16c-8 -115 75 -170 167 -170c108 0 189 76 207 178c22 124 -61 195 -192 195h-3l3 16h279c85 0 132 -35 135 -90h7c109 0 212 31 239 180l15 89h-921l3 16h1368
l-3 -16h-162z" />
    <glyph glyph-name="dvJ_TTA" horiz-adv-x="1194" 
d="M831 63c-146 0 -244 104 -217 250c14 78 49 138 97 180h-267l-27 -153c-19 -106 -92 -182 -199 -181c-95 1 -145 78 -127 181l30 169h17l-30 -170c-17 -96 26 -164 114 -164c92 0 161 68 178 164l30 170h301c59 44 136 64 217 64h52l26 151h-999l3 16h1264l-3 -16h-248
l-30 -167h-68c-151 0 -284 -78 -314 -245c-25 -136 64 -233 203 -233c142 0 250 100 274 241h17c-26 -151 -138 -257 -294 -257z" />
    <glyph glyph-name="dvJ_DDA" horiz-adv-x="1101" 
d="M774 -9c-154 0 -219 89 -200 193h17c-17 -96 36 -177 186 -177c119 0 192 65 206 143c21 118 -73 148 -162 148h-45c-86 0 -158 41 -142 132c5 25 14 46 26 63h-216l-27 -153c-19 -106 -92 -182 -199 -181c-95 1 -145 78 -127 181l30 169h17l-30 -170
c-17 -96 26 -164 114 -164c92 0 161 68 178 164l30 170h244c41 41 105 53 161 53h154l29 162h-991l3 16h1171l-3 -16h-163l-32 -178h-161c-76 0 -173 -18 -191 -117c-15 -86 52 -115 129 -115h45c99 0 197 -42 175 -164c-16 -88 -93 -159 -226 -159z" />
    <glyph glyph-name="dvJ_TA" horiz-adv-x="1233" 
d="M1041 0h-17l86 487h-166c-163 0 -282 -73 -311 -234c-26 -150 47 -235 202 -235h24l-3 -16h-24c-159 0 -244 92 -216 251c23 128 98 203 205 234h-377l-27 -147c-20 -106 -92 -182 -199 -181c-95 1 -145 78 -127 181l30 169h17l-30 -170c-17 -96 26 -164 114 -164
c92 0 160 68 178 164l30 164h683l39 221h-1125l3 16h1303l-3 -16h-161z" />
    <glyph glyph-name="dvJ_DA" horiz-adv-x="1159" 
d="M1003 0h-17l42 241c-33 -64 -114 -112 -205 -112c-134 0 -212 95 -188 229c10 56 32 101 63 135h-254l-27 -153c-19 -106 -92 -182 -199 -181c-95 1 -145 78 -127 181l30 169h17l-30 -170c-17 -96 26 -164 114 -164c92 0 161 68 178 164l30 170h284c59 55 141 79 226 79
h104l25 136h-1042l3 16h1229l-3 -16h-170l-27 -152h-121c-133 0 -260 -67 -286 -214c-22 -127 48 -213 173 -213c80 0 197 48 219 176h15z" />
    <glyph glyph-name="dvJ_NA" horiz-adv-x="1299" 
d="M764 175c95 0 174 71 191 160c18 93 -40 159 -135 159c-98 0 -177 -65 -195 -161c-17 -93 39 -158 139 -158zM1107 0h-17l87 494h-286c56 -19 96 -78 81 -160c-19 -103 -105 -176 -211 -176c-108 0 -170 73 -153 174c13 76 61 134 130 161h-294l-27 -153
c-19 -106 -92 -182 -199 -181c-95 1 -145 78 -127 181l30 169h17l-30 -170c-17 -96 26 -164 114 -164c92 0 161 68 178 164l30 170h750l38 215h-1191l3 16h1369l-3 -16h-161z" />
    <glyph glyph-name="dvJ_BA" horiz-adv-x="1229" 
d="M825 136c69 0 124 25 165 60l-268 312c-42 -37 -72 -90 -84 -155c-24 -138 65 -217 187 -217zM1020 0l48 268c-40 -78 -124 -148 -244 -148c-130 0 -229 87 -203 233c10 55 32 102 63 140h-240l-27 -153c-19 -106 -92 -182 -199 -181c-95 1 -145 78 -127 181l30 169h17
l-30 -170c-17 -96 26 -164 114 -164c92 0 161 68 178 164l30 170h269c52 54 124 84 200 84c122 0 184 -72 198 -152l50 283h-1120l3 16h1299l-3 -16h-162l-127 -724h-17zM899 577c-60 0 -119 -21 -166 -59l268 -312c46 44 73 100 81 149c19 103 -30 222 -183 222z" />
    <glyph glyph-name="dvJ_MA" horiz-adv-x="1291" 
d="M735 196c82 0 144 62 163 172l18 105h-122c-87 0 -157 -54 -172 -139c-15 -83 34 -138 113 -138zM1168 489l41 235h-232l-41 -235h232zM1099 0h-17l83 473h-232l-18 -104c-22 -127 -88 -189 -180 -189c-91 0 -146 63 -130 154c11 63 49 114 111 139h-276l-23 -133
c-19 -106 -92 -182 -199 -181c-95 1 -145 78 -127 181l30 169h17l-30 -170c-17 -96 26 -164 114 -164c92 0 161 68 178 164l26 150h493l41 235h-933l3 16h1361l-3 -16h-162z" />
    <glyph glyph-name="dvJ_YA" horiz-adv-x="1281" 
d="M871 154c122 0 238 81 264 207l64 363h-251l-15 -89c-23 -133 -124 -173 -252 -173h-3c-2 -8 -3 -15 -4 -19c-33 -167 44 -289 197 -289zM1089 0h-17l50 283c-36 -70 -124 -145 -255 -145c-161 0 -240 134 -209 305c1 6 2 13 4 19h-16h-208l-21 -122
c-19 -107 -92 -182 -199 -181c-95 1 -145 78 -127 181l30 169h17l-30 -170c-17 -96 26 -164 114 -164c92 0 161 67 178 164l24 139h260c109 0 210 30 232 157l15 89h-904l3 16h1351l-3 -16h-162z" />
    <glyph glyph-name="dvJx_YA" horiz-adv-x="1281" 
d="M871 154c122 0 238 81 264 207l64 363h-251l-15 -89c-23 -133 -124 -173 -252 -173h-3c-2 -8 -3 -15 -4 -19c-33 -167 44 -289 197 -289zM1089 0h-17l50 283c-36 -70 -124 -145 -255 -145c-161 0 -240 134 -209 305c1 6 2 13 4 19h-16h-208l-21 -122
c-19 -107 -92 -182 -199 -181c-95 1 -145 78 -127 181l30 169h17l-30 -170c-17 -96 26 -164 114 -164c92 0 161 67 178 164l24 139h260c109 0 210 30 232 157l15 89h-904l3 16h1351l-3 -16h-162zM199 11c-14 0 -23 10 -21 24s14 24 29 24c13 0 22 -10 20 -24
s-14 -24 -28 -24z" />
    <glyph glyph-name="dvJ_VA" horiz-adv-x="1223" 
d="M820 141c157 0 239 121 256 213c18 101 -23 218 -180 218c-117 0 -230 -79 -254 -213c-24 -139 57 -218 178 -218zM1320 724h-162l-127 -724h-17l47 268c-39 -76 -120 -143 -241 -143c-131 0 -221 86 -195 234c9 53 31 98 62 134h-243l-27 -153
c-19 -106 -92 -182 -199 -181c-95 1 -145 78 -127 181l30 169h17l-30 -170c-17 -96 26 -164 114 -164c92 0 161 68 178 164l30 170h272c51 51 121 79 193 79c125 0 184 -68 196 -148l50 284h-1114l3 16h1293z" />
    <glyph glyph-name="dvJH_NA" horiz-adv-x="1325" 
d="M267 314h364c1 7 2 13 3 20c18 106 104 177 220 177h352l38 213h-714l-29 -162v0l-3 -16h-169c-73 0 -176 -18 -193 -117c-16 -86 52 -115 131 -115zM790 176c95 0 174 71 191 160c18 93 -40 159 -135 159c-98 0 -178 -65 -195 -161c-17 -93 39 -158 139 -158zM95 117
l-34 -188h-17l44 244h15c-1 -81 51 -157 183 -157c114 0 172 64 184 134c17 92 -40 148 -161 148h-45c-92 0 -161 40 -145 131c18 106 121 133 205 133h160l29 162h-479l3 16h1388l-3 -16h-161l-128 -724h-17l88 496h-287c56 -19 96 -78 81 -160
c-18 -103 -105 -176 -211 -176c-95 0 -155 56 -156 139l-234 1c61 -17 105 -66 90 -150c-15 -80 -80 -150 -205 -150c-138 0 -182 88 -187 117z" />
    <glyph glyph-name="dvJH_MA" horiz-adv-x="1330" 
d="M1199 445l49 279h-232l-49 -279h232zM766 152c82 0 143 62 163 172l18 105h-122c-87 0 -157 -54 -172 -139c-15 -83 34 -138 113 -138zM267 314h375c24 80 97 131 186 131h122l49 279h-469l-29 -162v0l-3 -16h-169c-73 0 -176 -18 -193 -117c-16 -86 52 -115 131 -115z
M95 117l-34 -188h-17l44 244h15c-1 -81 51 -157 183 -157c114 0 172 64 184 134c17 92 -40 148 -161 148h-45c-92 0 -161 40 -145 131c18 106 121 133 205 133h160l29 162h-479l3 16h1393l-3 -16h-162l-127 -724h-17l75 429h-232l-18 -104c-22 -127 -88 -189 -180 -189
c-91 0 -146 63 -130 154c1 3 1 6 2 9l-241 1c61 -17 105 -66 90 -150c-15 -80 -80 -150 -205 -150c-138 0 -182 88 -187 117z" />
    <glyph glyph-name="dvJH_YA" horiz-adv-x="1293" 
d="M267 314h392c-4 32 -3 67 4 106c2 11 5 25 8 35h18c109 0 212 31 239 180l15 89h-413l-29 -162v0l-3 -16h-169c-73 0 -176 -18 -193 -117c-16 -86 52 -115 131 -115zM883 154c122 0 238 81 264 207l64 363h-251l-15 -89c-28 -155 -131 -196 -259 -196h-3
c-2 -8 -3 -15 -4 -19c-31 -167 51 -266 204 -266zM95 117l-34 -188h-17l44 244h15c-1 -81 51 -157 183 -157c114 0 172 64 184 134c17 92 -40 148 -161 148h-45c-92 0 -161 40 -145 131c18 106 121 133 205 133h160l29 162h-479l3 16h1356l-3 -16h-162l-127 -724h-17l50 283
c-36 -70 -124 -145 -255 -145c-119 0 -197 60 -217 161l-265 1c61 -17 105 -66 90 -150c-15 -80 -80 -150 -205 -150c-138 0 -182 88 -187 117z" />
    <glyph glyph-name="dvNY_CA" horiz-adv-x="1252" 
d="M1060 0h-17l45 254c-44 -79 -134 -139 -233 -139c-116 0 -205 78 -182 209c1 8 3 15 5 23h-169c-23 -114 -109 -226 -257 -226c-133 0 -178 87 -184 155h17c6 -63 48 -138 168 -138c136 0 220 101 240 216c20 111 -28 213 -164 213c-122 0 -192 -78 -217 -139h-17
c28 72 102 155 237 155c148 0 196 -110 179 -220h172c26 78 87 137 169 162h-242l3 16h357l-3 -16h-29c-133 0 -228 -89 -248 -201c-22 -124 60 -193 167 -193c120 0 223 94 244 197l70 396h-1144l3 16h1322l-3 -16h-161z" />
    <glyph glyph-name="dvNY_CHA" horiz-adv-x="1368" 
d="M894 49c195 0 371 118 404 306c24 133 -46 190 -119 190c-62 0 -149 -35 -169 -148c-6 -32 -5 -68 1 -107h-17c-7 39 -7 75 -1 107c21 118 108 161 181 164l29 163h-452l-24 -135c-18 -101 24 -155 150 -155h24l-2 -16h-24c-145 0 -222 -76 -238 -167
c-24 -135 98 -202 257 -202zM892 33c-174 0 -297 77 -272 218c7 38 22 70 43 96h-154c-23 -114 -109 -226 -257 -226c-133 0 -178 87 -184 155h17c6 -63 48 -138 168 -138c136 0 220 101 240 216c20 111 -28 213 -164 213c-122 0 -192 -78 -217 -139h-17
c28 72 102 155 237 155c148 0 196 -110 179 -220h166c38 37 88 57 139 62v2c-71 8 -126 53 -106 162l24 135h-707l3 16h1438l-2 -16h-246l-29 -163c81 -4 149 -67 125 -205c-36 -204 -216 -323 -424 -323z" />
    <glyph glyph-name="dvNY_JA" horiz-adv-x="1376" 
d="M1184 0h-17l87 493h-257l-27 -153c-19 -106 -92 -182 -199 -181c-95 1 -145 78 -127 181l1 7h-136c-23 -114 -109 -226 -257 -226c-133 0 -178 87 -184 155h17c6 -63 48 -138 168 -138c136 0 220 101 240 216c20 111 -28 213 -164 213c-122 0 -192 -78 -217 -139h-17
c28 72 102 155 237 155c148 0 196 -110 179 -220h137l26 146h17l-30 -170c-17 -96 26 -164 114 -164c92 0 161 68 178 164l30 170h274l38 215h-1268l3 16h1446l-3 -16h-161z" />
    <glyph glyph-name="dvNY_SHA" horiz-adv-x="1316" 
d="M775 -9c-127 0 -178 87 -155 214l25 144h-136c-22 -114 -108 -228 -257 -228c-133 0 -178 87 -184 155h17c6 -63 48 -138 168 -138c136 0 220 101 240 216c20 111 -28 213 -164 213c-122 0 -192 -78 -217 -139h-17c28 72 102 155 237 155c147 0 195 -109 180 -218h289
c118 0 222 66 243 185c20 115 -43 183 -141 183c-125 0 -207 -100 -207 -233h-17c0 102 46 185 120 224h-772l3 16h809c20 6 41 9 64 9c111 0 180 -81 157 -203c-24 -130 -131 -197 -262 -197h-136l-25 -145c-21 -115 22 -197 137 -197c101 0 178 75 196 192h17
c-18 -116 -90 -208 -212 -208zM1107 0l130 740h179l-3 -16h-162l-127 -724h-17z" />
    <glyph glyph-name="dvTT_TTA" horiz-adv-x="697" 
d="M27 724l3 16h767l-3 -16h-280l-26 -147h-118c-121 0 -220 -62 -240 -165c-20 -101 48 -173 197 -173c155 0 241 77 261 191h17c-21 -122 -109 -207 -280 -207c-116 0 -234 -41 -257 -167c-18 -97 48 -171 197 -171c154 0 241 77 261 191h17c-22 -122 -110 -207 -281 -207
c-150 0 -232 80 -212 190c22 119 123 163 203 172c-100 15 -157 85 -140 180c23 126 133 182 260 182h101l23 131h-470z" />
    <glyph glyph-name="dvTT_TTHA" horiz-adv-x="703" 
d="M27 724l3 16h773l-3 -16h-284l-26 -147h-118c-119 0 -220 -52 -240 -165c-18 -101 51 -173 197 -173c148 0 241 79 261 191h17c-18 -102 -89 -177 -206 -199c104 -17 159 -77 141 -177c-22 -121 -128 -185 -278 -185c-145 0 -234 67 -212 185c19 100 93 160 203 177
c-104 21 -158 87 -140 183c23 123 133 179 260 179h101l23 131h-472zM267 -115c135 0 239 59 258 169c19 111 -58 169 -198 169c-131 0 -239 -60 -258 -169c-19 -110 58 -169 198 -169z" />
    <glyph glyph-name="dvTT_YA" horiz-adv-x="1230" 
d="M1021 0l42 240c-43 -91 -118 -153 -223 -153c-137 0 -189 100 -166 231c2 12 5 24 8 36h12c108 0 179 20 192 95c18 101 -85 108 -161 108h-325c-151 0 -284 -78 -314 -245c-25 -136 64 -233 203 -233c142 0 250 100 274 241h17c-26 -151 -138 -257 -294 -257
c-146 0 -244 104 -217 250c32 180 173 260 334 260h52l26 151h-459l3 16h1305l-3 -16h-162l-127 -724h-17zM840 103c137 0 219 113 243 251l65 370h-650l-27 -151h263c89 0 188 -16 169 -124c-16 -88 -98 -111 -209 -111c-2 -8 -4 -15 -5 -22c-23 -114 22 -213 151 -213z
" />
    <glyph glyph-name="dvTT_VA" horiz-adv-x="657" 
d="M234 -117c127 0 197 97 210 172v0l35 200c-41 -21 -92 -32 -152 -32c-134 0 -218 -74 -238 -174c-21 -106 47 -166 145 -166zM27 724l3 16h727l-3 -16h-238l-26 -147h-118c-119 0 -220 -52 -240 -165c-18 -101 48 -173 198 -173c152 0 240 79 260 191h17
c-12 -70 -49 -129 -109 -165l-83 -465h-16l32 181c-34 -61 -102 -114 -200 -114c-107 0 -180 68 -159 184c18 102 99 166 183 179c-106 18 -156 92 -140 184c22 126 133 179 260 179h101l23 131h-472z" />
    <glyph glyph-name="dvTTH_TTHA" horiz-adv-x="661" 
d="M255 -115c131 0 229 59 248 169c19 111 -57 169 -188 169c-129 0 -228 -58 -248 -169c-20 -110 54 -169 188 -169zM317 239c131 0 228 59 248 169s-56 169 -188 169c-134 0 -228 -59 -248 -169c-20 -108 58 -169 188 -169zM252 -131c-138 0 -223 64 -202 185
c17 100 90 159 195 177c-97 19 -151 82 -133 181c21 118 119 176 258 179l23 133h-366l3 16h731l-3 -16h-348l-23 -133c138 -2 217 -66 195 -183c-18 -99 -89 -159 -194 -177c98 -19 149 -79 132 -177c-21 -121 -124 -185 -268 -185z" />
    <glyph glyph-name="dvTTH_YA" horiz-adv-x="1240" 
d="M281 79c136 0 256 95 280 230c24 136 -62 234 -198 234s-253 -95 -277 -231c-24 -135 69 -233 195 -233zM845 103c134 0 215 109 240 252v0l65 369h-746l-28 -165h357c87 0 187 -18 169 -124c-15 -88 -97 -111 -208 -111c-3 -9 -4 -18 -6 -26c-18 -117 33 -195 157 -195z
M1023 0l42 238c-43 -90 -117 -151 -220 -151c-141 0 -193 94 -172 217c2 12 6 24 9 36h12c105 0 178 20 191 95c18 101 -84 108 -154 108h-281c96 -31 148 -119 128 -234c-26 -145 -149 -246 -300 -246c-136 0 -234 104 -209 249c25 143 146 244 290 247l28 165h-366l3 16
h1308l-3 -16h-162l-127 -724h-17z" />
    <glyph glyph-name="dvTTH_VA" horiz-adv-x="654" 
d="M316 239c126 0 227 57 247 167c20 111 -55 171 -184 171c-139 0 -238 -56 -258 -167c-19 -107 58 -171 195 -171zM208 -117c123 0 197 97 210 172v0l35 194c-39 -16 -85 -24 -137 -24c-129 0 -222 -63 -242 -172c-20 -108 42 -170 134 -170zM389 -200h-16l32 181
c-33 -61 -101 -114 -200 -114c-98 0 -169 69 -148 186c19 109 103 167 186 179c-98 17 -156 84 -139 180c22 118 123 176 268 179l23 133h-368l3 16h724l-3 -16h-339l-23 -133c137 -2 214 -71 191 -185c-13 -69 -52 -119 -111 -149z" />
    <glyph glyph-name="dvDD_DDA" horiz-adv-x="600" 
d="M27 724l3 16h670l-3 -16h-183l-23 -133v0l-3 -16h-167c-76 0 -147 -19 -162 -91c-17 -80 65 -98 156 -98c121 0 203 -29 183 -132c-15 -79 -81 -129 -201 -129c-136 0 -203 -26 -216 -92c-17 -84 60 -97 157 -97c120 0 200 -27 181 -132c-14 -79 -81 -129 -201 -129
c-138 0 -223 62 -205 163h17c-14 -86 50 -147 188 -147c105 0 172 43 184 113c17 97 -60 116 -169 116c-107 0 -185 19 -169 113c12 68 73 96 147 102c-79 16 -133 74 -119 153h17c-14 -80 41 -147 191 -147c105 0 169 43 181 113c17 98 -65 116 -170 116
c-101 0 -185 25 -169 114c16 90 103 107 188 107h144l23 133h-470z" />
    <glyph glyph-name="dvDD_DDHA" horiz-adv-x="613" 
d="M69 724l3 16h632l-3 -16h-163l-24 -133v0l-3 -16h-161c-67 0 -153 -21 -168 -100c-15 -80 66 -89 157 -89c120 0 201 -30 182 -132c-15 -79 -80 -129 -200 -129c-136 0 -258 -73 -284 -213c-24 -125 65 -200 205 -200c112 0 197 58 211 136c12 70 -26 122 -105 122
c-73 0 -128 -42 -139 -102c-1 -8 -2 -17 -2 -23h-17c0 6 1 16 2 23c13 74 76 118 156 118c92 0 136 -61 122 -138c-16 -88 -103 -152 -231 -152c-145 0 -244 78 -219 217c23 129 116 200 229 220c-88 11 -148 71 -134 155h17c-14 -80 41 -147 191 -147c105 0 169 43 181 113
c18 98 -65 116 -170 116c-101 0 -184 16 -169 105c17 92 103 116 188 116h144l24 133h-452z" />
    <glyph glyph-name="dvDD_YA" horiz-adv-x="1143" 
d="M935 0l42 239c-42 -91 -117 -152 -223 -152c-139 0 -190 95 -168 220c2 12 5 24 8 36h12c99 0 179 20 193 98c17 95 -86 105 -162 105h-313c-76 0 -173 -18 -191 -117c-15 -86 52 -115 129 -115h45c99 0 197 -42 175 -164c-16 -88 -93 -159 -226 -159
c-154 0 -219 89 -200 193h17c-17 -96 36 -177 186 -177c119 0 192 65 206 143c21 118 -73 148 -162 148h-45c-86 0 -158 41 -142 132c19 106 118 132 201 132h154l29 162h-472l3 16h1213l-3 -16h-162l-127 -724h-17zM754 103c135 0 218 109 243 252v0l65 369h-545l-29 -162
h158c89 0 188 -19 169 -123c-16 -88 -99 -112 -207 -112c-3 -9 -4 -19 -6 -27c-22 -117 33 -197 152 -197z" />
    <glyph glyph-name="dvDD_VA" horiz-adv-x="613" 
d="M356 -260h-16l30 167c-36 -63 -102 -97 -181 -97c-98 0 -164 62 -146 164c17 98 100 150 182 159c-89 9 -152 70 -137 155h17c-14 -80 42 -147 192 -147c104 0 167 43 180 113c18 98 -65 116 -170 116c-104 0 -183 22 -168 110c15 89 102 111 187 111h144l24 133h-467
l3 16h683l-3 -16h-199l-24 -133v0l-3 -16h-161c-67 0 -153 -15 -168 -98c-14 -79 66 -91 157 -91c116 0 200 -27 182 -132c-7 -41 -29 -75 -65 -97zM192 -174c115 0 178 86 189 148l31 174c-31 -15 -70 -23 -118 -23c-114 0 -216 -50 -234 -153c-17 -93 43 -146 132 -146z
" />
    <glyph glyph-name="dvDDH_DDHA" horiz-adv-x="668" 
d="M27 724l3 16h738l-3 -16h-234l-26 -149h-109c-136 0 -259 -70 -285 -212c-25 -135 68 -211 223 -211c124 0 217 58 231 139c11 67 -27 119 -113 119c-77 0 -142 -41 -151 -103c-1 -7 -2 -16 -2 -22h-17c0 6 1 16 2 23c11 74 80 118 168 118c99 0 145 -61 130 -138
c-17 -88 -110 -152 -251 -152h-2v0c-138 0 -270 -74 -296 -215c-25 -135 66 -211 223 -211c125 0 218 58 231 136c12 70 -27 122 -116 122c-77 0 -139 -41 -148 -103c-1 -7 -2 -16 -2 -22h-17c0 6 1 16 2 23c11 74 80 118 168 118c99 0 143 -62 130 -138
c-15 -88 -110 -152 -251 -152c-165 0 -263 84 -237 229c23 125 119 198 235 220c-115 24 -178 100 -157 220c27 156 155 228 302 228h95l23 133h-487z" />
    <glyph glyph-name="dvDDH_YA" horiz-adv-x="1221" 
d="M1013 0l42 239c-42 -91 -117 -152 -223 -152c-139 0 -189 95 -168 220c2 12 5 24 8 36h12c99 0 179 20 194 108c16 95 -90 106 -166 106h-298c-155 0 -296 -85 -327 -262c-27 -152 69 -256 220 -256c118 0 214 73 232 172c15 83 -33 144 -115 144
c-72 0 -137 -47 -148 -123c-1 -7 -2 -14 -2 -22h-17c0 6 1 16 2 23c15 86 85 138 168 138c88 0 145 -67 129 -160c-19 -109 -122 -188 -252 -188c-159 0 -262 111 -234 271c34 193 183 279 347 279h59l26 151h-477l3 16h1294l-3 -16h-162l-127 -724h-17zM832 103
c135 0 218 109 243 252v0l65 369h-621l-26 -151h228c89 0 191 -20 174 -124c-16 -96 -101 -122 -209 -122c-3 -9 -4 -19 -6 -27c-23 -117 33 -197 152 -197z" />
    <glyph glyph-name="dvDDH_VA" horiz-adv-x="626" 
d="M27 724l3 16h696l-3 -16h-202l-26 -149h-99c-135 0 -259 -67 -285 -212c-24 -135 67 -211 222 -211c118 0 198 60 212 140c12 68 -26 118 -100 118c-75 0 -135 -39 -144 -103c-1 -7 -2 -16 -2 -22h-17c0 6 1 16 2 23c11 74 78 118 161 118c88 0 131 -61 117 -134
c-11 -59 -52 -108 -115 -135l-74 -417h-16l31 178c-32 -60 -95 -111 -185 -111c-93 0 -163 61 -144 166c19 108 107 164 198 171c-115 18 -184 98 -163 219c27 156 155 228 302 228h85l23 133h-477zM205 -177c113 0 180 91 196 167l28 161c-29 -10 -61 -15 -98 -15
c-154 0 -236 -65 -255 -163c-19 -96 44 -150 129 -150z" />
    <glyph glyph-name="dvNN_TTA" horiz-adv-x="1155" 
d="M239 234c92 0 158 68 175 164l57 326h-292l-57 -326c-17 -96 27 -164 117 -164zM1086 320c-26 -151 -138 -257 -294 -257c-146 0 -244 104 -217 250c32 180 173 260 334 260h52l26 151h-499l-57 -325c-19 -106 -89 -181 -191 -181s-155 75 -135 181l57 325h-135l3 16
h1225l-3 -16h-248l-30 -167h-68c-151 0 -284 -78 -314 -245c-25 -136 64 -233 203 -233c142 0 250 100 274 241h17z" />
    <glyph glyph-name="dvNN_TTHA" horiz-adv-x="1204" 
d="M812 79c131 0 254 93 278 228c24 136 -59 236 -196 236c-131 0 -254 -92 -278 -228c-24 -135 61 -236 196 -236zM239 234c92 0 158 68 175 164l57 326h-292l-57 -326c-17 -96 27 -164 117 -164zM809 63c-143 0 -236 107 -210 252c25 142 146 240 289 244l29 165h-429
l-57 -325c-19 -106 -89 -181 -191 -181s-155 75 -135 181l57 325h-135l3 16h1274l-3 -16h-367l-29 -165c139 -4 227 -110 202 -252c-26 -145 -152 -244 -298 -244z" />
    <glyph glyph-name="dvNN_DDA" horiz-adv-x="1102" 
d="M239 234c92 0 158 68 175 164l57 326h-292l-57 -326c-17 -96 27 -164 117 -164zM775 -9c-154 0 -219 89 -200 193h17c-17 -96 36 -177 186 -177c119 0 192 65 206 143c21 118 -73 148 -162 148h-45c-86 0 -158 41 -142 132c19 106 118 132 201 132h154l29 162h-531
l-57 -325c-19 -106 -89 -181 -191 -181s-155 75 -135 181l57 325h-135l3 16h1172l-3 -16h-163l-32 -178h-161c-76 0 -173 -18 -191 -117c-15 -86 52 -115 129 -115h45c99 0 197 -42 175 -164c-16 -88 -93 -159 -226 -159z" />
    <glyph glyph-name="dvNN_DDHA" horiz-adv-x="1166" 
d="M239 234c92 0 158 68 175 164l57 326h-292l-57 -326c-17 -96 27 -164 117 -164zM1096 211c-19 -109 -122 -188 -252 -188c-159 0 -262 111 -234 271c34 193 183 279 347 279h59l26 151h-554l-57 -325c-19 -106 -89 -181 -191 -181s-155 75 -135 181l57 325h-135l3 16
h1236l-3 -16h-204l-29 -167h-76c-155 0 -296 -85 -327 -262c-27 -152 69 -256 220 -256c118 0 214 73 232 172c15 83 -33 144 -115 144c-72 0 -137 -47 -148 -123c-1 -7 -2 -14 -2 -22h-17c0 6 1 16 2 23c15 86 85 138 168 138c88 0 145 -67 129 -160z" />
    <glyph glyph-name="dvNN_NNA" horiz-adv-x="1365" 
d="M239 234c92 0 158 68 175 164l57 326h-292l-57 -326c-17 -96 27 -164 117 -164zM784 234c92 0 158 68 175 164l57 326h-292l-57 -326c-17 -96 27 -164 117 -164zM1462 724h-162l-127 -724h-17l127 724h-250l-57 -325c-19 -106 -89 -181 -191 -181s-155 75 -135 181
l57 325h-219l-57 -325c-19 -106 -89 -181 -191 -181s-155 75 -135 181l57 325h-135l3 16h1435z" />
    <glyph glyph-name="dvNN_MA" horiz-adv-x="1245" 
d="M1114 445l49 279h-232l-49 -279h232zM681 152c82 0 143 62 163 172l18 105h-122c-87 0 -157 -54 -172 -139c-15 -83 34 -138 113 -138zM239 234c92 0 158 68 175 164l57 326h-292l-57 -326c-17 -96 27 -164 117 -164zM1342 724h-162l-127 -724h-17l75 429h-232l-18 -104
c-22 -127 -88 -189 -180 -189c-91 0 -146 63 -130 154c16 94 94 155 192 155h122l49 279h-426l-57 -325c-19 -106 -89 -181 -191 -181s-155 75 -135 181l57 325h-135l3 16h1315z" />
    <glyph glyph-name="dvNN_YA" horiz-adv-x="1212" 
d="M1309 724h-162l-127 -724h-17l50 283c-36 -70 -124 -145 -255 -145c-161 0 -247 111 -216 282c2 11 5 25 8 35h18c109 0 212 31 239 180l15 89h-374l-57 -325c-19 -106 -89 -181 -191 -181s-155 75 -135 181l57 325h-135l3 16h1282zM239 234c92 0 158 68 175 164l57 326
h-292l-57 -326c-17 -96 27 -164 117 -164zM802 154c122 0 238 81 264 207l64 363h-251l-15 -89c-28 -155 -131 -196 -259 -196h-3c-2 -8 -3 -15 -4 -19c-31 -167 51 -266 204 -266z" />
    <glyph glyph-name="dvNN_VA" horiz-adv-x="1204" 
d="M801 141c157 0 239 121 256 213c18 101 -23 218 -180 218c-117 0 -230 -79 -254 -213c-24 -139 57 -218 178 -218zM239 234c92 0 158 68 175 164l57 326h-292l-57 -326c-17 -96 27 -164 117 -164zM1301 724h-162l-127 -724h-17l47 268c-39 -76 -120 -143 -241 -143
c-131 0 -221 86 -195 234c25 142 143 229 270 229c125 0 184 -68 196 -148l50 284h-634l-57 -325c-19 -106 -89 -181 -191 -181s-155 75 -135 181l57 325h-135l3 16h1274z" />
    <glyph glyph-name="dvT_KA" horiz-adv-x="1414" 
d="M835 0l47 266c-38 -74 -115 -139 -226 -139c-123 0 -206 85 -180 232c9 50 29 93 57 128h-141c-163 0 -282 -73 -311 -234c-26 -150 47 -235 202 -235h24l-3 -16h-24c-159 0 -244 92 -216 251c31 173 157 250 330 250h153c49 52 116 81 186 81c114 0 168 -66 180 -141
l49 281h-935l3 16h1484l-3 -16h-533l-50 -283c38 76 111 143 223 143c116 0 201 -85 176 -225c-26 -147 -131 -232 -252 -232c-21 0 -43 3 -56 6l3 16c16 -4 37 -6 56 -6c107 0 208 78 232 216c23 131 -54 209 -160 209c-141 0 -216 -112 -236 -207l-63 -361h-16zM657 143
c145 0 220 116 238 201l3 16c15 93 -20 208 -166 208c-108 0 -216 -78 -239 -209c-24 -138 51 -216 164 -216z" />
    <glyph glyph-name="dvT_K_YA" horiz-adv-x="1921" 
d="M978 724l-50 -283c37 77 107 143 215 143c102 0 153 -59 162 -129h12c109 0 212 31 239 180l15 89h-593zM657 143c145 0 220 116 238 201l3 16c15 93 -20 208 -166 208c-108 0 -216 -78 -239 -209c-24 -138 51 -216 164 -216zM1511 154c122 0 238 81 264 207l64 363h-251
l-15 -89c-28 -155 -131 -196 -259 -196h-3c-2 -8 -3 -15 -4 -19c-31 -167 51 -266 204 -266zM1140 568c-121 0 -206 -111 -226 -207l-63 -361h-16l47 266c-38 -74 -115 -139 -226 -139c-123 0 -206 85 -180 232c9 50 29 93 57 128h-141c-163 0 -282 -73 -311 -234
c-26 -150 47 -235 202 -235h24l-3 -16h-24c-159 0 -244 92 -216 251c31 173 157 250 330 250h153c49 52 116 81 186 81c114 0 168 -66 180 -141l49 281h-935l3 16h1991l-3 -16h-162l-127 -724h-17l50 283c-36 -70 -124 -145 -255 -145c-157 0 -242 105 -218 268
c8 80 -31 162 -149 162z" />
    <glyph glyph-name="dvT_K_RA" horiz-adv-x="1414" 
d="M835 0l47 266c-19 -35 -46 -69 -82 -95l-285 -217h-23l243 185c-24 -8 -50 -12 -79 -12c-123 0 -206 85 -180 232c9 50 29 93 57 128h-141c-163 0 -282 -73 -311 -234c-26 -150 47 -235 202 -235h24l-3 -16h-24c-159 0 -244 92 -216 251c31 173 157 250 330 250h153
c49 52 116 81 186 81c114 0 168 -66 180 -141l49 281h-935l3 16h1484l-3 -16h-533l-50 -283c38 76 111 143 223 143c116 0 201 -85 176 -225c-26 -147 -131 -232 -252 -232c-21 0 -43 3 -56 6l3 16c16 -4 37 -6 56 -6c107 0 208 78 232 216c23 131 -54 209 -160 209
c-141 0 -216 -112 -236 -207l-63 -361h-16zM657 143c145 0 220 116 238 201l3 16c15 93 -20 208 -166 208c-108 0 -216 -78 -239 -209c-24 -138 51 -216 164 -216z" />
    <glyph glyph-name="dvT_K_VA" horiz-adv-x="1888" 
d="M1143 584c93 0 161 -57 168 -156c45 101 144 160 249 160c125 0 184 -68 196 -148l50 284h-828l-49 -280c35 75 103 140 214 140zM657 143c145 0 220 116 238 201l3 16c15 93 -20 208 -166 208c-108 0 -216 -78 -239 -209c-24 -138 51 -216 164 -216zM1485 141
c157 0 239 121 256 213c18 101 -23 218 -180 218c-117 0 -230 -79 -254 -213c-24 -139 57 -218 178 -218zM1985 724h-162l-127 -724h-17l47 268c-39 -76 -120 -143 -241 -143c-131 0 -221 86 -195 234c23 131 -44 209 -147 209c-144 0 -213 -126 -229 -210l-63 -358h-16
l47 266c-38 -74 -115 -139 -226 -139c-123 0 -206 85 -180 232c9 50 29 93 57 128h-141c-163 0 -282 -73 -311 -234c-26 -150 47 -235 202 -235h24l-3 -16h-24c-159 0 -244 92 -216 251c31 173 157 250 330 250h153c49 52 116 81 186 81c114 0 168 -66 180 -141l49 281h-935
l3 16h1958z" />
    <glyph glyph-name="dvT_K_SSA" horiz-adv-x="1178" 
d="M594 588c-17 -103 58 -160 165 -164c69 38 128 83 143 165c16 92 -48 145 -129 145c-79 0 -163 -52 -179 -146zM755 -47l30 171c-11 -29 -66 -95 -166 -95c-101 0 -152 69 -136 158v1l9 49c19 106 10 250 -156 250c-127 0 -228 -77 -255 -234c-26 -150 47 -235 202 -235
h24l-3 -16h-24c-159 0 -244 92 -216 251c29 169 138 250 275 250c162 0 189 -133 174 -240c48 70 136 106 217 146c-94 11 -171 73 -153 179c11 64 48 110 96 136h-646l3 16h679c21 7 43 10 64 10c91 0 164 -60 146 -161c-14 -80 -67 -127 -129 -165h253l56 316h179l-3 -16
h-162l-128 -724h-17l72 408h-279c-111 -58 -239 -97 -261 -221c-14 -79 28 -142 121 -142c94 0 162 67 177 152h17l-43 -244h-17z" />
    <glyph glyph-name="dvT_KHA" horiz-adv-x="1326" 
d="M1117 0l50 284c-34 -66 -103 -125 -202 -125c-16 0 -32 2 -46 5c-45 -87 -131 -164 -247 -164c-132 0 -206 82 -183 214l24 136v0c10 53 -26 137 -161 137c-133 0 -242 -73 -271 -234c-26 -150 47 -235 202 -235h24l-3 -16h-24c-159 0 -244 92 -216 251
c31 173 147 250 290 250c111 0 162 -55 174 -109h37c64 0 154 25 179 169l28 161h-745l3 16h1396l-3 -16h-162l-127 -724h-17zM676 16c102 0 189 74 227 153c-74 24 -121 94 -104 197c21 124 120 199 231 199c104 0 153 -58 164 -124l50 283h-455l-28 -161
c-27 -153 -117 -185 -205 -185h-21l-29 -164c-21 -120 45 -198 170 -198zM968 175c129 0 198 105 212 186c16 86 -19 188 -152 188c-99 0 -192 -68 -212 -183c-21 -122 50 -191 152 -191z" />
    <glyph glyph-name="dvT_KH_RA" horiz-adv-x="1326" 
d="M1117 0l50 284c-34 -66 -103 -125 -202 -125c-16 0 -32 2 -46 5c-22 -42 -54 -82 -94 -112l-265 -203h-24v2l211 160c-24 -7 -48 -11 -75 -11c-132 0 -206 82 -183 214l24 136v0c10 53 -26 137 -161 137c-133 0 -242 -73 -271 -234c-26 -150 47 -235 202 -235h24l-3 -16
h-24c-159 0 -244 92 -216 251c31 173 147 250 290 250c111 0 162 -55 174 -109h37c64 0 154 25 179 169l28 161h-745l3 16h1396l-3 -16h-162l-127 -724h-17zM676 16c102 0 189 74 227 153c-74 24 -121 94 -104 197c21 124 120 199 231 199c104 0 153 -58 164 -124l50 283
h-455l-28 -161c-27 -153 -117 -185 -205 -185h-21l-29 -164c-21 -120 45 -198 170 -198zM968 175c129 0 198 105 212 186c16 86 -19 188 -152 188c-99 0 -192 -68 -212 -183c-21 -122 50 -191 152 -191z" />
    <glyph glyph-name="dvT_TA" horiz-adv-x="704" 
d="M27 724l3 16h774l-3 -16h-161l-128 -724h-17l86 487h-162c-163 0 -287 -66 -316 -244c-24 -144 54 -225 203 -225h24l-3 -16h-24c-154 0 -243 88 -217 244c24 143 114 220 211 242h-240l2 15h525l39 221h-596z" />
    <glyph glyph-name="dvT_T_YA" horiz-adv-x="1126" 
d="M716 154c122 0 238 81 264 207l64 363h-251l-15 -89c-28 -155 -131 -196 -259 -196h-3c-1 -5 -2 -10 -3 -14v0v0c0 -2 -1 -4 -1 -5c-31 -167 51 -266 204 -266zM934 0h-17l50 283c-36 -70 -124 -145 -255 -145c-161 0 -247 111 -216 282c0 2 1 4 1 5c1 14 2 92 -150 92
c-133 0 -232 -82 -261 -233c-25 -128 40 -225 201 -225h26l-3 -16h-24c-164 0 -245 98 -216 246c26 137 106 209 184 229h-216l3 15h307c118 0 153 -45 162 -78h12c109 0 212 31 239 180l15 89h-773l3 16h1220l-3 -16h-162z" />
    <glyph glyph-name="dvT_T_VA" horiz-adv-x="1101" 
d="M698 141c157 0 239 121 256 213c18 101 -23 218 -180 218c-117 0 -230 -79 -254 -213c-24 -139 57 -218 178 -218zM1198 724h-162l-127 -724h-17l47 268c-39 -76 -120 -143 -241 -143c-131 0 -221 86 -195 234c9 50 29 93 57 128h-141c-163 0 -286 -66 -316 -244
c-24 -144 54 -225 203 -225h24l-3 -16h-24c-154 0 -243 88 -217 244c24 143 114 220 211 242h-240l2 15h515c52 54 124 85 199 85c125 0 184 -68 196 -148l50 284h-992l3 16h1171z" />
    <glyph glyph-name="dvT_THA" horiz-adv-x="1128" 
d="M919 0l47 264c-30 -67 -123 -150 -253 -150c-163 0 -257 108 -225 282c1 6 3 12 4 19h-117c-159 0 -276 -63 -300 -194c-24 -129 53 -203 207 -203h24l-3 -16h-24c-160 0 -246 81 -221 221c26 144 146 208 313 208h233c103 0 230 25 255 150c17 84 -28 152 -123 152
c-117 0 -187 -88 -187 -208h-17c0 90 38 163 103 199h-608l2 16h644c19 6 40 9 63 9c104 0 159 -75 140 -168c-27 -130 -143 -166 -266 -166h-100c-37 -183 45 -285 205 -285c124 0 242 89 264 213l70 397h179l-2 -16h-162l-128 -724h-17z" />
    <glyph glyph-name="dvT_NA" horiz-adv-x="1130" 
d="M595 168c95 0 174 71 191 160c18 93 -40 159 -135 159c-98 0 -177 -65 -195 -161c-17 -93 39 -158 139 -158zM938 0h-17l86 488h-285c56 -19 96 -78 81 -160c-19 -103 -105 -176 -211 -176c-108 0 -170 73 -153 174c13 76 61 134 130 161h-177c-163 0 -282 -73 -311 -234
c-26 -150 47 -235 202 -235h24l-3 -16h-24c-159 0 -244 92 -216 251c31 173 157 250 330 250h616l39 221h-1022l3 16h1200l-3 -16h-161z" />
    <glyph glyph-name="dvT_N_YA" horiz-adv-x="1599" 
d="M1189 154c122 0 238 81 264 207l64 363h-251l-15 -89c-24 -141 -122 -181 -259 -181h-3c-2 -8 -3 -15 -4 -19c-30 -158 49 -281 204 -281zM593 135c95 0 174 71 191 160c18 93 -40 159 -135 159c-98 0 -177 -65 -195 -161c-17 -93 39 -158 139 -158zM1407 0h-17l50 283
c-36 -70 -124 -145 -255 -145c-158 0 -247 126 -216 297c1 6 3 13 4 20h-253c56 -19 96 -78 81 -160c-19 -103 -105 -176 -211 -176c-108 0 -170 73 -153 174c13 76 61 134 130 161h-175c-163 0 -282 -73 -311 -201c-34 -150 47 -235 202 -235h24l-3 -16h-24
c-159 0 -251 92 -216 251c31 140 157 217 330 217h601c118 0 216 30 239 165l15 89h-1222l3 16h1669l-3 -16h-162z" />
    <glyph glyph-name="dvT_PA" horiz-adv-x="1006" 
d="M656 247c118 0 198 85 217 183l51 294h-374l-45 -255c-24 -139 27 -222 151 -222zM814 0h-17l62 351c-39 -73 -111 -120 -204 -120c-132 0 -193 89 -167 238l3 18h-99c-163 0 -282 -73 -311 -234c-26 -150 47 -235 202 -235h24l-3 -16h-24c-159 0 -244 92 -216 251
c31 173 157 250 330 250h100l39 221h-506l3 16h1076l-3 -16h-162z" />
    <glyph glyph-name="dvT_P_RA" horiz-adv-x="1006" 
d="M656 247c113 0 199 85 216 182l52 295h-374l-45 -255c-24 -139 27 -222 151 -222zM814 0h-17l62 352c-17 -30 -39 -56 -66 -77l-343 -274h-24l302 241c-23 -7 -48 -11 -75 -11c-129 0 -191 89 -165 238l3 18h-99c-163 0 -282 -73 -311 -234c-26 -150 47 -235 202 -235h24
l-3 -16h-24c-159 0 -244 92 -216 251c31 173 157 250 330 250h100l39 221h-506l3 16h1076l-3 -16h-162z" />
    <glyph glyph-name="dvT_P_LA" horiz-adv-x="1636" 
d="M641 247c100 0 163 62 191 141c32 101 104 172 213 172c117 0 149 -96 146 -173h2c24 76 84 168 200 173l29 164h-872l-45 -255c-24 -139 12 -222 136 -222zM304 2h-24c-159 0 -244 92 -216 251c31 173 157 250 330 250h100l39 221h-506l3 16h1706l-3 -16h-294l-29 -164
c114 -5 157 -102 136 -219c-23 -133 -111 -237 -258 -237c-12 0 -25 1 -37 2l3 17c11 -1 21 -2 31 -2c138 0 222 96 244 220c19 111 -18 203 -129 203c-113 0 -189 -93 -215 -241l-1 -8h-17l1 8c27 145 -13 241 -124 241c-116 0 -186 -88 -206 -203
c-22 -124 28 -220 166 -220c10 0 20 1 31 2l-3 -17c-10 -1 -18 -2 -29 -2c-141 0 -202 96 -185 221c-37 -57 -98 -94 -178 -94c-132 0 -178 89 -152 238l3 18h-99c-163 0 -282 -73 -311 -234c-26 -150 47 -235 202 -235h24z" />
    <glyph glyph-name="dvT_PHA" horiz-adv-x="1357" 
d="M646 247c113 0 190 87 208 191v0l50 286h-354l-45 -255c-24 -139 17 -222 141 -222zM794 0h-17l62 353c-38 -74 -108 -122 -197 -122c-131 0 -180 89 -154 238l3 18h-99c-163 0 -282 -73 -311 -234c-26 -150 47 -235 202 -235h24l-3 -16h-24c-159 0 -244 92 -216 251
c31 173 157 250 330 250h100l39 221h-506l3 16h1427l-3 -16h-533l-50 -286c37 77 111 146 225 146c116 0 199 -85 174 -225c-26 -147 -133 -232 -252 -232c-21 0 -43 3 -56 6l3 16c16 -4 37 -6 56 -6c109 0 208 78 232 216c23 131 -54 209 -160 209
c-141 0 -217 -113 -236 -209z" />
    <glyph glyph-name="dvT_MA" horiz-adv-x="1133" 
d="M573 172c82 0 144 62 163 172l18 105h-122c-87 0 -157 -54 -172 -139c-15 -83 34 -138 113 -138zM1006 465l45 259h-232l-45 -259h232zM941 0h-17l79 449h-232l-18 -104c-22 -127 -88 -189 -180 -189c-91 0 -146 63 -130 154c12 65 53 115 109 139l-140 -1
c-166 -1 -302 -49 -331 -203c-28 -150 47 -227 202 -227h24l-3 -16h-24c-159 0 -244 84 -216 243c30 173 177 218 350 219l212 1h9h122l45 259h-775l3 16h1203l-3 -16h-162z" />
    <glyph glyph-name="dvT_M_YA" horiz-adv-x="1603" 
d="M571 162c82 0 143 62 163 172l19 105h-123c-87 0 -157 -54 -172 -139c-15 -83 34 -138 113 -138zM999 455c109 0 212 31 239 180l15 89h-433l-48 -269h227zM1193 154c122 0 238 81 264 207l64 363h-251l-15 -89c-28 -155 -131 -196 -259 -196h-3c-2 -8 -3 -15 -4 -19
c-31 -167 51 -266 204 -266zM1411 0h-17l50 283c-36 -70 -124 -145 -255 -145c-161 0 -247 111 -216 282c1 6 2 13 4 19h-207l-19 -104c-23 -127 -88 -189 -180 -189c-91 0 -146 63 -130 154c12 65 53 115 109 139l-138 -1c-166 -1 -302 -39 -331 -193
c-28 -150 47 -227 202 -227h24l-3 -16h-24c-159 0 -244 84 -216 243c31 173 177 208 350 209l209 1h10h123l47 269h-776l3 16h1673l-3 -16h-162z" />
    <glyph glyph-name="dvT_YA" horiz-adv-x="1126" 
d="M716 154c122 0 238 81 264 207l64 363h-251l-15 -89c-28 -155 -131 -196 -259 -196h-3c-2 -8 -3 -15 -4 -19c-31 -167 51 -266 204 -266zM934 0h-17l50 283c-36 -70 -124 -145 -255 -145c-161 0 -247 111 -216 282v1v0c1 4 17 96 -149 96c-126 0 -238 -73 -266 -234
c-26 -150 47 -235 202 -235h24l-3 -16h-24c-159 0 -244 92 -216 251c30 173 148 250 284 250c119 0 153 -45 162 -78h12c109 0 212 31 239 180l15 89h-749l3 16h1196l-3 -16h-162z" />
    <glyph glyph-name="dvT_R_YA" horiz-adv-x="1175" 
d="M748 96c125 0 249 84 272 214l-1 -6l74 420h-250l-30 -167c-27 -153 -131 -196 -259 -196h-3c-2 -9 -3 -15 -4 -19c-27 -154 48 -246 201 -246zM532 342c0 2 1 4 1 6l-408 -348h-23v2l435 371c-12 87 -76 154 -190 154c-120 0 -231 -77 -255 -214h-17
c26 149 145 230 275 230c127 0 192 -77 203 -166h4c106 0 213 31 239 180l30 167h-799l3 16h1245l-3 -16h-162l-127 -724h-17l40 228c-36 -70 -124 -148 -258 -148c-165 0 -245 103 -216 262z" />
    <glyph glyph-name="dvT_LA" horiz-adv-x="1275" 
d="M304 2h-24c-159 0 -244 92 -216 251c31 173 157 250 330 250h145c37 36 85 57 145 57c117 0 149 -96 146 -173h2c24 76 84 168 200 173l29 164h-1034l3 16h1345l-3 -16h-294l-29 -164c114 -5 157 -102 136 -219c-23 -133 -111 -237 -258 -237c-12 0 -25 1 -37 2l3 17
c11 -1 21 -2 31 -2c138 0 222 96 244 220c19 111 -18 203 -129 203c-113 0 -189 -93 -215 -241l-1 -8h-17l1 8c27 145 -13 241 -124 241c-116 0 -186 -88 -206 -203c-22 -124 28 -220 166 -220c10 0 20 1 31 2l-3 -17c-10 -1 -18 -2 -29 -2c-147 0 -207 104 -182 237
c10 57 31 108 64 146h-132c-163 0 -282 -73 -311 -234c-26 -150 47 -235 202 -235h24z" />
    <glyph glyph-name="dvT_VA" horiz-adv-x="1079" 
d="M676 141c157 0 239 121 256 213c18 101 -23 218 -180 218c-117 0 -230 -79 -254 -213c-24 -139 57 -218 178 -218zM1176 724h-162l-127 -724h-17l47 268c-39 -76 -120 -143 -241 -143c-131 0 -221 86 -195 234c9 50 29 93 57 128h-146c-163 0 -282 -73 -311 -234
c-26 -150 47 -235 202 -235h24l-3 -16h-24c-159 0 -244 92 -216 251c31 173 157 250 330 250h158c52 54 124 85 199 85c125 0 184 -68 196 -148l50 284h-970l3 16h1149z" />
    <glyph glyph-name="dvT_SA" horiz-adv-x="1231" 
d="M882 591c-21 -120 -94 -181 -165 -202h373l59 335h-243zM848 199c-17 -115 -85 -208 -204 -208s-175 87 -153 214l24 139v0c10 53 -27 143 -163 143c-143 0 -242 -73 -271 -234c-26 -150 47 -235 202 -235h24l-3 -16h-24c-159 0 -244 92 -216 251c31 173 138 250 291 250
c111 0 162 -58 174 -113h104c120 0 211 77 233 201l24 133h-863l3 16h1301l-3 -16h-162l-127 -724h-17l65 374h-550l-29 -170c-20 -116 24 -197 137 -197c106 0 170 84 186 192h17z" />
    <glyph glyph-name="dvT_S_NA" horiz-adv-x="1716" 
d="M882 591c-21 -120 -94 -181 -165 -202h325c34 75 108 122 203 122h352l38 213h-729zM1181 176c95 0 174 71 191 160c18 93 -40 159 -135 159c-98 0 -178 -65 -195 -161c-17 -93 39 -158 139 -158zM848 199c-17 -115 -85 -208 -204 -208s-175 87 -153 214l24 139v0
c10 53 -27 143 -163 143c-143 0 -242 -73 -271 -234c-26 -150 47 -235 202 -235h24l-3 -16h-24c-159 0 -244 92 -216 251c31 173 138 250 291 250c111 0 162 -58 174 -113h104c120 0 211 77 233 201l24 133h-863l3 16h1786l-3 -16h-161l-128 -724h-17l88 496h-287
c56 -19 96 -78 81 -160c-18 -103 -105 -176 -211 -176c-108 0 -171 73 -153 174c2 14 6 27 11 40h-499l-29 -170c-20 -116 24 -197 137 -197c106 0 170 84 186 192h17z" />
    <glyph glyph-name="dvT_S_YA" horiz-adv-x="1673" 
d="M1065 389c109 0 206 32 235 200l23 135h-417l-21 -113c-25 -140 -101 -203 -171 -222h351zM1253 144c115 0 234 72 269 186l69 394h-251l-23 -135c-30 -174 -127 -216 -255 -216h-3c-2 -8 -3 -15 -4 -19c-28 -118 50 -210 198 -210zM848 199c-17 -115 -85 -208 -204 -208
s-175 87 -153 214l24 139v0c10 53 -27 143 -163 143c-143 0 -242 -73 -271 -234c-26 -150 47 -235 202 -235h24l-3 -16h-24c-159 0 -244 92 -216 251c31 173 138 250 291 250c111 0 162 -58 174 -113h104c120 0 210 77 236 221l21 113h-863l3 16h1743l-3 -16h-162l-127 -724
h-17l47 268c-38 -68 -133 -140 -262 -140c-161 0 -236 104 -210 226c1 6 3 13 4 20h-506l-29 -170c-20 -116 24 -197 137 -197c106 0 170 84 186 192h17z" />
    <glyph glyph-name="dvT_S_VA" horiz-adv-x="1614" 
d="M885 611c-25 -140 -101 -203 -171 -222h309c35 124 145 199 263 199c125 0 184 -68 196 -148l50 284h-626zM1211 141c157 0 239 121 256 213c18 101 -23 218 -180 218c-117 0 -230 -79 -254 -213c-24 -139 57 -218 178 -218zM1711 724h-162l-127 -724h-17l47 268
c-39 -76 -120 -143 -241 -143c-131 0 -221 86 -195 234l3 15h-482l-29 -170c-20 -116 24 -197 137 -197c106 0 170 84 186 192h17c-17 -115 -85 -208 -204 -208s-175 87 -153 214l24 139v0c10 53 -27 143 -163 143c-143 0 -242 -73 -271 -234c-26 -150 47 -235 202 -235h24
l-3 -16h-24c-159 0 -244 92 -216 251c31 173 138 250 291 250c111 0 162 -58 174 -113h104c120 0 210 77 236 221l21 113h-863l3 16h1684z" />
    <glyph glyph-name="dvTH_NA" horiz-adv-x="1280" 
d="M323 114c-178 0 -261 122 -214 297h108c100 0 229 28 254 170c15 84 -27 152 -122 152c-118 0 -188 -87 -188 -208h-17c0 128 77 224 207 224c101 0 153 -75 137 -168c-25 -146 -153 -186 -273 -186h-94c-36 -164 44 -265 206 -265c114 0 234 83 262 202v2
c18 106 104 177 220 177h352l38 213h-540l2 16h719l-3 -16h-161l-128 -724h-17l88 496h-287c56 -19 96 -78 81 -160c-18 -103 -105 -176 -211 -176c-87 0 -145 48 -155 119c-45 -98 -150 -165 -264 -165zM745 176c95 0 174 71 191 160c18 93 -40 159 -135 159
c-98 0 -178 -65 -195 -161c-17 -93 39 -158 139 -158z" />
    <glyph glyph-name="dvTH_YA" horiz-adv-x="1229" 
d="M1326 724h-162l-127 -724h-17l50 283c-36 -70 -124 -145 -255 -145c-129 0 -210 72 -221 189c-45 -130 -152 -213 -271 -213c-178 0 -261 122 -214 297h108c100 0 229 28 254 170c15 84 -27 152 -122 152c-118 0 -188 -87 -188 -208h-17c0 128 77 224 207 224
c101 0 153 -75 137 -168c-25 -146 -153 -186 -273 -186h-94c-36 -164 44 -265 202 -265c127 0 244 103 272 266c1 8 3 16 4 24c2 11 5 25 8 35h18c109 0 212 31 239 180l15 89h-225l3 16h672zM819 154c122 0 238 81 264 207l64 363h-251l-15 -89
c-28 -155 -131 -196 -259 -196h-3c-2 -8 -3 -15 -4 -19c-31 -167 51 -266 204 -266z" />
    <glyph glyph-name="dvTH_VA" horiz-adv-x="1192" 
d="M323 114c-178 0 -261 122 -214 297h108c100 0 229 28 254 170c15 84 -27 152 -122 152c-118 0 -188 -87 -188 -208h-17c0 128 77 224 207 224c101 0 153 -75 137 -168c-25 -146 -153 -186 -273 -186h-94c-36 -164 44 -265 206 -265c118 0 242 89 264 211l3 18
c25 142 143 229 270 229c125 0 184 -68 196 -148l50 284h-452l3 16h631l-3 -16h-162l-127 -724h-17l47 268c-39 -76 -120 -143 -241 -143c-108 0 -187 58 -198 161c-44 -102 -152 -172 -268 -172zM789 141c157 0 239 121 256 213c18 101 -23 218 -180 218
c-117 0 -230 -79 -254 -213c-24 -139 57 -218 178 -218z" />
    <glyph glyph-name="dvD_GA" horiz-adv-x="608" 
d="M27 724l3 16h678l-3 -16h-176l-27 -152h-129c-133 0 -230 -58 -249 -167c-17 -97 41 -160 150 -160c71 0 190 47 210 156h15l-96 -541h-17l83 467c-37 -56 -113 -98 -198 -98h-2l-27 -155c-13 -74 -59 -141 -150 -141c-86 0 -119 70 -105 139c2 10 3 20 5 30h17l-5 -31
c-9 -57 11 -122 88 -122c87 0 122 66 133 127l28 154c-106 7 -164 77 -146 178c22 123 126 180 267 180h114l24 136h-485z" />
    <glyph glyph-name="dvD_G_RA" horiz-adv-x="608" 
d="M27 724l3 16h678l-3 -16h-175l-28 -152h-131c-133 0 -227 -58 -247 -167c-18 -96 40 -160 148 -160c76 0 192 49 212 156h15l-95 -541h-17l39 226l-323 -276h-25l353 302l38 215c-37 -56 -116 -98 -197 -98h-3l-14 -85c-13 -77 -61 -141 -153 -141
c-87 0 -109 69 -102 139c1 10 3 20 5 30h17l-6 -31c-12 -61 11 -122 86 -122c90 0 126 64 136 125l15 86c-106 7 -163 79 -146 176c22 125 126 182 267 182h114l25 136h-486z" />
    <glyph glyph-name="dvD_GHA" horiz-adv-x="885" 
d="M213 -28c100 0 198 65 239 178c-72 35 -108 111 -91 208c12 69 43 120 86 157c-50 36 -101 51 -153 51c-108 0 -169 -68 -181 -137c-15 -85 33 -142 151 -142h5l-3 -16h-5c-121 0 -182 -71 -196 -146c-19 -104 51 -153 148 -153zM27 724l3 16h955l-3 -16h-170l-27 -152
h-121c-133 0 -261 -67 -286 -214c-22 -127 48 -213 173 -213c80 0 197 48 219 176h15l-56 -321h-17l42 241c-33 -64 -114 -112 -205 -112c-31 0 -59 5 -84 15c-43 -119 -143 -188 -255 -188c-103 0 -182 58 -162 171c16 90 88 144 154 150l1 2c-66 12 -123 58 -107 151
c13 78 80 152 199 152c61 0 117 -21 165 -56c56 43 130 62 206 62h104l25 136h-768z" />
    <glyph glyph-name="dvD_DA" horiz-adv-x="524" 
d="M373 -27l33 185c-28 -58 -105 -121 -218 -121c-117 0 -180 66 -163 163c13 76 75 130 147 138v2c-59 8 -117 55 -103 131c20 106 118 141 235 141c39 0 79 0 117 -1l21 113h-430l3 16h609l-3 -16h-162l-23 -128h-135c-108 0 -200 -36 -216 -127c-12 -68 39 -122 142 -122
h111l-2 -16h-109c-106 0 -173 -60 -185 -132c-16 -97 45 -146 148 -146c114 0 210 68 233 198h16l-49 -278h-17z" />
    <glyph glyph-name="dvD_DHA" horiz-adv-x="885" 
d="M27 724l3 16h955l-3 -16h-170l-27 -152h-121c-133 0 -261 -67 -286 -214c-22 -127 48 -213 173 -213c80 0 197 48 219 176h15l-56 -321h-17l42 241c-33 -64 -114 -112 -205 -112c-31 0 -59 5 -84 15c-43 -119 -143 -188 -255 -188c-102 0 -183 58 -162 171
c16 86 84 141 155 150v2c-61 10 -122 56 -106 152c14 82 88 160 224 150l-3 -16c-120 9 -191 -60 -205 -135c-15 -82 33 -143 151 -143h5l-3 -16h-5c-118 0 -181 -71 -196 -147c-20 -103 54 -152 145 -152c103 0 201 65 242 178c-72 35 -108 111 -91 208
c29 163 164 230 305 230h104l25 136h-768z" />
    <glyph glyph-name="dvD_NA" horiz-adv-x="1350" 
d="M510 -278l-83 178h18l84 -178h-19zM815 176c95 0 174 71 191 160c18 93 -40 159 -135 159c-98 0 -178 -65 -195 -161c-17 -93 39 -158 139 -158zM451 0h-17l42 241c-33 -64 -114 -112 -205 -112c-134 0 -212 95 -188 229c29 163 164 230 305 230h104l25 136h-490l3 16
h1420l-3 -16h-161l-128 -724h-17l88 496h-287c56 -19 96 -78 81 -160c-18 -103 -105 -176 -211 -176c-108 0 -171 73 -153 174c18 106 104 177 220 177h352l38 213h-735l-27 -152h-121c-133 0 -260 -67 -286 -214c-22 -127 48 -213 173 -213c80 0 197 48 219 176h15z" />
    <glyph glyph-name="dvD_BA" horiz-adv-x="595" 
d="M28 724l2 16h665l-2 -16h-174l-27 -152h-131c-133 0 -228 -54 -248 -157c-19 -97 51 -170 147 -170c76 0 194 43 214 156h15l-99 -561h-16l31 173c-38 -69 -108 -113 -190 -113c-92 0 -169 67 -150 179c15 86 83 143 153 156c-82 16 -139 91 -122 180
c22 116 127 173 268 173h114l24 136h-474zM218 -84c63 0 115 32 150 73l-240 180c-24 -24 -40 -55 -46 -90c-18 -104 49 -163 136 -163zM264 229c-48 -3 -92 -21 -124 -49l238 -180c20 27 34 57 38 82h1l43 244c-34 -53 -108 -91 -196 -97z" />
    <glyph glyph-name="dvD_B_RA" horiz-adv-x="595" 
d="M28 724l2 16h665l-2 -16h-174l-27 -152h-131c-133 0 -228 -54 -248 -157c-19 -97 51 -170 147 -170c76 0 194 43 214 156h15l-99 -561h-16l31 173c-15 -27 -34 -50 -57 -68v0l-234 -178h-25l189 142c-20 -6 -41 -9 -63 -9c-92 0 -169 67 -150 179c15 86 83 143 153 156
c-82 16 -139 91 -122 180c22 116 127 173 268 173h114l24 136h-474zM218 -84c63 0 115 32 150 73l-240 180c-24 -24 -40 -55 -46 -90c-18 -104 49 -163 136 -163zM264 229c-48 -3 -92 -21 -124 -49l238 -180c20 27 34 57 38 82h1l43 244c-34 -53 -108 -91 -196 -97z" />
    <glyph glyph-name="dvD_BHA" horiz-adv-x="1303" 
d="M512 -278l-83 178h18l84 -178h-19zM27 724l3 16h677l-3 -16h-170l-27 -152h-121c-133 0 -260 -67 -286 -214c-22 -127 48 -213 173 -213c80 0 197 48 219 176h15l-56 -321h-17l42 241c-33 -64 -114 -112 -205 -112c-134 0 -212 95 -188 229c29 163 164 230 305 230h104
l25 136h-490zM771 152c82 0 144 62 163 172l19 105h-122c-87 0 -158 -54 -173 -139c-15 -83 34 -138 113 -138zM771 136c-91 0 -146 63 -130 154c17 94 94 155 192 155h122l20 111c19 108 -7 176 -95 176c-72 0 -133 -51 -149 -140c-2 -14 -3 -28 -3 -44h-17c0 15 1 30 3 44
c17 98 84 157 166 157c96 0 133 -72 112 -192l-20 -112h200l52 295h179l-2 -16h-162l-128 -724h-17l75 429h-200l-18 -104c-22 -127 -88 -189 -180 -189z" />
    <glyph glyph-name="dvD_MA" horiz-adv-x="773" 
d="M218 -66c70 0 126 55 143 147l15 83h-101c-75 0 -138 -49 -151 -117s32 -113 94 -113zM396 180h214l95 544h-223l-27 -152h-144c-89 0 -165 -38 -180 -117c-17 -91 46 -130 137 -130h153zM42 724l2 16h843l-2 -16h-163l-155 -884h-17l57 324h-214l-15 -84
c-19 -105 -84 -161 -160 -161c-73 0 -124 52 -111 128c14 80 85 133 170 133h102l22 129h-138c-93 0 -167 47 -149 146c17 93 100 133 198 133h129l24 136h-423z" />
    <glyph glyph-name="dvD_YA" horiz-adv-x="690" 
d="M223 67c145 0 284 82 317 269l68 388h-192l-22 -129h-94c-93 0 -188 -32 -204 -120s61 -121 159 -121h70l-3 -16h-68c-105 0 -190 -38 -205 -129c-15 -92 66 -142 174 -142zM56 724l3 16h731l-3 -16h-162l-127 -724h-17l41 231c-58 -122 -169 -180 -302 -180
c-109 0 -204 55 -188 158c16 105 115 136 157 136v2c-52 3 -128 40 -110 131c20 102 125 133 220 133c27 0 53 0 80 -1l20 114h-343z" />
    <glyph glyph-name="dvD_VA" horiz-adv-x="595" 
d="M28 724l2 16h665l-2 -16h-174l-27 -152h-131c-133 0 -227 -59 -248 -168c-18 -94 42 -159 150 -159c79 0 184 43 211 156h15l-99 -561h-16l31 173c-38 -64 -107 -103 -181 -103c-94 0 -165 65 -149 170c13 86 81 141 143 155c-89 14 -137 85 -122 170
c22 124 127 183 268 183h114l24 136h-474zM224 -74c103 0 174 78 192 149l44 254c-34 -56 -100 -93 -197 -100c-78 -5 -158 -63 -171 -151c-14 -95 46 -152 132 -152z" />
    <glyph glyph-name="dvDH_NA" horiz-adv-x="1244" 
d="M266 116c-118 0 -199 57 -179 168c17 93 88 140 154 146v2c-66 12 -122 63 -104 162c15 87 87 155 183 155c101 0 150 -70 121 -176h-17c28 100 -16 160 -107 160c-83 0 -150 -62 -163 -140c-16 -89 31 -153 149 -153h54l-3 -16h-54c-119 0 -183 -63 -196 -140
c-19 -104 62 -152 165 -152c141 0 263 83 284 202c18 106 104 177 220 177h352l38 213h-554l3 16h732l-3 -16h-161l-128 -724h-17l88 496h-287c56 -19 96 -78 81 -160c-18 -103 -105 -176 -211 -176c-87 0 -145 48 -155 120c-43 -98 -151 -164 -285 -164zM709 176
c95 0 174 71 191 160c18 93 -40 159 -135 159c-98 0 -178 -65 -195 -161c-17 -93 39 -158 139 -158z" />
    <glyph glyph-name="dvDH_N_YA" horiz-adv-x="1706" 
d="M266 116c-118 0 -199 57 -179 168c17 93 88 140 154 146v2c-66 12 -122 63 -104 162c15 87 87 155 183 155c101 0 150 -70 121 -176h-17c28 100 -16 160 -107 160c-83 0 -150 -62 -163 -140c-16 -89 31 -153 149 -153h54l-3 -16h-54c-119 0 -183 -63 -196 -140
c-19 -104 62 -152 165 -152c129 0 242 69 276 173l2 6c24 96 107 159 216 159h338c118 0 216 30 239 165l15 89h-746l3 16h1193l-3 -16h-162l-127 -724h-17l50 283c-36 -70 -124 -145 -255 -145c-158 0 -247 126 -216 297c1 6 3 13 4 20h-253c56 -19 96 -78 81 -160
c-19 -103 -105 -176 -211 -176c-95 0 -154 56 -156 139c-49 -86 -150 -142 -274 -142zM699 135c95 0 174 71 191 160c18 93 -40 159 -135 159c-98 0 -177 -65 -195 -161c-17 -93 39 -158 139 -158zM1295 154c122 0 238 81 264 207l64 363h-251l-15 -89
c-24 -141 -122 -181 -259 -181h-3c-2 -8 -3 -15 -4 -19c-30 -158 49 -281 204 -281z" />
    <glyph glyph-name="dvDH_MA" horiz-adv-x="1227" 
d="M663 152c82 0 143 62 163 172l18 105h-122c-87 0 -157 -54 -172 -139c-15 -83 34 -138 113 -138zM266 116c-118 0 -199 57 -179 168c17 93 88 140 154 146v2c-66 12 -122 63 -104 162c15 87 87 155 183 155c101 0 150 -70 121 -176h-17c28 100 -16 160 -107 160
c-83 0 -150 -62 -163 -140c-16 -89 31 -153 149 -153h54l-3 -16h-54c-119 0 -183 -63 -196 -140c-19 -104 62 -152 165 -152c125 0 229 65 264 161c18 92 95 152 192 152h122l49 279h-288l3 16h716l-3 -16h-162l-127 -724h-17l75 429h-232l-18 -104
c-22 -127 -88 -189 -180 -189c-78 0 -129 46 -133 117c-47 -83 -143 -137 -264 -137zM1096 445l49 279h-232l-49 -279h232z" />
    <glyph glyph-name="dvDH_YA" horiz-adv-x="1179" 
d="M266 116c-109 0 -199 61 -179 171c17 90 88 137 154 143v2c-66 12 -122 63 -104 162c15 87 87 155 183 155c101 0 150 -70 121 -176h-17c28 100 -16 160 -107 160c-83 0 -150 -62 -163 -140c-16 -89 31 -153 149 -153h54l-3 -16h-54c-119 0 -181 -63 -196 -140
c-19 -97 62 -152 161 -152c140 0 254 105 280 264c1 8 3 16 4 24c2 11 5 25 8 35h18c109 0 212 31 239 180l15 89h-220l3 16h667l-3 -16h-162l-127 -724h-17l50 283c-36 -70 -124 -145 -255 -145s-212 73 -221 192c-44 -130 -147 -214 -278 -214zM769 154
c122 0 238 81 264 207l64 363h-251l-15 -89c-28 -155 -131 -196 -259 -196h-3c-2 -8 -3 -15 -4 -19c-31 -167 51 -266 204 -266z" />
    <glyph glyph-name="dvDH_VA" horiz-adv-x="1154" 
d="M266 116c-118 0 -199 57 -179 168c17 93 88 140 154 146v2c-66 12 -122 63 -104 162c15 87 87 155 183 155c101 0 150 -70 121 -176h-17c28 100 -16 160 -107 160c-83 0 -150 -62 -163 -140c-16 -89 31 -153 149 -153h54l-3 -16h-54c-119 0 -183 -63 -196 -140
c-19 -104 62 -152 165 -152c141 0 249 83 290 242v0c30 133 145 214 267 214c125 0 184 -68 196 -148l50 284h-463l3 16h642l-3 -16h-162l-127 -724h-17l47 268c-39 -76 -120 -143 -241 -143c-114 0 -198 66 -199 182c-53 -124 -152 -191 -286 -191zM751 141
c157 0 239 121 256 213c18 101 -23 218 -180 218c-117 0 -230 -79 -254 -213c-24 -139 57 -218 178 -218z" />
    <glyph glyph-name="dvN_KA" horiz-adv-x="1518" 
d="M225 176c95 0 174 71 191 160c18 93 -40 159 -135 159c-98 0 -178 -65 -195 -161c-17 -93 39 -158 139 -158zM939 0l47 266c-38 -74 -115 -139 -226 -139c-123 0 -206 85 -180 232c10 55 33 101 64 137h-292c56 -19 96 -78 81 -160c-18 -103 -105 -176 -211 -176
c-108 0 -171 73 -153 174c18 106 104 177 220 177h370c48 47 112 73 178 73c114 0 168 -66 180 -141l49 281h-1039l3 16h1588l-3 -16h-533l-50 -283c38 76 111 143 223 143c116 0 201 -85 176 -225c-26 -147 -131 -232 -252 -232c-21 0 -43 3 -56 6l3 16c16 -4 37 -6 56 -6
c107 0 208 78 232 216c23 131 -54 209 -160 209c-141 0 -216 -112 -236 -207l-63 -361h-16zM761 143c145 0 220 116 238 201l3 16c15 93 -20 208 -166 208c-108 0 -216 -78 -239 -209c-24 -138 51 -216 164 -216z" />
    <glyph glyph-name="dvN_K_SA" horiz-adv-x="2109" 
d="M225 176c95 0 174 71 191 160c18 93 -40 159 -135 159c-98 0 -178 -65 -195 -161c-17 -93 39 -158 139 -158zM1515 410c120 0 209 77 232 201l21 113h-685l-50 -284c35 77 103 144 216 144c107 0 178 -70 171 -174h95zM762 143c145 0 220 116 238 201l3 16
c15 93 -20 208 -166 208c-108 0 -216 -78 -239 -209c-24 -138 51 -216 164 -216zM1763 611c-23 -123 -98 -183 -167 -202h376l55 315h-243zM1726 199c-17 -115 -85 -208 -204 -208s-175 87 -153 214l31 177v0c20 111 -48 186 -151 186c-141 0 -212 -123 -229 -204l-64 -364
h-16l47 266c-38 -74 -115 -139 -226 -139c-123 0 -206 85 -180 232c10 55 33 101 64 137h-293c56 -19 96 -78 81 -160c-18 -103 -105 -176 -211 -176c-108 0 -171 73 -153 174c18 106 104 177 220 177h371c48 47 112 73 178 73c114 0 168 -66 180 -141l49 281h-1040l3 16
h2179l-3 -16h-162l-127 -724h-17l69 394h-550l-33 -190c-20 -116 24 -197 137 -197c106 0 170 84 186 192h17z" />
    <glyph glyph-name="dvN_CA" horiz-adv-x="1178" 
d="M1275 724h-161l-128 -724h-17l45 254c-44 -79 -134 -139 -233 -139c-116 0 -208 78 -182 209c16 84 80 156 178 184h-425c56 -19 96 -78 81 -160c-19 -103 -105 -176 -211 -176c-108 0 -170 73 -153 174c18 106 104 177 220 177h607l-3 -15h-29
c-125 0 -228 -84 -248 -184c-25 -123 60 -193 167 -193c120 0 223 94 244 197l70 396h-1070l3 16h1248zM225 188c95 0 174 71 191 160c18 93 -40 159 -135 159c-98 0 -177 -65 -195 -161c-17 -93 39 -158 139 -158z" />
    <glyph glyph-name="dvN_CHA" horiz-adv-x="1310" 
d="M222 176c95 0 179 66 194 161c16 101 -43 158 -138 158c-98 0 -175 -65 -192 -161c-17 -93 42 -158 136 -158zM836 49c195 0 371 118 404 306c24 133 -46 190 -119 190c-62 0 -149 -35 -169 -148c-6 -32 -5 -68 1 -107h-17c-7 39 -7 75 -1 107c21 118 108 161 181 164
l29 163h-452l-24 -135c-18 -101 24 -155 150 -155h24l-2 -16h-24c-145 0 -222 -76 -238 -167c-24 -135 98 -202 257 -202zM834 33c-170 0 -291 74 -273 208c7 185 -111 255 -209 255c61 -23 95 -79 81 -160c-18 -106 -108 -176 -214 -176c-103 0 -168 73 -150 174
c18 106 103 177 214 177h64c106 0 214 -61 227 -217c31 80 107 124 184 131v2c-71 8 -126 53 -106 162l24 135h-651l2 16h1383l-2 -16h-246l-29 -163c81 -4 149 -67 125 -205c-36 -204 -216 -323 -424 -323z" />
    <glyph glyph-name="dvN_TTA" horiz-adv-x="1133" 
d="M225 176c95 0 174 71 191 160c18 93 -40 159 -135 159c-98 0 -178 -65 -195 -161c-17 -93 39 -158 139 -158zM770 63c-146 0 -244 104 -217 250c14 80 50 141 100 183h-301c56 -19 96 -78 81 -160c-18 -103 -105 -176 -211 -176c-108 0 -171 73 -153 174
c18 106 104 177 220 177h383c60 42 135 62 215 62h52l26 151h-938l3 16h1203l-3 -16h-248l-30 -167h-68c-151 0 -284 -78 -314 -245c-25 -136 64 -233 203 -233c142 0 250 100 274 241h17c-26 -151 -138 -257 -294 -257z" />
    <glyph glyph-name="dvN_DDA" horiz-adv-x="1060" 
d="M225 176c95 0 174 71 191 160c18 93 -40 159 -135 159c-98 0 -178 -65 -195 -161c-17 -93 39 -158 139 -158zM733 -9c-154 0 -219 89 -200 193h17c-17 -96 36 -177 186 -177c119 0 192 65 206 143c21 118 -73 148 -162 148h-45c-86 0 -158 41 -142 132c5 27 15 49 28 66
h-269c56 -19 96 -78 81 -160c-18 -103 -105 -176 -211 -176c-108 0 -171 73 -153 174c18 106 104 177 220 177h346c41 39 104 51 159 51h154l29 162h-950l3 16h1130l-3 -16h-163l-32 -178h-161c-76 0 -173 -18 -191 -117c-15 -86 52 -115 129 -115h45c99 0 197 -42 175 -164
c-16 -88 -93 -159 -226 -159z" />
    <glyph glyph-name="dvN_TA" horiz-adv-x="1175" 
d="M225 168c95 0 174 71 191 160c18 93 -40 159 -135 159c-98 0 -177 -65 -195 -161c-17 -93 39 -158 139 -158zM983 0h-17l86 487h-166c-163 0 -282 -73 -311 -234c-26 -150 47 -235 202 -235h24l-3 -16h-24c-159 0 -244 92 -216 251c23 129 99 205 209 235h-415
c56 -19 96 -78 81 -160c-19 -103 -105 -176 -211 -176c-108 0 -170 73 -153 174c18 106 104 177 220 177h766l39 221h-1067l3 16h1245l-3 -16h-161z" />
    </font>
</defs>
</svg>
