<?xml version="1.0" standalone="no"?>
<!DOCTYPE svg PUBLIC "-//W3C//DTD SVG 1.1//EN" "http://www.w3.org/Graphics/SVG/1.1/DTD/svg11.dtd" >
<svg xmlns="http://www.w3.org/2000/svg" xmlns:xlink="http://www.w3.org/1999/xlink" version="1.1">
<metadata>
Created by FontForge 20201107 at Mon Apr  7 19:28:47 2025
 By 
Copyright (C) 2001, 2010 Hoefler &#38; Co. http://www.typography.com |DCNT
</metadata>
<defs>
<font id="GothamSSm-Black" horiz-adv-x="1290" >
  <font-face 
    font-family="GothamSSm Black"
    font-weight="900"
    font-stretch="normal"
    units-per-em="2048"
    panose-1="0 0 0 0 0 0 0 0 0 0"
    ascent="1638"
    descent="-410"
    x-height="1151"
    cap-height="1491"
    bbox="-479 -659 2662 2210"
    underline-thickness="102"
    underline-position="-204"
    unicode-range="U+0020-FB04"
  />
<missing-glyph horiz-adv-x="1024" 
d="M0 -410v2048h1024v-2048h-1024zM145 1536l367 -799l367 799h-734zM102 -156l353 770l-353 770v-1540zM922 1384l-353 -770l353 -770v1540zM512 492l-367 -799h734z" />
    <glyph glyph-name="f_f" unicode="ff" horiz-adv-x="1718" 
d="M193 0v836h-136v307h136v35q0 194 96 295q96 96 295 96q148 0 256 -31v-283q-84 25 -150 25q-117 0 -117 -113v-30h265v-301h-256v-836h-389zM1044 0v836h-135v307h135v35q0 193 97 295q96 96 295 96q148 0 256 -31v-283q-84 25 -150 25q-117 0 -117 -113v-30h265v-301
h-256v-836h-390z" />
    <glyph glyph-name="fi" unicode="fi" horiz-adv-x="1507" 
d="M193 0v836h-136v307h136v35q0 194 96 295q96 96 295 96q148 0 256 -31v-283q-84 25 -150 25q-117 0 -117 -113v-30h265v-301h-256v-836h-389zM977 1260v294h403v-294h-403zM985 0v1151h387v-1151h-387z" />
    <glyph glyph-name="fl" unicode="fl" horiz-adv-x="1507" 
d="M193 0v836h-136v307h136v35q0 194 96 295q96 96 295 96q148 0 256 -31v-283q-84 25 -150 25q-117 0 -117 -113v-30h265v-301h-256v-836h-389zM985 0v1554h387v-1554h-387z" />
    <glyph glyph-name="f_f_i" unicode="ffi" horiz-adv-x="2359" 
d="M193 0v836h-136v307h136v35q0 194 96 295q96 96 295 96q148 0 256 -31v-283q-84 25 -150 25q-117 0 -117 -113v-30h265v-301h-256v-836h-389zM1044 0v836h-135v307h135v35q0 193 97 295q96 96 295 96q148 0 256 -31v-283q-84 25 -150 25q-117 0 -117 -113v-30h265v-301
h-256v-836h-390zM1829 1260v294h403v-294h-403zM1837 0v1151h387v-1151h-387z" />
    <glyph glyph-name="f_f_l" unicode="ffl" horiz-adv-x="2359" 
d="M193 0v836h-136v307h136v35q0 194 96 295q96 96 295 96q148 0 256 -31v-283q-84 25 -150 25q-117 0 -117 -113v-30h265v-301h-256v-836h-389zM1044 0v836h-135v307h135v35q0 193 97 295q96 96 295 96q148 0 256 -31v-283q-84 25 -150 25q-117 0 -117 -113v-30h265v-301
h-256v-836h-390zM1837 0v1554h387v-1554h-387z" />
    <glyph glyph-name=".notdef" horiz-adv-x="1024" 
d="M0 -410v2048h1024v-2048h-1024zM145 1536l367 -799l367 799h-734zM102 -156l353 770l-353 770v-1540zM922 1384l-353 -770l353 -770v1540zM512 492l-367 -799h734z" />
    <glyph glyph-name=".null" horiz-adv-x="0" 
 />
    <glyph glyph-name="nonmarkingreturn" horiz-adv-x="682" 
 />
    <glyph glyph-name="space" unicode=" " horiz-adv-x="651" 
 />
    <glyph glyph-name="exclam" unicode="!" horiz-adv-x="706" 
d="M252 489l-121 848v154h444v-154l-120 -848h-203zM152 0v358h403v-358h-403z" />
    <glyph glyph-name="quotedbl" unicode="&#x22;" horiz-adv-x="1153" 
d="M629 743l45 748h418v-10l-263 -738h-200zM90 743l47 748h418v-10l-262 -738h-203z" />
    <glyph glyph-name="numbersign" unicode="#" horiz-adv-x="1517" 
d="M1372 623v-328h-252l-49 -295h-303l49 295h-276l-52 -295h-301l50 295h-164v328h221l43 254h-193v329h248l49 285h303l-49 -285h279l49 285h303l-49 -285h166v-329h-223l-43 -254h194zM633 889l-49 -279h299l47 279h-297z" />
    <glyph glyph-name="dollar" unicode="$" horiz-adv-x="1425" 
d="M1292 1323l-166 -279q-138 92 -282 127v-264q261 -64 380 -168.5t119 -292.5v-6q0 -186 -133.5 -301.5t-357.5 -136.5v-211h-221v213q-327 37 -561 209l186 274q202 -142 385 -174v275q-131 32 -220.5 69t-155.5 91t-97 127t-31 172v4q0 187 131.5 305t364.5 135v123h223
v-127q240 -33 436 -164zM987 416v4q0 49 -30.5 77t-114.5 52v-248q145 15 145 115zM498 1079v-4q0 -45 31.5 -75t113.5 -54v246q-74 -6 -109.5 -36t-35.5 -77z" />
    <glyph glyph-name="percent" unicode="%" horiz-adv-x="1912" 
d="M465 717q-165 0 -272 114.5t-107 278.5v4q0 168 107 282.5t276 114.5q167 0 273 -114t106 -279v-4q0 -166 -108 -281.5t-275 -115.5zM465 1286q-59 0 -92 -47t-33 -121v-4q0 -72 37 -122t92 -50q56 0 90.5 47.5t34.5 120.5v4q0 73 -36.5 122.5t-92.5 49.5zM868 803
l516 688h281l-625 -809l-512 -682h-280zM1446 -20q-167 0 -273 114t-106 279v4q0 168 106 282.5t275 114.5q168 0 273.5 -114t105.5 -279v-4q0 -166 -107 -281.5t-274 -115.5zM1448 205q56 0 91.5 47.5t35.5 120.5v4q0 72 -37 122t-92 50q-59 0 -93 -47t-34 -121v-4
q0 -72 37 -122t92 -50z" />
    <glyph glyph-name="ampersand" unicode="&#x26;" horiz-adv-x="1503" 
d="M1184 -31l-158 160q-201 -154 -442 -154q-229 0 -377 117t-148 314v6q0 278 299 413q-98 133 -98 289v4q0 167 127 284.5t336 117.5q197 0 317.5 -109t120.5 -272v-4q0 -261 -295 -387l172 -173q59 87 142 242l266 -137q-98 -181 -197 -313l205 -203zM678 928
q85 36 125.5 80.5t40.5 105.5v4q0 57 -33.5 91t-87.5 34q-56 0 -90.5 -38t-34.5 -99v-4q0 -78 80 -174zM637 272q86 0 184 68l-254 258q-112 -66 -112 -168v-4q0 -69 51 -111.5t131 -42.5z" />
    <glyph glyph-name="quotesingle" unicode="'" horiz-adv-x="622" 
d="M90 743l47 748h424v-10l-262 -738h-209z" />
    <glyph glyph-name="parenleft" unicode="(" horiz-adv-x="964" 
d="M887 -57l-164 -244q-308 166 -461 383t-153 528v2q0 208 72.5 378t206 298.5t335.5 235.5l164 -244q-209 -144 -303.5 -301.5t-94.5 -368.5v-2q0 -208 94.5 -364.5t303.5 -300.5z" />
    <glyph glyph-name="parenright" unicode=")" horiz-adv-x="964" 
d="M240 -301l-162 244q208 143 302.5 300.5t94.5 366.5v2q0 209 -94.5 367t-302.5 301l162 244q152 -81 264 -172.5t192 -203t120 -245.5t40 -293v-2q0 -207 -72.5 -376.5t-206.5 -298t-337 -234.5z" />
    <glyph glyph-name="asterisk" unicode="*" horiz-adv-x="923" 
d="M354 735l49 277l-215 -181l-110 189l264 96l-264 96l110 189l215 -182l-49 276h215l-49 -276l215 182l111 -189l-264 -96l264 -96l-111 -189l-215 181l49 -277h-215z" />
    <glyph glyph-name="plus" unicode="+" horiz-adv-x="1380" 
d="M512 203v375h-377v344h377v374h356v-374h377v-344h-377v-375h-356z" />
    <glyph glyph-name="comma" unicode="," horiz-adv-x="622" 
d="M86 -350l-33 151q109 12 163 63.5t50 139.5h-157v399h405v-327q0 -222 -110 -321.5t-318 -104.5z" />
    <glyph glyph-name="hyphen" unicode="-" horiz-adv-x="884" 
d="M98 492v346h690v-346h-690z" />
    <glyph glyph-name="period" unicode="." horiz-adv-x="622" 
d="M109 0v401h405v-401h-405z" />
    <glyph glyph-name="slash" unicode="/" horiz-adv-x="1153" 
d="M-68 -272l942 1972h318l-942 -1972h-318z" />
    <glyph glyph-name="zero" unicode="0" horiz-adv-x="1570" 
d="M784 -29q-153 0 -282.5 60.5t-217 164.5t-136 245t-48.5 300v4q0 159 49 300t137 246.5t218 167t284 61.5q203 0 360 -104t239.5 -278.5t82.5 -387.5v-5q0 -158 -49 -299.5t-136.5 -246.5t-217.5 -166.5t-283 -61.5zM788 322q127 0 205 117.5t78 301.5v4
q0 185 -79.5 304.5t-207.5 119.5t-206 -116.5t-78 -302.5v-5q0 -186 79.5 -304.5t208.5 -118.5z" />
    <glyph glyph-name="one" unicode="1" horiz-adv-x="915" 
d="M362 0v1128l-253 -61l-76 309l434 125h285v-1501h-390z" />
    <glyph glyph-name="two" unicode="2" horiz-adv-x="1345" 
d="M86 0v301l545 422q114 91 160.5 153.5t46.5 133.5q0 74 -47.5 116.5t-126.5 42.5q-76 0 -142.5 -44t-156.5 -150l-269 223q86 109 163.5 174.5t186 104.5t246.5 39q240 0 391.5 -131t151.5 -341v-4q0 -89 -21.5 -160t-71.5 -135.5t-107.5 -116t-153.5 -122.5l-254 -180
h622v-326h-1163z" />
    <glyph glyph-name="three" unicode="3" horiz-adv-x="1339" 
d="M680 -29q-391 0 -625 262l254 252q158 -172 357 -172q90 0 142 42t52 114v4q0 78 -65.5 120t-188.5 42h-166l-57 213l346 319h-573v324h1063v-285l-361 -317q83 -17 150 -48t122 -80.5t85 -123.5t30 -168v-4q0 -220 -158 -357t-407 -137z" />
    <glyph glyph-name="four" unicode="4" horiz-adv-x="1484" 
d="M834 0v297h-725l-64 278l782 926h387v-905h191v-299h-191v-297h-380zM469 594h365v436z" />
    <glyph glyph-name="five" unicode="5" horiz-adv-x="1357" 
d="M655 -29q-188 0 -330 59.5t-266 174.5l230 268q95 -82 181 -122t179 -40q105 0 165 48.5t60 134.5v4q0 84 -62.5 131t-166.5 47q-113 0 -239 -72l-236 135l43 752h981v-330h-664l-14 -233q107 49 232 49q104 0 194.5 -29t162.5 -85.5t113.5 -149.5t41.5 -211v-4
q0 -243 -167 -385t-438 -142z" />
    <glyph glyph-name="six" unicode="6" horiz-adv-x="1425" 
d="M733 -29q-282 0 -450 168q-90 90 -136.5 222.5t-46.5 336.5v4q0 177 42.5 324.5t125.5 258.5t215.5 173t302.5 62q148 0 264 -40.5t226 -123.5l-191 -283q-74 58 -141.5 85.5t-155.5 27.5q-63 0 -113 -22.5t-80 -56.5t-51 -79.5t-30 -85.5t-12 -82h2q137 113 319 113
q101 0 191 -31t158.5 -88t108.5 -146.5t40 -199.5v-6q0 -159 -79 -281t-212.5 -186t-296.5 -64zM717 285q102 0 159.5 54t57.5 142v4q0 88 -59.5 142.5t-161.5 54.5q-101 0 -159 -53.5t-58 -141.5v-4q0 -87 60 -142.5t161 -55.5z" />
    <glyph glyph-name="seven" unicode="7" horiz-adv-x="1327" 
d="M150 0l657 1157h-692v334h1134v-299l-661 -1192h-438z" />
    <glyph glyph-name="eight" unicode="8" horiz-adv-x="1357" 
d="M680 -25q-265 0 -435.5 122t-170.5 313v4q0 132 63 218t189 142q-201 110 -201 324v4q0 179 154 296.5t401 117.5q245 0 399 -117.5t154 -296.5v-4q0 -214 -201 -324q124 -59 188 -142.5t64 -211.5v-4q0 -200 -168.5 -320.5t-435.5 -120.5zM680 885q85 0 136.5 47.5
t51.5 120.5v4q0 66 -51.5 113t-136.5 47q-88 0 -139.5 -46t-51.5 -114v-4q0 -73 53 -120.5t138 -47.5zM680 276q102 0 162.5 49.5t60.5 120.5v5q0 77 -61.5 122t-161.5 45t-162.5 -45t-62.5 -122v-5q0 -71 60.5 -120.5t164.5 -49.5z" />
    <glyph glyph-name="nine" unicode="9" horiz-adv-x="1425" 
d="M639 305q63 0 113 21.5t80 54.5t51.5 77t30.5 83t12 80h-2q-129 -117 -312 -117q-225 0 -366.5 128t-141.5 345v4q0 239 166.5 389t423.5 150q155 0 260 -41t193 -129q178 -183 178 -555v-4q0 -245 -77.5 -428.5t-232.5 -287.5t-372 -104q-157 0 -280 45t-234 131
l190 279q79 -63 155 -92t165 -29zM713 795q102 0 160.5 56t58.5 144v4q0 92 -60 149.5t-163 57.5q-102 0 -159.5 -56t-57.5 -149v-4q0 -92 59.5 -147t161.5 -55z" />
    <glyph glyph-name="colon" unicode=":" horiz-adv-x="643" 
d="M119 750v401h405v-401h-405zM119 0v401h405v-401h-405z" />
    <glyph glyph-name="semicolon" unicode=";" horiz-adv-x="643" 
d="M119 750v401h405v-401h-405zM96 -354l-33 151q109 12 163 63.5t50 139.5h-157v401h405v-329q0 -219 -111 -320t-317 -106z" />
    <glyph glyph-name="less" unicode="&#x3c;" horiz-adv-x="1380" 
d="M1198 141l-1053 428v359l1053 428v-361l-702 -245l702 -246v-363z" />
    <glyph glyph-name="equal" unicode="=" horiz-adv-x="1380" 
d="M147 862v340h1086v-340h-1086zM147 297v340h1086v-340h-1086z" />
    <glyph glyph-name="greater" unicode="&#x3e;" horiz-adv-x="1380" 
d="M182 141v361l701 246l-701 245v363l1053 -428v-359z" />
    <glyph glyph-name="question" unicode="?" horiz-adv-x="1169" 
d="M418 489l-53 355l16 16q183 13 262.5 57t79.5 119v4q0 57 -44.5 90t-123.5 33q-154 0 -311 -141l-211 266q225 225 547 225q237 0 382.5 -120t145.5 -326v-4q0 -97 -31 -172.5t-89.5 -126.5t-130 -84t-165.5 -55l-24 -136h-250zM334 0v358h405v-358h-405z" />
    <glyph glyph-name="at" unicode="@" horiz-adv-x="2078" 
d="M1059 -344q-203 0 -380.5 73t-302 198t-196 295.5t-71.5 361.5q0 190 72.5 362.5t197 298.5t300 200.5t372.5 74.5q154 0 296.5 -44.5t254 -123.5t195.5 -182.5t128.5 -228t44.5 -253.5q0 -138 -36.5 -247.5t-99 -177t-142.5 -103t-170 -35.5q-230 0 -328 154
q-136 -150 -313 -150q-169 0 -280.5 117t-111.5 307q0 148 65.5 275t175 200.5t233.5 73.5q183 0 288 -154l25 125l313 -49l-98 -553q-8 -36 -8 -88q0 -56 37.5 -91.5t103.5 -35.5q111 0 183.5 113t72.5 319q0 146 -62.5 282t-170 238.5t-263.5 164t-333 61.5
q-243 0 -439 -114.5t-304.5 -308.5t-108.5 -427q0 -176 63.5 -331.5t175 -268.5t272.5 -178.5t349 -65.5q152 0 275 35.5t247 107.5l41 -67q-262 -160 -563 -160zM981 401q77 0 137 60q78 78 78 198q0 77 -47 123.5t-117 46.5q-82 0 -141 -59q-76 -76 -76 -195
q0 -83 46 -128.5t120 -45.5z" />
    <glyph glyph-name="A" unicode="A" horiz-adv-x="1708" 
d="M29 0l635 1501h378l635 -1501h-422l-112 281h-588l-113 -281h-413zM676 596h346l-172 434z" />
    <glyph glyph-name="B" unicode="B" horiz-adv-x="1542" 
d="M150 0v1491h749q271 0 404 -133q98 -98 98 -244v-6q0 -229 -225 -328q144 -50 219 -136t75 -228v-4q0 -196 -149.5 -304t-415.5 -108h-755zM1010 1030v4q0 133 -195 133h-278v-272h268q205 0 205 135zM1073 465v4q0 65 -52 102t-157 37h-327v-284h331q99 0 152 36t53 105
z" />
    <glyph glyph-name="C" unicode="C" horiz-adv-x="1574" 
d="M864 -29q-212 0 -387.5 99.5t-278 276.5t-102.5 394v4q0 214 100.5 391t281 280.5t403.5 103.5q393 0 622 -293l-291 -242q-73 85 -152.5 129.5t-182.5 44.5q-108 0 -193.5 -56t-131.5 -149t-46 -204v-5q0 -176 104 -294.5t267 -118.5q111 0 188.5 44.5t157.5 135.5
l290 -219q-57 -75 -117.5 -130.5t-138.5 -100.5t-177 -68t-216 -23z" />
    <glyph glyph-name="D" unicode="D" horiz-adv-x="1654" 
d="M150 0v1491h577q191 0 347.5 -55.5t261.5 -153.5t162.5 -233.5t57.5 -294.5v-4q0 -160 -57.5 -297t-163.5 -237.5t-264 -158t-350 -57.5h-571zM731 1139h-186v-787h186q192 0 306 104t114 285v4q0 183 -114 288.5t-306 105.5z" />
    <glyph glyph-name="E" unicode="E" horiz-adv-x="1439" 
d="M150 0v1491h1183v-338h-792v-244h712v-317h-712v-254h802v-338h-1193z" />
    <glyph glyph-name="F" unicode="F" horiz-adv-x="1400" 
d="M150 0v1491h1179v-350h-784v-267h706v-333h-706v-541h-395z" />
    <glyph glyph-name="G" unicode="G" horiz-adv-x="1660" 
d="M901 -29q-230 0 -413.5 97.5t-287.5 274t-104 398.5v4q0 160 61 303t166 247t254 164.5t318 60.5q188 0 331.5 -54t268.5 -159l-235 -285q-88 73 -172 108t-195 35q-165 0 -277 -122t-112 -298v-4q0 -186 115.5 -306t295.5 -120q154 0 254 68v186h-299v299h676v-665
q-276 -232 -645 -232z" />
    <glyph glyph-name="H" unicode="H" horiz-adv-x="1636" 
d="M150 0v1491h395v-565h547v565h395v-1491h-395v573h-547v-573h-395z" />
    <glyph glyph-name="I" unicode="I" horiz-adv-x="716" 
d="M160 0v1491h397v-1491h-397z" />
    <glyph glyph-name="J" unicode="J" horiz-adv-x="1218" 
d="M537 -25q-333 0 -517 246l254 248q60 -72 116.5 -106.5t125.5 -34.5q84 0 130 54.5t46 162.5v946h395v-952q0 -271 -145 -416q-148 -148 -405 -148z" />
    <glyph glyph-name="K" unicode="K" horiz-adv-x="1570" 
d="M150 0v1491h395v-614l530 614h473l-573 -639l594 -852h-475l-394 569l-155 -168v-401h-395z" />
    <glyph glyph-name="L" unicode="L" horiz-adv-x="1331" 
d="M150 0v1491h395v-1141h727v-350h-1122z" />
    <glyph glyph-name="M" unicode="M" horiz-adv-x="1865" 
d="M150 0v1491h419l363 -588l364 588h420v-1491h-395v881l-389 -596h-8l-385 592v-877h-389z" />
    <glyph glyph-name="N" unicode="N" horiz-adv-x="1689" 
d="M150 0v1491h368l631 -813v813h391v-1491h-344l-655 844v-844h-391z" />
    <glyph glyph-name="O" unicode="O" horiz-adv-x="1794" 
d="M895 -29q-169 0 -318 60.5t-254 164t-166 245.5t-61 300v4q0 158 61 301t167 247.5t256 165.5t319 61t318 -60.5t254 -164t166 -245.5t61 -300v-5q0 -158 -61 -301t-167 -247t-255.5 -165t-319.5 -61zM899 330q174 0 282.5 119.5t108.5 291.5v4q0 112 -49 206.5t-140 152
t-206 57.5q-171 0 -281 -120t-110 -291v-5q0 -112 49 -206t140 -151.5t206 -57.5z" />
    <glyph glyph-name="P" unicode="P" horiz-adv-x="1447" 
d="M150 0v1491h634q280 0 444.5 -139.5t164.5 -382.5v-4q0 -129 -48 -231.5t-133 -168.5t-200 -100.5t-252 -34.5h-215v-430h-395zM545 748h211q112 0 176.5 54.5t64.5 145.5v4q0 99 -64 150t-181 51h-207v-405z" />
    <glyph glyph-name="Q" unicode="Q" horiz-adv-x="1794" 
d="M1720 188l-209 -233l-165 147q-201 -131 -451 -131q-169 0 -318 60.5t-254 164t-166 245.5t-61 300v4q0 158 61 301t167 247.5t256 165.5t319 61t318 -60.5t254 -164t166 -245.5t61 -300v-5q0 -236 -131 -428zM899 324q88 0 158 30l-211 183l207 233l213 -190
q26 80 26 159v4q0 172 -111.5 295t-285.5 123q-113 0 -203.5 -57.5t-139 -152t-48.5 -206.5v-4q0 -112 49 -206.5t140 -152.5t206 -58z" />
    <glyph glyph-name="R" unicode="R" horiz-adv-x="1550" 
d="M150 0v1491h700q321 0 475 -160q131 -125 131 -344v-6q0 -168 -81 -282.5t-228 -176.5l358 -522h-458l-304 457h-198v-457h-395zM545 772h286q108 0 168 49.5t60 134.5v5q0 91 -61 138.5t-171 47.5h-282v-375z" />
    <glyph glyph-name="S" unicode="S" horiz-adv-x="1400" 
d="M725 -25q-199 0 -375.5 61.5t-310.5 182.5l223 266q228 -178 475 -178q88 0 134.5 28.5t46.5 82.5v4q0 51 -54 84t-209 69q-75 17 -131 32.5t-116 38t-102.5 47t-82.5 59t-64 75.5t-38.5 95t-14.5 118v4q0 208 155 340t413 132q353 0 600 -197l-199 -283
q-211 148 -411 148q-75 0 -116.5 -29t-41.5 -74v-4q0 -56 52 -85.5t220 -71.5q107 -25 185.5 -51t148.5 -64.5t113 -85.5t67.5 -112.5t24.5 -147.5v-4q0 -225 -162 -352.5t-430 -127.5z" />
    <glyph glyph-name="T" unicode="T" horiz-adv-x="1417" 
d="M510 0v1141h-447v350h1291v-350h-447v-1141h-397z" />
    <glyph glyph-name="U" unicode="U" horiz-adv-x="1630" 
d="M811 -27q-322 0 -501 170t-179 508v840h399v-832q0 -162 75.5 -244.5t209.5 -82.5t209.5 79.5t75.5 235.5v844h399v-829q0 -346 -182 -517.5t-506 -171.5z" />
    <glyph glyph-name="V" unicode="V" horiz-adv-x="1630" 
d="M633 -10l-604 1501h440l350 -965l350 965h433l-605 -1501h-364z" />
    <glyph glyph-name="W" unicode="W" horiz-adv-x="2398" 
d="M547 -10l-500 1501h420l268 -893l297 897h342l297 -897l268 893h412l-500 -1501h-346l-307 880l-305 -880h-346z" />
    <glyph glyph-name="X" unicode="X" horiz-adv-x="1574" 
d="M1069 1491h444l-491 -727l514 -764h-457l-295 463l-299 -463h-444l512 758l-492 733h457l273 -434z" />
    <glyph glyph-name="Y" unicode="Y" horiz-adv-x="1552" 
d="M580 0v563l-570 928h453l315 -555l322 555h444l-569 -920v-571h-395z" />
    <glyph glyph-name="Z" unicode="Z" horiz-adv-x="1507" 
d="M104 0v289l762 866h-737v336h1276v-289l-762 -866h762v-336h-1301z" />
    <glyph glyph-name="bracketleft" unicode="[" horiz-adv-x="993" 
d="M158 -276v1767h725v-270h-375v-1227h375v-270h-725z" />
    <glyph glyph-name="backslash" unicode="\" horiz-adv-x="1153" 
d="M905 -272l-944 1972h318l944 -1972h-318z" />
    <glyph glyph-name="bracketright" unicode="]" horiz-adv-x="993" 
d="M111 -276v270h374v1227h-374v270h727v-1767h-727z" />
    <glyph glyph-name="asciicircum" unicode="^" horiz-adv-x="1081" 
d="M100 1051l310 438h262l309 -438h-274l-168 215l-168 -215h-271z" />
    <glyph glyph-name="underscore" unicode="_" horiz-adv-x="1294" 
d="M4 -340v246h1286v-246h-1286z" />
    <glyph glyph-name="grave" unicode="`" horiz-adv-x="1081" 
d="M512 1255l-305 269l354 121l223 -390h-272z" />
    <glyph glyph-name="a" unicode="a" 
d="M453 -25q-169 0 -278 94.5t-109 260.5v4q0 177 121.5 269.5t330.5 92.5q149 0 279 -45v19q0 192 -234 192q-157 0 -317 -63l-84 278q105 44 213 66t250 22q291 0 428 -137q65 -65 94 -153.5t29 -212.5v-662h-381v121q-133 -146 -342 -146zM588 221q94 0 153.5 53.5
t59.5 139.5v53q-72 35 -168 35q-91 0 -143 -40t-52 -108v-4q0 -59 41.5 -94t108.5 -35z" />
    <glyph glyph-name="b" unicode="b" horiz-adv-x="1454" 
d="M864 -25q-119 0 -202 45t-150 121v-141h-387v1554h387v-559q139 179 350 179q101 0 193.5 -41.5t163.5 -116.5t113 -188.5t42 -247.5v-5q0 -137 -41.5 -252t-111.5 -190t-162.5 -116.5t-194.5 -41.5zM750 301q102 0 172.5 76t70.5 196v5q0 117 -71 194.5t-172 77.5
q-102 0 -173 -77.5t-71 -194.5v-5q0 -117 71 -194.5t173 -77.5z" />
    <glyph glyph-name="c" unicode="c" horiz-adv-x="1228" 
d="M678 -27q-171 0 -310 81t-215.5 217t-76.5 298v4q0 121 45.5 231t125 192t195 130t248.5 48q318 0 484 -244l-259 -207q-48 61 -100 92t-123 31q-103 0 -170 -78t-67 -190v-5q0 -118 67.5 -195t173.5 -77q71 0 123.5 29.5t106.5 89.5l254 -195q-85 -123 -205 -187.5
t-297 -64.5z" />
    <glyph glyph-name="d" unicode="d" horiz-adv-x="1454" 
d="M592 -25q-102 0 -194 41.5t-163 116.5t-113 189t-42 249v4q0 137 41.5 251.5t111.5 189.5t162.5 116.5t194.5 41.5q211 0 354 -166v546h387v-1554h-387v156q-45 -55 -89 -91.5t-112.5 -63t-150.5 -26.5zM707 301q103 0 173 75.5t70 196.5v5q0 117 -70.5 194.5
t-172.5 77.5q-104 0 -175 -76t-71 -196v-5q0 -120 71 -196t175 -76z" />
    <glyph glyph-name="e" unicode="e" horiz-adv-x="1308" 
d="M690 -27q-270 0 -442 166t-172 430v4q0 166 73.5 303t206.5 217.5t299 80.5q143 0 255 -50.5t181 -138.5t104.5 -199.5t35.5 -240.5q0 -28 -4 -82h-776q24 -97 90.5 -147t165.5 -50q74 0 135 28t125 89l215 -180q-187 -230 -492 -230zM446 670h418q-12 99 -67 157
t-142 58q-84 0 -137.5 -57t-71.5 -158z" />
    <glyph glyph-name="f" unicode="f" horiz-adv-x="868" 
d="M193 0v836h-136v307h136v35q0 194 96 295q96 96 295 96q148 0 256 -31v-283q-84 25 -150 25q-117 0 -117 -113v-30h265v-301h-256v-836h-389z" />
    <glyph glyph-name="g" unicode="g" horiz-adv-x="1454" 
d="M678 -344q-309 0 -561 129l127 262q192 -106 399 -106q305 0 305 288v47q-71 -84 -154.5 -130t-201.5 -46q-105 0 -198 37t-163 104.5t-110.5 169.5t-40.5 224v4q0 122 41 224t110 169.5t159.5 104.5t189.5 37q121 0 205 -42t159 -120v139h387v-879q0 -309 -147 -456
q-160 -160 -506 -160zM705 403q109 0 177 64.5t68 167.5v4q0 100 -69.5 165.5t-175.5 65.5t-175 -65.5t-69 -167.5v-4q0 -102 68.5 -166t175.5 -64z" />
    <glyph glyph-name="h" unicode="h" horiz-adv-x="1361" 
d="M125 0v1554h387v-563q141 183 342 183q185 0 289 -112.5t104 -311.5v-750h-389v627q0 97 -45.5 149.5t-124.5 52.5q-80 0 -128 -53t-48 -149v-627h-387z" />
    <glyph glyph-name="i" unicode="i" horiz-adv-x="657" 
d="M127 1260v294h403v-294h-403zM135 0v1151h387v-1151h-387z" />
    <glyph glyph-name="j" unicode="j" horiz-adv-x="659" 
d="M127 1260v294h403v-294h-403zM121 -348q-64 0 -162 16v264q46 -4 57 -4q59 0 89 32t30 103v1088h387v-1106q0 -207 -101 -300t-300 -93z" />
    <glyph glyph-name="k" unicode="k" horiz-adv-x="1296" 
d="M125 0v1554h387v-796l328 393h442l-408 -459l420 -692h-432l-244 410l-106 -123v-287h-387z" />
    <glyph glyph-name="l" unicode="l" horiz-adv-x="657" 
d="M135 0v1554h387v-1554h-387z" />
    <glyph glyph-name="m" unicode="m" horiz-adv-x="2074" 
d="M125 0v1151h387v-160q141 183 342 183q234 0 330 -185q161 185 383 185q186 0 289.5 -109.5t103.5 -310.5v-754h-389v629q0 97 -44 148.5t-120 51.5q-77 0 -124.5 -52t-47.5 -148v-629h-387v629q0 97 -43.5 148.5t-122.5 51.5q-77 0 -123.5 -52t-46.5 -148v-629h-387z
" />
    <glyph glyph-name="n" unicode="n" horiz-adv-x="1361" 
d="M125 0v1151h387v-162q143 185 342 185q185 0 289 -112.5t104 -311.5v-750h-389v627q0 97 -45.5 149.5t-124.5 52.5q-80 0 -128 -53t-48 -149v-627h-387z" />
    <glyph glyph-name="o" unicode="o" horiz-adv-x="1417" 
d="M707 -27q-180 0 -325 80.5t-225.5 216.5t-80.5 299v4q0 122 48 232t131.5 191.5t202 129.5t253.5 48t253 -47t200 -127.5t129.5 -190t47.5 -231.5v-5q0 -122 -48 -232t-131 -191t-201.5 -129t-253.5 -48zM711 301q114 0 183 77.5t69 190.5v4q0 112 -73.5 192.5
t-182.5 80.5q-114 0 -183 -77.5t-69 -190.5v-5q0 -112 73.5 -192t182.5 -80z" />
    <glyph glyph-name="p" unicode="p" horiz-adv-x="1454" 
d="M125 -340v1491h387v-156q139 179 350 179q101 0 193.5 -41.5t163.5 -116.5t113 -188.5t42 -247.5v-5q0 -137 -41.5 -252t-111.5 -190t-162.5 -116.5t-194.5 -41.5q-119 0 -202 45t-150 121v-481h-387zM750 301q102 0 172.5 76t70.5 196v5q0 117 -71 194.5t-172 77.5
q-102 0 -173 -77.5t-71 -194.5v-5q0 -117 71 -194.5t173 -77.5z" />
    <glyph glyph-name="q" unicode="q" horiz-adv-x="1454" 
d="M944 -340v496q-45 -55 -89 -91.5t-112.5 -63t-150.5 -26.5q-102 0 -194 41.5t-163 116.5t-113 189t-42 249v4q0 137 41.5 251.5t111.5 189.5t162.5 116.5t194.5 41.5q211 0 354 -166v143h387v-1491h-387zM707 301q103 0 173 75.5t70 196.5v5q0 117 -70.5 194.5
t-172.5 77.5q-104 0 -175 -76t-71 -196v-5q0 -120 71 -196t175 -76z" />
    <glyph glyph-name="r" unicode="r" horiz-adv-x="923" 
d="M125 0v1151h387v-233q53 127 139.5 192t225.5 59v-407h-31q-334 0 -334 -391v-371h-387z" />
    <glyph glyph-name="s" unicode="s" horiz-adv-x="1105" 
d="M569 -25q-300 0 -532 172l149 238q198 -133 387 -133q111 0 111 65v5q0 12 -5 22.5t-19 19.5t-25.5 15.5t-39 16t-45 14.5t-56.5 16q-5 1 -7 2q-71 18 -124.5 37t-107 49t-87.5 67t-55 90.5t-21 119.5v4q0 176 127 276t326 100q123 0 245 -35t220 -98l-136 -250
q-87 51 -177 80t-156 29q-48 0 -73.5 -17t-25.5 -44v-5q0 -32 41 -53t146 -54q6 -2 10 -3q72 -20 124 -39t106 -49t88 -66t55.5 -88.5t21.5 -116.5v-4q0 -185 -126.5 -284t-338.5 -99z" />
    <glyph glyph-name="t" unicode="t" horiz-adv-x="925" 
d="M567 -23q-184 0 -279 88t-95 285v486h-138v315h138v291h387v-291h268v-315h-268v-412q0 -60 26 -86.5t82 -26.5q88 0 156 39v-305q-119 -68 -277 -68z" />
    <glyph glyph-name="u" unicode="u" horiz-adv-x="1361" 
d="M508 -25q-185 0 -289 112.5t-104 311.5v752h389v-627q0 -98 45.5 -150t124.5 -52q80 0 128 52.5t48 149.5v627h387v-1151h-387v160q-67 -85 -147.5 -135t-194.5 -50z" />
    <glyph glyph-name="v" unicode="v" horiz-adv-x="1337" 
d="M492 -8l-459 1159h409l228 -692l231 692h402l-457 -1159h-354z" />
    <glyph glyph-name="w" unicode="w" horiz-adv-x="1849" 
d="M391 -8l-352 1159h383l158 -604l184 608h321l189 -610l162 606h374l-356 -1159h-336l-194 618l-199 -618h-334z" />
    <glyph glyph-name="x" unicode="x" horiz-adv-x="1269" 
d="M457 1151l180 -299l180 299h410l-381 -567l391 -584h-418l-188 311l-191 -311h-409l391 580l-381 571h416z" />
    <glyph glyph-name="y" unicode="y" horiz-adv-x="1339" 
d="M680 438l223 713h397l-423 -1135q-75 -201 -167.5 -282.5t-258.5 -81.5q-178 0 -353 96l121 272q103 -57 168 -57q36 0 58 11t42 40l-450 1137h405z" />
    <glyph glyph-name="z" unicode="z" horiz-adv-x="1216" 
d="M84 0v258l545 584h-525v309h1033v-258l-545 -584h545v-309h-1053z" />
    <glyph glyph-name="braceleft" unicode="{" horiz-adv-x="1060" 
d="M977 -68l-62 -233q-206 27 -327.5 82t-170 134t-48.5 198q0 16 3 75.5t3 79.5q0 117 -60 164t-190 47h-39v264h39q130 0 190 46t60 165q0 20 -3 80t-3 76q0 119 48.5 198t170 134t327.5 82l62 -234q-86 -20 -137.5 -40.5t-80 -50.5t-37.5 -63.5t-9 -86.5q0 -19 3 -73
t3 -79q0 -114 -57.5 -182.5t-176.5 -104.5q118 -33 176 -101t58 -183q0 -24 -3 -78.5t-3 -73.5q0 -71 18.5 -111.5t75.5 -72.5t170 -58z" />
    <glyph glyph-name="bar" unicode="|" horiz-adv-x="770" 
d="M236 -272v1972h299v-1972h-299z" />
    <glyph glyph-name="braceright" unicode="}" horiz-adv-x="1060" 
d="M145 -301l-63 233q113 26 170 58t75.5 72.5t18.5 111.5q0 19 -3 73.5t-3 78.5q0 115 58 183t177 101q-120 36 -177.5 104t-57.5 183q0 25 3 79t3 73q0 53 -9 86.5t-37.5 63.5t-80 50.5t-137.5 40.5l63 234q206 -27 327.5 -82t170.5 -134t49 -198q0 -16 -3 -76t-3 -80
q0 -119 59 -165t189 -46h39v-264h-39q-129 0 -188.5 -46.5t-59.5 -164.5q0 -20 3 -79.5t3 -75.5q0 -119 -49 -198t-170.5 -134t-327.5 -82z" />
    <glyph glyph-name="asciitilde" unicode="~" horiz-adv-x="1093" 
d="M731 487q-87 0 -199 45q-93 39 -131 39q-44 0 -64.5 -21.5t-47.5 -78.5l-189 53q37 160 97.5 236t167.5 76q81 0 196 -48q11 -4 31 -10.5t30.5 -10t25.5 -7.5t26 -6t20 -2q42 0 63.5 22t47.5 78l190 -53q-37 -160 -97.5 -236t-166.5 -76z" />
    <glyph glyph-name="uni00A0" unicode="&#xa0;" horiz-adv-x="0" 
 />
    <glyph glyph-name="exclamdown" unicode="&#xa1;" horiz-adv-x="706" 
d="M152 1133v358h403v-358h-403zM131 0v154l121 847h203l120 -847v-154h-444z" />
    <glyph glyph-name="cent" unicode="&#xa2;" horiz-adv-x="1243" 
d="M954 1503l-32 -188q165 -57 262 -195l-238 -192q-49 55 -98 84l-100 -545h2q119 18 202 121l234 -182q-174 -238 -473 -246v-2l-31 -170h-242l37 207q-178 62 -286.5 214.5t-108.5 344.5v4q0 165 76 299.5t214.5 214t313.5 82.5h2l27 149h239zM428 762v-4
q0 -88 31.5 -154.5t91.5 -103.5l100 551h-2q-97 -12 -159 -96t-62 -193z" />
    <glyph glyph-name="sterling" unicode="&#xa3;" horiz-adv-x="1378" 
d="M109 0v240l159 59v262h-159v287h159v121q0 263 144 401q143 146 401 146q306 0 494 -222l-252 -260q-52 63 -103 94t-114 31q-76 0 -123 -47q-51 -51 -51 -145v-119h464v-287h-464v-244h628v-317h-1183z" />
    <glyph glyph-name="yen" unicode="&#xa5;" horiz-adv-x="1515" 
d="M172 559v250h295l-447 682h451l289 -504l293 504h442l-451 -682h299v-250h-391v-113h391v-247h-391v-199h-389v199h-391v247h391v113h-391z" />
    <glyph glyph-name="section" unicode="&#xa7;" horiz-adv-x="1351" 
d="M1057 526q45 -36 71.5 -90.5t26.5 -116.5v-4q0 -151 -125.5 -245.5t-355.5 -94.5q-155 0 -284.5 47t-219.5 128l166 219q165 -127 342 -127q121 0 121 65v4q0 32 -46.5 54t-164.5 47q-79 18 -135 33.5t-115.5 36.5t-98.5 44t-71.5 52t-48 66t-15.5 81v4q0 169 193 236
q-98 79 -98 209v4q0 150 125.5 244t355.5 94q155 0 284.5 -47t217.5 -128l-166 -219q-165 127 -342 127q-121 0 -121 -65v-4q0 -30 46.5 -52.5t166.5 -48.5q78 -18 134 -33.5t115 -36.5t98 -44t71 -52t47.5 -66t15.5 -81v-4q0 -168 -190 -236zM834 629q51 0 80.5 20.5
t29.5 57.5v6q0 35 -51 59t-164 51q-144 39 -211 39q-49 0 -79.5 -20.5t-30.5 -57.5v-6q0 -35 51 -59t164 -51q144 -39 211 -39z" />
    <glyph glyph-name="dieresis" unicode="&#xa8;" horiz-adv-x="1081" 
d="M594 1255v299h338v-299h-338zM150 1255v299h337v-299h-337z" />
    <glyph glyph-name="copyright" unicode="&#xa9;" horiz-adv-x="1783" 
d="M891 -29q-159 0 -302.5 61.5t-245.5 165.5t-162 246t-60 297v4q0 104 27.5 203.5t77 184.5t120.5 157t156 122.5t186 79t207 28.5q212 0 389 -104.5t278 -281.5t101 -384v-5q0 -155 -60 -297.5t-162.5 -247t-246.5 -167t-303 -62.5zM891 57q190 0 347 93t246 251t89 344
v5q0 187 -88 343.5t-244 248.5t-346 92q-191 0 -349 -93.5t-246.5 -251t-88.5 -344.5v-4q0 -140 52 -266t141.5 -218t216.5 -146t270 -54zM903 332q-185 0 -306.5 121t-121.5 299v4q0 116 54.5 212.5t154 154t223.5 57.5q121 0 201.5 -41t140.5 -119l-162 -135
q-81 94 -182 94q-88 0 -145.5 -64t-57.5 -157v-4q0 -94 57.5 -158t145.5 -64q60 0 99.5 24t89.5 75l161 -123q-66 -85 -148.5 -130.5t-203.5 -45.5z" />
    <glyph glyph-name="ordfeminine" unicode="&#xaa;" horiz-adv-x="847" 
d="M319 848q-95 0 -155 50.5t-60 141.5v4q0 97 68 148t184 51q85 0 152 -24v8q0 106 -129 106q-87 0 -174 -35l-47 152q117 49 254 49q157 0 237 -74q66 -66 66 -202v-363h-209v68q-70 -80 -187 -80zM393 983q52 0 84.5 28.5t32.5 75.5v31q-59 19 -94 19q-49 0 -77 -21.5
t-28 -58.5v-4q0 -32 22.5 -51t59.5 -19zM100 580v157h625v-157h-625z" />
    <glyph glyph-name="guillemotleft" unicode="&#xab;" horiz-adv-x="1368" 
d="M1032 74l-399 487v21l399 487l254 -127l-252 -371l252 -368zM449 74l-373 454v86l373 455l253 -127l-249 -371l249 -368z" />
    <glyph glyph-name="registered" unicode="&#xae;" horiz-adv-x="800" 
d="M399 766q-154 0 -262 109t-108 262v2q0 153 108 262.5t262 109.5q155 0 263 -108.5t108 -261.5v-2q0 -153 -108.5 -263t-262.5 -110zM399 807q138 0 234 98t96 234v2q0 137 -95.5 234.5t-234.5 97.5q-137 0 -232 -98t-95 -236v-2q0 -137 94 -233.5t233 -96.5zM233 950
v393h191q78 0 124 -34t46 -101v-2q0 -42 -22.5 -74.5t-59.5 -46.5l94 -135h-137l-76 115h-41v-115h-119zM352 1157h66q55 0 55 43v2q0 19 -13.5 30.5t-41.5 10.5h-66v-86z" />
    <glyph glyph-name="macron" unicode="&#xaf;" horiz-adv-x="1081" 
d="M145 1270v237h791v-237h-791z" />
    <glyph glyph-name="degree" unicode="&#xb0;" horiz-adv-x="1026" 
d="M512 756q-154 0 -268.5 110t-114.5 262v5q0 152 114.5 262t268.5 110t269.5 -110t115.5 -262v-5q0 -152 -114.5 -262t-270.5 -110zM512 946q78 0 130 53t52 129v5q0 76 -52.5 130t-129.5 54t-129.5 -54t-52.5 -130v-5q0 -76 52 -129t130 -53z" />
    <glyph glyph-name="plusminus" unicode="&#xb1;" horiz-adv-x="1380" 
d="M1237 801l-385 2l4 -361h-332l2 361l-383 -2v313l383 -2l-2 363h332l-4 -363l385 2v-313zM1237 0h-1094v293h1094v-293z" />
    <glyph glyph-name="two.sup" unicode="&#xb2;" horiz-adv-x="860" 
d="M102 889v180l306 240q63 49 87.5 82t24.5 73q0 38 -27 60t-69 22q-46 0 -86.5 -25t-89.5 -81l-148 129q66 88 144.5 132t193.5 44q140 0 225 -71t85 -187q0 -86 -41.5 -148.5t-135.5 -132.5l-170 -129h353v-188h-652z" />
    <glyph glyph-name="three.sup" unicode="&#xb3;" horiz-adv-x="860" 
d="M422 866q-206 0 -350 131l123 152q113 -94 219 -94q50 0 83 25.5t33 66.5q0 44 -38 68t-107 24h-100l-31 121l215 178h-338v186h604v-165l-225 -181q108 -13 175 -70.5t67 -160.5q0 -128 -91 -204.5t-239 -76.5z" />
    <glyph glyph-name="acute" unicode="&#xb4;" horiz-adv-x="1081" 
d="M297 1255l223 390l354 -121l-305 -269h-272z" />
    <glyph glyph-name="mu" unicode="&#xb5;" horiz-adv-x="1490" 
d="M1444 299v-283q-82 -30 -201 -30q-112 0 -184.5 37t-110.5 118q-80 -151 -237 -151q-79 0 -146 37t-102 114h-6q24 -89 34.5 -148t10.5 -134v-199h-377v1491h387v-637q0 -98 46.5 -150.5t129.5 -52.5q86 0 135 52.5t49 150.5v637h388v-754q4 -58 31 -81t83 -23q32 0 70 6
z" />
    <glyph glyph-name="paragraph" unicode="&#xb6;" horiz-adv-x="1282" 
d="M737 0v473h-47q-184 0 -325 56.5t-222.5 172t-81.5 275.5v4q0 241 167 375.5t448 134.5h457v-1491h-396z" />
    <glyph glyph-name="periodcentered" unicode="&#xb7;" horiz-adv-x="622" 
d="M109 465v399h405v-399h-405z" />
    <glyph glyph-name="cedilla" unicode="&#xb8;" horiz-adv-x="1081" 
d="M555 -369l-309 131l203 281h256z" />
    <glyph glyph-name="one.sup" unicode="&#xb9;" horiz-adv-x="700" 
d="M516 889h-225v627l-160 -52l-55 178l274 95h166v-848z" />
    <glyph glyph-name="ordmasculine" unicode="&#xba;" horiz-adv-x="847" 
d="M422 844q-146 0 -243 94.5t-97 230.5v5q0 138 98 232.5t246 94.5q146 0 242 -94t96 -231v-5q0 -138 -97.5 -232.5t-244.5 -94.5zM117 580v157h614v-157h-614zM426 1024q59 0 95 41t36 104v5q0 62 -38 104.5t-97 42.5q-60 0 -96.5 -41t-36.5 -104v-5q0 -62 39 -104.5
t98 -42.5z" />
    <glyph glyph-name="guillemotright" unicode="&#xbb;" horiz-adv-x="1368" 
d="M920 74l-256 125l251 370l-251 371l256 129l370 -455v-86zM336 74l-256 125l252 370l-252 371l256 129l399 -487v-21z" />
    <glyph glyph-name="onequarter" unicode="&#xbc;" horiz-adv-x="1775" 
d="M516 655h-225v627l-160 -51l-55 176l274 96h166v-848zM266 0l543 780l469 711h176l-543 -780l-469 -711h-176zM1599 156v-160h-210v160h-383l-27 188l375 500h245v-522h105v-166h-105zM1393 317v304l-226 -304h226z" />
    <glyph glyph-name="onehalf" unicode="&#xbd;" horiz-adv-x="1775" 
d="M1032 0v180l305 240q63 50 88 82.5t25 72.5q0 38 -27 60t-69 22q-46 0 -86.5 -25t-89.5 -81l-148 129q66 88 144.5 132t193.5 44q140 0 224.5 -71t84.5 -187q0 -87 -41.5 -149t-134.5 -132l-170 -129h352v-188h-651zM516 655h-225v627l-160 -51l-55 176l274 96h166v-848z
M246 0l542 780l469 711h177l-543 -780l-469 -711h-176z" />
    <glyph glyph-name="threequarters" unicode="&#xbe;" horiz-adv-x="1935" 
d="M426 633q-206 0 -350 131l123 151q113 -94 219 -94q51 0 84 25t33 67q0 44 -38.5 68.5t-107.5 24.5h-100l-31 120l215 179h-338v186h604v-166l-225 -180q108 -13 175 -71t67 -161q0 -128 -91 -204t-239 -76zM416 0l542 780l469 711h177l-543 -780l-469 -711h-176z
M1759 156v-160h-211v160h-383l-26 188l374 500h246v-522h105v-166h-105zM1552 317v304l-225 -304h225z" />
    <glyph glyph-name="questiondown" unicode="&#xbf;" horiz-adv-x="1169" 
d="M430 1133v358h406v-358h-406zM590 -23q-237 0 -383 120.5t-146 326.5v4q0 78 21.5 142.5t57.5 110.5t90.5 82.5t113.5 60t133 42.5l25 135h250l53 -354l-19 -16q-183 -13 -262.5 -57t-79.5 -119v-4q0 -57 44.5 -90t123.5 -33q157 0 314 141l209 -266q-223 -226 -545 -226
z" />
    <glyph glyph-name="Agrave" unicode="&#xc0;" horiz-adv-x="1708" 
d="M29 0l635 1501h378l635 -1501h-422l-112 281h-588l-113 -281h-413zM676 596h346l-172 434zM1008 1616h-291l-309 225l364 117z" />
    <glyph glyph-name="Aacute" unicode="&#xc1;" horiz-adv-x="1708" 
d="M29 0l635 1501h378l635 -1501h-422l-112 281h-588l-113 -281h-413zM676 596h346l-172 434zM700 1616l236 342l364 -117l-309 -225h-291z" />
    <glyph glyph-name="Acircumflex" unicode="&#xc2;" horiz-adv-x="1708" 
d="M29 0l635 1501h378l635 -1501h-422l-112 281h-588l-113 -281h-413zM676 596h346l-172 434zM416 1610l264 317h348l264 -317h-272l-168 114l-168 -114h-268z" />
    <glyph glyph-name="Atilde" unicode="&#xc3;" horiz-adv-x="1708" 
d="M29 0l635 1501h378l635 -1501h-422l-112 281h-588l-113 -281h-413zM676 596h346l-172 434zM1055 1616q-76 0 -215 47q-88 37 -133 37q-44 0 -66.5 -22t-48.5 -79l-189 54q37 159 98.5 235t168.5 76q82 0 215 -49q107 -35 133 -35q44 0 66.5 22t48.5 78l188 -53
q-37 -160 -98 -235.5t-168 -75.5z" />
    <glyph glyph-name="Adieresis" unicode="&#xc4;" horiz-adv-x="1708" 
d="M29 0l635 1501h378l635 -1501h-422l-112 281h-588l-113 -281h-413zM676 596h346l-172 434zM918 1616v291h342v-291h-342zM449 1616v291h342v-291h-342z" />
    <glyph glyph-name="Aring" unicode="&#xc5;" horiz-adv-x="1708" 
d="M29 0l596 1411q-64 77 -64 166q0 114 84.5 188t208.5 74t208.5 -74t84.5 -188q0 -94 -66 -166l596 -1411h-422l-112 281h-588l-113 -281h-413zM676 596h346l-172 434zM854 1444q66 0 108 38t42 95q0 58 -41.5 96.5t-108.5 38.5q-66 0 -107.5 -38.5t-41.5 -96.5
q0 -57 41.5 -95t107.5 -38z" />
    <glyph glyph-name="AE" unicode="&#xc6;" horiz-adv-x="2271" 
d="M4 0l791 1491h1372v-338h-744v-244h664v-317h-664v-254h754v-338h-1141v281h-485l-148 -281h-399zM713 596h323v567h-28z" />
    <glyph glyph-name="Ccedilla" unicode="&#xc7;" horiz-adv-x="1574" 
d="M815 -369l-309 131l168 232q-256 63 -417 266t-161 481v4q0 214 100.5 391t281 280.5t403.5 103.5q393 0 622 -293l-291 -242q-73 85 -152.5 129.5t-182.5 44.5q-108 0 -193.5 -56t-131.5 -149t-46 -204v-5q0 -176 104 -294.5t267 -118.5q111 0 188.5 44.5t157.5 135.5
l290 -219q-104 -140 -241.5 -222t-333.5 -98z" />
    <glyph glyph-name="Egrave" unicode="&#xc8;" horiz-adv-x="1439" 
d="M901 1595h-291l-309 226l365 116zM150 0v1491h1183v-338h-792v-244h712v-317h-712v-254h802v-338h-1193z" />
    <glyph glyph-name="Eacute" unicode="&#xc9;" horiz-adv-x="1439" 
d="M592 1595l235 342l365 -116l-309 -226h-291zM150 0v1491h1183v-338h-792v-244h712v-317h-712v-254h802v-338h-1193z" />
    <glyph glyph-name="Ecircumflex" unicode="&#xca;" horiz-adv-x="1439" 
d="M150 0v1491h1183v-338h-792v-244h712v-317h-712v-254h802v-338h-1193zM307 1595l264 318h349l264 -318h-273l-168 115l-168 -115h-268z" />
    <glyph glyph-name="Edieresis" unicode="&#xcb;" horiz-adv-x="1439" 
d="M809 1595v291h342v-291h-342zM340 1595v291h342v-291h-342zM150 0v1491h1183v-338h-792v-244h712v-317h-712v-254h802v-338h-1193z" />
    <glyph glyph-name="Igrave" unicode="&#xcc;" horiz-adv-x="716" 
d="M160 0v1491h397v-1491h-397zM514 1595h-291l-309 226l365 116z" />
    <glyph glyph-name="Iacute" unicode="&#xcd;" horiz-adv-x="716" 
d="M160 0v1491h397v-1491h-397zM207 1595l235 342l365 -116l-309 -226h-291z" />
    <glyph glyph-name="Icircumflex" unicode="&#xce;" horiz-adv-x="716" 
d="M160 0v1491h397v-1491h-397zM-78 1595l264 318h349l264 -318h-273l-168 115l-168 -115h-268z" />
    <glyph glyph-name="Idieresis" unicode="&#xcf;" horiz-adv-x="716" 
d="M160 0v1491h397v-1491h-397zM424 1595v291h342v-291h-342zM-45 1595v291h342v-291h-342z" />
    <glyph glyph-name="Eth" unicode="&#xd0;" horiz-adv-x="1751" 
d="M246 0v616h-168v269h168v606h577q190 0 347 -55.5t263 -153.5t164 -233.5t58 -294.5v-4q0 -159 -58 -296.5t-164.5 -238t-265 -158t-350.5 -57.5h-571zM918 618h-285v-276h194q193 0 306.5 107t113.5 292v4q0 188 -113.5 296t-306.5 108h-194v-268h285v-263z" />
    <glyph glyph-name="Ntilde" unicode="&#xd1;" horiz-adv-x="1689" 
d="M1047 1595q-77 0 -216 47q-88 37 -133 37q-44 0 -66 -21.5t-48 -78.5l-189 53q37 160 98.5 236t168.5 76q79 0 215 -50q104 -34 133 -34q44 0 66 21.5t48 78.5l189 -53q-37 -160 -98 -236t-168 -76zM150 0v1491h368l631 -813v813h391v-1491h-344l-655 844v-844h-391z" />
    <glyph glyph-name="Ograve" unicode="&#xd2;" horiz-adv-x="1794" 
d="M1051 1616h-291l-309 225l364 117zM895 -29q-169 0 -318 60.5t-254 164t-166 245.5t-61 300v4q0 158 61 301t167 247.5t256 165.5t319 61t318 -60.5t254 -164t166 -245.5t61 -300v-5q0 -158 -61 -301t-167 -247t-255.5 -165t-319.5 -61zM899 330q174 0 282.5 119.5
t108.5 291.5v4q0 112 -49 206.5t-140 152t-206 57.5q-171 0 -281 -120t-110 -291v-5q0 -112 49 -206t140 -151.5t206 -57.5z" />
    <glyph glyph-name="Oacute" unicode="&#xd3;" horiz-adv-x="1794" 
d="M743 1616l236 342l364 -117l-309 -225h-291zM895 -29q-169 0 -318 60.5t-254 164t-166 245.5t-61 300v4q0 158 61 301t167 247.5t256 165.5t319 61t318 -60.5t254 -164t166 -245.5t61 -300v-5q0 -158 -61 -301t-167 -247t-255.5 -165t-319.5 -61zM899 330
q174 0 282.5 119.5t108.5 291.5v4q0 112 -49 206.5t-140 152t-206 57.5q-171 0 -281 -120t-110 -291v-5q0 -112 49 -206t140 -151.5t206 -57.5z" />
    <glyph glyph-name="Ocircumflex" unicode="&#xd4;" horiz-adv-x="1794" 
d="M895 -29q-169 0 -318 60.5t-254 164t-166 245.5t-61 300v4q0 158 61 301t167 247.5t256 165.5t319 61t318 -60.5t254 -164t166 -245.5t61 -300v-5q0 -158 -61 -301t-167 -247t-255.5 -165t-319.5 -61zM899 330q174 0 282.5 119.5t108.5 291.5v4q0 112 -49 206.5t-140 152
t-206 57.5q-171 0 -281 -120t-110 -291v-5q0 -112 49 -206t140 -151.5t206 -57.5zM459 1616l264 317h348l264 -317h-272l-168 115l-168 -115h-268z" />
    <glyph glyph-name="Otilde" unicode="&#xd5;" horiz-adv-x="1794" 
d="M1098 1616q-76 0 -215 47q-88 37 -133 37q-44 0 -66.5 -22t-48.5 -79l-189 54q37 159 98.5 235t168.5 76q82 0 215 -49q107 -35 133 -35q44 0 66.5 22t48.5 78l188 -53q-37 -160 -98 -235.5t-168 -75.5zM895 -29q-169 0 -318 60.5t-254 164t-166 245.5t-61 300v4
q0 158 61 301t167 247.5t256 165.5t319 61t318 -60.5t254 -164t166 -245.5t61 -300v-5q0 -158 -61 -301t-167 -247t-255.5 -165t-319.5 -61zM899 330q174 0 282.5 119.5t108.5 291.5v4q0 112 -49 206.5t-140 152t-206 57.5q-171 0 -281 -120t-110 -291v-5q0 -112 49 -206
t140 -151.5t206 -57.5z" />
    <glyph glyph-name="Odieresis" unicode="&#xd6;" horiz-adv-x="1794" 
d="M961 1616v291h342v-291h-342zM492 1616v291h342v-291h-342zM895 -29q-169 0 -318 60.5t-254 164t-166 245.5t-61 300v4q0 158 61 301t167 247.5t256 165.5t319 61t318 -60.5t254 -164t166 -245.5t61 -300v-5q0 -158 -61 -301t-167 -247t-255.5 -165t-319.5 -61zM899 330
q174 0 282.5 119.5t108.5 291.5v4q0 112 -49 206.5t-140 152t-206 57.5q-171 0 -281 -120t-110 -291v-5q0 -112 49 -206t140 -151.5t206 -57.5z" />
    <glyph glyph-name="multiply" unicode="&#xd7;" horiz-adv-x="1380" 
d="M1008 195l-322 327l-319 -327l-232 231l328 322l-330 319l240 238l319 -328l320 328l233 -232l-330 -319l330 -322z" />
    <glyph glyph-name="Oslash" unicode="&#xd8;" horiz-adv-x="1794" 
d="M1403 1501h311l-211 -241q195 -217 195 -510v-5q0 -158 -61 -301t-167 -247t-255.5 -165t-319.5 -61q-237 0 -420 109l-82 -90h-313l211 239q-195 217 -195 512v4q0 158 61 301t167 247.5t256 165.5t319 61q233 0 420 -111zM496 750v-5q0 -120 55 -219l526 600
q-88 43 -182 43q-175 0 -287 -122.5t-112 -296.5zM899 322q175 0 287 122.5t112 296.5v4q0 124 -57 220l-524 -600q79 -43 182 -43z" />
    <glyph glyph-name="Ugrave" unicode="&#xd9;" horiz-adv-x="1630" 
d="M969 1595h-291l-309 226l364 116zM811 -27q-322 0 -501 170t-179 508v840h399v-832q0 -162 75.5 -244.5t209.5 -82.5t209.5 79.5t75.5 235.5v844h399v-829q0 -346 -182 -517.5t-506 -171.5z" />
    <glyph glyph-name="Uacute" unicode="&#xda;" horiz-adv-x="1630" 
d="M662 1595l235 342l365 -116l-310 -226h-290zM811 -27q-322 0 -501 170t-179 508v840h399v-832q0 -162 75.5 -244.5t209.5 -82.5t209.5 79.5t75.5 235.5v844h399v-829q0 -346 -182 -517.5t-506 -171.5z" />
    <glyph glyph-name="Ucircumflex" unicode="&#xdb;" horiz-adv-x="1630" 
d="M811 -27q-322 0 -501 170t-179 508v840h399v-832q0 -162 75.5 -244.5t209.5 -82.5t209.5 79.5t75.5 235.5v844h399v-829q0 -346 -182 -517.5t-506 -171.5zM377 1595l264 318h348l264 -318h-272l-168 115l-168 -115h-268z" />
    <glyph glyph-name="Udieresis" unicode="&#xdc;" horiz-adv-x="1630" 
d="M879 1595v291h342v-291h-342zM410 1595v291h342v-291h-342zM811 -27q-322 0 -501 170t-179 508v840h399v-832q0 -162 75.5 -244.5t209.5 -82.5t209.5 79.5t75.5 235.5v844h399v-829q0 -346 -182 -517.5t-506 -171.5z" />
    <glyph glyph-name="Yacute" unicode="&#xdd;" horiz-adv-x="1552" 
d="M580 0v563l-570 928h453l315 -555l322 555h444l-569 -920v-571h-395zM623 1595l235 342l365 -116l-310 -226h-290z" />
    <glyph glyph-name="Thorn" unicode="&#xde;" horiz-adv-x="1464" 
d="M150 0v1491h395v-213h239q280 0 444.5 -139t164.5 -379v-4q0 -128 -48 -230t-133 -167.5t-200 -99.5t-252 -34h-215v-225h-395zM545 547h211q112 0 176.5 55t64.5 146v4q0 97 -64 148.5t-181 51.5h-207v-405z" />
    <glyph glyph-name="germandbls" unicode="&#xdf;" horiz-adv-x="1361" 
d="M657 -4v278q119 6 183.5 52t64.5 125v6q0 76 -67 121.5t-181 56.5v215q179 95 179 235v5q0 72 -42.5 115.5t-109.5 43.5q-79 0 -126.5 -55.5t-47.5 -153.5v-1040h-385v1030q0 250 148 396.5t419 146.5q239 0 379.5 -124t140.5 -314v-5q0 -234 -215 -348
q57 -20 105.5 -49.5t92 -73t68.5 -105.5t25 -136v-4q0 -139 -80.5 -238.5t-223 -145t-327.5 -34.5z" />
    <glyph glyph-name="agrave" unicode="&#xe0;" 
d="M453 -25q-169 0 -278 94.5t-109 260.5v4q0 177 121.5 269.5t330.5 92.5q149 0 279 -45v19q0 192 -234 192q-157 0 -317 -63l-84 278q105 44 213 66t250 22q291 0 428 -137q65 -65 94 -153.5t29 -212.5v-662h-381v121q-133 -146 -342 -146zM588 221q94 0 153.5 53.5
t59.5 139.5v53q-72 35 -168 35q-91 0 -143 -40t-52 -108v-4q0 -59 41.5 -94t108.5 -35zM528 1262l-305 268l355 121l223 -389h-273z" />
    <glyph glyph-name="aacute" unicode="&#xe1;" 
d="M453 -25q-169 0 -278 94.5t-109 260.5v4q0 177 121.5 269.5t330.5 92.5q149 0 279 -45v19q0 192 -234 192q-157 0 -317 -63l-84 278q105 44 213 66t250 22q291 0 428 -137q65 -65 94 -153.5t29 -212.5v-662h-381v121q-133 -146 -342 -146zM588 221q94 0 153.5 53.5
t59.5 139.5v53q-72 35 -168 35q-91 0 -143 -40t-52 -108v-4q0 -59 41.5 -94t108.5 -35zM504 1262l223 389l354 -121l-305 -268h-272z" />
    <glyph glyph-name="acircumflex" unicode="&#xe2;" 
d="M453 -25q-169 0 -278 94.5t-109 260.5v4q0 177 121.5 269.5t330.5 92.5q149 0 279 -45v19q0 192 -234 192q-157 0 -317 -63l-84 278q105 44 213 66t250 22q291 0 428 -137q65 -65 94 -153.5t29 -212.5v-662h-381v121q-133 -146 -342 -146zM588 221q94 0 153.5 53.5
t59.5 139.5v53q-72 35 -168 35q-91 0 -143 -40t-52 -108v-4q0 -59 41.5 -94t108.5 -35zM219 1262l270 346h324l270 -346h-258l-176 131l-176 -131h-254z" />
    <glyph glyph-name="atilde" unicode="&#xe3;" 
d="M453 -25q-169 0 -278 94.5t-109 260.5v4q0 177 121.5 269.5t330.5 92.5q149 0 279 -45v19q0 192 -234 192q-157 0 -317 -63l-84 278q105 44 213 66t250 22q291 0 428 -137q65 -65 94 -153.5t29 -212.5v-662h-381v121q-133 -146 -342 -146zM588 221q94 0 153.5 53.5
t59.5 139.5v53q-72 35 -168 35q-91 0 -143 -40t-52 -108v-4q0 -59 41.5 -94t108.5 -35zM842 1262q-89 0 -197 45q-86 36 -133 36q-42 0 -63.5 -22t-47.5 -78l-188 53q37 160 97.5 236t166.5 76q89 0 197 -45q88 -37 133 -37q41 0 63 22t48 78l188 -53q-37 -160 -97 -235.5
t-167 -75.5z" />
    <glyph glyph-name="adieresis" unicode="&#xe4;" 
d="M453 -25q-169 0 -278 94.5t-109 260.5v4q0 177 121.5 269.5t330.5 92.5q149 0 279 -45v19q0 192 -234 192q-157 0 -317 -63l-84 278q105 44 213 66t250 22q291 0 428 -137q65 -65 94 -153.5t29 -212.5v-662h-381v121q-133 -146 -342 -146zM588 221q94 0 153.5 53.5
t59.5 139.5v53q-72 35 -168 35q-91 0 -143 -40t-52 -108v-4q0 -59 41.5 -94t108.5 -35zM705 1262v299h337v-299h-337zM260 1262v299h338v-299h-338z" />
    <glyph glyph-name="aring" unicode="&#xe5;" 
d="M453 -25q-169 0 -278 94.5t-109 260.5v4q0 177 121.5 269.5t330.5 92.5q149 0 279 -45v19q0 192 -234 192q-157 0 -317 -63l-84 278q105 44 213 66t250 22q291 0 428 -137q65 -65 94 -153.5t29 -212.5v-662h-381v121q-133 -146 -342 -146zM588 221q94 0 153.5 53.5
t59.5 139.5v53q-72 35 -168 35q-91 0 -143 -40t-52 -108v-4q0 -59 41.5 -94t108.5 -35zM651 1262q-115 0 -195.5 78t-80.5 188q0 112 80 189t196 77t196.5 -77t80.5 -189q0 -110 -81 -188t-196 -78zM651 1382q60 0 103 43t43 103q0 61 -43 104t-103 43t-102.5 -43
t-42.5 -104q0 -60 42.5 -103t102.5 -43z" />
    <glyph glyph-name="ae" unicode="&#xe6;" horiz-adv-x="2023" 
d="M494 -25q-187 0 -307.5 92.5t-120.5 262.5v4q0 177 121.5 269.5t330.5 92.5q149 0 279 -45v19q0 192 -234 192q-157 0 -317 -63l-84 278q105 44 213 66t250 22q261 0 389 -131q146 140 364 140q139 0 248.5 -50.5t178 -138t104 -200t35.5 -240.5q0 -59 -5 -82h-774
q25 -97 90 -147t164 -50q73 0 133.5 27.5t128.5 89.5l215 -180q-187 -230 -493 -230q-136 0 -251.5 45t-195.5 127q-233 -170 -462 -170zM1159 670h420q-12 99 -67.5 157t-141.5 58q-85 0 -139 -57.5t-72 -157.5zM592 225q126 0 246 99q-32 85 -39 145q-86 33 -166 33
q-91 0 -143 -40t-52 -108v-4q0 -58 43 -91.5t111 -33.5z" />
    <glyph glyph-name="ccedilla" unicode="&#xe7;" horiz-adv-x="1228" 
d="M625 -369l-310 131l172 240q-184 57 -297.5 213.5t-113.5 353.5v4q0 121 45.5 231t125 192t195 130t248.5 48q318 0 484 -244l-259 -207q-48 61 -100 92t-123 31q-103 0 -170 -78t-67 -190v-5q0 -118 67.5 -195t173.5 -77q71 0 123.5 29.5t106.5 89.5l254 -195
q-76 -110 -179.5 -173.5t-250.5 -74.5z" />
    <glyph glyph-name="egrave" unicode="&#xe8;" horiz-adv-x="1308" 
d="M690 -27q-270 0 -442 166t-172 430v4q0 166 73.5 303t206.5 217.5t299 80.5q143 0 255 -50.5t181 -138.5t104.5 -199.5t35.5 -240.5q0 -28 -4 -82h-776q24 -97 90.5 -147t165.5 -50q74 0 135 28t125 89l215 -180q-187 -230 -492 -230zM446 670h418q-12 99 -67 157
t-142 58q-84 0 -137.5 -57t-71.5 -158zM532 1262l-305 268l355 121l223 -389h-273z" />
    <glyph glyph-name="eacute" unicode="&#xe9;" horiz-adv-x="1308" 
d="M508 1262l223 389l354 -121l-305 -268h-272zM690 -27q-270 0 -442 166t-172 430v4q0 166 73.5 303t206.5 217.5t299 80.5q143 0 255 -50.5t181 -138.5t104.5 -199.5t35.5 -240.5q0 -28 -4 -82h-776q24 -97 90.5 -147t165.5 -50q74 0 135 28t125 89l215 -180
q-187 -230 -492 -230zM446 670h418q-12 99 -67 157t-142 58q-84 0 -137.5 -57t-71.5 -158z" />
    <glyph glyph-name="ecircumflex" unicode="&#xea;" horiz-adv-x="1308" 
d="M225 1262l271 346h323l271 -346h-259l-176 131l-176 -131h-254zM690 -27q-270 0 -442 166t-172 430v4q0 166 73.5 303t206.5 217.5t299 80.5q143 0 255 -50.5t181 -138.5t104.5 -199.5t35.5 -240.5q0 -28 -4 -82h-776q24 -97 90.5 -147t165.5 -50q74 0 135 28t125 89
l215 -180q-187 -230 -492 -230zM446 670h418q-12 99 -67 157t-142 58q-84 0 -137.5 -57t-71.5 -158z" />
    <glyph glyph-name="edieresis" unicode="&#xeb;" horiz-adv-x="1308" 
d="M711 1262v299h338v-299h-338zM266 1262v299h338v-299h-338zM690 -27q-270 0 -442 166t-172 430v4q0 166 73.5 303t206.5 217.5t299 80.5q143 0 255 -50.5t181 -138.5t104.5 -199.5t35.5 -240.5q0 -28 -4 -82h-776q24 -97 90.5 -147t165.5 -50q74 0 135 28t125 89
l215 -180q-187 -230 -492 -230zM446 670h418q-12 99 -67 157t-142 58q-84 0 -137.5 -57t-71.5 -158z" />
    <glyph glyph-name="igrave" unicode="&#xec;" horiz-adv-x="657" 
d="M135 0v1151h387v-1151h-387zM207 1255l-305 269l354 121l223 -390h-272z" />
    <glyph glyph-name="iacute" unicode="&#xed;" horiz-adv-x="657" 
d="M182 1255l224 390l354 -121l-305 -269h-273zM135 0v1151h387v-1151h-387z" />
    <glyph glyph-name="icircumflex" unicode="&#xee;" horiz-adv-x="657" 
d="M-102 1255l270 347h324l270 -347h-258l-176 131l-176 -131h-254zM135 0v1151h387v-1151h-387z" />
    <glyph glyph-name="idieresis" unicode="&#xef;" horiz-adv-x="657" 
d="M383 1255v299h338v-299h-338zM-61 1255v299h337v-299h-337zM135 0v1151h387v-1151h-387z" />
    <glyph glyph-name="eth" unicode="&#xf0;" horiz-adv-x="1419" 
d="M1176 1384l-140 -32q303 -323 303 -705v-6q0 -189 -76 -340t-221 -239.5t-335 -88.5q-136 0 -253.5 46.5t-200 128.5t-130 197t-47.5 247v4q0 238 140.5 394.5t352.5 156.5q81 0 141.5 -19t127.5 -59q-61 94 -164 197l-260 -60l-60 176l152 35q-110 86 -189 137h494
q13 -9 36 -28.5t30 -24.5l241 58zM711 301q114 0 183 77t69 189v4q0 112 -73.5 190.5t-182.5 78.5q-114 0 -183 -76t-69 -189v-4q0 -112 73.5 -191t182.5 -79z" />
    <glyph glyph-name="ntilde" unicode="&#xf1;" horiz-adv-x="1361" 
d="M125 0v1151h387v-162q143 185 342 185q185 0 289 -112.5t104 -311.5v-750h-389v627q0 97 -45.5 149.5t-124.5 52.5q-80 0 -128 -53t-48 -149v-627h-387zM874 1262q-88 0 -196 45q-86 36 -133 36q-41 0 -63 -22t-48 -78l-188 53q37 160 97.5 236t166.5 76q89 0 197 -45
q88 -37 133 -37q41 0 62.5 22t47.5 78l189 -53q-37 -160 -97.5 -235.5t-167.5 -75.5z" />
    <glyph glyph-name="ograve" unicode="&#xf2;" horiz-adv-x="1417" 
d="M707 -27q-180 0 -325 80.5t-225.5 216.5t-80.5 299v4q0 122 48 232t131.5 191.5t202 129.5t253.5 48t253 -47t200 -127.5t129.5 -190t47.5 -231.5v-5q0 -122 -48 -232t-131 -191t-201.5 -129t-253.5 -48zM711 301q114 0 183 77.5t69 190.5v4q0 112 -73.5 192.5
t-182.5 80.5q-114 0 -183 -77.5t-69 -190.5v-5q0 -112 73.5 -192t182.5 -80zM584 1262l-305 268l354 121l223 -389h-272z" />
    <glyph glyph-name="oacute" unicode="&#xf3;" horiz-adv-x="1417" 
d="M561 1262l223 389l355 -121l-305 -268h-273zM707 -27q-180 0 -325 80.5t-225.5 216.5t-80.5 299v4q0 122 48 232t131.5 191.5t202 129.5t253.5 48t253 -47t200 -127.5t129.5 -190t47.5 -231.5v-5q0 -122 -48 -232t-131 -191t-201.5 -129t-253.5 -48zM711 301
q114 0 183 77.5t69 190.5v4q0 112 -73.5 192.5t-182.5 80.5q-114 0 -183 -77.5t-69 -190.5v-5q0 -112 73.5 -192t182.5 -80z" />
    <glyph glyph-name="ocircumflex" unicode="&#xf4;" horiz-adv-x="1417" 
d="M276 1262l271 346h323l271 -346h-258l-176 131l-177 -131h-254zM707 -27q-180 0 -325 80.5t-225.5 216.5t-80.5 299v4q0 122 48 232t131.5 191.5t202 129.5t253.5 48t253 -47t200 -127.5t129.5 -190t47.5 -231.5v-5q0 -122 -48 -232t-131 -191t-201.5 -129t-253.5 -48z
M711 301q114 0 183 77.5t69 190.5v4q0 112 -73.5 192.5t-182.5 80.5q-114 0 -183 -77.5t-69 -190.5v-5q0 -112 73.5 -192t182.5 -80z" />
    <glyph glyph-name="otilde" unicode="&#xf5;" horiz-adv-x="1417" 
d="M707 -27q-180 0 -325 80.5t-225.5 216.5t-80.5 299v4q0 122 48 232t131.5 191.5t202 129.5t253.5 48t253 -47t200 -127.5t129.5 -190t47.5 -231.5v-5q0 -122 -48 -232t-131 -191t-201.5 -129t-253.5 -48zM711 301q114 0 183 77.5t69 190.5v4q0 112 -73.5 192.5
t-182.5 80.5q-114 0 -183 -77.5t-69 -190.5v-5q0 -112 73.5 -192t182.5 -80zM899 1262q-89 0 -197 45q-86 36 -133 36q-41 0 -62.5 -22t-47.5 -78l-189 53q37 160 97.5 236t167.5 76q88 0 196 -45q88 -37 133 -37q42 0 63.5 22t47.5 78l188 -53q-37 -160 -97 -235.5
t-167 -75.5z" />
    <glyph glyph-name="odieresis" unicode="&#xf6;" horiz-adv-x="1417" 
d="M762 1262v299h338v-299h-338zM317 1262v299h338v-299h-338zM707 -27q-180 0 -325 80.5t-225.5 216.5t-80.5 299v4q0 122 48 232t131.5 191.5t202 129.5t253.5 48t253 -47t200 -127.5t129.5 -190t47.5 -231.5v-5q0 -122 -48 -232t-131 -191t-201.5 -129t-253.5 -48z
M711 301q114 0 183 77.5t69 190.5v4q0 112 -73.5 192.5t-182.5 80.5q-114 0 -183 -77.5t-69 -190.5v-5q0 -112 73.5 -192t182.5 -80z" />
    <glyph glyph-name="divide" unicode="&#xf7;" horiz-adv-x="1380" 
d="M506 1049v335h368v-335h-368zM1245 594h-1110v313h1110v-313zM506 115v336h368v-336h-368z" />
    <glyph glyph-name="oslash" unicode="&#xf8;" horiz-adv-x="1417" 
d="M1090 1161h282l-176 -198q145 -164 145 -385v-5q0 -122 -48 -232t-131 -191t-201.5 -129t-253.5 -48q-174 0 -320 78l-59 -61h-283l174 194q-143 165 -143 385v4q0 122 48 232t131.5 191.5t202 129.5t253.5 48q171 0 317 -78zM711 287q120 0 193 81.5t73 200.5v4
q0 63 -25 121l-344 -389q47 -18 103 -18zM438 578v-5q0 -58 23 -122l348 389q-50 20 -102 20q-120 0 -194.5 -81.5t-74.5 -200.5z" />
    <glyph glyph-name="ugrave" unicode="&#xf9;" horiz-adv-x="1361" 
d="M508 -25q-185 0 -289 112.5t-104 311.5v752h389v-627q0 -98 45.5 -150t124.5 -52q80 0 128 52.5t48 149.5v627h387v-1151h-387v160q-67 -85 -147.5 -135t-194.5 -50zM551 1255l-305 269l354 121l223 -390h-272z" />
    <glyph glyph-name="uacute" unicode="&#xfa;" horiz-adv-x="1361" 
d="M528 1255l224 390l354 -121l-305 -269h-273zM508 -25q-185 0 -289 112.5t-104 311.5v752h389v-627q0 -98 45.5 -150t124.5 -52q80 0 128 52.5t48 149.5v627h387v-1151h-387v160q-67 -85 -147.5 -135t-194.5 -50z" />
    <glyph glyph-name="ucircumflex" unicode="&#xfb;" horiz-adv-x="1361" 
d="M244 1255l270 347h324l270 -347h-258l-176 131l-176 -131h-254zM508 -25q-185 0 -289 112.5t-104 311.5v752h389v-627q0 -98 45.5 -150t124.5 -52q80 0 128 52.5t48 149.5v627h387v-1151h-387v160q-67 -85 -147.5 -135t-194.5 -50z" />
    <glyph glyph-name="udieresis" unicode="&#xfc;" horiz-adv-x="1361" 
d="M729 1255v299h338v-299h-338zM285 1255v299h338v-299h-338zM508 -25q-185 0 -289 112.5t-104 311.5v752h389v-627q0 -98 45.5 -150t124.5 -52q80 0 128 52.5t48 149.5v627h387v-1151h-387v160q-67 -85 -147.5 -135t-194.5 -50z" />
    <glyph glyph-name="yacute" unicode="&#xfd;" horiz-adv-x="1339" 
d="M680 438l223 713h397l-423 -1135q-75 -201 -167.5 -282.5t-258.5 -81.5q-178 0 -353 96l121 272q103 -57 168 -57q36 0 58 11t42 40l-450 1137h405zM526 1255l224 390l354 -121l-305 -269h-273z" />
    <glyph glyph-name="thorn" unicode="&#xfe;" horiz-adv-x="1454" 
d="M125 -340v1894h387v-559q139 179 350 179q101 0 193.5 -41.5t163.5 -116.5t113 -188.5t42 -247.5v-5q0 -137 -41.5 -252t-111.5 -190t-162.5 -116.5t-194.5 -41.5q-119 0 -202 45t-150 121v-481h-387zM750 301q102 0 172.5 76t70.5 196v5q0 117 -71 194.5t-172 77.5
q-102 0 -173 -77.5t-71 -194.5v-5q0 -117 71 -194.5t173 -77.5z" />
    <glyph glyph-name="ydieresis" unicode="&#xff;" horiz-adv-x="1339" 
d="M680 438l223 713h397l-423 -1135q-75 -201 -167.5 -282.5t-258.5 -81.5q-178 0 -353 96l121 272q103 -57 168 -57q36 0 58 11t42 40l-450 1137h405zM727 1255v299h338v-299h-338zM283 1255v299h338v-299h-338z" />
    <glyph glyph-name="Amacron" unicode="&#x100;" horiz-adv-x="1708" 
d="M29 0l635 1501h378l635 -1501h-422l-112 281h-588l-113 -281h-413zM676 596h346l-172 434zM434 1630v246h840v-246h-840z" />
    <glyph glyph-name="amacron" unicode="&#x101;" 
d="M453 -25q-169 0 -278 94.5t-109 260.5v4q0 177 121.5 269.5t330.5 92.5q149 0 279 -45v19q0 192 -234 192q-157 0 -317 -63l-84 278q105 44 213 66t250 22q291 0 428 -137q65 -65 94 -153.5t29 -212.5v-662h-381v121q-133 -146 -342 -146zM588 221q94 0 153.5 53.5
t59.5 139.5v53q-72 35 -168 35q-91 0 -143 -40t-52 -108v-4q0 -59 41.5 -94t108.5 -35zM256 1276v237h791v-237h-791z" />
    <glyph glyph-name="Abreve" unicode="&#x102;" horiz-adv-x="1708" 
d="M29 0l635 1501h378l635 -1501h-422l-112 281h-588l-113 -281h-413zM676 596h346l-172 434zM854 1612q-180 0 -289 82t-127 239h238q42 -98 178 -98t178 98h238q-18 -157 -127 -239t-289 -82z" />
    <glyph glyph-name="abreve" unicode="&#x103;" 
d="M453 -25q-169 0 -278 94.5t-109 260.5v4q0 177 121.5 269.5t330.5 92.5q149 0 279 -45v19q0 192 -234 192q-157 0 -317 -63l-84 278q105 44 213 66t250 22q291 0 428 -137q65 -65 94 -153.5t29 -212.5v-662h-381v121q-133 -146 -342 -146zM588 221q94 0 153.5 53.5
t59.5 139.5v53q-72 35 -168 35q-91 0 -143 -40t-52 -108v-4q0 -59 41.5 -94t108.5 -35zM651 1255q-178 0 -288 93t-127 260h233q41 -125 182 -125q142 0 183 125h233q-17 -167 -127.5 -260t-288.5 -93z" />
    <glyph glyph-name="Aogonek" unicode="&#x104;" horiz-adv-x="1708" 
d="M1692 -182v-168q-55 -8 -119 -8q-149 0 -232.5 51t-83.5 135q0 90 82 172h-84l-112 281h-588l-113 -281h-413l635 1501h378l635 -1501h-90q-47 -52 -47 -104q0 -84 152 -78zM676 596h346l-172 434z" />
    <glyph glyph-name="aogonek" unicode="&#x105;" 
d="M1186 -182v-168q-55 -8 -119 -8q-149 0 -232 51t-83 135q0 90 82 172h-39v121q-133 -146 -342 -146q-169 0 -278 94.5t-109 260.5v4q0 177 121.5 269.5t330.5 92.5q149 0 279 -45v19q0 192 -234 192q-157 0 -317 -63l-84 278q105 44 213 66t250 22q291 0 428 -137
q65 -65 94 -153.5t29 -212.5v-662h-95q-47 -52 -47 -104q0 -84 152 -78zM588 221q94 0 153.5 53.5t59.5 139.5v53q-72 35 -168 35q-91 0 -143 -40t-52 -108v-4q0 -59 41.5 -94t108.5 -35z" />
    <glyph glyph-name="Cacute" unicode="&#x106;" horiz-adv-x="1574" 
d="M864 -29q-212 0 -387.5 99.5t-278 276.5t-102.5 394v4q0 214 100.5 391t281 280.5t403.5 103.5q393 0 622 -293l-291 -242q-73 85 -152.5 129.5t-182.5 44.5q-108 0 -193.5 -56t-131.5 -149t-46 -204v-5q0 -176 104 -294.5t267 -118.5q111 0 188.5 44.5t157.5 135.5
l290 -219q-57 -75 -117.5 -130.5t-138.5 -100.5t-177 -68t-216 -23zM707 1616l235 342l365 -117l-310 -225h-290z" />
    <glyph glyph-name="cacute" unicode="&#x107;" horiz-adv-x="1228" 
d="M532 1262l224 389l354 -121l-305 -268h-273zM678 -27q-171 0 -310 81t-215.5 217t-76.5 298v4q0 121 45.5 231t125 192t195 130t248.5 48q318 0 484 -244l-259 -207q-48 61 -100 92t-123 31q-103 0 -170 -78t-67 -190v-5q0 -118 67.5 -195t173.5 -77q71 0 123.5 29.5
t106.5 89.5l254 -195q-85 -123 -205 -187.5t-297 -64.5z" />
    <glyph glyph-name="Cdotaccent" unicode="&#x10a;" horiz-adv-x="1574" 
d="M684 1616v291h352v-291h-352zM864 -29q-212 0 -387.5 99.5t-278 276.5t-102.5 394v4q0 214 100.5 391t281 280.5t403.5 103.5q393 0 622 -293l-291 -242q-73 85 -152.5 129.5t-182.5 44.5q-108 0 -193.5 -56t-131.5 -149t-46 -204v-5q0 -176 104 -294.5t267 -118.5
q111 0 188.5 44.5t157.5 135.5l290 -219q-57 -75 -117.5 -130.5t-138.5 -100.5t-177 -68t-216 -23z" />
    <glyph glyph-name="cdotaccent" unicode="&#x10b;" horiz-adv-x="1228" 
d="M678 -27q-171 0 -310 81t-215.5 217t-76.5 298v4q0 121 45.5 231t125 192t195 130t248.5 48q318 0 484 -244l-259 -207q-48 61 -100 92t-123 31q-103 0 -170 -78t-67 -190v-5q0 -118 67.5 -195t173.5 -77q71 0 123.5 29.5t106.5 89.5l254 -195q-85 -123 -205 -187.5
t-297 -64.5zM508 1262v299h348v-299h-348z" />
    <glyph glyph-name="Ccaron" unicode="&#x10c;" horiz-adv-x="1574" 
d="M864 -29q-212 0 -387.5 99.5t-278 276.5t-102.5 394v4q0 214 100.5 391t281 280.5t403.5 103.5q393 0 622 -293l-291 -242q-73 85 -152.5 129.5t-182.5 44.5q-108 0 -193.5 -56t-131.5 -149t-46 -204v-5q0 -176 104 -294.5t267 -118.5q111 0 188.5 44.5t157.5 135.5
l290 -219q-57 -75 -117.5 -130.5t-138.5 -100.5t-177 -68t-216 -23zM1298 1933l-264 -317h-348l-264 317h272l168 -114l168 114h268z" />
    <glyph glyph-name="ccaron" unicode="&#x10d;" horiz-adv-x="1228" 
d="M1114 1608l-270 -346h-324l-270 346h258l176 -131l176 131h254zM678 -27q-171 0 -310 81t-215.5 217t-76.5 298v4q0 121 45.5 231t125 192t195 130t248.5 48q318 0 484 -244l-259 -207q-48 61 -100 92t-123 31q-103 0 -170 -78t-67 -190v-5q0 -118 67.5 -195t173.5 -77
q71 0 123.5 29.5t106.5 89.5l254 -195q-85 -123 -205 -187.5t-297 -64.5z" />
    <glyph glyph-name="Dcaron" unicode="&#x10e;" horiz-adv-x="1654" 
d="M1237 1913l-264 -318h-348l-265 318h273l168 -115l168 115h268zM150 0v1491h577q191 0 347.5 -55.5t261.5 -153.5t162.5 -233.5t57.5 -294.5v-4q0 -160 -57.5 -297t-163.5 -237.5t-264 -158t-350 -57.5h-571zM731 1139h-186v-787h186q192 0 306 104t114 285v4
q0 183 -114 288.5t-306 105.5z" />
    <glyph glyph-name="dcaron" unicode="&#x10f;" horiz-adv-x="1454" 
d="M1432 1161l22 455h270v-8l-137 -447h-155zM592 -25q-102 0 -194 41.5t-163 116.5t-113 189t-42 249v4q0 137 41.5 251.5t111.5 189.5t162.5 116.5t194.5 41.5q211 0 354 -166v546h387v-1554h-387v156q-45 -55 -89 -91.5t-112.5 -63t-150.5 -26.5zM707 301q103 0 173 75.5
t70 196.5v5q0 117 -70.5 194.5t-172.5 77.5q-104 0 -175 -76t-71 -196v-5q0 -120 71 -196t175 -76z" />
    <glyph glyph-name="Dcroat" unicode="&#x110;" horiz-adv-x="1751" 
d="M246 0v616h-168v269h168v606h577q190 0 347 -55.5t263 -153.5t164 -233.5t58 -294.5v-4q0 -159 -58 -296.5t-164.5 -238t-265 -158t-350.5 -57.5h-571zM918 618h-285v-276h194q193 0 306.5 107t113.5 292v4q0 188 -113.5 296t-306.5 108h-194v-268h285v-263z" />
    <glyph glyph-name="dcroat" unicode="&#x111;" horiz-adv-x="1454" 
d="M623 1266v188h321v100h387v-100h135v-188h-135v-1266h-387v156q-45 -55 -89 -91.5t-112.5 -63t-150.5 -26.5q-102 0 -194 41.5t-163 116.5t-113 189t-42 249v4q0 137 41.5 251.5t111.5 189.5t162.5 116.5t194.5 41.5q211 0 354 -166v258h-321zM707 301q103 0 173 75.5
t70 196.5v5q0 117 -70.5 194.5t-172.5 77.5q-104 0 -175 -76t-71 -196v-5q0 -120 71 -196t175 -76z" />
    <glyph glyph-name="Emacron" unicode="&#x112;" horiz-adv-x="1439" 
d="M326 1610v245h839v-245h-839zM150 0v1491h1183v-338h-792v-244h712v-317h-712v-254h802v-338h-1193z" />
    <glyph glyph-name="emacron" unicode="&#x113;" horiz-adv-x="1308" 
d="M690 -27q-270 0 -442 166t-172 430v4q0 166 73.5 303t206.5 217.5t299 80.5q143 0 255 -50.5t181 -138.5t104.5 -199.5t35.5 -240.5q0 -28 -4 -82h-776q24 -97 90.5 -147t165.5 -50q74 0 135 28t125 89l215 -180q-187 -230 -492 -230zM446 670h418q-12 99 -67 157
t-142 58q-84 0 -137.5 -57t-71.5 -158zM262 1276v237h791v-237h-791z" />
    <glyph glyph-name="Ebreve" unicode="&#x114;" horiz-adv-x="1439" 
d="M748 1591q-180 0 -289 82t-127 240h237q42 -98 179 -98q136 0 178 98h237q-19 -158 -127 -240t-288 -82zM150 0v1491h1183v-338h-792v-244h712v-317h-712v-254h802v-338h-1193z" />
    <glyph glyph-name="ebreve" unicode="&#x115;" horiz-adv-x="1308" 
d="M690 -27q-270 0 -442 166t-172 430v4q0 166 73.5 303t206.5 217.5t299 80.5q143 0 255 -50.5t181 -138.5t104.5 -199.5t35.5 -240.5q0 -28 -4 -82h-776q24 -97 90.5 -147t165.5 -50q74 0 135 28t125 89l215 -180q-187 -230 -492 -230zM446 670h418q-12 99 -67 157
t-142 58q-84 0 -137.5 -57t-71.5 -158zM657 1255q-178 0 -288 93t-127 260h233q41 -125 182 -125q142 0 183 125h233q-17 -167 -127.5 -260t-288.5 -93z" />
    <glyph glyph-name="Edotaccent" unicode="&#x116;" horiz-adv-x="1439" 
d="M569 1595v291h353v-291h-353zM150 0v1491h1183v-338h-792v-244h712v-317h-712v-254h802v-338h-1193z" />
    <glyph glyph-name="edotaccent" unicode="&#x117;" horiz-adv-x="1308" 
d="M690 -27q-270 0 -442 166t-172 430v4q0 166 73.5 303t206.5 217.5t299 80.5q143 0 255 -50.5t181 -138.5t104.5 -199.5t35.5 -240.5q0 -28 -4 -82h-776q24 -97 90.5 -147t165.5 -50q74 0 135 28t125 89l215 -180q-187 -230 -492 -230zM446 670h418q-12 99 -67 157
t-142 58q-84 0 -137.5 -57t-71.5 -158zM483 1262v299h348v-299h-348z" />
    <glyph glyph-name="Eogonek" unicode="&#x118;" horiz-adv-x="1439" 
d="M150 0v1491h1183v-338h-792v-244h712v-317h-712v-254h802v-338h-106q-47 -52 -47 -104q0 -84 151 -78v-168q-55 -8 -118 -8q-149 0 -232.5 51t-83.5 135q0 90 82 172h-839z" />
    <glyph glyph-name="eogonek" unicode="&#x119;" horiz-adv-x="1308" 
d="M446 670h418q-12 99 -67 157t-142 58q-84 0 -137.5 -57t-71.5 -158zM967 383l215 -180q-69 -80 -133 -140q-101 -96 -101 -157q0 -94 154 -88v-168q-57 -8 -123 -8q-145 0 -229 50t-84 130q0 77 73 153q-7 0 -24.5 -1t-24.5 -1q-270 0 -442 166t-172 430v4
q0 166 73.5 303t206.5 217.5t299 80.5q143 0 255 -50.5t181 -138.5t104.5 -199.5t35.5 -240.5q0 -28 -4 -82h-776q24 -97 90.5 -147t165.5 -50q74 0 135 28t125 89z" />
    <glyph glyph-name="Ecaron" unicode="&#x11a;" horiz-adv-x="1439" 
d="M1184 1913l-264 -318h-349l-264 318h273l168 -115l167 115h269zM150 0v1491h1183v-338h-792v-244h712v-317h-712v-254h802v-338h-1193z" />
    <glyph glyph-name="ecaron" unicode="&#x11b;" horiz-adv-x="1308" 
d="M1090 1608l-271 -346h-323l-271 346h258l176 -131l177 131h254zM690 -27q-270 0 -442 166t-172 430v4q0 166 73.5 303t206.5 217.5t299 80.5q143 0 255 -50.5t181 -138.5t104.5 -199.5t35.5 -240.5q0 -28 -4 -82h-776q24 -97 90.5 -147t165.5 -50q74 0 135 28t125 89
l215 -180q-187 -230 -492 -230zM446 670h418q-12 99 -67 157t-142 58q-84 0 -137.5 -57t-71.5 -158z" />
    <glyph glyph-name="Gbreve" unicode="&#x11e;" horiz-adv-x="1660" 
d="M879 1612q-180 0 -289 82t-127 239h237q42 -98 179 -98q136 0 178 98h237q-18 -158 -126.5 -239.5t-288.5 -81.5zM901 -29q-230 0 -413.5 97.5t-287.5 274t-104 398.5v4q0 160 61 303t166 247t254 164.5t318 60.5q188 0 331.5 -54t268.5 -159l-235 -285q-88 73 -172 108
t-195 35q-165 0 -277 -122t-112 -298v-4q0 -186 115.5 -306t295.5 -120q154 0 254 68v186h-299v299h676v-665q-276 -232 -645 -232z" />
    <glyph glyph-name="gbreve" unicode="&#x11f;" horiz-adv-x="1454" 
d="M678 -344q-309 0 -561 129l127 262q192 -106 399 -106q305 0 305 288v47q-71 -84 -154.5 -130t-201.5 -46q-105 0 -198 37t-163 104.5t-110.5 169.5t-40.5 224v4q0 122 41 224t110 169.5t159.5 104.5t189.5 37q121 0 205 -42t159 -120v139h387v-879q0 -309 -147 -456
q-160 -160 -506 -160zM705 403q109 0 177 64.5t68 167.5v4q0 100 -69.5 165.5t-175.5 65.5t-175 -65.5t-69 -167.5v-4q0 -102 68.5 -166t175.5 -64zM748 1255q-178 0 -288.5 93t-127.5 260h233q41 -125 183 -125q141 0 182 125h233q-17 -167 -127 -260t-288 -93z" />
    <glyph glyph-name="Gdotaccent" unicode="&#x120;" horiz-adv-x="1660" 
d="M702 1616v291h353v-291h-353zM901 -29q-230 0 -413.5 97.5t-287.5 274t-104 398.5v4q0 160 61 303t166 247t254 164.5t318 60.5q188 0 331.5 -54t268.5 -159l-235 -285q-88 73 -172 108t-195 35q-165 0 -277 -122t-112 -298v-4q0 -186 115.5 -306t295.5 -120
q154 0 254 68v186h-299v299h676v-665q-276 -232 -645 -232z" />
    <glyph glyph-name="gdotaccent" unicode="&#x121;" horiz-adv-x="1454" 
d="M678 -344q-309 0 -561 129l127 262q192 -106 399 -106q305 0 305 288v47q-71 -84 -154.5 -130t-201.5 -46q-105 0 -198 37t-163 104.5t-110.5 169.5t-40.5 224v4q0 122 41 224t110 169.5t159.5 104.5t189.5 37q121 0 205 -42t159 -120v139h387v-879q0 -309 -147 -456
q-160 -160 -506 -160zM705 403q109 0 177 64.5t68 167.5v4q0 100 -69.5 165.5t-175.5 65.5t-175 -65.5t-69 -167.5v-4q0 -102 68.5 -166t175.5 -64zM573 1262v299h349v-299h-349z" />
    <glyph glyph-name="Gcommaaccent" unicode="&#x122;" horiz-adv-x="1660" 
d="M901 -29q-230 0 -413.5 97.5t-287.5 274t-104 398.5v4q0 160 61 303t166 247t254 164.5t318 60.5q188 0 331.5 -54t268.5 -159l-235 -285q-88 73 -172 108t-195 35q-165 0 -277 -122t-112 -298v-4q0 -186 115.5 -306t295.5 -120q154 0 254 68v186h-299v299h676v-665
q-276 -232 -645 -232zM711 -659l-19 116q90 7 129.5 43t34.5 99h-143v280h334v-231q0 -158 -84.5 -229.5t-251.5 -77.5z" />
    <glyph glyph-name="gcommaaccent" unicode="&#x123;" horiz-adv-x="1454" 
d="M678 -344q-309 0 -561 129l127 262q192 -106 399 -106q305 0 305 288v47q-71 -84 -154.5 -130t-201.5 -46q-105 0 -198 37t-163 104.5t-110.5 169.5t-40.5 224v4q0 122 41 224t110 169.5t159.5 104.5t189.5 37q121 0 205 -42t159 -120v139h387v-879q0 -309 -147 -456
q-160 -160 -506 -160zM705 403q109 0 177 64.5t68 167.5v4q0 100 -69.5 165.5t-175.5 65.5t-175 -65.5t-69 -167.5v-4q0 -102 68.5 -166t175.5 -64zM911 1800l17 -117q-90 -10 -128.5 -44.5t-33.5 -96.5h143v-280h-336v229q0 159 85 231t253 78z" />
    <glyph glyph-name="Hbar" unicode="&#x126;" horiz-adv-x="1636" 
d="M18 1100v223h132v168h395v-168h547v168h395v-168h133v-223h-133v-1100h-395v573h-547v-573h-395v1100h-132zM545 926h547v178h-547v-178z" />
    <glyph glyph-name="hbar" unicode="&#x127;" horiz-adv-x="1361" 
d="M834 1266h-322v-275q141 183 342 183q185 0 289 -112.5t104 -311.5v-750h-389v627q0 97 -45.5 149.5t-124.5 52.5q-80 0 -128 -53t-48 -149v-627h-387v1266h-137v188h137v100h387v-100h322v-188z" />
    <glyph glyph-name="Imacron" unicode="&#x12a;" horiz-adv-x="716" 
d="M160 0v1491h397v-1491h-397zM-59 1610v245h839v-245h-839z" />
    <glyph glyph-name="imacron" unicode="&#x12b;" horiz-adv-x="657" 
d="M135 0v1151h387v-1151h-387zM-66 1270v237h791v-237h-791z" />
    <glyph glyph-name="Ibreve" unicode="&#x12c;" horiz-adv-x="716" 
d="M160 0v1491h397v-1491h-397zM360 1591q-180 0 -288 82t-127 240h237q42 -98 178 -98q137 0 179 98h237q-18 -158 -127 -240t-289 -82z" />
    <glyph glyph-name="ibreve" unicode="&#x12d;" horiz-adv-x="657" 
d="M135 0v1151h387v-1151h-387zM330 1249q-178 0 -288.5 93t-127.5 260h233q41 -125 183 -125q141 0 182 125h233q-17 -167 -127 -260t-288 -93z" />
    <glyph glyph-name="Iogonek" unicode="&#x12e;" horiz-adv-x="716" 
d="M160 0v1491h397v-1491h-76q-47 -52 -47 -104q0 -84 152 -78v-168q-55 -8 -119 -8q-149 0 -232 51t-83 135q0 91 81 172h-73z" />
    <glyph glyph-name="iogonek" unicode="&#x12f;" horiz-adv-x="657" 
d="M135 0v1151h387v-1151h-73q-48 -53 -48 -104q0 -84 152 -78v-168q-55 -8 -119 -8q-149 0 -232 51t-83 135q0 90 82 172h-66zM127 1260v294h403v-294h-403z" />
    <glyph glyph-name="Idotaccent" unicode="&#x130;" horiz-adv-x="716" 
d="M160 0v1491h397v-1491h-397zM184 1595v291h353v-291h-353z" />
    <glyph glyph-name="dotlessi" unicode="&#x131;" horiz-adv-x="657" 
d="M135 0v1151h387v-1151h-387z" />
    <glyph glyph-name="Kcommaaccent" unicode="&#x136;" horiz-adv-x="1570" 
d="M150 0v1491h395v-614l530 614h473l-573 -639l594 -852h-475l-394 569l-155 -168v-401h-395zM618 -641l-18 117q90 7 129.5 42.5t34.5 98.5h-143v281h333v-232q0 -158 -84.5 -229.5t-251.5 -77.5z" />
    <glyph glyph-name="kcommaaccent" unicode="&#x137;" horiz-adv-x="1296" 
d="M502 -647l-19 117q90 7 129.5 42.5t34.5 98.5h-143v280h334v-231q0 -158 -84.5 -229.5t-251.5 -77.5zM125 0v1554h387v-796l328 393h442l-408 -459l420 -692h-432l-244 410l-106 -123v-287h-387z" />
    <glyph glyph-name="Lacute" unicode="&#x139;" horiz-adv-x="1331" 
d="M238 1595l235 342l365 -116l-310 -226h-290zM150 0v1491h395v-1141h727v-350h-1122z" />
    <glyph glyph-name="lacute" unicode="&#x13a;" horiz-adv-x="657" 
d="M180 1636l236 342l364 -116l-309 -226h-291zM135 0v1554h387v-1554h-387z" />
    <glyph glyph-name="Lcommaaccent" unicode="&#x13b;" horiz-adv-x="1331" 
d="M150 0v1491h395v-1141h727v-350h-1122zM541 -647l-19 117q90 7 129.5 42.5t34.5 98.5h-143v280h334v-231q0 -158 -84.5 -229.5t-251.5 -77.5z" />
    <glyph glyph-name="lcommaaccent" unicode="&#x13c;" horiz-adv-x="657" 
d="M162 -647l-19 117q90 7 129.5 42.5t34.5 98.5h-143v280h334v-231q0 -158 -84.5 -229.5t-251.5 -77.5zM135 0v1554h387v-1554h-387z" />
    <glyph glyph-name="Lcaron" unicode="&#x13d;" horiz-adv-x="1331" 
d="M150 0v1491h395v-1141h727v-350h-1122zM676 1038l22 455h271v-8l-138 -447h-155z" />
    <glyph glyph-name="lcaron" unicode="&#x13e;" horiz-adv-x="657" 
d="M623 1161l22 455h270v-8l-137 -447h-155zM135 0v1554h387v-1554h-387z" />
    <glyph glyph-name="Ldot" unicode="&#x13f;" horiz-adv-x="1331" 
d="M858 690v322h332v-322h-332zM150 0v1491h395v-1141h727v-350h-1122z" />
    <glyph glyph-name="ldot" unicode="&#x140;" horiz-adv-x="897" 
d="M629 649v314h280v-314h-280zM135 0v1554h387v-1554h-387z" />
    <glyph glyph-name="Lslash" unicode="&#x141;" horiz-adv-x="1419" 
d="M948 793l-315 -136v-307h729v-350h-1122v487l-162 -69v358l162 70v645h393v-477l315 137v-358z" />
    <glyph glyph-name="lslash" unicode="&#x142;" horiz-adv-x="854" 
d="M791 784l-173 -79v-705h-385v524l-172 -80v353l172 77v680h385v-499l173 80v-351z" />
    <glyph glyph-name="Nacute" unicode="&#x143;" horiz-adv-x="1689" 
d="M692 1595l236 342l364 -116l-309 -226h-291zM150 0v1491h368l631 -813v813h391v-1491h-344l-655 844v-844h-391z" />
    <glyph glyph-name="nacute" unicode="&#x144;" horiz-adv-x="1361" 
d="M537 1262l223 389l354 -121l-305 -268h-272zM125 0v1151h387v-162q143 185 342 185q185 0 289 -112.5t104 -311.5v-750h-389v627q0 97 -45.5 149.5t-124.5 52.5q-80 0 -128 -53t-48 -149v-627h-387z" />
    <glyph glyph-name="Ncommaaccent" unicode="&#x145;" horiz-adv-x="1689" 
d="M678 -641l-19 117q90 7 129.5 42.5t34.5 98.5h-143v281h334v-232q0 -158 -84.5 -229.5t-251.5 -77.5zM150 0v1491h368l631 -813v813h391v-1491h-344l-655 844v-844h-391z" />
    <glyph glyph-name="ncommaaccent" unicode="&#x146;" horiz-adv-x="1361" 
d="M516 -647l-18 117q90 7 129.5 42.5t34.5 98.5h-144v280h334v-231q0 -158 -84.5 -229.5t-251.5 -77.5zM125 0v1151h387v-162q143 185 342 185q185 0 289 -112.5t104 -311.5v-750h-389v627q0 97 -45.5 149.5t-124.5 52.5q-80 0 -128 -53t-48 -149v-627h-387z" />
    <glyph glyph-name="Ncaron" unicode="&#x147;" horiz-adv-x="1689" 
d="M1284 1913l-264 -318h-348l-264 318h272l168 -115l168 115h268zM150 0v1491h368l631 -813v813h391v-1491h-344l-655 844v-844h-391z" />
    <glyph glyph-name="ncaron" unicode="&#x148;" horiz-adv-x="1361" 
d="M1116 1608l-270 -346h-324l-270 346h258l176 -131l176 131h254zM125 0v1151h387v-162q143 185 342 185q185 0 289 -112.5t104 -311.5v-750h-389v627q0 97 -45.5 149.5t-124.5 52.5q-80 0 -128 -53t-48 -149v-627h-387z" />
    <glyph glyph-name="Omacron" unicode="&#x14c;" horiz-adv-x="1794" 
d="M477 1630v246h840v-246h-840zM895 -29q-169 0 -318 60.5t-254 164t-166 245.5t-61 300v4q0 158 61 301t167 247.5t256 165.5t319 61t318 -60.5t254 -164t166 -245.5t61 -300v-5q0 -158 -61 -301t-167 -247t-255.5 -165t-319.5 -61zM899 330q174 0 282.5 119.5
t108.5 291.5v4q0 112 -49 206.5t-140 152t-206 57.5q-171 0 -281 -120t-110 -291v-5q0 -112 49 -206t140 -151.5t206 -57.5z" />
    <glyph glyph-name="omacron" unicode="&#x14d;" horiz-adv-x="1417" 
d="M313 1276v237h791v-237h-791zM707 -27q-180 0 -325 80.5t-225.5 216.5t-80.5 299v4q0 122 48 232t131.5 191.5t202 129.5t253.5 48t253 -47t200 -127.5t129.5 -190t47.5 -231.5v-5q0 -122 -48 -232t-131 -191t-201.5 -129t-253.5 -48zM711 301q114 0 183 77.5t69 190.5v4
q0 112 -73.5 192.5t-182.5 80.5q-114 0 -183 -77.5t-69 -190.5v-5q0 -112 73.5 -192t182.5 -80z" />
    <glyph glyph-name="Obreve" unicode="&#x14e;" horiz-adv-x="1794" 
d="M899 1612q-180 0 -289 82t-127 239h238q42 -98 178 -98t178 98h238q-18 -157 -127 -239t-289 -82zM895 -29q-169 0 -318 60.5t-254 164t-166 245.5t-61 300v4q0 158 61 301t167 247.5t256 165.5t319 61t318 -60.5t254 -164t166 -245.5t61 -300v-5q0 -158 -61 -301
t-167 -247t-255.5 -165t-319.5 -61zM899 330q174 0 282.5 119.5t108.5 291.5v4q0 112 -49 206.5t-140 152t-206 57.5q-171 0 -281 -120t-110 -291v-5q0 -112 49 -206t140 -151.5t206 -57.5z" />
    <glyph glyph-name="obreve" unicode="&#x14f;" horiz-adv-x="1417" 
d="M707 -27q-180 0 -325 80.5t-225.5 216.5t-80.5 299v4q0 122 48 232t131.5 191.5t202 129.5t253.5 48t253 -47t200 -127.5t129.5 -190t47.5 -231.5v-5q0 -122 -48 -232t-131 -191t-201.5 -129t-253.5 -48zM711 301q114 0 183 77.5t69 190.5v4q0 112 -73.5 192.5
t-182.5 80.5q-114 0 -183 -77.5t-69 -190.5v-5q0 -112 73.5 -192t182.5 -80zM709 1255q-178 0 -288.5 93t-127.5 260h233q41 -125 183 -125q141 0 182 125h233q-17 -167 -127 -260t-288 -93z" />
    <glyph glyph-name="Ohungarumlaut" unicode="&#x150;" horiz-adv-x="1794" 
d="M895 -29q-169 0 -318 60.5t-254 164t-166 245.5t-61 300v4q0 158 61 301t167 247.5t256 165.5t319 61t318 -60.5t254 -164t166 -245.5t61 -300v-5q0 -158 -61 -301t-167 -247t-255.5 -165t-319.5 -61zM899 330q174 0 282.5 119.5t108.5 291.5v4q0 112 -49 206.5t-140 152
t-206 57.5q-171 0 -281 -120t-110 -291v-5q0 -112 49 -206t140 -151.5t206 -57.5zM528 1616l228 342l340 -117l-301 -225h-267zM946 1616l228 342l339 -117l-301 -225h-266z" />
    <glyph glyph-name="ohungarumlaut" unicode="&#x151;" horiz-adv-x="1417" 
d="M756 1262l215 387l338 -121l-301 -266h-252zM350 1262l213 389l338 -121l-299 -268h-252zM707 -27q-180 0 -325 80.5t-225.5 216.5t-80.5 299v4q0 122 48 232t131.5 191.5t202 129.5t253.5 48t253 -47t200 -127.5t129.5 -190t47.5 -231.5v-5q0 -122 -48 -232t-131 -191
t-201.5 -129t-253.5 -48zM711 301q114 0 183 77.5t69 190.5v4q0 112 -73.5 192.5t-182.5 80.5q-114 0 -183 -77.5t-69 -190.5v-5q0 -112 73.5 -192t182.5 -80z" />
    <glyph glyph-name="OE" unicode="&#x152;" horiz-adv-x="2310" 
d="M2214 0h-1286q-190 0 -347 55.5t-263 153.5t-164 233.5t-58 294.5v4q0 162 58 299.5t164.5 237.5t265 156.5t350.5 56.5h1270v-338h-744v-244h666v-317h-666v-254h754v-338zM918 346h151v799h-151q-187 0 -300.5 -106.5t-113.5 -288.5v-5q0 -183 113.5 -291t300.5 -108z
" />
    <glyph glyph-name="oe" unicode="&#x153;" horiz-adv-x="2183" 
d="M690 -27q-127 0 -241.5 47.5t-196 127.5t-129 190t-47.5 231v4q0 162 82 300t226 219.5t316 81.5q265 0 428 -177q74 85 178 131t226 46q113 0 207.5 -33t161 -91.5t112.5 -138t68 -172t22 -194.5q0 -55 -2 -82h-776q24 -97 90.5 -147t165.5 -50q73 0 134.5 28t125.5 89
l215 -180q-187 -230 -487 -230q-281 0 -447 177q-80 -84 -190.5 -130.5t-241.5 -46.5zM1319 670h420q-12 99 -67.5 157t-141.5 58q-85 0 -139 -57.5t-72 -157.5zM705 301q111 0 178 77.5t67 190.5v4q0 112 -71.5 192.5t-178.5 80.5q-110 0 -177.5 -78.5t-67.5 -189.5v-5
q0 -112 71.5 -192t178.5 -80z" />
    <glyph glyph-name="Racute" unicode="&#x154;" horiz-adv-x="1550" 
d="M150 0v1491h700q321 0 475 -160q131 -125 131 -344v-6q0 -168 -81 -282.5t-228 -176.5l358 -522h-458l-304 457h-198v-457h-395zM545 772h286q108 0 168 49.5t60 134.5v5q0 91 -61 138.5t-171 47.5h-282v-375zM602 1595l236 342l364 -116l-309 -226h-291z" />
    <glyph glyph-name="racute" unicode="&#x155;" horiz-adv-x="923" 
d="M346 1255l223 390l355 -121l-306 -269h-272zM125 0v1151h387v-233q53 127 139.5 192t225.5 59v-407h-31q-334 0 -334 -391v-371h-387z" />
    <glyph glyph-name="Rcommaaccent" unicode="&#x156;" horiz-adv-x="1550" 
d="M150 0v1491h700q321 0 475 -160q131 -125 131 -344v-6q0 -168 -81 -282.5t-228 -176.5l358 -522h-458l-304 457h-198v-457h-395zM545 772h286q108 0 168 49.5t60 134.5v5q0 91 -61 138.5t-171 47.5h-282v-375zM592 -641l-19 117q90 7 129.5 42.5t34.5 98.5h-143v281h334
v-232q0 -158 -84.5 -229.5t-251.5 -77.5z" />
    <glyph glyph-name="rcommaaccent" unicode="&#x157;" horiz-adv-x="923" 
d="M164 -647l-19 117q90 7 129.5 42.5t34.5 98.5h-143v280h334v-231q0 -158 -84.5 -229.5t-251.5 -77.5zM125 0v1151h387v-233q53 127 139.5 192t225.5 59v-407h-31q-334 0 -334 -391v-371h-387z" />
    <glyph glyph-name="Rcaron" unicode="&#x158;" horiz-adv-x="1550" 
d="M1194 1913l-264 -318h-348l-265 318h273l168 -115l168 115h268zM150 0v1491h700q321 0 475 -160q131 -125 131 -344v-6q0 -168 -81 -282.5t-228 -176.5l358 -522h-458l-304 457h-198v-457h-395zM545 772h286q108 0 168 49.5t60 134.5v5q0 91 -61 138.5t-171 47.5h-282
v-375z" />
    <glyph glyph-name="rcaron" unicode="&#x159;" horiz-adv-x="923" 
d="M930 1602l-271 -347h-323l-270 347h258l176 -132l176 132h254zM125 0v1151h387v-233q53 127 139.5 192t225.5 59v-407h-31q-334 0 -334 -391v-371h-387z" />
    <glyph glyph-name="Sacute" unicode="&#x15a;" horiz-adv-x="1400" 
d="M725 -25q-199 0 -375.5 61.5t-310.5 182.5l223 266q228 -178 475 -178q88 0 134.5 28.5t46.5 82.5v4q0 51 -54 84t-209 69q-75 17 -131 32.5t-116 38t-102.5 47t-82.5 59t-64 75.5t-38.5 95t-14.5 118v4q0 208 155 340t413 132q353 0 600 -197l-199 -283
q-211 148 -411 148q-75 0 -116.5 -29t-41.5 -74v-4q0 -56 52 -85.5t220 -71.5q107 -25 185.5 -51t148.5 -64.5t113 -85.5t67.5 -112.5t24.5 -147.5v-4q0 -225 -162 -352.5t-430 -127.5zM551 1616l235 342l365 -117l-309 -225h-291z" />
    <glyph glyph-name="sacute" unicode="&#x15b;" horiz-adv-x="1105" 
d="M412 1262l223 389l354 -121l-305 -268h-272zM569 -25q-300 0 -532 172l149 238q198 -133 387 -133q111 0 111 65v5q0 12 -5 22.5t-19 19.5t-25.5 15.5t-39 16t-45 14.5t-56.5 16q-5 1 -7 2q-71 18 -124.5 37t-107 49t-87.5 67t-55 90.5t-21 119.5v4q0 176 127 276
t326 100q123 0 245 -35t220 -98l-136 -250q-87 51 -177 80t-156 29q-48 0 -73.5 -17t-25.5 -44v-5q0 -32 41 -53t146 -54q6 -2 10 -3q72 -20 124 -39t106 -49t88 -66t55.5 -88.5t21.5 -116.5v-4q0 -185 -126.5 -284t-338.5 -99z" />
    <glyph glyph-name="Scedilla" unicode="&#x15e;" horiz-adv-x="1400" 
d="M698 -369l-309 131l162 226q-306 49 -512 231l223 266q228 -178 475 -178q88 0 134.5 28.5t46.5 82.5v4q0 51 -54 84t-209 69q-75 17 -131 32.5t-116 38t-102.5 47t-82.5 59t-64 75.5t-38.5 95t-14.5 118v4q0 208 155 340t413 132q353 0 600 -197l-199 -283
q-211 148 -411 148q-75 0 -116.5 -29t-41.5 -74v-4q0 -56 52 -85.5t220 -71.5q107 -25 185.5 -51t148.5 -64.5t113 -85.5t67.5 -112.5t24.5 -147.5v-4q0 -202 -133 -327t-359 -146z" />
    <glyph glyph-name="scedilla" unicode="&#x15f;" horiz-adv-x="1105" 
d="M537 -369l-310 131l166 230q-203 39 -356 155l149 238q198 -133 387 -133q111 0 111 65v5q0 12 -5 22.5t-19 19.5t-25.5 15.5t-39 16t-45 14.5t-56.5 16q-5 1 -7 2q-71 18 -124.5 37t-107 49t-87.5 67t-55 90.5t-21 119.5v4q0 176 127 276t326 100q123 0 245 -35t220 -98
l-136 -250q-87 51 -177 80t-156 29q-48 0 -73.5 -17t-25.5 -44v-5q0 -32 41 -53t146 -54q6 -2 10 -3q72 -20 124 -39t106 -49t88 -66t55.5 -88.5t21.5 -116.5v-4q0 -163 -99 -259t-271 -117z" />
    <glyph glyph-name="Scaron" unicode="&#x160;" horiz-adv-x="1400" 
d="M725 -25q-199 0 -375.5 61.5t-310.5 182.5l223 266q228 -178 475 -178q88 0 134.5 28.5t46.5 82.5v4q0 51 -54 84t-209 69q-75 17 -131 32.5t-116 38t-102.5 47t-82.5 59t-64 75.5t-38.5 95t-14.5 118v4q0 208 155 340t413 132q353 0 600 -197l-199 -283
q-211 148 -411 148q-75 0 -116.5 -29t-41.5 -74v-4q0 -56 52 -85.5t220 -71.5q107 -25 185.5 -51t148.5 -64.5t113 -85.5t67.5 -112.5t24.5 -147.5v-4q0 -225 -162 -352.5t-430 -127.5zM1143 1933l-264 -317h-349l-264 317h273l168 -114l167 114h269z" />
    <glyph glyph-name="scaron" unicode="&#x161;" horiz-adv-x="1105" 
d="M993 1608l-270 -346h-324l-270 346h258l176 -131l176 131h254zM569 -25q-300 0 -532 172l149 238q198 -133 387 -133q111 0 111 65v5q0 12 -5 22.5t-19 19.5t-25.5 15.5t-39 16t-45 14.5t-56.5 16q-5 1 -7 2q-71 18 -124.5 37t-107 49t-87.5 67t-55 90.5t-21 119.5v4
q0 176 127 276t326 100q123 0 245 -35t220 -98l-136 -250q-87 51 -177 80t-156 29q-48 0 -73.5 -17t-25.5 -44v-5q0 -32 41 -53t146 -54q6 -2 10 -3q72 -20 124 -39t106 -49t88 -66t55.5 -88.5t21.5 -116.5v-4q0 -185 -126.5 -284t-338.5 -99z" />
    <glyph glyph-name="Tcommaaccent" unicode="&#x162;" horiz-adv-x="1417" 
d="M510 0v1141h-447v350h1291v-350h-447v-1141h-397zM541 -647l-19 117q90 7 129.5 42.5t34.5 98.5h-143v280h334v-231q0 -158 -84.5 -229.5t-251.5 -77.5z" />
    <glyph glyph-name="Tcommaaccent" unicode="&#x21a;" horiz-adv-x="1417" 
d="M510 0v1141h-447v350h1291v-350h-447v-1141h-397zM541 -647l-19 117q90 7 129.5 42.5t34.5 98.5h-143v280h334v-231q0 -158 -84.5 -229.5t-251.5 -77.5z" />
    <glyph glyph-name="tcommaaccent" unicode="&#x163;" horiz-adv-x="925" 
d="M330 -651l-19 116q90 7 129.5 43t34.5 99h-143v280h334v-231q0 -158 -84.5 -229.5t-251.5 -77.5zM567 -23q-184 0 -279 88t-95 285v486h-138v315h138v291h387v-291h268v-315h-268v-412q0 -60 26 -86.5t82 -26.5q88 0 156 39v-305q-119 -68 -277 -68z" />
    <glyph glyph-name="tcommaaccent" unicode="&#x21b;" horiz-adv-x="925" 
d="M330 -651l-19 116q90 7 129.5 43t34.5 99h-143v280h334v-231q0 -158 -84.5 -229.5t-251.5 -77.5zM567 -23q-184 0 -279 88t-95 285v486h-138v315h138v291h387v-291h268v-315h-268v-412q0 -60 26 -86.5t82 -26.5q88 0 156 39v-305q-119 -68 -277 -68z" />
    <glyph glyph-name="Tcaron" unicode="&#x164;" horiz-adv-x="1417" 
d="M1147 1913l-264 -318h-348l-265 318h273l168 -115l168 115h268zM510 0v1141h-447v350h1291v-350h-447v-1141h-397z" />
    <glyph glyph-name="tcaron" unicode="&#x165;" horiz-adv-x="925" 
d="M692 1249l23 455h270v-8l-137 -447h-156zM567 -23q-184 0 -279 88t-95 285v486h-138v315h138v291h387v-291h268v-315h-268v-412q0 -60 26 -86.5t82 -26.5q88 0 156 39v-305q-119 -68 -277 -68z" />
    <glyph glyph-name="Umacron" unicode="&#x16a;" horiz-adv-x="1630" 
d="M395 1610v245h840v-245h-840zM811 -27q-322 0 -501 170t-179 508v840h399v-832q0 -162 75.5 -244.5t209.5 -82.5t209.5 79.5t75.5 235.5v844h399v-829q0 -346 -182 -517.5t-506 -171.5z" />
    <glyph glyph-name="umacron" unicode="&#x16b;" horiz-adv-x="1361" 
d="M508 -25q-185 0 -289 112.5t-104 311.5v752h389v-627q0 -98 45.5 -150t124.5 -52q80 0 128 52.5t48 149.5v627h387v-1151h-387v160q-67 -85 -147.5 -135t-194.5 -50zM281 1270v237h790v-237h-790z" />
    <glyph glyph-name="Ubreve" unicode="&#x16c;" horiz-adv-x="1630" 
d="M815 1573q-180 0 -289 82t-127 239h238q42 -98 178 -98t178 98h238q-18 -157 -127 -239t-289 -82zM811 -27q-322 0 -501 170t-179 508v840h399v-832q0 -162 75.5 -244.5t209.5 -82.5t209.5 79.5t75.5 235.5v844h399v-829q0 -346 -182 -517.5t-506 -171.5z" />
    <glyph glyph-name="ubreve" unicode="&#x16d;" horiz-adv-x="1361" 
d="M508 -25q-185 0 -289 112.5t-104 311.5v752h389v-627q0 -98 45.5 -150t124.5 -52q80 0 128 52.5t48 149.5v627h387v-1151h-387v160q-67 -85 -147.5 -135t-194.5 -50zM676 1249q-178 0 -288.5 93t-127.5 260h234q41 -125 182 -125t182 125h234q-17 -167 -127.5 -260
t-288.5 -93z" />
    <glyph glyph-name="Uring" unicode="&#x16e;" horiz-adv-x="1630" 
d="M811 -27q-322 0 -501 170t-179 508v840h399v-832q0 -162 75.5 -244.5t209.5 -82.5t209.5 79.5t75.5 235.5v844h399v-829q0 -346 -182 -517.5t-506 -171.5zM815 1550q-124 0 -208.5 73.5t-84.5 186.5t84.5 187t208.5 74t208.5 -74t84.5 -187t-84.5 -186.5t-208.5 -73.5z
M815 1675q67 0 108.5 38.5t41.5 96.5t-42 97t-108 39t-107.5 -39t-41.5 -97t41.5 -96.5t107.5 -38.5z" />
    <glyph glyph-name="uring" unicode="&#x16f;" horiz-adv-x="1361" 
d="M676 1231q-115 0 -196 78t-81 188q0 112 80.5 189t196.5 77t196 -77t80 -189q0 -110 -80.5 -188t-195.5 -78zM676 1352q60 0 102.5 42.5t42.5 102.5q0 61 -42.5 104.5t-102.5 43.5t-103 -43.5t-43 -104.5q0 -60 43 -102.5t103 -42.5zM508 -25q-185 0 -289 112.5
t-104 311.5v752h389v-627q0 -98 45.5 -150t124.5 -52q80 0 128 52.5t48 149.5v627h387v-1151h-387v160q-67 -85 -147.5 -135t-194.5 -50z" />
    <glyph glyph-name="Uhungarumlaut" unicode="&#x170;" horiz-adv-x="1630" 
d="M811 -27q-322 0 -501 170t-179 508v840h399v-832q0 -162 75.5 -244.5t209.5 -82.5t209.5 79.5t75.5 235.5v844h399v-829q0 -346 -182 -517.5t-506 -171.5zM436 1595l228 342l340 -116l-302 -226h-266zM854 1595l227 342l340 -116l-301 -226h-266z" />
    <glyph glyph-name="uhungarumlaut" unicode="&#x171;" horiz-adv-x="1361" 
d="M508 -25q-185 0 -289 112.5t-104 311.5v752h389v-627q0 -98 45.5 -150t124.5 -52q80 0 128 52.5t48 149.5v627h387v-1151h-387v160q-67 -85 -147.5 -135t-194.5 -50zM717 1255l215 387l338 -120l-301 -267h-252zM311 1255l213 390l338 -121l-299 -269h-252z" />
    <glyph glyph-name="Uogonek" unicode="&#x172;" horiz-adv-x="1630" 
d="M1032 -182v-168q-55 -8 -119 -8q-149 0 -232 51t-83 135q0 78 66 156q-256 38 -394.5 204t-138.5 463v840h399v-832q0 -162 75.5 -244.5t209.5 -82.5t209.5 79.5t75.5 235.5v844h399v-829q0 -319 -154 -487.5t-434 -194.5q-30 -40 -30 -84q0 -84 151 -78z" />
    <glyph glyph-name="uogonek" unicode="&#x173;" horiz-adv-x="1361" 
d="M508 -25q-185 0 -289 112.5t-104 311.5v752h389v-627q0 -98 45.5 -150t124.5 -52q80 0 128 52.5t48 149.5v627h387v-1151h-84q-47 -52 -47 -104q0 -84 151 -78v-168q-55 -8 -118 -8q-149 0 -232.5 51t-83.5 135q0 90 82 172h-55v160q-67 -85 -147.5 -135t-194.5 -50z" />
    <glyph glyph-name="Wcircumflex" unicode="&#x174;" horiz-adv-x="2398" 
d="M547 -10l-500 1501h420l268 -893l297 897h342l297 -897l268 893h412l-500 -1501h-346l-307 880l-305 -880h-346zM760 1595l264 318h348l264 -318h-272l-168 115l-168 -115h-268z" />
    <glyph glyph-name="wcircumflex" unicode="&#x175;" horiz-adv-x="1849" 
d="M492 1255l270 347h323l271 -347h-258l-176 131l-177 -131h-253zM391 -8l-352 1159h383l158 -604l184 608h321l189 -610l162 606h374l-356 -1159h-336l-194 618l-199 -618h-334z" />
    <glyph glyph-name="Ycircumflex" unicode="&#x176;" horiz-adv-x="1552" 
d="M580 0v563l-570 928h453l315 -555l322 555h444l-569 -920v-571h-395zM338 1595l264 318h348l264 -318h-272l-168 115l-168 -115h-268z" />
    <glyph glyph-name="ycircumflex" unicode="&#x177;" horiz-adv-x="1339" 
d="M680 438l223 713h397l-423 -1135q-75 -201 -167.5 -282.5t-258.5 -81.5q-178 0 -353 96l121 272q103 -57 168 -57q36 0 58 11t42 40l-450 1137h405zM242 1255l270 347h324l270 -347h-258l-176 131l-176 -131h-254z" />
    <glyph glyph-name="Ydieresis" unicode="&#x178;" horiz-adv-x="1552" 
d="M580 0v563l-570 928h453l315 -555l322 555h444l-569 -920v-571h-395zM840 1595v291h342v-291h-342zM371 1595v291h342v-291h-342z" />
    <glyph glyph-name="Zacute" unicode="&#x179;" horiz-adv-x="1507" 
d="M104 0v289l762 866h-737v336h1276v-289l-762 -866h762v-336h-1301zM616 1595l236 342l365 -116l-310 -226h-291z" />
    <glyph glyph-name="zacute" unicode="&#x17a;" horiz-adv-x="1216" 
d="M471 1255l223 390l355 -121l-306 -269h-272zM84 0v258l545 584h-525v309h1033v-258l-545 -584h545v-309h-1053z" />
    <glyph glyph-name="Zdotaccent" unicode="&#x17b;" horiz-adv-x="1507" 
d="M594 1595v291h352v-291h-352zM104 0v289l762 866h-737v336h1276v-289l-762 -866h762v-336h-1301z" />
    <glyph glyph-name="zdotaccent" unicode="&#x17c;" horiz-adv-x="1216" 
d="M84 0v258l545 584h-525v309h1033v-258l-545 -584h545v-309h-1053zM446 1255v299h349v-299h-349z" />
    <glyph glyph-name="Zcaron" unicode="&#x17d;" horiz-adv-x="1507" 
d="M1208 1913l-264 -318h-348l-264 318h272l168 -115l168 115h268zM104 0v289l762 866h-737v336h1276v-289l-762 -866h762v-336h-1301z" />
    <glyph glyph-name="zcaron" unicode="&#x17e;" horiz-adv-x="1216" 
d="M1053 1602l-271 -347h-323l-271 347h258l177 -132l176 132h254zM84 0v258l545 584h-525v309h1033v-258l-545 -584h545v-309h-1053z" />
    <glyph glyph-name="uni018F" unicode="&#x18f;" horiz-adv-x="1697" 
d="M410 999l-220 267q254 254 635 254q166 0 310.5 -57.5t247 -158.5t161 -244.5t58.5 -309.5v-5q0 -158 -55 -299.5t-152.5 -246.5t-241 -166.5t-311.5 -61.5q-177 0 -320 63.5t-235.5 174t-141.5 258t-49 317.5v2q0 54 6 107h1088q-35 131 -131.5 203.5t-237.5 72.5
q-124 0 -219.5 -42t-191.5 -128zM844 307q135 0 226 78t122 213h-690q18 -127 109.5 -209t232.5 -82z" />
    <glyph glyph-name="florin" unicode="&#x192;" horiz-adv-x="1185" 
d="M240 -18q-94 0 -170 18v287q54 -11 96 -11q68 0 100 30t45 108l51 295h-133v297h187l26 143q36 185 143.5 272.5t309.5 87.5q133 0 229 -26v-291q-76 18 -143 18q-75 0 -113.5 -32t-50.5 -105l-12 -67h244v-297h-297l-62 -351q-37 -203 -141.5 -289.5t-308.5 -86.5z" />
    <glyph glyph-name="Aringacute" unicode="&#x1fa;" horiz-adv-x="1708" 
d="M29 0l596 1411q-64 77 -64 166q0 114 84.5 188t208.5 74t208.5 -74t84.5 -188q0 -94 -66 -166l596 -1411h-422l-112 281h-588l-113 -281h-413zM676 596h346l-172 434zM854 1444q66 0 108 38t42 95q0 58 -41.5 96.5t-108.5 38.5q-66 0 -107.5 -38.5t-41.5 -96.5
q0 -57 41.5 -95t107.5 -38zM692 1892l252 318l356 -121l-331 -197h-277z" />
    <glyph glyph-name="aringacute" unicode="&#x1fb;" 
d="M453 -25q-169 0 -278 94.5t-109 260.5v4q0 177 121.5 269.5t330.5 92.5q149 0 279 -45v19q0 192 -234 192q-157 0 -317 -63l-84 278q105 44 213 66t250 22q291 0 428 -137q65 -65 94 -153.5t29 -212.5v-662h-381v121q-133 -146 -342 -146zM588 221q94 0 153.5 53.5
t59.5 139.5v53q-72 35 -168 35q-91 0 -143 -40t-52 -108v-4q0 -59 41.5 -94t108.5 -35zM651 1262q-115 0 -195.5 78t-80.5 188q0 112 80 189t196 77t196.5 -77t80.5 -189q0 -110 -81 -188t-196 -78zM651 1382q60 0 103 43t43 103q0 61 -43 104t-103 43t-102.5 -43
t-42.5 -104q0 -60 42.5 -103t102.5 -43zM500 1866l243 336l347 -121l-318 -215h-272z" />
    <glyph glyph-name="AEacute" unicode="&#x1fc;" horiz-adv-x="2271" 
d="M1167 1595l236 342l364 -116l-309 -226h-291zM4 0l791 1491h1372v-338h-744v-244h664v-317h-664v-254h754v-338h-1141v281h-485l-148 -281h-399zM713 596h323v567h-28z" />
    <glyph glyph-name="aeacute" unicode="&#x1fd;" horiz-adv-x="2023" 
d="M856 1255l223 390l355 -121l-306 -269h-272zM494 -25q-187 0 -307.5 92.5t-120.5 262.5v4q0 177 121.5 269.5t330.5 92.5q149 0 279 -45v19q0 192 -234 192q-157 0 -317 -63l-84 278q105 44 213 66t250 22q261 0 389 -131q146 140 364 140q139 0 248.5 -50.5t178 -138
t104 -200t35.5 -240.5q0 -59 -5 -82h-774q25 -97 90 -147t164 -50q73 0 133.5 27.5t128.5 89.5l215 -180q-187 -230 -493 -230q-136 0 -251.5 45t-195.5 127q-233 -170 -462 -170zM1159 670h420q-12 99 -67.5 157t-141.5 58q-85 0 -139 -57.5t-72 -157.5zM592 225
q126 0 246 99q-32 85 -39 145q-86 33 -166 33q-91 0 -143 -40t-52 -108v-4q0 -58 43 -91.5t111 -33.5z" />
    <glyph glyph-name="Oslashacute" unicode="&#x1fe;" horiz-adv-x="1794" 
d="M1403 1501h311l-211 -241q195 -217 195 -510v-5q0 -158 -61 -301t-167 -247t-255.5 -165t-319.5 -61q-237 0 -420 109l-82 -90h-313l211 239q-195 217 -195 512v4q0 158 61 301t167 247.5t256 165.5t319 61q233 0 420 -111zM496 750v-5q0 -120 55 -219l526 600
q-88 43 -182 43q-175 0 -287 -122.5t-112 -296.5zM899 322q175 0 287 122.5t112 296.5v4q0 124 -57 220l-524 -600q79 -43 182 -43zM743 1616l236 342l364 -117l-309 -225h-291z" />
    <glyph glyph-name="oslashacute" unicode="&#x1ff;" horiz-adv-x="1417" 
d="M1090 1161h282l-176 -198q145 -164 145 -385v-5q0 -122 -48 -232t-131 -191t-201.5 -129t-253.5 -48q-174 0 -320 78l-59 -61h-283l174 194q-143 165 -143 385v4q0 122 48 232t131.5 191.5t202 129.5t253.5 48q171 0 317 -78zM711 287q120 0 193 81.5t73 200.5v4
q0 63 -25 121l-344 -389q47 -18 103 -18zM438 578v-5q0 -58 23 -122l348 389q-50 20 -102 20q-120 0 -194.5 -81.5t-74.5 -200.5zM561 1262l223 389l355 -121l-305 -268h-273z" />
    <glyph glyph-name="Scommaaccent" unicode="&#x218;" horiz-adv-x="1400" 
d="M725 -25q-199 0 -375.5 61.5t-310.5 182.5l223 266q228 -178 475 -178q88 0 134.5 28.5t46.5 82.5v4q0 51 -54 84t-209 69q-75 17 -131 32.5t-116 38t-102.5 47t-82.5 59t-64 75.5t-38.5 95t-14.5 118v4q0 208 155 340t413 132q353 0 600 -197l-199 -283
q-211 148 -411 148q-75 0 -116.5 -29t-41.5 -74v-4q0 -56 52 -85.5t220 -71.5q107 -25 185.5 -51t148.5 -64.5t113 -85.5t67.5 -112.5t24.5 -147.5v-4q0 -225 -162 -352.5t-430 -127.5zM537 -659l-19 116q90 7 129.5 43t34.5 99h-143v280h333v-231q0 -158 -84 -229.5
t-251 -77.5z" />
    <glyph glyph-name="scommaaccent" unicode="&#x219;" horiz-adv-x="1105" 
d="M391 -651l-18 116q90 7 129.5 43t34.5 99h-144v280h334v-231q0 -158 -84.5 -229.5t-251.5 -77.5zM569 -25q-300 0 -532 172l149 238q198 -133 387 -133q111 0 111 65v5q0 12 -5 22.5t-19 19.5t-25.5 15.5t-39 16t-45 14.5t-56.5 16q-5 1 -7 2q-71 18 -124.5 37t-107 49
t-87.5 67t-55 90.5t-21 119.5v4q0 176 127 276t326 100q123 0 245 -35t220 -98l-136 -250q-87 51 -177 80t-156 29q-48 0 -73.5 -17t-25.5 -44v-5q0 -32 41 -53t146 -54q6 -2 10 -3q72 -20 124 -39t106 -49t88 -66t55.5 -88.5t21.5 -116.5v-4q0 -185 -126.5 -284t-338.5 -99
z" />
    <glyph glyph-name="schwa" unicode="&#x259;" horiz-adv-x="1308" 
d="M618 1176q270 0 442.5 -165t172.5 -429v-4q0 -166 -73.5 -303.5t-206.5 -218.5t-298 -81q-143 0 -255 50.5t-180.5 138.5t-104 199.5t-35.5 240.5q0 53 2 84h776q-24 97 -90 147t-164 50q-74 0 -136 -28.5t-126 -90.5l-215 182q185 228 491 228zM864 481h-420
q12 -99 67.5 -157t141.5 -58q85 0 139 57.5t72 157.5z" />
    <glyph glyph-name="circumflex" unicode="&#x2c6;" horiz-adv-x="1081" 
d="M109 1255l270 347h323l271 -347h-258l-176 131l-177 -131h-253z" />
    <glyph glyph-name="caron" unicode="&#x2c7;" horiz-adv-x="1081" 
d="M973 1602l-271 -347h-323l-270 347h258l176 -132l176 132h254z" />
    <glyph glyph-name="breve" unicode="&#x2d8;" horiz-adv-x="1081" 
d="M541 1249q-178 0 -288.5 93t-127.5 260h233q41 -125 183 -125q141 0 182 125h233q-17 -167 -127 -260t-288 -93z" />
    <glyph glyph-name="dotaccent" unicode="&#x2d9;" horiz-adv-x="1081" 
d="M367 1255v299h348v-299h-348z" />
    <glyph glyph-name="ring" unicode="&#x2da;" horiz-adv-x="1081" 
d="M541 1255q-115 0 -196 78.5t-81 188.5q0 112 80.5 189t196.5 77t196 -77t80 -189q0 -111 -80.5 -189t-195.5 -78zM541 1376q60 0 102.5 43t42.5 103q0 61 -42.5 104t-102.5 43t-103 -43t-43 -104q0 -60 43 -103t103 -43z" />
    <glyph glyph-name="ogonek" unicode="&#x2db;" horiz-adv-x="1081" 
d="M795 -182v-168q-55 -8 -119 -8q-149 0 -232.5 51t-83.5 135q0 94 103 192h248q-68 -68 -68 -124q0 -84 152 -78z" />
    <glyph glyph-name="tilde" unicode="&#x2dc;" horiz-adv-x="1081" 
d="M723 1255q-89 0 -197 45q-88 37 -133 37q-41 0 -62.5 -22t-47.5 -78l-189 53q37 160 97.5 236t166.5 76q87 0 197 -46q86 -36 133 -36q42 0 63.5 22t47.5 78l188 -53q-37 -160 -97.5 -236t-166.5 -76z" />
    <glyph glyph-name="hungarumlaut" unicode="&#x2dd;" horiz-adv-x="1081" 
d="M479 1255l215 387l338 -120l-301 -267h-252zM74 1255l213 390l338 -121l-299 -269h-252z" />
    <glyph glyph-name="commaaccent" unicode="&#x326;" horiz-adv-x="1081" 
d="M371 -647l-19 117q90 7 129.5 42.5t34.5 98.5h-143v280h334v-231q0 -158 -84.5 -229.5t-251.5 -77.5z" />
    <glyph glyph-name="uni0384" unicode="&#x384;" horiz-adv-x="1081" 
d="M332 1255l133 402l344 -119l-231 -283h-246z" />
    <glyph glyph-name="uni0385" unicode="&#x385;" horiz-adv-x="1081" 
d="M756 1255v297h297v-297h-297zM29 1255v297h297v-297h-297zM379 1255l86 461l295 -67l-182 -394h-199z" />
    <glyph glyph-name="uni0386" unicode="&#x386;" horiz-adv-x="1708" 
d="M29 0l635 1501h378l635 -1501h-422l-112 281h-588l-113 -281h-413zM676 596h346l-172 434zM43 1028l23 463h358l-180 -463h-201z" />
    <glyph glyph-name="uni0387" unicode="&#x387;" horiz-adv-x="643" 
d="M119 750v401h405v-401h-405z" />
    <glyph glyph-name="uni0388" unicode="&#x388;" horiz-adv-x="1439" 
d="M-297 1028l23 463h358l-180 -463h-201zM150 0v1491h1183v-338h-792v-244h712v-317h-712v-254h802v-338h-1193z" />
    <glyph glyph-name="uni0389" unicode="&#x389;" horiz-adv-x="1636" 
d="M150 0v1491h395v-565h547v565h395v-1491h-395v573h-547v-573h-395zM-297 1028l23 463h358l-180 -463h-201z" />
    <glyph glyph-name="uni038A" unicode="&#x38a;" horiz-adv-x="716" 
d="M160 0v1491h397v-1491h-397zM-289 1028l23 463h358l-180 -463h-201z" />
    <glyph glyph-name="uni038C" unicode="&#x38c;" horiz-adv-x="1794" 
d="M-215 1028l22 463h359l-180 -463h-201zM895 -29q-169 0 -318 60.5t-254 164t-166 245.5t-61 300v4q0 158 61 301t167 247.5t256 165.5t319 61t318 -60.5t254 -164t166 -245.5t61 -300v-5q0 -158 -61 -301t-167 -247t-255.5 -165t-319.5 -61zM899 330q174 0 282.5 119.5
t108.5 291.5v4q0 112 -49 206.5t-140 152t-206 57.5q-171 0 -281 -120t-110 -291v-5q0 -112 49 -206t140 -151.5t206 -57.5z" />
    <glyph glyph-name="uni038E" unicode="&#x38e;" horiz-adv-x="1552" 
d="M580 0v563l-570 928h453l315 -555l322 555h444l-569 -920v-571h-395zM-391 1028l22 463h359l-180 -463h-201z" />
    <glyph glyph-name="uni038F" unicode="&#x38f;" horiz-adv-x="1830" 
d="M920 1520q181 0 329.5 -53t246.5 -145t151 -215t53 -265v-2q0 -312 -287 -521l320 3v-322h-699v317q123 87 190.5 195.5t67.5 263.5v2q0 170 -101 276.5t-276 106.5q-174 0 -274 -106t-100 -275v-2q0 -152 65.5 -260t192.5 -201v-317h-699v322l316 -3q-85 65 -144 133.5
t-99 170t-40 219.5v2q0 136 54 258t152.5 215t249 148t331.5 55zM-213 1028l23 463h358l-180 -463h-201z" />
    <glyph glyph-name="uni0390" unicode="&#x390;" horiz-adv-x="739" 
d="M543 1255v297h297v-297h-297zM-184 1255v297h297v-297h-297zM166 1255l86 461l295 -67l-182 -394h-199zM119 373v778h389v-741q0 -64 28 -90.5t87 -26.5q33 0 67 6v-285q-105 -30 -213 -30q-184 0 -271 93t-87 296z" />
    <glyph glyph-name="uni0391" unicode="&#x391;" horiz-adv-x="1708" 
d="M29 0l635 1501h378l635 -1501h-422l-112 281h-588l-113 -281h-413zM676 596h346l-172 434z" />
    <glyph glyph-name="uni0392" unicode="&#x392;" horiz-adv-x="1542" 
d="M150 0v1491h749q271 0 404 -133q98 -98 98 -244v-6q0 -229 -225 -328q144 -50 219 -136t75 -228v-4q0 -196 -149.5 -304t-415.5 -108h-755zM1010 1030v4q0 133 -195 133h-278v-272h268q205 0 205 135zM1073 465v4q0 65 -52 102t-157 37h-327v-284h331q99 0 152 36t53 105
z" />
    <glyph glyph-name="uni0393" unicode="&#x393;" horiz-adv-x="1331" 
d="M150 0v1491h1122v-346h-727v-1145h-395z" />
    <glyph glyph-name="uni0394" unicode="&#x394;" horiz-adv-x="1693" 
d="M115 0l-43 297l563 1204h426l561 -1204l-41 -297h-1466zM842 1100l-330 -756h657z" />
    <glyph glyph-name="uni0395" unicode="&#x395;" horiz-adv-x="1439" 
d="M150 0v1491h1183v-338h-792v-244h712v-317h-712v-254h802v-338h-1193z" />
    <glyph glyph-name="uni0396" unicode="&#x396;" horiz-adv-x="1507" 
d="M104 0v289l762 866h-737v336h1276v-289l-762 -866h762v-336h-1301z" />
    <glyph glyph-name="uni0397" unicode="&#x397;" horiz-adv-x="1636" 
d="M150 0v1491h395v-565h547v565h395v-1491h-395v573h-547v-573h-395z" />
    <glyph glyph-name="uni0398" unicode="&#x398;" horiz-adv-x="1798" 
d="M897 -29q-169 0 -319 60.5t-255 164t-166 245.5t-61 300v4q0 158 62 301t168 247t256 165.5t319 61.5t319 -60.5t255 -164t166 -245.5t61 -300v-5q0 -158 -62 -301t-168 -247t-256 -165t-319 -61zM901 324q186 0 298 117t112 300v4q0 184 -114 303t-300 119t-298 -117
t-112 -300v-5q0 -184 113.5 -302.5t300.5 -118.5zM1161 903v-305h-524v305h524z" />
    <glyph glyph-name="uni0399" unicode="&#x399;" horiz-adv-x="716" 
d="M160 0v1491h397v-1491h-397z" />
    <glyph glyph-name="uni039A" unicode="&#x39a;" horiz-adv-x="1570" 
d="M150 0v1491h395v-614l530 614h473l-573 -639l594 -852h-475l-394 569l-155 -168v-401h-395z" />
    <glyph glyph-name="uni039B" unicode="&#x39b;" horiz-adv-x="1667" 
d="M1014 1501l622 -1501h-438l-371 952l-368 -952h-430l624 1501h361z" />
    <glyph glyph-name="uni039C" unicode="&#x39c;" horiz-adv-x="1865" 
d="M150 0v1491h419l363 -588l364 588h420v-1491h-395v881l-389 -596h-8l-385 592v-877h-389z" />
    <glyph glyph-name="uni039D" unicode="&#x39d;" horiz-adv-x="1689" 
d="M150 0v1491h368l631 -813v813h391v-1491h-344l-655 844v-844h-391z" />
    <glyph glyph-name="uni039E" unicode="&#x39e;" horiz-adv-x="1423" 
d="M1317 1149h-1211v342h1211v-342zM1266 590h-1110v321h1110v-321zM1327 0h-1231v342h1231v-342z" />
    <glyph glyph-name="uni039F" unicode="&#x39f;" horiz-adv-x="1794" 
d="M895 -29q-169 0 -318 60.5t-254 164t-166 245.5t-61 300v4q0 158 61 301t167 247.5t256 165.5t319 61t318 -60.5t254 -164t166 -245.5t61 -300v-5q0 -158 -61 -301t-167 -247t-255.5 -165t-319.5 -61zM899 330q174 0 282.5 119.5t108.5 291.5v4q0 112 -49 206.5t-140 152
t-206 57.5q-171 0 -281 -120t-110 -291v-5q0 -112 49 -206t140 -151.5t206 -57.5z" />
    <glyph glyph-name="uni03A0" unicode="&#x3a0;" horiz-adv-x="1626" 
d="M150 0v1491h1327v-1491h-396v1139h-536v-1139h-395z" />
    <glyph glyph-name="uni03A1" unicode="&#x3a1;" horiz-adv-x="1447" 
d="M150 0v1491h634q280 0 444.5 -139.5t164.5 -382.5v-4q0 -129 -48 -231.5t-133 -168.5t-200 -100.5t-252 -34.5h-215v-430h-395zM545 748h211q112 0 176.5 54.5t64.5 145.5v4q0 99 -64 150t-181 51h-207v-405z" />
    <glyph glyph-name="uni03A3" unicode="&#x3a3;" horiz-adv-x="1480" 
d="M1083 745l-432 -411l733 2v-336h-1275v285l479 458l-473 463v285h1257v-336l-713 2z" />
    <glyph glyph-name="uni03A4" unicode="&#x3a4;" horiz-adv-x="1417" 
d="M510 0v1141h-447v350h1291v-350h-447v-1141h-397z" />
    <glyph glyph-name="uni03A5" unicode="&#x3a5;" horiz-adv-x="1552" 
d="M580 0v563l-570 928h453l315 -555l322 555h444l-569 -920v-571h-395z" />
    <glyph glyph-name="uni03A6" unicode="&#x3a6;" horiz-adv-x="2121" 
d="M862 -25v144q-242 3 -418 83.5t-266 220t-90 322.5v3q0 135 52 249t149 197.5t244 131.5t329 52v138h398v-138q365 -7 569.5 -176.5t204.5 -451.5v-2q0 -135 -52 -249t-149 -197t-244 -131t-329 -52v-144h-398zM489 750v-2q0 -134 96 -216.5t287 -82.5v598
q-190 0 -286.5 -83t-96.5 -214zM1634 748v2q0 131 -97 214t-286 83v-598q189 0 286 84t97 215z" />
    <glyph glyph-name="uni03A7" unicode="&#x3a7;" horiz-adv-x="1574" 
d="M1069 1491h444l-491 -727l514 -764h-457l-295 463l-299 -463h-444l512 758l-492 733h457l273 -434z" />
    <glyph glyph-name="uni03A8" unicode="&#x3a8;" horiz-adv-x="1925" 
d="M1802 1491v-524q0 -315 -166 -485t-473 -189v-293h-401v293q-310 17 -474.5 185t-164.5 480v533h391v-524q0 -156 61.5 -228.5t196.5 -83.5v836h383v-834q133 11 194.5 81t61.5 220v533h391z" />
    <glyph glyph-name="uni03A9" unicode="&#x3a9;" horiz-adv-x="1830" 
d="M920 1520q181 0 329.5 -53t246.5 -145t151 -215t53 -265v-2q0 -312 -287 -521l320 3v-322h-699v317q123 87 190.5 195.5t67.5 263.5v2q0 170 -101 276.5t-276 106.5q-174 0 -274 -106t-100 -275v-2q0 -152 65.5 -260t192.5 -201v-317h-699v322l316 -3q-85 65 -144 133.5
t-99 170t-40 219.5v2q0 136 54 258t152.5 215t249 148t331.5 55z" />
    <glyph glyph-name="uni03AA" unicode="&#x3aa;" horiz-adv-x="716" 
d="M160 0v1491h397v-1491h-397zM424 1595v291h342v-291h-342zM-45 1595v291h342v-291h-342z" />
    <glyph glyph-name="uni03AB" unicode="&#x3ab;" horiz-adv-x="1552" 
d="M580 0v563l-570 928h453l315 -555l322 555h444l-569 -920v-571h-395zM840 1595v291h342v-291h-342zM371 1595v291h342v-291h-342z" />
    <glyph glyph-name="uni03AC" unicode="&#x3ac;" horiz-adv-x="1562" 
d="M649 1262l133 401l344 -119l-231 -282h-246zM1513 299v-283q-88 -30 -206 -30q-123 0 -199 43t-113 135q-138 -189 -385 -189q-110 0 -206.5 41.5t-168.5 117t-113.5 188.5t-41.5 249v4q0 137 41.5 251.5t111.5 189.5t162.5 116.5t194.5 41.5q211 0 354 -166v143h387
v-741q0 -64 28 -90.5t87 -26.5q32 0 67 6zM707 301q103 0 173 75.5t70 196.5v5q0 117 -70.5 194.5t-172.5 77.5q-104 0 -175 -76t-71 -196v-5q0 -120 71 -196t175 -76z" />
    <glyph glyph-name="uni03AD" unicode="&#x3ad;" horiz-adv-x="1251" 
d="M510 1262l133 401l344 -119l-231 -282h-246zM897 453h-270q-166 0 -166 -86v-2q0 -95 188 -95q204 0 416 107l129 -256q-260 -146 -563 -146q-267 0 -409 90t-142 250v2q0 182 215 263q-191 76 -191 247v2q0 154 140 248t407 94q165 0 293 -34.5t242 -104.5l-146 -260
q-75 48 -173 76.5t-199 28.5q-90 0 -136.5 -25.5t-46.5 -65.5v-2q0 -45 35.5 -65.5t114.5 -20.5h262v-245z" />
    <glyph glyph-name="uni03AE" unicode="&#x3ae;" horiz-adv-x="1361" 
d="M559 1262l133 401l344 -119l-231 -282h-246zM1247 -340h-389v967q0 97 -45.5 149.5t-124.5 52.5q-80 0 -128 -53t-48 -149v-627h-387v1151h387v-162q143 185 342 185q185 0 289 -112.5t104 -311.5v-1090z" />
    <glyph glyph-name="uni03AF" unicode="&#x3af;" horiz-adv-x="739" 
d="M201 1255l133 402l344 -119l-232 -283h-245zM119 373v778h389v-741q0 -64 28 -90.5t87 -26.5q33 0 67 6v-285q-105 -30 -213 -30q-184 0 -271 93t-87 296z" />
    <glyph glyph-name="uni03B0" unicode="&#x3b0;" horiz-adv-x="1361" 
d="M895 1255v297h297v-297h-297zM168 1255v297h297v-297h-297zM518 1255l86 461l295 -67l-182 -394h-199zM678 -27q-265 0 -416 134.5t-151 396.5v647h389v-637q0 -209 182 -209q180 0 180 207v639h389v-641q0 -136 -40.5 -239t-116.5 -168t-180.5 -97.5t-235.5 -32.5z" />
    <glyph glyph-name="uni03B1" unicode="&#x3b1;" horiz-adv-x="1562" 
d="M1513 299v-283q-88 -30 -206 -30q-123 0 -199 43t-113 135q-138 -189 -385 -189q-110 0 -206.5 41.5t-168.5 117t-113.5 188.5t-41.5 249v4q0 137 41.5 251.5t111.5 189.5t162.5 116.5t194.5 41.5q211 0 354 -166v143h387v-741q0 -64 28 -90.5t87 -26.5q32 0 67 6z
M707 301q103 0 173 75.5t70 196.5v5q0 117 -70.5 194.5t-172.5 77.5q-104 0 -175 -76t-71 -196v-5q0 -120 71 -196t175 -76z" />
    <glyph glyph-name="uni03B2" unicode="&#x3b2;" horiz-adv-x="1435" 
d="M508 -340h-383v1303q0 291 158.5 450.5t461.5 159.5q135 0 243 -34.5t176.5 -94.5t104.5 -138.5t36 -168.5v-2q0 -135 -67 -228.5t-196 -134.5q155 -43 236.5 -132.5t81.5 -238.5v-2q0 -187 -125.5 -303t-333.5 -116q-254 0 -393 167v-487zM678 641h-174v-27
q0 -165 73.5 -243t204.5 -78q94 0 144.5 46.5t50.5 117.5q0 184 -299 184zM504 975v-84h166q126 0 194 51t68 143q0 75 -51 123.5t-142 48.5q-115 0 -175 -74.5t-60 -207.5z" />
    <glyph glyph-name="uni03B3" unicode="&#x3b3;" horiz-adv-x="1337" 
d="M1303 1151l-441 -1112v-379h-387v377l-442 1114h411l226 -688l229 688h404z" />
    <glyph glyph-name="uni03B4" unicode="&#x3b4;" horiz-adv-x="1398" 
d="M1188 1253l-430 9l172 -119q203 -140 296 -277t93 -319q0 -251 -171 -412.5t-454 -161.5q-181 0 -322 72.5t-218.5 201t-77.5 290.5q0 184 91 312t298 249l-223 184v272h946v-301zM719 895h-2q-146 -91 -207 -172t-59 -176q0 -106 68 -179t175 -73q109 0 178.5 73.5
t69.5 176.5q0 92 -47 166.5t-176 183.5z" />
    <glyph glyph-name="uni03B5" unicode="&#x3b5;" horiz-adv-x="1251" 
d="M897 453h-270q-166 0 -166 -86v-2q0 -95 188 -95q204 0 416 107l129 -256q-260 -146 -563 -146q-267 0 -409 90t-142 250v2q0 182 215 263q-191 76 -191 247v2q0 154 140 248t407 94q165 0 293 -34.5t242 -104.5l-146 -260q-75 48 -173 76.5t-199 28.5
q-90 0 -136.5 -25.5t-46.5 -65.5v-2q0 -45 35.5 -65.5t114.5 -20.5h262v-245z" />
    <glyph glyph-name="uni03B6" unicode="&#x3b6;" horiz-adv-x="1212" 
d="M778 -289v256l-172 25q-277 41 -405.5 147t-128.5 297q0 132 53 234.5t184 236.5l330 336h-483v311h977v-288l-576 -590q-57 -61 -78.5 -101.5t-21.5 -89.5q0 -70 51 -106.5t160 -54.5l467 -68v-545h-357z" />
    <glyph glyph-name="uni03B7" unicode="&#x3b7;" horiz-adv-x="1361" 
d="M1247 -340h-389v967q0 97 -45.5 149.5t-124.5 52.5q-80 0 -128 -53t-48 -149v-627h-387v1151h387v-162q143 185 342 185q185 0 289 -112.5t104 -311.5v-1090z" />
    <glyph glyph-name="uni03B8" unicode="&#x3b8;" horiz-adv-x="1443" 
d="M719 -27q-187 0 -328.5 95t-219 270t-77.5 405v56q0 348 173 559t458 211q282 0 453.5 -211t171.5 -559v-54q0 -348 -174.5 -560t-456.5 -212zM723 291q112 0 181 87.5t79 250.5h-522q10 -164 79 -251t183 -87zM721 1253q-112 0 -181 -85.5t-79 -247.5h520
q-12 162 -80 247.5t-180 85.5z" />
    <glyph glyph-name="uni03B9" unicode="&#x3b9;" horiz-adv-x="739" 
d="M119 373v778h389v-741q0 -64 28 -90.5t87 -26.5q33 0 67 6v-285q-105 -30 -213 -30q-184 0 -271 93t-87 296z" />
    <glyph glyph-name="uni03BA" unicode="&#x3ba;" horiz-adv-x="1306" 
d="M512 1151v-424l338 424h450l-411 -483l416 -668h-437l-235 391l-121 -143v-248h-387v1151h387z" />
    <glyph glyph-name="uni03BB" unicode="&#x3bb;" horiz-adv-x="1361" 
d="M199 1229v305q103 35 227 35q171 0 266.5 -73t161.5 -251l479 -1245h-403l-244 698l-250 -698h-397l465 1114l-19 47q-21 48 -54.5 70t-92.5 22q-62 0 -139 -24z" />
    <glyph glyph-name="uni03BC" unicode="&#x3bc;" horiz-adv-x="1490" 
d="M1444 299v-283q-82 -30 -201 -30q-112 0 -184.5 37t-110.5 118q-80 -151 -237 -151q-79 0 -146 37t-102 114h-6q24 -89 34.5 -148t10.5 -134v-199h-377v1491h387v-637q0 -98 46.5 -150.5t129.5 -52.5q86 0 135 52.5t49 150.5v637h388v-754q4 -58 31 -81t83 -23q32 0 70 6
z" />
    <glyph glyph-name="uni03BD" unicode="&#x3bd;" horiz-adv-x="1337" 
d="M492 -8l-459 1159h409l228 -692l231 692h402l-457 -1159h-354z" />
    <glyph glyph-name="uni03BE" unicode="&#x3be;" horiz-adv-x="1218" 
d="M1219 1393l-199 -275q-148 125 -299 125q-95 0 -148 -46t-53 -120q0 -81 66.5 -126.5t183.5 -45.5h203v-293h-273q-115 0 -177 -39t-62 -108q0 -66 51.5 -101.5t149.5 -48.5l460 -63v-541h-356v256l-170 23q-265 38 -391.5 137t-126.5 287q0 137 73.5 224.5t219.5 135.5
q-110 55 -169 136t-59 216q0 196 152.5 321.5t415.5 125.5q290 0 508 -180z" />
    <glyph glyph-name="uni03BF" unicode="&#x3bf;" horiz-adv-x="1417" 
d="M707 -27q-180 0 -325 80.5t-225.5 216.5t-80.5 299v4q0 122 48 232t131.5 191.5t202 129.5t253.5 48t253 -47t200 -127.5t129.5 -190t47.5 -231.5v-5q0 -122 -48 -232t-131 -191t-201.5 -129t-253.5 -48zM711 301q114 0 183 77.5t69 190.5v4q0 112 -73.5 192.5
t-182.5 80.5q-114 0 -183 -77.5t-69 -190.5v-5q0 -112 73.5 -192t182.5 -80z" />
    <glyph glyph-name="uni03C0" unicode="&#x3c0;" horiz-adv-x="1595" 
d="M57 1151h1454v-334h-184v-407q0 -64 28 -90.5t87 -26.5q32 0 69 6v-285q-109 -30 -215 -30q-184 0 -270 93t-86 296v444h-315v-817h-389v817h-179v334z" />
    <glyph glyph-name="uni03C1" unicode="&#x3c1;" horiz-adv-x="1439" 
d="M109 -340v860q0 302 167.5 478t460.5 176q183 0 325 -77.5t220 -214.5t78 -311v-4q0 -129 -42 -240.5t-112 -188t-162.5 -120t-193.5 -43.5q-218 0 -352 166v-481h-389zM733 301q104 0 175 76t71 196v5q0 117 -71.5 194.5t-174.5 77.5q-102 0 -173 -77.5t-71 -194.5v-5
q0 -117 71 -194.5t173 -77.5z" />
    <glyph glyph-name="uni03C2" unicode="&#x3c2;" horiz-adv-x="1234" 
d="M778 -289v262l-116 17q-586 84 -586 592v2q0 162 74 296t214 214t320 80q173 0 293 -63.5t203 -184.5l-258 -215q-100 135 -236 135q-103 0 -167 -73.5t-64 -176.5v-2q0 -127 82 -195t256 -92l342 -49v-547h-357z" />
    <glyph glyph-name="uni03C3" unicode="&#x3c3;" horiz-adv-x="1492" 
d="M1440 836l-285 4q166 -123 166 -326v-2q0 -109 -45 -207t-124.5 -171.5t-196.5 -117t-253 -43.5t-253 45.5t-198.5 124.5t-128 187t-46.5 231v2q0 122 47.5 230t133 187t210.5 125t272 46h701v-315zM705 301q113 0 178 72t65 182v2q0 114 -66.5 189t-181.5 75
q-114 0 -179.5 -74.5t-65.5 -185.5v-2q0 -109 68.5 -183.5t181.5 -74.5z" />
    <glyph glyph-name="uni03C4" unicode="&#x3c4;" horiz-adv-x="1265" 
d="M1190 817h-381v-381q0 -80 35.5 -113.5t111.5 -33.5q62 0 136 18v-287q-104 -38 -252 -38q-216 0 -317 97.5t-101 315.5v422h-359v334h1127v-334z" />
    <glyph glyph-name="uni03C5" unicode="&#x3c5;" horiz-adv-x="1361" 
d="M678 -27q-265 0 -416 134.5t-151 396.5v647h389v-637q0 -209 182 -209q180 0 180 207v639h389v-641q0 -136 -40.5 -239t-116.5 -168t-180.5 -97.5t-235.5 -32.5z" />
    <glyph glyph-name="uni03C6" unicode="&#x3c6;" horiz-adv-x="1878" 
d="M1128 -340h-378v338q-313 12 -493.5 171t-180.5 402v2q0 244 181 406t493 174v401h378v-401q312 -12 493 -171.5t181 -403.5v-3q0 -245 -180.5 -405t-493.5 -172v-338zM1430 573v2q0 117 -84 188t-230 75v-525q151 1 232.5 71t81.5 189zM449 580v-2q0 -119 83 -190
t230 -75v525q-151 -4 -232 -73.5t-81 -184.5z" />
    <glyph glyph-name="uni03C7" unicode="&#x3c7;" horiz-adv-x="1370" 
d="M463 1151l223 -416l227 416h418l-430 -717l469 -774h-426l-262 479l-264 -479h-420l469 772l-430 719h426z" />
    <glyph glyph-name="uni03C8" unicode="&#x3c8;" horiz-adv-x="1845" 
d="M1112 -340h-381v336q-297 6 -458.5 158t-161.5 419v578h385v-565q0 -121 64 -187t177 -71v1226h371v-1226q113 5 177.5 70.5t64.5 185.5v567h383v-571q0 -273 -164.5 -425.5t-456.5 -158.5v-336z" />
    <glyph glyph-name="uni03C9" unicode="&#x3c9;" horiz-adv-x="1945" 
d="M784 938h377v-371q0 -128 44.5 -189t115.5 -61q158 0 158 252q0 138 -60.5 276.5t-195.5 305.5h409q112 -137 170 -278t58 -314q0 -268 -128 -423.5t-354 -155.5q-283 0 -407 278q-124 -278 -408 -278q-226 0 -351.5 154t-125.5 423q0 174 57.5 316t169.5 278h406
q-134 -166 -194 -303.5t-60 -276.5q0 -254 160 -254q71 0 115 61t44 189v371z" />
    <glyph glyph-name="uni03CA" unicode="&#x3ca;" horiz-adv-x="739" 
d="M381 1255v299h338v-299h-338zM-63 1255v299h337v-299h-337zM119 373v778h389v-741q0 -64 28 -90.5t87 -26.5q33 0 67 6v-285q-105 -30 -213 -30q-184 0 -271 93t-87 296z" />
    <glyph glyph-name="uni03CB" unicode="&#x3cb;" horiz-adv-x="1361" 
d="M733 1255v299h338v-299h-338zM289 1255v299h338v-299h-338zM678 -27q-265 0 -416 134.5t-151 396.5v647h389v-637q0 -209 182 -209q180 0 180 207v639h389v-641q0 -136 -40.5 -239t-116.5 -168t-180.5 -97.5t-235.5 -32.5z" />
    <glyph glyph-name="uni03CC" unicode="&#x3cc;" horiz-adv-x="1417" 
d="M584 1262l133 401l344 -119l-232 -282h-245zM707 -27q-180 0 -325 80.5t-225.5 216.5t-80.5 299v4q0 122 48 232t131.5 191.5t202 129.5t253.5 48t253 -47t200 -127.5t129.5 -190t47.5 -231.5v-5q0 -122 -48 -232t-131 -191t-201.5 -129t-253.5 -48zM711 301
q114 0 183 77.5t69 190.5v4q0 112 -73.5 192.5t-182.5 80.5q-114 0 -183 -77.5t-69 -190.5v-5q0 -112 73.5 -192t182.5 -80z" />
    <glyph glyph-name="uni03CD" unicode="&#x3cd;" horiz-adv-x="1361" 
d="M555 1255l133 402l344 -119l-231 -283h-246zM678 -27q-265 0 -416 134.5t-151 396.5v647h389v-637q0 -209 182 -209q180 0 180 207v639h389v-641q0 -136 -40.5 -239t-116.5 -168t-180.5 -97.5t-235.5 -32.5z" />
    <glyph glyph-name="uni03CE" unicode="&#x3ce;" horiz-adv-x="1945" 
d="M848 1255l133 402l344 -119l-231 -283h-246zM784 938h377v-371q0 -128 44.5 -189t115.5 -61q158 0 158 252q0 138 -60.5 276.5t-195.5 305.5h409q112 -137 170 -278t58 -314q0 -268 -128 -423.5t-354 -155.5q-283 0 -407 278q-124 -278 -408 -278q-226 0 -351.5 154
t-125.5 423q0 174 57.5 316t169.5 278h406q-134 -166 -194 -303.5t-60 -276.5q0 -254 160 -254q71 0 115 61t44 189v371z" />
    <glyph glyph-name="uni0400" unicode="&#x400;" horiz-adv-x="1439" 
d="M901 1595h-291l-309 226l365 116zM150 0v1491h1183v-338h-792v-244h712v-317h-712v-254h802v-338h-1193z" />
    <glyph glyph-name="uni0401" unicode="&#x401;" horiz-adv-x="1439" 
d="M809 1595v291h342v-291h-342zM340 1595v291h342v-291h-342zM150 0v1491h1183v-338h-792v-244h712v-317h-712v-254h802v-338h-1193z" />
    <glyph glyph-name="uni0402" unicode="&#x402;" horiz-adv-x="1806" 
d="M1327 1491v-344h-448v-236q158 23 278 23q283 0 433.5 -120t150.5 -343q0 -228 -148 -351.5t-424 -123.5q-57 0 -67 2v303h24q113 0 169.5 40t56.5 110q0 76 -55 114.5t-183 38.5q-122 0 -235 -18v-586h-396v1147h-420v344h1264z" />
    <glyph glyph-name="uni0403" unicode="&#x403;" horiz-adv-x="1331" 
d="M543 1595l235 342l365 -116l-309 -226h-291zM150 0v1491h1122v-346h-727v-1145h-395z" />
    <glyph glyph-name="uni0404" unicode="&#x404;" horiz-adv-x="1566" 
d="M872 -29q-227 0 -405 102t-274.5 277t-96.5 391v4q0 158 57 299.5t158 247t250 167t324 61.5q201 0 341 -53.5t263 -159.5l-213 -295q-92 79 -181.5 118t-203.5 39q-142 0 -245 -71.5t-140 -198.5l627 4v-307l-631 2q35 -129 137.5 -202.5t249.5 -73.5q116 0 208.5 41.5
t190.5 121.5l213 -270q-139 -122 -287 -183t-342 -61z" />
    <glyph glyph-name="uni0405" unicode="&#x405;" horiz-adv-x="1400" 
d="M725 -25q-199 0 -375.5 61.5t-310.5 182.5l223 266q228 -178 475 -178q88 0 134.5 28.5t46.5 82.5v4q0 51 -54 84t-209 69q-75 17 -131 32.5t-116 38t-102.5 47t-82.5 59t-64 75.5t-38.5 95t-14.5 118v4q0 208 155 340t413 132q353 0 600 -197l-199 -283
q-211 148 -411 148q-75 0 -116.5 -29t-41.5 -74v-4q0 -56 52 -85.5t220 -71.5q107 -25 185.5 -51t148.5 -64.5t113 -85.5t67.5 -112.5t24.5 -147.5v-4q0 -225 -162 -352.5t-430 -127.5z" />
    <glyph glyph-name="uni0406" unicode="&#x406;" horiz-adv-x="716" 
d="M160 0v1491h397v-1491h-397z" />
    <glyph glyph-name="uni0407" unicode="&#x407;" horiz-adv-x="716" 
d="M160 0v1491h397v-1491h-397zM424 1595v291h342v-291h-342zM-45 1595v291h342v-291h-342z" />
    <glyph glyph-name="uni0408" unicode="&#x408;" horiz-adv-x="1218" 
d="M537 -25q-333 0 -517 246l254 248q60 -72 116.5 -106.5t125.5 -34.5q84 0 130 54.5t46 162.5v946h395v-952q0 -271 -145 -416q-148 -148 -405 -148z" />
    <glyph glyph-name="uni0409" unicode="&#x409;" horiz-adv-x="2310" 
d="M1022 0v1171h-10l-609 -1171h-399l791 1491h622v-451h211q287 0 453 -131t166 -379v-2q0 -250 -167.5 -389t-463.5 -139h-594zM1417 338h193q113 0 177 49t64 145v3q0 93 -61 141t-178 47h-195v-385z" />
    <glyph glyph-name="uni040A" unicode="&#x40a;" horiz-adv-x="2359" 
d="M1071 0v573h-526v-573h-395v1491h395v-565h526v565h395v-451h211q287 0 453 -131t166 -379v-2q0 -250 -167.5 -389t-463.5 -139h-594zM1466 338h191q115 0 179.5 49t64.5 145v3q0 92 -62.5 140.5t-179.5 47.5h-193v-385z" />
    <glyph glyph-name="uni040B" unicode="&#x40b;" horiz-adv-x="1855" 
d="M1327 1491v-344h-448v-254q147 25 274 25q276 0 432 -134t156 -409v-375h-395v330q0 127 -59 183t-189 56q-116 0 -219 -20v-549h-396v1147h-420v344h1264z" />
    <glyph glyph-name="uni040C" unicode="&#x40c;" horiz-adv-x="1583" 
d="M643 1595l236 342l364 -116l-309 -226h-291zM150 0v1491h395l-2 -569h82l465 569h475l-627 -723l659 -768h-493l-477 578h-84l2 -578h-395z" />
    <glyph glyph-name="uni040D" unicode="&#x40d;" horiz-adv-x="1689" 
d="M999 1595h-290l-310 226l365 116zM1540 0h-395v874l-649 -874h-346v1491h395v-844l626 844h369v-1491z" />
    <glyph glyph-name="uni040E" unicode="&#x40e;" horiz-adv-x="1595" 
d="M813 1591q-180 0 -289 82t-127 240h238q42 -98 178 -98t178 98h238q-18 -158 -127 -240t-289 -82zM760 0h-443l289 506l-575 985h450l342 -617l320 617h442z" />
    <glyph glyph-name="uni040F" unicode="&#x40f;" horiz-adv-x="1626" 
d="M631 -317v317h-481v1491h395v-1139h536v1139h396v-1491h-480v-317h-366z" />
    <glyph glyph-name="uni0410" unicode="&#x410;" horiz-adv-x="1708" 
d="M29 0l635 1501h378l635 -1501h-422l-112 281h-588l-113 -281h-413zM676 596h346l-172 434z" />
    <glyph glyph-name="uni0411" unicode="&#x411;" horiz-adv-x="1509" 
d="M150 0v1491h1163v-334h-776v-233h346q268 0 410.5 -115t142.5 -330v-2q0 -221 -148 -349t-430 -128h-708zM537 322h307q92 0 144 39t52 108v2q0 67 -50 104t-148 37h-305v-290z" />
    <glyph glyph-name="uni0412" unicode="&#x412;" horiz-adv-x="1542" 
d="M150 0v1491h749q271 0 404 -133q98 -98 98 -244v-6q0 -229 -225 -328q144 -50 219 -136t75 -228v-4q0 -196 -149.5 -304t-415.5 -108h-755zM1010 1030v4q0 133 -195 133h-278v-272h268q205 0 205 135zM1073 465v4q0 65 -52 102t-157 37h-327v-284h331q99 0 152 36t53 105
z" />
    <glyph glyph-name="uni0413" unicode="&#x413;" horiz-adv-x="1331" 
d="M150 0v1491h1122v-346h-727v-1145h-395z" />
    <glyph glyph-name="uni0414" unicode="&#x414;" horiz-adv-x="1888" 
d="M59 352h177l493 1149h430l492 -1149h178v-669h-367v317h-1036v-317h-367v669zM940 1092l-301 -754h598z" />
    <glyph glyph-name="uni0415" unicode="&#x415;" horiz-adv-x="1439" 
d="M150 0v1491h1183v-338h-792v-244h712v-317h-712v-254h802v-338h-1193z" />
    <glyph glyph-name="uni0416" unicode="&#x416;" horiz-adv-x="2367" 
d="M37 1491h471l432 -573h53l-6 573h393l-4 -573h51l441 573h463l-586 -727l625 -764h-474l-460 582h-60l4 -582h-393l6 582h-71l-459 -582h-463l621 748z" />
    <glyph glyph-name="uni0417" unicode="&#x417;" horiz-adv-x="1456" 
d="M283 1022l-195 274q140 108 295 166t356 58q284 0 441 -111.5t157 -298.5v-2q0 -132 -62 -210.5t-194 -131.5q142 -40 217.5 -120.5t75.5 -225.5v-2q0 -95 -42.5 -175.5t-123.5 -141.5t-207 -95.5t-284 -34.5q-375 0 -651 213l196 287q230 -162 455 -162q120 0 188 39.5
t68 110.5v2q0 67 -62.5 104.5t-183.5 36.5h-301v299h303q102 0 156.5 38t54.5 103v2q0 66 -56.5 102t-160.5 36q-216 0 -440 -160z" />
    <glyph glyph-name="uni0418" unicode="&#x418;" horiz-adv-x="1689" 
d="M1540 0h-395v874l-649 -874h-346v1491h395v-844l626 844h369v-1491z" />
    <glyph glyph-name="uni0419" unicode="&#x419;" horiz-adv-x="1689" 
d="M846 1591q-180 0 -289 82t-127 240h238q42 -98 178 -98t178 98h238q-18 -158 -127 -240t-289 -82zM1540 0h-395v874l-649 -874h-346v1491h395v-844l626 844h369v-1491z" />
    <glyph glyph-name="uni041A" unicode="&#x41a;" horiz-adv-x="1583" 
d="M150 0v1491h395l-2 -569h82l465 569h475l-627 -723l659 -768h-493l-477 578h-84l2 -578h-395z" />
    <glyph glyph-name="uni041B" unicode="&#x41b;" horiz-adv-x="1667" 
d="M1014 1501l622 -1501h-438l-371 952l-368 -952h-430l624 1501h361z" />
    <glyph glyph-name="uni041C" unicode="&#x41c;" horiz-adv-x="1865" 
d="M150 0v1491h419l363 -588l364 588h420v-1491h-395v881l-389 -596h-8l-385 592v-877h-389z" />
    <glyph glyph-name="uni041D" unicode="&#x41d;" horiz-adv-x="1636" 
d="M150 0v1491h395v-565h547v565h395v-1491h-395v573h-547v-573h-395z" />
    <glyph glyph-name="uni041E" unicode="&#x41e;" horiz-adv-x="1794" 
d="M895 -29q-169 0 -318 60.5t-254 164t-166 245.5t-61 300v4q0 158 61 301t167 247.5t256 165.5t319 61t318 -60.5t254 -164t166 -245.5t61 -300v-5q0 -158 -61 -301t-167 -247t-255.5 -165t-319.5 -61zM899 330q174 0 282.5 119.5t108.5 291.5v4q0 112 -49 206.5t-140 152
t-206 57.5q-171 0 -281 -120t-110 -291v-5q0 -112 49 -206t140 -151.5t206 -57.5z" />
    <glyph glyph-name="uni041F" unicode="&#x41f;" horiz-adv-x="1626" 
d="M150 0v1491h1327v-1491h-396v1139h-536v-1139h-395z" />
    <glyph glyph-name="uni0420" unicode="&#x420;" horiz-adv-x="1447" 
d="M150 0v1491h634q280 0 444.5 -139.5t164.5 -382.5v-4q0 -129 -48 -231.5t-133 -168.5t-200 -100.5t-252 -34.5h-215v-430h-395zM545 748h211q112 0 176.5 54.5t64.5 145.5v4q0 99 -64 150t-181 51h-207v-405z" />
    <glyph glyph-name="uni0421" unicode="&#x421;" horiz-adv-x="1574" 
d="M864 -29q-212 0 -387.5 99.5t-278 276.5t-102.5 394v4q0 214 100.5 391t281 280.5t403.5 103.5q393 0 622 -293l-291 -242q-73 85 -152.5 129.5t-182.5 44.5q-108 0 -193.5 -56t-131.5 -149t-46 -204v-5q0 -176 104 -294.5t267 -118.5q111 0 188.5 44.5t157.5 135.5
l290 -219q-57 -75 -117.5 -130.5t-138.5 -100.5t-177 -68t-216 -23z" />
    <glyph glyph-name="uni0422" unicode="&#x422;" horiz-adv-x="1417" 
d="M510 0v1141h-447v350h1291v-350h-447v-1141h-397z" />
    <glyph glyph-name="uni0423" unicode="&#x423;" horiz-adv-x="1595" 
d="M760 0h-443l289 506l-575 985h450l342 -617l320 617h442z" />
    <glyph glyph-name="uni0424" unicode="&#x424;" horiz-adv-x="2121" 
d="M862 -25v144q-242 3 -418 83.5t-266 220t-90 322.5v3q0 135 52 249t149 197.5t244 131.5t329 52v138h398v-138q365 -7 569.5 -176.5t204.5 -451.5v-2q0 -135 -52 -249t-149 -197t-244 -131t-329 -52v-144h-398zM489 750v-2q0 -134 96 -216.5t287 -82.5v598
q-190 0 -286.5 -83t-96.5 -214zM1634 748v2q0 131 -97 214t-286 83v-598q189 0 286 84t97 215z" />
    <glyph glyph-name="uni0425" unicode="&#x425;" horiz-adv-x="1574" 
d="M1069 1491h444l-491 -727l514 -764h-457l-295 463l-299 -463h-444l512 758l-492 733h457l273 -434z" />
    <glyph glyph-name="uni0426" unicode="&#x426;" horiz-adv-x="1732" 
d="M1315 -317v317h-1165v1491h395v-1139h536v1139h396v-1139h204v-669h-366z" />
    <glyph glyph-name="uni0427" unicode="&#x427;" horiz-adv-x="1556" 
d="M1010 0v455q-172 -31 -299 -31q-287 0 -438.5 139.5t-151.5 403.5v524h397v-471q0 -127 59 -182.5t189 -55.5q115 0 244 29v680h397v-1491h-397z" />
    <glyph glyph-name="uni0428" unicode="&#x428;" horiz-adv-x="2416" 
d="M150 0v1491h395v-1139h465v1139h397v-1139h465v1139h395v-1491h-2117z" />
    <glyph glyph-name="uni0429" unicode="&#x429;" horiz-adv-x="2529" 
d="M150 0v1491h395v-1139h465v1139h397v-1139h465v1139h395v-1139h211v-669h-367v317h-1961z" />
    <glyph glyph-name="uni042A" unicode="&#x42a;" horiz-adv-x="1806" 
d="M500 0v1153h-437v338h832v-451h229q287 0 453 -131t166 -379v-2q0 -250 -167.5 -389t-463.5 -139h-612zM895 334h209q112 0 178 50t66 142v4q0 92 -62.5 141.5t-179.5 49.5h-211v-387z" />
    <glyph glyph-name="uni042B" unicode="&#x42b;" horiz-adv-x="2109" 
d="M150 0v1491h395v-451h229q287 0 453 -131t166 -379v-2q0 -250 -167.5 -389t-463.5 -139h-612zM545 338h209q115 0 179 49t64 145v3q0 92 -62 140.5t-179 47.5h-211v-385zM1563 0v1491h397v-1491h-397z" />
    <glyph glyph-name="uni042C" unicode="&#x42c;" horiz-adv-x="1456" 
d="M150 0v1491h395v-451h229q287 0 453 -131t166 -379v-2q0 -250 -167.5 -389t-463.5 -139h-612zM545 334h209q112 0 177.5 50t65.5 142v4q0 92 -62 141.5t-179 49.5h-211v-387z" />
    <glyph glyph-name="uni042D" unicode="&#x42d;" horiz-adv-x="1564" 
d="M281 1016l-203 282q125 106 274.5 164t352.5 58q229 0 403.5 -101t267 -275t92.5 -394v-5q0 -161 -56 -303t-156 -246t-248 -164.5t-322 -60.5q-187 0 -338 56t-282 168l215 284q99 -79 191 -118t208 -39q146 0 247 73t136 203l-631 -2v307l629 -4q-35 128 -132.5 199
t-238.5 71q-121 0 -217.5 -39.5t-191.5 -113.5z" />
    <glyph glyph-name="uni042E" unicode="&#x42e;" horiz-adv-x="2402" 
d="M150 0v1491h395v-565h229q38 167 144 301.5t267 213.5t347 79q165 0 310 -61.5t246 -165.5t159.5 -245.5t58.5 -297.5v-5q0 -156 -59 -298t-161 -247t-247.5 -167t-310.5 -62q-188 0 -349 79t-266.5 215.5t-140.5 307.5h-227v-573h-395zM1532 330q163 0 264.5 119.5
t101.5 291.5v4q0 172 -103.5 294t-266.5 122t-265 -119.5t-102 -291.5v-5q0 -113 45.5 -207t131 -151t194.5 -57z" />
    <glyph glyph-name="uni042F" unicode="&#x42f;" horiz-adv-x="1550" 
d="M94 969v2q0 253 173.5 386.5t471.5 133.5h662v-1491h-395v457h-191l-309 -457h-461l365 522q-152 57 -234 173t-82 274zM1006 772v375h-283q-107 2 -169 -46.5t-62 -139.5v-3q0 -88 60 -137t169 -49h285z" />
    <glyph glyph-name="uni0430" unicode="&#x430;" 
d="M453 -25q-169 0 -278 94.5t-109 260.5v4q0 177 121.5 269.5t330.5 92.5q149 0 279 -45v19q0 192 -234 192q-157 0 -317 -63l-84 278q105 44 213 66t250 22q291 0 428 -137q65 -65 94 -153.5t29 -212.5v-662h-381v121q-133 -146 -342 -146zM588 221q94 0 153.5 53.5
t59.5 139.5v53q-72 35 -168 35q-91 0 -143 -40t-52 -108v-4q0 -59 41.5 -94t108.5 -35z" />
    <glyph glyph-name="uni0431" unicode="&#x431;" horiz-adv-x="1423" 
d="M715 -27q-132 0 -246 45t-190 121q-96 96 -145.5 231.5t-49.5 331.5v3q0 365 159 568.5t496 244.5l441 59l45 -334l-441 -57q-170 -23 -257.5 -93t-106.5 -194q163 145 401 145q248 0 386.5 -136.5t138.5 -364.5v-2q0 -161 -79 -290.5t-223.5 -203.5t-328.5 -74zM721 293
q111 0 179.5 71.5t68.5 182.5v2q0 102 -65 169.5t-173 67.5q-116 0 -185 -71t-69 -178q0 -106 67.5 -175t176.5 -69z" />
    <glyph glyph-name="uni0432" unicode="&#x432;" horiz-adv-x="1316" 
d="M125 0v1151h668q193 0 301 -79.5t108 -215.5q0 -103 -49.5 -163t-144.5 -99q117 -35 177 -98t60 -174q0 -156 -120.5 -239t-336.5 -83h-663zM827 795q0 100 -135 100h-190v-205h188q137 0 137 105zM864 362q0 107 -143 107h-219v-215h221q141 0 141 108z" />
    <glyph glyph-name="uni0433" unicode="&#x433;" horiz-adv-x="1101" 
d="M125 0v1151h924v-336h-537v-815h-387z" />
    <glyph glyph-name="uni0434" unicode="&#x434;" horiz-adv-x="1538" 
d="M547 1157h442l361 -821h143v-625h-352v293h-746v-293h-350v625h139zM766 803l-195 -481h387z" />
    <glyph glyph-name="uni0435" unicode="&#x435;" horiz-adv-x="1308" 
d="M690 -27q-270 0 -442 166t-172 430v4q0 166 73.5 303t206.5 217.5t299 80.5q143 0 255 -50.5t181 -138.5t104.5 -199.5t35.5 -240.5q0 -28 -4 -82h-776q24 -97 90.5 -147t165.5 -50q74 0 135 28t125 89l215 -180q-187 -230 -492 -230zM446 670h418q-12 99 -67 157
t-142 58q-84 0 -137.5 -57t-71.5 -158z" />
    <glyph glyph-name="uni0436" unicode="&#x436;" horiz-adv-x="1992" 
d="M1188 1151l-6 -414h63l293 414h436l-428 -563l443 -588h-441l-301 416h-65l6 -416h-383l6 416h-70l-301 -416h-436l440 565l-426 586h441l289 -414h63l-6 414h383z" />
    <glyph glyph-name="uni0437" unicode="&#x437;" horiz-adv-x="1243" 
d="M59 121l144 258q184 -109 397 -109q188 0 188 97v2q0 87 -163 84h-269v245h265q143 0 143 88v2q0 42 -44 66t-124 23q-202 0 -373 -109l-151 246q230 160 544 160q245 0 388 -90.5t143 -243.5v-2q0 -180 -201 -254q223 -68 223 -267v-2q0 -152 -150.5 -247t-408.5 -95
q-313 0 -551 148z" />
    <glyph glyph-name="uni0438" unicode="&#x438;" horiz-adv-x="1392" 
d="M125 0v1151h383v-578l403 578h357v-1151h-383v594l-416 -594h-344z" />
    <glyph glyph-name="uni0439" unicode="&#x439;" horiz-adv-x="1392" 
d="M125 0v1151h383v-578l403 578h357v-1151h-383v594l-416 -594h-344zM696 1249q-178 0 -288 93t-127 260h233q41 -125 182 -125q142 0 183 125h233q-17 -167 -127.5 -260t-288.5 -93z" />
    <glyph glyph-name="uni043A" unicode="&#x43a;" horiz-adv-x="1329" 
d="M512 1151v-412h63l289 412h455l-440 -563l450 -588h-450l-299 414h-68v-414h-387v1151h387z" />
    <glyph glyph-name="uni043B" unicode="&#x43b;" horiz-adv-x="1392" 
d="M877 1159l485 -1159h-412l-256 686l-258 -686h-405l485 1159h361z" />
    <glyph glyph-name="uni043C" unicode="&#x43c;" horiz-adv-x="1574" 
d="M125 0v1151h385l276 -430l281 430h383v-1151h-369v616l-293 -442h-6l-288 436v-610h-369z" />
    <glyph glyph-name="uni043D" unicode="&#x43d;" horiz-adv-x="1392" 
d="M125 0v1151h387v-403h369v403h387v-1151h-387v410h-369v-410h-387z" />
    <glyph glyph-name="uni043E" unicode="&#x43e;" horiz-adv-x="1417" 
d="M707 -27q-180 0 -325 80.5t-225.5 216.5t-80.5 299v4q0 122 48 232t131.5 191.5t202 129.5t253.5 48t253 -47t200 -127.5t129.5 -190t47.5 -231.5v-5q0 -122 -48 -232t-131 -191t-201.5 -129t-253.5 -48zM711 301q114 0 183 77.5t69 190.5v4q0 112 -73.5 192.5
t-182.5 80.5q-114 0 -183 -77.5t-69 -190.5v-5q0 -112 73.5 -192t182.5 -80z" />
    <glyph glyph-name="uni043F" unicode="&#x43f;" horiz-adv-x="1392" 
d="M125 0v1151h1143v-1151h-387v815h-369v-815h-387z" />
    <glyph glyph-name="uni0440" unicode="&#x440;" horiz-adv-x="1454" 
d="M125 -340v1491h387v-156q139 179 350 179q101 0 193.5 -41.5t163.5 -116.5t113 -188.5t42 -247.5v-5q0 -137 -41.5 -252t-111.5 -190t-162.5 -116.5t-194.5 -41.5q-119 0 -202 45t-150 121v-481h-387zM750 301q102 0 172.5 76t70.5 196v5q0 117 -71 194.5t-172 77.5
q-102 0 -173 -77.5t-71 -194.5v-5q0 -117 71 -194.5t173 -77.5z" />
    <glyph glyph-name="uni0441" unicode="&#x441;" horiz-adv-x="1228" 
d="M678 -27q-171 0 -310 81t-215.5 217t-76.5 298v4q0 121 45.5 231t125 192t195 130t248.5 48q318 0 484 -244l-259 -207q-48 61 -100 92t-123 31q-103 0 -170 -78t-67 -190v-5q0 -118 67.5 -195t173.5 -77q71 0 123.5 29.5t106.5 89.5l254 -195q-85 -123 -205 -187.5
t-297 -64.5z" />
    <glyph glyph-name="uni0442" unicode="&#x442;" horiz-adv-x="1243" 
d="M428 0v817h-365v334h1117v-334h-365v-817h-387z" />
    <glyph glyph-name="uni0443" unicode="&#x443;" horiz-adv-x="1339" 
d="M680 438l223 713h397l-423 -1135q-75 -201 -167.5 -282.5t-258.5 -81.5q-178 0 -353 96l121 272q103 -57 168 -57q36 0 58 11t42 40l-450 1137h405z" />
    <glyph glyph-name="uni0444" unicode="&#x444;" horiz-adv-x="1878" 
d="M1128 -340h-378v338q-313 12 -493.5 171t-180.5 402v2q0 244 181 406t493 174v401h378v-401q312 -12 493 -171.5t181 -403.5v-3q0 -245 -180.5 -405t-493.5 -172v-338zM1430 573v2q0 117 -84 188t-230 75v-525q151 1 232.5 71t81.5 189zM449 580v-2q0 -119 83 -190
t230 -75v525q-151 -4 -232 -73.5t-81 -184.5z" />
    <glyph glyph-name="uni0445" unicode="&#x445;" horiz-adv-x="1269" 
d="M457 1151l180 -299l180 299h410l-381 -567l391 -584h-418l-188 311l-191 -311h-409l391 580l-381 571h416z" />
    <glyph glyph-name="uni0446" unicode="&#x446;" horiz-adv-x="1472" 
d="M1071 -289v289h-946v1151h387v-815h369v815h387v-815h155v-625h-352z" />
    <glyph glyph-name="uni0447" unicode="&#x447;" horiz-adv-x="1323" 
d="M811 0v319q-126 -28 -227 -28q-486 0 -486 452v408h385v-371q0 -78 42 -113.5t130 -35.5q82 0 156 22v498h387v-1151h-387z" />
    <glyph glyph-name="uni0448" unicode="&#x448;" horiz-adv-x="2084" 
d="M125 0v1151h387v-815h336v815h387v-815h338v815h387v-1151h-1835z" />
    <glyph glyph-name="uni0449" unicode="&#x449;" horiz-adv-x="2162" 
d="M125 0v1151h387v-815h336v815h387v-815h338v815h387v-815h154v-625h-353v289h-1636z" />
    <glyph glyph-name="uni044A" unicode="&#x44a;" horiz-adv-x="1503" 
d="M53 1151h703v-307h194q236 0 367 -108.5t131 -305.5v-2q0 -191 -136 -309.5t-380 -118.5h-559v831h-320v320zM754 563v-272h151q79 0 123.5 36t44.5 101v2q0 61 -43 97t-123 36h-153z" />
    <glyph glyph-name="uni044B" unicode="&#x44b;" horiz-adv-x="1839" 
d="M508 1151v-307h194q236 0 367 -108.5t131 -305.5v-2q0 -191 -136 -309.5t-380 -118.5h-559v1151h383zM506 563v-272h151q79 0 123.5 36t44.5 101v2q0 61 -44 97t-122 36h-153zM1327 0v1151h387v-1151h-387z" />
    <glyph glyph-name="uni044C" unicode="&#x44c;" horiz-adv-x="1255" 
d="M508 1151v-307h194q236 0 367 -108.5t131 -305.5v-2q0 -191 -136 -309.5t-380 -118.5h-559v1151h383zM506 563v-272h151q79 0 123.5 36t44.5 101v2q0 61 -44 97t-122 36h-153z" />
    <glyph glyph-name="uni044D" unicode="&#x44d;" horiz-adv-x="1253" 
d="M57 131l162 256q80 -58 156.5 -84.5t173.5 -26.5q94 0 165 45.5t97 129.5l-461 -5v259l461 -7q-26 84 -95.5 128t-166.5 44q-170 0 -326 -108l-153 252q111 80 229 120t270 40q137 0 251.5 -44.5t192.5 -123.5t121.5 -190t43.5 -241v-2q0 -127 -44.5 -237.5
t-124.5 -190.5t-196.5 -126t-253.5 -46q-153 0 -272 40.5t-230 117.5z" />
    <glyph glyph-name="uni044E" unicode="&#x44e;" horiz-adv-x="1951" 
d="M512 410v-410h-387v1151h387v-403h160q53 186 217 306t375 120q172 0 313 -80.5t220 -216.5t79 -299v-5q0 -163 -79.5 -300t-221.5 -218.5t-315 -81.5q-217 0 -377 122t-215 315h-156zM1264 301q107 0 172 77.5t65 190.5v4q0 112 -68.5 192.5t-172.5 80.5
q-107 0 -173.5 -78t-66.5 -190v-5q0 -112 69.5 -192t174.5 -80z" />
    <glyph glyph-name="uni044F" unicode="&#x44f;" horiz-adv-x="1329" 
d="M821 348h-106l-238 -348h-424l283 401q-240 101 -240 347v2q0 193 135.5 297t368.5 104h604v-1151h-383v348zM823 872h-194q-73 0 -115.5 -35t-42.5 -96v-2q0 -58 42 -93t114 -34h196v260z" />
    <glyph glyph-name="uni0450" unicode="&#x450;" horiz-adv-x="1308" 
d="M690 -27q-270 0 -442 166t-172 430v4q0 166 73.5 303t206.5 217.5t299 80.5q143 0 255 -50.5t181 -138.5t104.5 -199.5t35.5 -240.5q0 -28 -4 -82h-776q24 -97 90.5 -147t165.5 -50q74 0 135 28t125 89l215 -180q-187 -230 -492 -230zM446 670h418q-12 99 -67 157
t-142 58q-84 0 -137.5 -57t-71.5 -158zM532 1262l-305 268l355 121l223 -389h-273z" />
    <glyph glyph-name="uni0451" unicode="&#x451;" horiz-adv-x="1308" 
d="M711 1262v299h338v-299h-338zM266 1262v299h338v-299h-338zM690 -27q-270 0 -442 166t-172 430v4q0 166 73.5 303t206.5 217.5t299 80.5q143 0 255 -50.5t181 -138.5t104.5 -199.5t35.5 -240.5q0 -28 -4 -82h-776q24 -97 90.5 -147t165.5 -50q74 0 135 28t125 89
l215 -180q-187 -230 -492 -230zM446 670h418q-12 99 -67 157t-142 58q-84 0 -137.5 -57t-71.5 -158z" />
    <glyph glyph-name="uni0452" unicode="&#x452;" horiz-adv-x="1339" 
d="M846 1145h-322v-217q110 28 228 28q487 0 487 -452v-420q0 -216 -108 -324t-330 -108q-91 0 -160 16v266q15 -4 64 -4q139 0 147 138v401q0 80 -42 114.5t-130 34.5q-82 0 -156 -22v-596h-387v1143h-180v284h180v127h387v-127h322v-282z" />
    <glyph glyph-name="uni0453" unicode="&#x453;" horiz-adv-x="1101" 
d="M428 1255l223 390l355 -121l-306 -269h-272zM125 0v1151h924v-336h-537v-815h-387z" />
    <glyph glyph-name="uni0454" unicode="&#x454;" horiz-adv-x="1259" 
d="M1192 1020l-166 -260q-149 110 -305 110q-98 0 -173.5 -44.5t-105.5 -127.5l463 7v-259l-465 5q28 -85 103.5 -130t177.5 -45q163 0 317 111l166 -248q-112 -83 -231.5 -124.5t-270.5 -41.5q-185 0 -328.5 79t-220.5 215t-77 304v4q0 125 45.5 235t126.5 190.5t200.5 127
t260.5 46.5q153 0 265.5 -38.5t217.5 -115.5z" />
    <glyph glyph-name="uni0455" unicode="&#x455;" horiz-adv-x="1105" 
d="M569 -25q-300 0 -532 172l149 238q198 -133 387 -133q111 0 111 65v5q0 12 -5 22.5t-19 19.5t-25.5 15.5t-39 16t-45 14.5t-56.5 16q-5 1 -7 2q-71 18 -124.5 37t-107 49t-87.5 67t-55 90.5t-21 119.5v4q0 176 127 276t326 100q123 0 245 -35t220 -98l-136 -250
q-87 51 -177 80t-156 29q-48 0 -73.5 -17t-25.5 -44v-5q0 -32 41 -53t146 -54q6 -2 10 -3q72 -20 124 -39t106 -49t88 -66t55.5 -88.5t21.5 -116.5v-4q0 -185 -126.5 -284t-338.5 -99z" />
    <glyph glyph-name="uni0456" unicode="&#x456;" horiz-adv-x="657" 
d="M127 1260v294h403v-294h-403zM135 0v1151h387v-1151h-387z" />
    <glyph glyph-name="uni0457" unicode="&#x457;" horiz-adv-x="657" 
d="M383 1255v299h338v-299h-338zM-61 1255v299h337v-299h-337zM135 0v1151h387v-1151h-387z" />
    <glyph glyph-name="uni0458" unicode="&#x458;" horiz-adv-x="659" 
d="M127 1260v294h403v-294h-403zM121 -348q-64 0 -162 16v264q46 -4 57 -4q59 0 89 32t30 103v1088h387v-1106q0 -207 -101 -300t-300 -93z" />
    <glyph glyph-name="uni0459" unicode="&#x459;" horiz-adv-x="1918" 
d="M807 0v858h-4l-406 -858h-399l557 1151h637v-307h174q236 0 367 -108.5t131 -305.5v-2q0 -191 -136 -309.5t-380 -118.5h-541zM1190 291h131q79 0 123.5 36t44.5 101v2q0 61 -43 97t-123 36h-133v-272z" />
    <glyph glyph-name="uni045A" unicode="&#x45a;" horiz-adv-x="1974" 
d="M1247 1151v-307h174q236 0 368 -108.5t132 -305.5v-2q0 -191 -137.5 -309.5t-380.5 -118.5h-541v410h-350v-410h-387v1151h387v-403h350v403h385zM1245 563v-272h131q79 0 123.5 36t44.5 101v2q0 61 -43 97t-123 36h-133z" />
    <glyph glyph-name="uni045B" unicode="&#x45b;" horiz-adv-x="1339" 
d="M524 1554v-127h322v-282h-322v-217q110 28 228 28q487 0 487 -452v-504h-387v469q0 80 -42 114.5t-130 34.5q-82 0 -156 -22v-596h-387v1143h-180v284h180v127h387z" />
    <glyph glyph-name="uni045C" unicode="&#x45c;" horiz-adv-x="1329" 
d="M545 1255l223 390l354 -121l-305 -269h-272zM512 1151v-412h63l289 412h455l-440 -563l450 -588h-450l-299 414h-68v-414h-387v1151h387z" />
    <glyph glyph-name="uni045D" unicode="&#x45d;" horiz-adv-x="1392" 
d="M571 1255l-305 269l355 121l223 -390h-273zM125 0v1151h383v-578l403 578h357v-1151h-383v594l-416 -594h-344z" />
    <glyph glyph-name="uni045E" unicode="&#x45e;" horiz-adv-x="1339" 
d="M680 438l223 713h397l-423 -1135q-75 -201 -167.5 -282.5t-258.5 -81.5q-178 0 -353 96l121 272q103 -57 168 -57q36 0 58 11t42 40l-450 1137h405zM674 1249q-178 0 -288.5 93t-127.5 260h234q41 -125 182 -125t182 125h234q-17 -167 -127.5 -260t-288.5 -93z" />
    <glyph glyph-name="uni045F" unicode="&#x45f;" horiz-adv-x="1392" 
d="M125 0v1151h387v-815h369v815h387v-1151h-396v-289h-352v289h-395z" />
    <glyph glyph-name="uni0462" unicode="&#x462;" horiz-adv-x="1800" 
d="M883 883h311q255 0 399 -109.5t144 -318.5v-2q0 -206 -147.5 -329.5t-420.5 -123.5h-675v1053h-431v305h431v158h389v-158h477v-295h-477v-180zM1171 586h-290v-275h288q85 0 131 36t46 102v2q0 64 -45 99.5t-130 35.5z" />
    <glyph glyph-name="uni0463" unicode="&#x463;" horiz-adv-x="1501" 
d="M754 735h241q215 0 333 -93t118 -265v-2q0 -169 -122.5 -272t-344.5 -103h-610v860h-316v291h316v403h385v-403h399v-285h-399v-131zM750 479v-213h182q68 0 104.5 27.5t36.5 81.5v2q0 49 -34.5 76t-104.5 26h-184z" />
    <glyph glyph-name="uni0472" unicode="&#x472;" horiz-adv-x="1773" 
d="M885 -29q-168 0 -315.5 60.5t-251 164t-163 245.5t-59.5 300v4q0 159 60 301.5t164.5 247t252.5 165.5t316 61t315.5 -60.5t250.5 -164t162.5 -245.5t59.5 -300v-5q0 -159 -60 -301.5t-164 -246.5t-252 -165t-316 -61zM889 305q151 0 256 78t141 213h-799
q36 -132 143 -211.5t259 -79.5zM885 1186q-148 0 -254.5 -76.5t-141.5 -206.5h793q-39 129 -145 206t-252 77z" />
    <glyph glyph-name="uni0473" unicode="&#x473;" horiz-adv-x="1398" 
d="M698 -27q-133 0 -249.5 47t-198 127.5t-128 190t-46.5 231.5v4q0 122 47.5 232t129.5 191.5t199 129.5t250 48q176 0 319 -80.5t222.5 -216.5t79.5 -299v-5q0 -163 -80.5 -300t-224.5 -218.5t-320 -81.5zM702 270q97 0 166.5 51t94.5 138h-527q29 -88 99.5 -138.5
t166.5 -50.5zM698 879q-97 0 -167 -51t-95 -138h525q-26 86 -97.5 137.5t-165.5 51.5z" />
    <glyph glyph-name="uni0474" unicode="&#x474;" horiz-adv-x="1716" 
d="M621 -10l-592 1501h440l342 -965l188 521q94 257 224 352.5t376 95.5h72v-346h-22q-110 0 -172 -46t-115 -173l-375 -940h-366z" />
    <glyph glyph-name="uni0475" unicode="&#x475;" horiz-adv-x="1380" 
d="M481 -8l-448 1159h411l224 -692l98 291q53 154 114 239.5t154 125.5t236 40q55 0 69 -2v-307h-4q-92 0 -143 -42t-94 -149l-262 -663h-355z" />
    <glyph glyph-name="uni0490" unicode="&#x490;" horiz-adv-x="1331" 
d="M150 1491h755v303h367v-653h-727v-1141h-395v1491z" />
    <glyph glyph-name="uni0491" unicode="&#x491;" horiz-adv-x="1101" 
d="M125 0v1151h577v262h347v-598h-537v-815h-387z" />
    <glyph glyph-name="uni0492" unicode="&#x492;" horiz-adv-x="1427" 
d="M246 0v551h-168v268h168v672h1122v-346h-727v-328h342v-266h-342v-551h-395z" />
    <glyph glyph-name="uni0493" unicode="&#x493;" horiz-adv-x="1150" 
d="M176 0v401h-137v189h137v561h924v-336h-537v-225h254v-189h-254v-401h-387z" />
    <glyph glyph-name="uni0496" unicode="&#x496;" horiz-adv-x="2408" 
d="M2331 1491l-586 -727l336 -412h299v-669h-367v317h-117l-460 582h-60l4 -582h-393l6 582h-71l-459 -582h-463l621 748l-584 743h471l432 -573h53l-6 573h393l-4 -573h51l441 573h463z" />
    <glyph glyph-name="uni0497" unicode="&#x497;" horiz-adv-x="2023" 
d="M1974 1151l-428 -563l189 -252h272v-625h-352v289h-107l-301 416h-65l6 -416h-383l6 416h-70l-301 -416h-436l440 565l-426 586h441l289 -414h63l-6 414h383l-6 -414h63l293 414h436z" />
    <glyph glyph-name="uni0498" unicode="&#x498;" horiz-adv-x="1456" 
d="M283 1022l-195 274q140 108 295 166t356 58q284 0 441 -111.5t157 -298.5v-2q0 -132 -62 -210.5t-194 -131.5q142 -40 217.5 -120.5t75.5 -225.5v-2q0 -167 -126 -285t-361 -149l14 -301h-375l11 301q-274 43 -471 200l196 287q230 -162 455 -162q120 0 188 39.5
t68 110.5v2q0 67 -62.5 104.5t-183.5 36.5h-301v299h303q102 0 156.5 38t54.5 103v2q0 66 -56.5 102t-160.5 36q-216 0 -440 -160z" />
    <glyph glyph-name="uni0499" unicode="&#x499;" horiz-adv-x="1243" 
d="M59 121l144 258q184 -109 397 -109q188 0 188 97v2q0 87 -163 84h-269v245h265q143 0 143 88v2q0 42 -44 66t-124 23q-202 0 -373 -109l-151 246q230 160 544 160q245 0 388 -90.5t143 -243.5v-2q0 -180 -201 -254q223 -68 223 -267v-2q0 -126 -103 -213t-290 -116
l15 -275h-365l12 275q-224 33 -379 135z" />
    <glyph glyph-name="uni049A" unicode="&#x49a;" horiz-adv-x="1626" 
d="M150 0v1491h395l-2 -569h82l465 569h475l-627 -723l356 -416h308v-669h-367v317h-131l-477 578h-84l2 -578h-395z" />
    <glyph glyph-name="uni049B" unicode="&#x49b;" horiz-adv-x="1351" 
d="M512 1151v-412h63l289 412h455l-440 -563l192 -252h262v-625h-352v289h-102l-299 414h-68v-414h-387v1151h387z" />
    <glyph glyph-name="uni049C" unicode="&#x49c;" horiz-adv-x="1691" 
d="M1642 1491l-485 -705l514 -786h-457l-344 543h-2l11 -326h-203l6 381h-137v-598h-395v1491h395v-576h137l-6 400h203l-11 -344h2l330 520h442z" />
    <glyph glyph-name="uni049D" unicode="&#x49d;" horiz-adv-x="1456" 
d="M1425 1151l-381 -543l392 -608h-424l-254 428h-2l8 -281h-164l2 306h-92v-453h-385v1151h385v-424h92l-2 293h164l-8 -275h2l254 406h413z" />
    <glyph glyph-name="uni04A0" unicode="&#x4a0;" horiz-adv-x="1935" 
d="M63 1153v338h832l-2 -569h82l465 569h475l-627 -723l660 -768h-494l-477 578h-84l2 -578h-395v1153h-437z" />
    <glyph glyph-name="uni04A1" unicode="&#x4a1;" horiz-adv-x="1579" 
d="M762 1151v-412h63l289 412h455l-441 -563l451 -588h-451l-299 414h-67v-414h-387v831h-322v320h709z" />
    <glyph glyph-name="uni04A2" unicode="&#x4a2;" horiz-adv-x="1742" 
d="M150 0v1491h395v-565h547v565h395v-1139h205v-669h-367v317h-233v573h-547v-573h-395z" />
    <glyph glyph-name="uni04A3" unicode="&#x4a3;" horiz-adv-x="1472" 
d="M125 0v1151h387v-403h369v403h387v-815h155v-625h-352v289h-190v410h-369v-410h-387z" />
    <glyph glyph-name="uni04A4" unicode="&#x4a4;" horiz-adv-x="2185" 
d="M1071 0v573h-526v-573h-395v1491h395v-565h526v565h1057v-346h-660v-1145h-397z" />
    <glyph glyph-name="uni04A5" unicode="&#x4a5;" horiz-adv-x="1818" 
d="M862 0v410h-350v-410h-387v1151h387v-403h350v403h903v-336h-516v-815h-387z" />
    <glyph glyph-name="uni04AA" unicode="&#x4aa;" horiz-adv-x="1574" 
d="M674 -317l12 309q-259 60 -424.5 264.5t-165.5 484.5v4q0 214 100.5 391t281 280.5t403.5 103.5q393 0 622 -293l-291 -242q-73 85 -152.5 129.5t-182.5 44.5q-108 0 -193.5 -56t-131.5 -149t-46 -204v-5q0 -176 104 -294.5t267 -118.5q111 0 188.5 44.5t157.5 135.5
l290 -219q-95 -125 -208.5 -202t-268.5 -105l13 -303h-375z" />
    <glyph glyph-name="uni04AB" unicode="&#x4ab;" horiz-adv-x="1228" 
d="M489 -289l13 287q-189 52 -307.5 212t-118.5 359v4q0 121 45.5 231t125 192t195 130t248.5 48q318 0 484 -244l-259 -207q-48 61 -100 92t-123 31q-103 0 -170 -78t-67 -190v-5q0 -118 67.5 -195t173.5 -77q71 0 123.5 29.5t106.5 89.5l254 -195q-66 -92 -147.5 -151
t-192.5 -84l14 -279h-365z" />
    <glyph glyph-name="uni04AE" unicode="&#x4ae;" horiz-adv-x="1552" 
d="M580 0v563l-570 928h453l315 -555l322 555h444l-569 -920v-571h-395z" />
    <glyph glyph-name="uni04AF" unicode="&#x4af;" horiz-adv-x="1337" 
d="M1303 1151l-441 -1112v-379h-387v377l-442 1114h411l226 -688l229 688h404z" />
    <glyph glyph-name="uni04B0" unicode="&#x4b0;" horiz-adv-x="1552" 
d="M580 0v352h-342v269h307l-535 870h453l315 -555l322 555h444l-538 -870h309v-269h-340v-352h-395z" />
    <glyph glyph-name="uni04B1" unicode="&#x4b1;" horiz-adv-x="1337" 
d="M1178 190v-190h-316v-340h-387v340h-317v190h256l-381 961h411l226 -688l229 688h404l-381 -961h256z" />
    <glyph glyph-name="uni04B2" unicode="&#x4b2;" horiz-adv-x="1636" 
d="M1069 1491h444l-491 -727l276 -412h295v-669h-366v317h-148l-295 463l-299 -463h-444l512 758l-492 733h457l273 -434z" />
    <glyph glyph-name="uni04B3" unicode="&#x4b3;" horiz-adv-x="1312" 
d="M457 1151l180 -299l180 299h410l-381 -567l166 -248h272v-625h-352v289h-113l-188 311l-191 -311h-409l391 580l-381 571h416z" />
    <glyph glyph-name="uni04B6" unicode="&#x4b6;" horiz-adv-x="1660" 
d="M1010 0v455q-172 -31 -299 -31q-287 0 -438.5 139.5t-151.5 403.5v524h397v-471q0 -127 59 -182.5t189 -55.5q115 0 244 29v680h397v-1139h203v-669h-367v317h-233z" />
    <glyph glyph-name="uni04B7" unicode="&#x4b7;" horiz-adv-x="1402" 
d="M811 0v319q-126 -28 -227 -28q-486 0 -486 452v408h385v-371q0 -78 42 -113.5t130 -35.5q82 0 156 22v498h387v-815h156v-625h-353v289h-190z" />
    <glyph glyph-name="uni04B8" unicode="&#x4b8;" horiz-adv-x="1566" 
d="M1020 0v465q-56 -12 -154 -23l4 -297h-202l4 287q-260 8 -404.5 142t-144.5 401v516h395v-467q0 -102 38 -157t118 -72l-6 395h202l-4 -399q105 11 154 26v674h397v-1491h-397z" />
    <glyph glyph-name="uni04B9" unicode="&#x4b9;" horiz-adv-x="1349" 
d="M842 0v328q-46 -12 -105 -21l4 -215h-166l5 205q-232 5 -357 114t-125 349v391h381v-367q0 -121 101 -145l-5 276h166l-6 -282q65 10 107 22v496h383v-1151h-383z" />
    <glyph glyph-name="uni04BA" unicode="&#x4ba;" horiz-adv-x="1556" 
d="M545 1491v-457q183 33 301 33q287 0 437.5 -139.5t150.5 -403.5v-524h-396v471q0 127 -58.5 182.5t-188.5 55.5q-115 0 -246 -31v-678h-395v1491h395z" />
    <glyph glyph-name="uni04BB" unicode="&#x4bb;" horiz-adv-x="1361" 
d="M125 0v1554h387v-563q141 183 342 183q185 0 289 -112.5t104 -311.5v-750h-389v627q0 97 -45.5 149.5t-124.5 52.5q-80 0 -128 -53t-48 -149v-627h-387z" />
    <glyph glyph-name="uni04C0" unicode="&#x4c0;" horiz-adv-x="716" 
d="M160 0v1491h397v-1491h-397z" />
    <glyph glyph-name="uni04C1" unicode="&#x4c1;" horiz-adv-x="2367" 
d="M1184 1591q-180 0 -289 82t-127 240h238q42 -98 178 -98t178 98h237q-19 -158 -127 -240t-288 -82zM37 1491h471l432 -573h53l-6 573h393l-4 -573h51l441 573h463l-586 -727l625 -764h-474l-460 582h-60l4 -582h-393l6 582h-71l-459 -582h-463l621 748z" />
    <glyph glyph-name="uni04C2" unicode="&#x4c2;" horiz-adv-x="1992" 
d="M1188 1151l-6 -414h63l293 414h436l-428 -563l443 -588h-441l-301 416h-65l6 -416h-383l6 416h-70l-301 -416h-436l440 565l-426 586h441l289 -414h63l-6 414h383zM995 1249q-178 0 -288 93t-127 260h233q41 -125 182 -125q142 0 183 125h233q-17 -167 -127.5 -260
t-288.5 -93z" />
    <glyph glyph-name="uni04CF" unicode="&#x4cf;" horiz-adv-x="657" 
d="M135 0v1554h387v-1554h-387z" />
    <glyph glyph-name="uni04D0" unicode="&#x4d0;" horiz-adv-x="1708" 
d="M29 0l635 1501h378l635 -1501h-422l-112 281h-588l-113 -281h-413zM676 596h346l-172 434zM854 1612q-180 0 -289 82t-127 239h238q42 -98 178 -98t178 98h238q-18 -157 -127 -239t-289 -82z" />
    <glyph glyph-name="uni04D1" unicode="&#x4d1;" 
d="M453 -25q-169 0 -278 94.5t-109 260.5v4q0 177 121.5 269.5t330.5 92.5q149 0 279 -45v19q0 192 -234 192q-157 0 -317 -63l-84 278q105 44 213 66t250 22q291 0 428 -137q65 -65 94 -153.5t29 -212.5v-662h-381v121q-133 -146 -342 -146zM588 221q94 0 153.5 53.5
t59.5 139.5v53q-72 35 -168 35q-91 0 -143 -40t-52 -108v-4q0 -59 41.5 -94t108.5 -35zM651 1255q-178 0 -288 93t-127 260h233q41 -125 182 -125q142 0 183 125h233q-17 -167 -127.5 -260t-288.5 -93z" />
    <glyph glyph-name="uni04D2" unicode="&#x4d2;" horiz-adv-x="1708" 
d="M29 0l635 1501h378l635 -1501h-422l-112 281h-588l-113 -281h-413zM676 596h346l-172 434zM918 1616v291h342v-291h-342zM449 1616v291h342v-291h-342z" />
    <glyph glyph-name="uni04D3" unicode="&#x4d3;" 
d="M453 -25q-169 0 -278 94.5t-109 260.5v4q0 177 121.5 269.5t330.5 92.5q149 0 279 -45v19q0 192 -234 192q-157 0 -317 -63l-84 278q105 44 213 66t250 22q291 0 428 -137q65 -65 94 -153.5t29 -212.5v-662h-381v121q-133 -146 -342 -146zM588 221q94 0 153.5 53.5
t59.5 139.5v53q-72 35 -168 35q-91 0 -143 -40t-52 -108v-4q0 -59 41.5 -94t108.5 -35zM705 1262v299h337v-299h-337zM260 1262v299h338v-299h-338z" />
    <glyph glyph-name="uni04D4" unicode="&#x4d4;" horiz-adv-x="2271" 
d="M4 0l791 1491h1372v-338h-744v-244h664v-317h-664v-254h754v-338h-1141v281h-485l-148 -281h-399zM713 596h323v567h-28z" />
    <glyph glyph-name="uni04D5" unicode="&#x4d5;" horiz-adv-x="2023" 
d="M494 -25q-187 0 -307.5 92.5t-120.5 262.5v4q0 177 121.5 269.5t330.5 92.5q149 0 279 -45v19q0 192 -234 192q-157 0 -317 -63l-84 278q105 44 213 66t250 22q261 0 389 -131q146 140 364 140q139 0 248.5 -50.5t178 -138t104 -200t35.5 -240.5q0 -59 -5 -82h-774
q25 -97 90 -147t164 -50q73 0 133.5 27.5t128.5 89.5l215 -180q-187 -230 -493 -230q-136 0 -251.5 45t-195.5 127q-233 -170 -462 -170zM1159 670h420q-12 99 -67.5 157t-141.5 58q-85 0 -139 -57.5t-72 -157.5zM592 225q126 0 246 99q-32 85 -39 145q-86 33 -166 33
q-91 0 -143 -40t-52 -108v-4q0 -58 43 -91.5t111 -33.5z" />
    <glyph glyph-name="uni04D6" unicode="&#x4d6;" horiz-adv-x="1439" 
d="M748 1591q-180 0 -289 82t-127 240h237q42 -98 179 -98q136 0 178 98h237q-19 -158 -127 -240t-288 -82zM150 0v1491h1183v-338h-792v-244h712v-317h-712v-254h802v-338h-1193z" />
    <glyph glyph-name="uni04D7" unicode="&#x4d7;" horiz-adv-x="1308" 
d="M690 -27q-270 0 -442 166t-172 430v4q0 166 73.5 303t206.5 217.5t299 80.5q143 0 255 -50.5t181 -138.5t104.5 -199.5t35.5 -240.5q0 -28 -4 -82h-776q24 -97 90.5 -147t165.5 -50q74 0 135 28t125 89l215 -180q-187 -230 -492 -230zM446 670h418q-12 99 -67 157
t-142 58q-84 0 -137.5 -57t-71.5 -158zM657 1255q-178 0 -288 93t-127 260h233q41 -125 182 -125q142 0 183 125h233q-17 -167 -127.5 -260t-288.5 -93z" />
    <glyph glyph-name="uni04D8" unicode="&#x4d8;" horiz-adv-x="1697" 
d="M410 999l-220 267q254 254 635 254q166 0 310.5 -57.5t247 -158.5t161 -244.5t58.5 -309.5v-5q0 -158 -55 -299.5t-152.5 -246.5t-241 -166.5t-311.5 -61.5q-177 0 -320 63.5t-235.5 174t-141.5 258t-49 317.5v2q0 54 6 107h1088q-35 131 -131.5 203.5t-237.5 72.5
q-124 0 -219.5 -42t-191.5 -128zM844 307q135 0 226 78t122 213h-690q18 -127 109.5 -209t232.5 -82z" />
    <glyph glyph-name="uni04D9" unicode="&#x4d9;" horiz-adv-x="1308" 
d="M618 1176q270 0 442.5 -165t172.5 -429v-4q0 -166 -73.5 -303.5t-206.5 -218.5t-298 -81q-143 0 -255 50.5t-180.5 138.5t-104 199.5t-35.5 240.5q0 53 2 84h776q-24 97 -90 147t-164 50q-74 0 -136 -28.5t-126 -90.5l-215 182q185 228 491 228zM864 481h-420
q12 -99 67.5 -157t141.5 -58q85 0 139 57.5t72 157.5z" />
    <glyph glyph-name="uni04DC" unicode="&#x4dc;" horiz-adv-x="2367" 
d="M1247 1595v291h342v-291h-342zM778 1595v291h342v-291h-342zM37 1491h471l432 -573h53l-6 573h393l-4 -573h51l441 573h463l-586 -727l625 -764h-474l-460 582h-60l4 -582h-393l6 582h-71l-459 -582h-463l621 748z" />
    <glyph glyph-name="uni04DD" unicode="&#x4dd;" horiz-adv-x="1992" 
d="M1049 1255v299h337v-299h-337zM604 1255v299h338v-299h-338zM1188 1151l-6 -414h63l293 414h436l-428 -563l443 -588h-441l-301 416h-65l6 -416h-383l6 416h-70l-301 -416h-436l440 565l-426 586h441l289 -414h63l-6 414h383z" />
    <glyph glyph-name="uni04DE" unicode="&#x4de;" horiz-adv-x="1456" 
d="M791 1604v290h342v-290h-342zM322 1604v290h342v-290h-342zM283 1022l-195 274q140 108 295 166t356 58q284 0 441 -111.5t157 -298.5v-2q0 -132 -62 -210.5t-194 -131.5q142 -40 217.5 -120.5t75.5 -225.5v-2q0 -95 -42.5 -175.5t-123.5 -141.5t-207 -95.5t-284 -34.5
q-375 0 -651 213l196 287q230 -162 455 -162q120 0 188 39.5t68 110.5v2q0 67 -62.5 104.5t-183.5 36.5h-301v299h303q102 0 156.5 38t54.5 103v2q0 66 -56.5 102t-160.5 36q-216 0 -440 -160z" />
    <glyph glyph-name="uni04DF" unicode="&#x4df;" horiz-adv-x="1243" 
d="M674 1262v299h338v-299h-338zM229 1262v299h338v-299h-338zM59 121l144 258q184 -109 397 -109q188 0 188 97v2q0 87 -163 84h-269v245h265q143 0 143 88v2q0 42 -44 66t-124 23q-202 0 -373 -109l-151 246q230 160 544 160q245 0 388 -90.5t143 -243.5v-2
q0 -180 -201 -254q223 -68 223 -267v-2q0 -152 -150.5 -247t-408.5 -95q-313 0 -551 148z" />
    <glyph glyph-name="uni04E2" unicode="&#x4e2;" horiz-adv-x="1689" 
d="M426 1610v245h840v-245h-840zM1540 0h-395v874l-649 -874h-346v1491h395v-844l626 844h369v-1491z" />
    <glyph glyph-name="uni04E3" unicode="&#x4e3;" horiz-adv-x="1392" 
d="M301 1270v237h791v-237h-791zM125 0v1151h383v-578l403 578h357v-1151h-383v594l-416 -594h-344z" />
    <glyph glyph-name="uni04E4" unicode="&#x4e4;" horiz-adv-x="1689" 
d="M909 1595v291h342v-291h-342zM440 1595v291h342v-291h-342zM1540 0h-395v874l-649 -874h-346v1491h395v-844l626 844h369v-1491z" />
    <glyph glyph-name="uni04E5" unicode="&#x4e5;" horiz-adv-x="1392" 
d="M750 1255v299h337v-299h-337zM305 1255v299h338v-299h-338zM125 0v1151h383v-578l403 578h357v-1151h-383v594l-416 -594h-344z" />
    <glyph glyph-name="uni04E6" unicode="&#x4e6;" horiz-adv-x="1794" 
d="M961 1616v291h342v-291h-342zM492 1616v291h342v-291h-342zM895 -29q-169 0 -318 60.5t-254 164t-166 245.5t-61 300v4q0 158 61 301t167 247.5t256 165.5t319 61t318 -60.5t254 -164t166 -245.5t61 -300v-5q0 -158 -61 -301t-167 -247t-255.5 -165t-319.5 -61zM899 330
q174 0 282.5 119.5t108.5 291.5v4q0 112 -49 206.5t-140 152t-206 57.5q-171 0 -281 -120t-110 -291v-5q0 -112 49 -206t140 -151.5t206 -57.5z" />
    <glyph glyph-name="uni04E7" unicode="&#x4e7;" horiz-adv-x="1417" 
d="M762 1262v299h338v-299h-338zM317 1262v299h338v-299h-338zM707 -27q-180 0 -325 80.5t-225.5 216.5t-80.5 299v4q0 122 48 232t131.5 191.5t202 129.5t253.5 48t253 -47t200 -127.5t129.5 -190t47.5 -231.5v-5q0 -122 -48 -232t-131 -191t-201.5 -129t-253.5 -48z
M711 301q114 0 183 77.5t69 190.5v4q0 112 -73.5 192.5t-182.5 80.5q-114 0 -183 -77.5t-69 -190.5v-5q0 -112 73.5 -192t182.5 -80z" />
    <glyph glyph-name="uni04E8" unicode="&#x4e8;" horiz-adv-x="1773" 
d="M885 -29q-168 0 -315.5 60.5t-251 164t-163 245.5t-59.5 300v4q0 159 60 301.5t164.5 247t252.5 165.5t316 61t315.5 -60.5t250.5 -164t162.5 -245.5t59.5 -300v-5q0 -159 -60 -301.5t-164 -246.5t-252 -165t-316 -61zM889 305q151 0 256 78t141 213h-799
q36 -132 143 -211.5t259 -79.5zM885 1186q-148 0 -254.5 -76.5t-141.5 -206.5h793q-39 129 -145 206t-252 77z" />
    <glyph glyph-name="uni04E9" unicode="&#x4e9;" horiz-adv-x="1398" 
d="M698 -27q-133 0 -249.5 47t-198 127.5t-128 190t-46.5 231.5v4q0 122 47.5 232t129.5 191.5t199 129.5t250 48q176 0 319 -80.5t222.5 -216.5t79.5 -299v-5q0 -163 -80.5 -300t-224.5 -218.5t-320 -81.5zM702 270q97 0 166.5 51t94.5 138h-527q29 -88 99.5 -138.5
t166.5 -50.5zM698 879q-97 0 -167 -51t-95 -138h525q-26 86 -97.5 137.5t-165.5 51.5z" />
    <glyph glyph-name="uni04EE" unicode="&#x4ee;" horiz-adv-x="1595" 
d="M393 1610v245h840v-245h-840zM760 0h-443l289 506l-575 985h450l342 -617l320 617h442z" />
    <glyph glyph-name="uni04EF" unicode="&#x4ef;" horiz-adv-x="1339" 
d="M680 438l223 713h397l-423 -1135q-75 -201 -167.5 -282.5t-258.5 -81.5q-178 0 -353 96l121 272q103 -57 168 -57q36 0 58 11t42 40l-450 1137h405zM279 1270v237h790v-237h-790z" />
    <glyph glyph-name="uni04F0" unicode="&#x4f0;" horiz-adv-x="1595" 
d="M877 1595v291h342v-291h-342zM408 1595v291h342v-291h-342zM760 0h-443l289 506l-575 985h450l342 -617l320 617h442z" />
    <glyph glyph-name="uni04F1" unicode="&#x4f1;" horiz-adv-x="1339" 
d="M680 438l223 713h397l-423 -1135q-75 -201 -167.5 -282.5t-258.5 -81.5q-178 0 -353 96l121 272q103 -57 168 -57q36 0 58 11t42 40l-450 1137h405zM727 1255v299h338v-299h-338zM283 1255v299h338v-299h-338z" />
    <glyph glyph-name="uni04F2" unicode="&#x4f2;" horiz-adv-x="1595" 
d="M760 0h-443l289 506l-575 985h450l342 -617l320 617h442zM442 1595l228 342l340 -116l-301 -226h-267zM860 1595l227 342l340 -116l-301 -226h-266z" />
    <glyph glyph-name="uni04F3" unicode="&#x4f3;" horiz-adv-x="1339" 
d="M680 438l223 713h397l-423 -1135q-75 -201 -167.5 -282.5t-258.5 -81.5q-178 0 -353 96l121 272q103 -57 168 -57q36 0 58 11t42 40l-450 1137h405zM721 1255l215 387l338 -120l-301 -267h-252zM315 1255l213 390l338 -121l-299 -269h-252z" />
    <glyph glyph-name="uni04F4" unicode="&#x4f4;" horiz-adv-x="1556" 
d="M1010 0v455q-172 -31 -299 -31q-287 0 -438.5 139.5t-151.5 403.5v524h397v-471q0 -127 59 -182.5t189 -55.5q115 0 244 29v680h397v-1491h-397zM827 1595v291h342v-291h-342zM358 1595v291h342v-291h-342z" />
    <glyph glyph-name="uni04F5" unicode="&#x4f5;" horiz-adv-x="1323" 
d="M700 1255v299h338v-299h-338zM256 1255v299h338v-299h-338zM811 0v319q-126 -28 -227 -28q-486 0 -486 452v408h385v-371q0 -78 42 -113.5t130 -35.5q82 0 156 22v498h387v-1151h-387z" />
    <glyph glyph-name="uni04F8" unicode="&#x4f8;" horiz-adv-x="2109" 
d="M150 0v1491h395v-451h229q287 0 453 -131t166 -379v-2q0 -250 -167.5 -389t-463.5 -139h-612zM545 338h209q115 0 179 49t64 145v3q0 92 -62 140.5t-179 47.5h-211v-385zM1563 0v1491h397v-1491h-397zM1114 1595v291h342v-291h-342zM645 1595v291h342v-291h-342z" />
    <glyph glyph-name="uni04F9" unicode="&#x4f9;" horiz-adv-x="1839" 
d="M971 1255v299h338v-299h-338zM526 1255v299h338v-299h-338zM508 1151v-307h194q236 0 367 -108.5t131 -305.5v-2q0 -191 -136 -309.5t-380 -118.5h-559v1151h383zM506 563v-272h151q79 0 123.5 36t44.5 101v2q0 61 -44 97t-122 36h-153zM1327 0v1151h387v-1151h-387z" />
    <glyph glyph-name="baht" unicode="&#xe3f;" horiz-adv-x="1409" 
d="M690 1661h195l-19 -172q204 -12 324.5 -109.5t120.5 -271.5v-4q0 -231 -228 -330q83 -36 137 -77.5t88.5 -111t34.5 -163.5v-6q0 -200 -146 -308t-400 -108h-86l-23 -244h-196l22 244h-397v1491h553h2zM788 629h-24l-33 -334h62q101 0 154.5 42t53.5 126v2
q0 78 -53.5 121.5t-159.5 42.5zM449 872h169l33 324h-2h-200v-324zM977 1036v2q0 138 -156 156l-33 -322q189 9 189 164zM449 295h108l35 334h-143v-334z" />
    <glyph glyph-name="Wgrave" unicode="&#x1e80;" horiz-adv-x="2398" 
d="M1354 1595h-291l-309 226l364 116zM547 -10l-500 1501h420l268 -893l297 897h342l297 -897l268 893h412l-500 -1501h-346l-307 880l-305 -880h-346z" />
    <glyph glyph-name="wgrave" unicode="&#x1e81;" horiz-adv-x="1849" 
d="M391 -8l-352 1159h383l158 -604l184 608h321l189 -610l162 606h374l-356 -1159h-336l-194 618l-199 -618h-334zM801 1255l-305 269l354 121l223 -390h-272z" />
    <glyph glyph-name="Wacute" unicode="&#x1e82;" horiz-adv-x="2398" 
d="M1044 1595l236 342l365 -116l-310 -226h-291zM547 -10l-500 1501h420l268 -893l297 897h342l297 -897l268 893h412l-500 -1501h-346l-307 880l-305 -880h-346z" />
    <glyph glyph-name="wacute" unicode="&#x1e83;" horiz-adv-x="1849" 
d="M776 1255l223 390l355 -121l-305 -269h-273zM391 -8l-352 1159h383l158 -604l184 608h321l189 -610l162 606h374l-356 -1159h-336l-194 618l-199 -618h-334z" />
    <glyph glyph-name="Wdieresis" unicode="&#x1e84;" horiz-adv-x="2398" 
d="M1262 1595v291h342v-291h-342zM793 1595v291h342v-291h-342zM547 -10l-500 1501h420l268 -893l297 897h342l297 -897l268 893h412l-500 -1501h-346l-307 880l-305 -880h-346z" />
    <glyph glyph-name="wdieresis" unicode="&#x1e85;" horiz-adv-x="1849" 
d="M977 1255v299h338v-299h-338zM532 1255v299h338v-299h-338zM391 -8l-352 1159h383l158 -604l184 608h321l189 -610l162 606h374l-356 -1159h-336l-194 618l-199 -618h-334z" />
    <glyph glyph-name="Ygrave" unicode="&#x1ef2;" horiz-adv-x="1552" 
d="M580 0v563l-570 928h453l315 -555l322 555h444l-569 -920v-571h-395zM932 1595h-291l-309 226l364 116z" />
    <glyph glyph-name="ygrave" unicode="&#x1ef3;" horiz-adv-x="1339" 
d="M680 438l223 713h397l-423 -1135q-75 -201 -167.5 -282.5t-258.5 -81.5q-178 0 -353 96l121 272q103 -57 168 -57q36 0 58 11t42 40l-450 1137h405zM551 1255l-305 269l354 121l223 -390h-272z" />
    <glyph glyph-name="enspace" unicode="&#x2002;" horiz-adv-x="1024" 
 />
    <glyph glyph-name="emspace" unicode="&#x2003;" horiz-adv-x="2048" 
 />
    <glyph glyph-name="threeperemspace" unicode="&#x2004;" horiz-adv-x="681" 
 />
    <glyph glyph-name="fourperemspace" unicode="&#x2005;" horiz-adv-x="512" 
 />
    <glyph glyph-name="figurespace" unicode="&#x2007;" 
 />
    <glyph glyph-name="thinspace" unicode="&#x2009;" horiz-adv-x="272" 
 />
    <glyph glyph-name="hairspace" unicode="&#x200a;" horiz-adv-x="153" 
 />
    <glyph glyph-name="endash" unicode="&#x2013;" horiz-adv-x="1140" 
d="M98 496v338h944v-338h-944z" />
    <glyph glyph-name="emdash" unicode="&#x2014;" horiz-adv-x="1929" 
d="M98 496v338h1733v-338h-1733z" />
    <glyph glyph-name="quoteleft" unicode="&#x2018;" horiz-adv-x="622" 
d="M100 748v327q0 115 29.5 197t87 130.5t133.5 71.5t178 27l33 -151q-108 -10 -163 -62t-50 -139h158v-401h-406z" />
    <glyph glyph-name="quoteright" unicode="&#x2019;" horiz-adv-x="622" 
d="M94 737l-33 152q108 10 163 62t50 139h-157v401h405v-328q0 -222 -110 -321.5t-318 -104.5z" />
    <glyph glyph-name="quotesinglbase" unicode="&#x201a;" horiz-adv-x="622" 
d="M86 -354l-33 151q109 12 163 63.5t50 139.5h-157v401h405v-329q0 -219 -111 -320t-317 -106z" />
    <glyph glyph-name="quotedblleft" unicode="&#x201c;" horiz-adv-x="1177" 
d="M662 748v327q0 221 107 319.5t316 106.5l31 -151q-107 -10 -159.5 -62t-47.5 -139h152v-401h-399zM100 748v327q0 221 108 319.5t316 106.5l33 -151q-108 -10 -161 -62t-48 -139h154v-401h-402z" />
    <glyph glyph-name="quotedblright" unicode="&#x201d;" horiz-adv-x="1177" 
d="M653 737l-30 152q107 10 159 62t47 139h-151v401h399v-328q0 -219 -108.5 -320t-315.5 -106zM94 737l-33 152q108 10 161 62t48 139h-153v401h401v-328q0 -219 -109 -320t-315 -106z" />
    <glyph glyph-name="quotedblbase" unicode="&#x201e;" horiz-adv-x="1177" 
d="M645 -354l-31 151q108 12 160 63t47 140h-151v401h399v-329q0 -218 -109 -319.5t-315 -106.5zM86 -354l-33 151q218 24 209 203h-153v401h401v-329q0 -218 -109.5 -319.5t-314.5 -106.5z" />
    <glyph glyph-name="dagger" unicode="&#x2020;" horiz-adv-x="888" 
d="M342 481l23 576l-265 -27v211l262 -24l-32 274h229l-31 -274l263 24v-211l-265 27l21 -576h-205z" />
    <glyph glyph-name="daggerdbl" unicode="&#x2021;" horiz-adv-x="931" 
d="M350 0l33 274l-262 -24v211l264 -27l-25 311l25 312l-264 -27v211l262 -24l-33 274h232l-33 -274l262 24v-211l-264 27l26 -312l-26 -311l264 27v-211l-262 24l33 -274h-232z" />
    <glyph glyph-name="bullet" unicode="&#x2022;" horiz-adv-x="1081" 
d="M541 397q-145 0 -249 103t-104 248v4q0 143 104 246.5t249 103.5q144 0 248 -103.5t104 -246.5v-4q0 -145 -103.5 -248t-248.5 -103z" />
    <glyph glyph-name="ellipsis" unicode="&#x2026;" horiz-adv-x="1806" 
d="M1300 0v393h398v-393h-398zM705 0v393h397v-393h-397zM109 0v393h397v-393h-397z" />
    <glyph glyph-name="perthousand" unicode="&#x2030;" horiz-adv-x="2750" 
d="M469 942q56 0 90.5 47.5t34.5 120.5v4q0 73 -36.5 122.5t-92.5 49.5q-59 0 -92 -47t-33 -121v-4q0 -72 37 -122t92 -50zM465 717q-165 0 -272 114.5t-107 278.5v4q0 168 107 282.5t276 114.5q167 0 273 -114t106 -279v-4q0 -166 -108 -281.5t-275 -115.5zM1665 1491
l-625 -809l-512 -682h-280l620 803l516 688h281zM1448 205q56 0 91.5 47.5t35.5 120.5v4q0 72 -37 122t-92 50q-59 0 -93 -47t-34 -121v-4q0 -72 37 -122t92 -50zM1446 -20q-167 0 -273 114t-106 279v4q0 168 106 282.5t275 114.5q168 0 273.5 -114t105.5 -279v-4
q0 -166 -107 -281.5t-274 -115.5zM2286 205q56 0 90 47.5t34 120.5v4q0 73 -36.5 122.5t-92.5 49.5q-58 0 -91 -47t-33 -121v-4q0 -72 37 -122t92 -50zM2281 -20q-164 0 -271 114.5t-107 278.5v4q0 168 107 282.5t276 114.5q168 0 272 -113.5t104 -279.5v-4
q0 -166 -107 -281.5t-274 -115.5z" />
    <glyph glyph-name="guilsinglleft" unicode="&#x2039;" horiz-adv-x="784" 
d="M449 74l-373 454v86l373 455l253 -127l-249 -371l249 -368z" />
    <glyph glyph-name="guilsinglright" unicode="&#x203a;" horiz-adv-x="784" 
d="M336 74l-256 125l252 370l-252 369l256 129l371 -453v-86z" />
    <glyph glyph-name="fraction" unicode="&#x2044;" horiz-adv-x="229" 
d="M-479 0l542 780l469 711h177l-543 -780l-469 -711h-176z" />
    <glyph glyph-name="zero.sup" unicode="&#x2070;" horiz-adv-x="860" 
d="M428 866q-158 0 -256 118.5t-98 313.5v15q0 196 99.5 315t256.5 119t256.5 -118.5t99.5 -313.5v-15q0 -196 -100.5 -315t-257.5 -119zM428 1552q-58 0 -93.5 -56.5t-35.5 -168.5v-41q0 -113 35.5 -169t95.5 -56q59 0 95 56.5t36 168.5v41q0 112 -36.5 168.5t-96.5 56.5z
" />
    <glyph glyph-name="four.sup" unicode="&#x2074;" horiz-adv-x="860" 
d="M690 1044v-159h-211v159h-383l-26 189l374 500h246v-523h105v-166h-105zM483 1206v303l-225 -303h225z" />
    <glyph glyph-name="five.sup" unicode="&#x2075;" horiz-adv-x="860" 
d="M418 868q-191 0 -344 123l119 158q122 -88 221 -88q56 0 90.5 26.5t34.5 73.5t-34.5 73t-94.5 26q-83 0 -142 -35l-139 73l37 426h553v-190h-383l-12 -133q56 20 147 20q126 0 207.5 -66t81.5 -190q0 -139 -93 -218t-249 -79z" />
    <glyph glyph-name="six.sup" unicode="&#x2076;" horiz-adv-x="860" 
d="M440 866q-153 0 -243 90q-109 109 -109 324v6q0 218 100.5 339.5t288.5 121.5q81 0 139 -18.5t117 -57.5l-90 -172q-77 57 -164 57q-68 0 -112 -47.5t-50 -128.5q76 50 179 50q113 0 190.5 -67t77.5 -194q0 -139 -92 -221t-232 -82zM432 1042q54 0 85.5 32t31.5 83
q0 54 -31 85.5t-86 31.5q-56 0 -87.5 -31t-31.5 -86v-2q0 -49 33 -81.5t86 -31.5z" />
    <glyph glyph-name="seven.sup" unicode="&#x2077;" horiz-adv-x="860" 
d="M391 885h-248l355 641h-379v198h633v-176z" />
    <glyph glyph-name="eight.sup" unicode="&#x2078;" horiz-adv-x="860" 
d="M430 866q-151 0 -243.5 68t-92.5 184q0 144 137 205q-114 67 -114 186q0 104 86 171t227 67q140 0 225.5 -66.5t85.5 -171.5q0 -115 -114 -186q137 -65 137 -205q0 -115 -93 -183.5t-241 -68.5zM430 1581q-49 0 -80 -26.5t-31 -67.5q0 -46 31.5 -73.5t79.5 -27.5
t78.5 27.5t30.5 73.5q0 41 -31 67.5t-78 26.5zM430 1239q-55 0 -90 -27.5t-35 -74.5q0 -48 33 -77.5t92 -29.5q56 0 88.5 29.5t32.5 77.5q0 47 -33.5 74.5t-87.5 27.5z" />
    <glyph glyph-name="nine.sup" unicode="&#x2079;" horiz-adv-x="860" 
d="M420 1747q154 0 244 -90q108 -108 108 -324v-6q0 -219 -99 -340t-288 -121q-152 0 -274 84l90 172q85 -65 180 -65q68 0 112 44.5t54 123.5q-77 -47 -180 -47q-114 0 -192.5 67t-78.5 195q0 138 92.5 222.5t231.5 84.5zM428 1331q56 0 86.5 32.5t30.5 88.5v2
q0 49 -32.5 83.5t-84.5 33.5q-53 0 -85 -33.5t-32 -85.5q0 -55 31 -88t86 -33z" />
    <glyph glyph-name="zero.inf" unicode="&#x2080;" horiz-adv-x="860" 
d="M428 -299q-158 0 -256 118.5t-98 313.5v14q0 196 99.5 315.5t256.5 119.5t256.5 -118.5t99.5 -313.5v-15q0 -196 -100.5 -315t-257.5 -119zM428 387q-58 0 -93.5 -56.5t-35.5 -168.5v-41q0 -113 35.5 -169t95.5 -56q59 0 95 56.5t36 168.5v41q0 112 -36.5 168.5
t-96.5 56.5z" />
    <glyph glyph-name="one.inf" unicode="&#x2081;" horiz-adv-x="700" 
d="M516 -276h-225v626l-160 -51l-55 178l274 94h166v-847z" />
    <glyph glyph-name="two.inf" unicode="&#x2082;" horiz-adv-x="860" 
d="M102 -276v180l306 239q62 49 87 82.5t25 73.5q0 38 -27 60t-69 22q-46 0 -86.5 -25.5t-89.5 -81.5l-148 129q66 88 144.5 132.5t193.5 44.5q140 0 225 -71t85 -187q0 -86 -41.5 -148.5t-135.5 -132.5l-170 -129h353v-188h-652z" />
    <glyph glyph-name="three.inf" unicode="&#x2083;" horiz-adv-x="860" 
d="M422 -299q-206 0 -350 131l123 152q114 -95 219 -95q50 0 83 26t33 67q0 44 -38 68t-107 24h-100l-31 121l215 178h-338v186h604v-166l-225 -180q108 -13 175 -70.5t67 -160.5q0 -128 -91 -204.5t-239 -76.5z" />
    <glyph glyph-name="four.inf" unicode="&#x2084;" horiz-adv-x="860" 
d="M690 -121v-160h-211v160h-383l-26 189l374 499h246v-522h105v-166h-105zM483 41v303l-225 -303h225z" />
    <glyph glyph-name="five.inf" unicode="&#x2085;" horiz-adv-x="860" 
d="M418 -297q-191 0 -344 123l119 158q122 -88 221 -88q56 0 90.5 26.5t34.5 73.5t-34 72.5t-95 25.5q-83 0 -142 -35l-139 74l37 426h553v-190h-383l-12 -133q56 20 147 20q126 0 207.5 -66t81.5 -190q0 -139 -93 -218t-249 -79z" />
    <glyph glyph-name="six.inf" unicode="&#x2086;" horiz-adv-x="860" 
d="M440 -299q-153 0 -243 90q-109 109 -109 324v6q0 218 100.5 339.5t288.5 121.5q81 0 139 -18.5t117 -57.5l-90 -172q-77 57 -164 57q-68 0 -112 -47.5t-50 -128.5q74 49 179 49q113 0 190.5 -66.5t77.5 -193.5q0 -139 -92 -221t-232 -82zM432 -123q54 0 85.5 31.5
t31.5 83.5q0 54 -31 85.5t-86 31.5q-56 0 -87.5 -31.5t-31.5 -85.5v-2q0 -49 33 -81.5t86 -31.5z" />
    <glyph glyph-name="seven.inf" unicode="&#x2087;" horiz-adv-x="860" 
d="M391 -281h-248l355 641h-379v199h633v-176z" />
    <glyph glyph-name="eight.inf" unicode="&#x2088;" horiz-adv-x="860" 
d="M430 -299q-151 0 -243.5 68t-92.5 184q0 144 137 205q-114 67 -114 186q0 104 86 171t227 67q140 0 225.5 -66.5t85.5 -171.5q0 -115 -114 -186q137 -65 137 -205q0 -115 -93 -183.5t-241 -68.5zM430 416q-49 0 -80 -26.5t-31 -67.5q0 -46 31.5 -73.5t79.5 -27.5
t78.5 27.5t30.5 73.5q0 41 -31 67.5t-78 26.5zM430 74q-55 0 -90 -28t-35 -75q0 -48 33 -77t92 -29q56 0 88.5 29t32.5 77q0 47 -33.5 75t-87.5 28z" />
    <glyph glyph-name="nine.inf" unicode="&#x2089;" horiz-adv-x="860" 
d="M420 582q154 0 244 -90q108 -108 108 -324v-6q0 -219 -99 -340t-288 -121q-152 0 -274 84l90 172q86 -66 180 -66q68 0 112 44.5t54 123.5q-77 -47 -180 -47q-114 0 -192.5 67t-78.5 195q0 138 92.5 223t231.5 85zM428 166q56 0 86.5 32.5t30.5 88.5v2q0 49 -32.5 83.5
t-84.5 33.5q-53 0 -85 -33.5t-32 -85.5q0 -55 31 -88t86 -33z" />
    <glyph glyph-name="colonmonetary" unicode="&#x20a1;" horiz-adv-x="1353" 
d="M967 1661h155l-28 -223q113 -46 200 -127l-153 -301q-49 48 -101 86l-92 -758q76 35 166 125l191 -238q-81 -88 -174 -142.5t-213 -76.5l-31 -250h-156l29 242q-76 0 -127 10l-31 -252h-156l37 299q-186 79 -297.5 255t-111.5 417v16q0 302 163.5 501.5t421.5 240.5
l23 176h156l-21 -166q74 -3 127 -14zM764 1180l-105 -852q68 -19 150 -19l106 852q-58 21 -118 21q-23 0 -33 -2zM424 739v-16q0 -217 113 -324l90 744q-96 -48 -149.5 -151t-53.5 -253z" />
    <glyph glyph-name="naira" unicode="&#x20a6;" horiz-adv-x="1857" 
d="M1804 406h-217v-406h-399l-244 406h-317v-406h-359v406h-215v202h215v283h-215v205h215v395h424l234 -395h305v395h356v-395h217v-205h-217v-283h217v-202zM618 958v-362h226l-213 362h-13zM1225 567h12v336h-211z" />
    <glyph glyph-name="rupee" unicode="&#x20a8;" horiz-adv-x="2351" 
d="M131 0v1491h563q266 0 418 -130.5t152 -367.5v-10q0 -309 -265 -436l304 -547h-412l-252 467h-145v-467h-363zM494 766h184q101 0 159 52t58 147v8q0 100 -58 148t-161 48h-182v-403zM1847 -25q-263 0 -493 150l131 246q199 -123 364 -123q51 0 80 18.5t29 50.5v5
q0 32 -33.5 53.5t-148.5 62.5q-96 31 -160 61t-116 72t-76.5 98t-24.5 130v4q0 171 121 268.5t315 97.5q232 0 418 -112l-109 -258q-173 100 -315 100q-50 0 -78.5 -17.5t-28.5 -47.5v-5q0 -33 37 -58t148 -60q100 -34 162.5 -63.5t115 -71t76 -96.5t23.5 -130v-4
q0 -173 -121.5 -272t-315.5 -99z" />
    <glyph glyph-name="won" unicode="&#x20a9;" horiz-adv-x="2418" 
d="M2288 1491l-107 -418h180v-215h-235l-58 -227h285v-215h-340l-106 -422h-441l-108 426h-299l-107 -426h-440l-109 422h-337v215h284l-59 227h-234v215h181l-107 418h420l82 -418h266l102 422h426l99 -422h268l82 418h412zM745 438h15l102 439h-200zM1202 1049l-104 -433
h221l-102 433h-15zM1669 438h12l84 439h-200z" />
    <glyph glyph-name="sheqel" unicode="&#x20aa;" horiz-adv-x="1376" 
d="M492 311l-46 375h172l33 -237q21 -162 195 -162h158v864h258v-1151h-428q-157 0 -240 76t-102 235zM733 465v235q0 162 -162 162h-198v-862h-258v1151h508q135 0 209.5 -75t74.5 -210v-401h-174z" />
    <glyph glyph-name="Euro" unicode="&#x20ac;" horiz-adv-x="1484" 
d="M1427 1274l-260 -234q-54 69 -113.5 104.5t-140.5 35.5q-165 0 -241 -158h346v-215h-393q-2 -23 -2 -59v-3q0 -35 2 -53h393v-215h-348q33 -79 98 -122.5t156 -43.5q79 0 136.5 36.5t121.5 111.5l250 -226q-97 -128 -223.5 -195t-297.5 -67q-249 0 -417.5 136.5
t-223.5 365.5h-178v219h148v51v2q0 39 2 62h-150v219h184q61 220 227.5 357t409.5 137q322 0 514 -246z" />
    <glyph glyph-name="peso" unicode="&#x20b1;" horiz-adv-x="1669" 
d="M268 0v831h-215v197h215v463h561q256 0 418 -125t187 -338h198v-197h-200q-32 -217 -203.5 -338.5t-421.5 -121.5h-145v-371h-394zM655 668h146q103 0 168 47.5t84 130.5h-398v-178zM655 1184v-170h396q-38 170 -252 170h-144z" />
    <glyph glyph-name="hryvnia" unicode="&#x20b4;" horiz-adv-x="1415" 
d="M82 893l16 133l604 -70q69 52 95 86t26 66q0 39 -31 63.5t-94 24.5q-78 0 -156.5 -29.5t-176.5 -95.5l-170 266q125 91 255.5 137t290.5 46q226 0 356 -104t130 -267q0 -125 -97 -242l240 -26l-16 -133l-350 38l-134 -112l465 -53l-16 -132l-592 68q-88 -63 -120 -102
t-32 -74q0 -39 34 -62.5t100 -23.5q164 0 368 139l170 -264q-270 -199 -575 -199q-120 0 -216.5 29t-157.5 80t-93.5 117.5t-32.5 142.5q0 143 117 266l-242 29l16 133l355 -41l135 111z" />
    <glyph glyph-name="numero" unicode="&#x2116;" horiz-adv-x="2433" 
d="M125 0v1491h346l512 -774v774h360v-1491h-323l-533 805v-805h-362zM1911 584q-187 0 -303.5 126t-116.5 324v13q0 199 117 326.5t305 127.5q186 0 303 -127t117 -325v-13q0 -199 -117 -325.5t-305 -126.5zM1913 817q66 0 106.5 59.5t40.5 153.5v17q0 98 -41 158.5
t-108 60.5q-68 0 -109 -58t-41 -155v-17q0 -99 41.5 -159t110.5 -60zM1528 250v211h766v-211h-766z" />
    <glyph glyph-name="published" unicode="&#x2117;" horiz-adv-x="1783" 
d="M891 -29q-159 0 -302.5 61.5t-245.5 165.5t-162 246t-60 297v4q0 104 27.5 203.5t77 184.5t120.5 157t156 122.5t186 79t207 28.5q212 0 389 -104.5t278 -281.5t101 -384v-5q0 -155 -60 -297.5t-162.5 -247t-246.5 -167t-303 -62.5zM891 57q190 0 347 93t246 251t89 344
v5q0 187 -88 343.5t-244 248.5t-346 92q-191 0 -349 -93.5t-246.5 -251t-88.5 -344.5v-4q0 -140 52 -266t141.5 -218t216.5 -146t270 -54zM594 350v819h348q156 0 246 -76t90 -210v-6q0 -138 -96.5 -214.5t-249.5 -76.5h-119v-236h-219zM813 760h113q61 0 97 30t36 80v4
q0 53 -35.5 82t-97.5 29h-113v-225z" />
    <glyph glyph-name="servicemark" unicode="&#x2120;" horiz-adv-x="1511" 
d="M741 836v655h187l159 -258l160 258h185v-655h-172v395l-170 -266h-9l-170 266v-395h-170zM362 821q-89 0 -172.5 29t-142.5 82l94 115q104 -84 232 -84q90 0 90 53q0 26 -24.5 39.5t-98.5 31.5q-63 14 -103.5 27.5t-79 36.5t-57 57.5t-18.5 81.5q0 95 69 154t191 59
q169 0 276 -90l-88 -121q-96 70 -194 70q-40 0 -61 -14.5t-21 -38.5q0 -25 25 -38.5t100 -31.5q63 -13 107 -29t80 -39.5t53.5 -57.5t17.5 -79q0 -98 -75 -155.5t-200 -57.5z" />
    <glyph glyph-name="trademark" unicode="&#x2122;" horiz-adv-x="1495" 
d="M725 836v655h186l160 -258l160 258h184v-655h-172v395l-170 -266h-8l-170 266v-395h-170zM242 836v501h-195v154h567v-154h-194v-501h-178z" />
    <glyph glyph-name="Omega" unicode="&#x2126;" horiz-adv-x="1830" 
d="M920 1520q181 0 329.5 -53t246.5 -145t151 -215t53 -265v-2q0 -312 -287 -521l320 3v-322h-699v317q123 87 190.5 195.5t67.5 263.5v2q0 170 -101 276.5t-276 106.5q-174 0 -274 -106t-100 -275v-2q0 -152 65.5 -260t192.5 -201v-317h-699v322l316 -3q-85 65 -144 133.5
t-99 170t-40 219.5v2q0 136 54 258t152.5 215t249 148t331.5 55z" />
    <glyph glyph-name="onethird" unicode="&#x2153;" horiz-adv-x="1775" 
d="M1352 -23q-206 0 -351 132l123 151q113 -94 219 -94q50 0 83.5 25.5t33.5 66.5q0 44 -38 68t-107 24h-101l-30 121l215 178h-338v187h604v-166l-225 -181q108 -13 174.5 -70.5t66.5 -160.5q0 -128 -91 -204.5t-238 -76.5zM516 655h-225v627l-160 -51l-55 176l274 96h166
v-848zM223 0l543 780l469 711h176l-543 -780l-469 -711h-176z" />
    <glyph glyph-name="twothirds" unicode="&#x2154;" horiz-adv-x="1935" 
d="M1511 -23q-205 0 -350 132l123 151q113 -94 219 -94q50 0 83.5 25.5t33.5 66.5q0 44 -38 68t-107 24h-101l-31 121l216 178h-338v187h604v-166l-226 -181q108 -13 175 -70.5t67 -160.5q0 -128 -91 -204.5t-239 -76.5zM88 655v179l305 241q63 50 88 82t25 72t-26.5 62
t-69.5 22q-46 0 -87 -25.5t-90 -81.5l-147 129q66 88 144.5 132t193.5 44q140 0 224.5 -71t84.5 -187q0 -86 -41 -148t-135 -134l-170 -129h352v-187h-651zM373 0l542 780l469 711h177l-543 -780l-469 -711h-176z" />
    <glyph glyph-name="onefifth" unicode="&#x2155;" horiz-adv-x="1775" 
d="M1348 -20q-192 0 -344 122l118 158q122 -88 221 -88q56 0 90.5 26.5t34.5 73.5t-34.5 73t-94.5 26q-82 0 -141 -35l-139 74l37 426h553v-191h-383l-13 -133q56 20 148 20q126 0 207.5 -66t81.5 -190q0 -139 -93 -217.5t-249 -78.5zM516 655h-225v627l-160 -51l-55 176
l274 96h166v-848zM233 0l543 780l469 711h176l-542 -780l-469 -711h-177z" />
    <glyph glyph-name="twofifths" unicode="&#x2156;" horiz-adv-x="1935" 
d="M88 655v179l305 241q63 50 88 82t25 72t-26.5 62t-69.5 22q-46 0 -87 -25.5t-90 -81.5l-147 129q66 88 144.5 132t193.5 44q140 0 224.5 -71t84.5 -187q0 -86 -41 -148t-135 -134l-170 -129h352v-187h-651zM393 0l543 780l469 711h176l-543 -780l-469 -711h-176z
M1507 -20q-192 0 -344 122l119 158q122 -88 221 -88q56 0 90.5 26.5t34.5 73.5t-34.5 73t-94.5 26q-82 0 -141 -35l-139 74l36 426h553v-191h-383l-12 -133q56 20 148 20q126 0 207 -66t81 -190q0 -139 -93 -217.5t-249 -78.5z" />
    <glyph glyph-name="threefifths" unicode="&#x2157;" horiz-adv-x="1935" 
d="M1507 -20q-192 0 -344 122l119 158q122 -88 221 -88q56 0 90.5 26.5t34.5 73.5t-34.5 73t-94.5 26q-82 0 -141 -35l-139 74l36 426h553v-191h-383l-12 -133q56 20 148 20q126 0 207 -66t81 -190q0 -139 -93 -217.5t-249 -78.5zM362 0l543 780l469 711h176l-542 -780
l-469 -711h-177zM408 633q-207 0 -351 131l123 151q113 -94 219 -94q51 0 84 25t33 67q0 44 -38 68.5t-107 24.5h-101l-30 120l215 179h-338v186h604v-166l-225 -180q107 -13 174 -71t67 -161q0 -128 -90.5 -204t-238.5 -76z" />
    <glyph glyph-name="fourfifths" unicode="&#x2158;" horiz-adv-x="1935" 
d="M676 811v-160h-211v160h-383l-27 188l375 500h246v-522h104v-166h-104zM469 973v303l-225 -303h225zM1507 -20q-192 0 -344 122l119 158q122 -88 221 -88q56 0 90.5 26.5t34.5 73.5t-34.5 73t-94.5 26q-82 0 -141 -35l-139 74l36 426h553v-191h-383l-12 -133
q56 20 148 20q126 0 207 -66t81 -190q0 -139 -93 -217.5t-249 -78.5zM393 0l543 780l469 711h176l-543 -780l-469 -711h-176z" />
    <glyph glyph-name="onesixth" unicode="&#x2159;" horiz-adv-x="1775" 
d="M1370 -23q-153 0 -244 91q-108 108 -108 323v6q0 218 100.5 339.5t288.5 121.5q81 0 139 -18.5t117 -57.5l-90 -172q-78 58 -164 58q-68 0 -112 -47.5t-50 -128.5q74 49 178 49q113 0 191 -66.5t78 -193.5q0 -139 -92 -221.5t-232 -82.5zM1362 154q54 0 85.5 31.5
t31.5 82.5q0 54 -31 85.5t-86 31.5q-56 0 -87.5 -31.5t-31.5 -85.5v-2q0 -48 33 -80.5t86 -31.5zM516 655h-225v627l-160 -51l-55 176l274 96h166v-848zM246 0l542 780l469 711h177l-543 -780l-469 -711h-176z" />
    <glyph glyph-name="fivesixths" unicode="&#x215a;" horiz-adv-x="1935" 
d="M1530 -23q-153 0 -244 91q-108 108 -108 323v6q0 218 100.5 339.5t288.5 121.5q81 0 139 -18.5t117 -57.5l-90 -172q-78 58 -164 58q-68 0 -112 -47.5t-50 -128.5q74 49 178 49q113 0 190.5 -66.5t77.5 -193.5q0 -139 -91.5 -221.5t-231.5 -82.5zM1522 154q54 0 85 31
t31 83q0 54 -30.5 85.5t-85.5 31.5q-56 0 -87.5 -31.5t-31.5 -85.5v-2q0 -48 33 -80.5t86 -31.5zM403 635q-191 0 -344 123l119 157q122 -88 221 -88q56 0 90.5 27t34.5 74t-34 72.5t-95 25.5q-82 0 -141 -35l-139 74l37 426h553v-191h-383l-13 -133q58 21 148 21
q126 0 207 -66t81 -190q0 -139 -93 -218t-249 -79zM373 0l542 780l469 711h177l-543 -780l-469 -711h-176z" />
    <glyph glyph-name="oneeighth" unicode="&#x215b;" horiz-adv-x="1775" 
d="M1360 -23q-151 0 -243.5 68t-92.5 184q0 144 137 205q-114 67 -114 187q0 104 86 170.5t227 66.5q140 0 225.5 -66t85.5 -171q0 -116 -115 -187q138 -66 138 -205q0 -115 -93 -183.5t-241 -68.5zM1360 692q-49 0 -80 -26.5t-31 -67.5q0 -46 31 -73t80 -27q48 0 78 27
t30 73q0 41 -30.5 67.5t-77.5 26.5zM1360 350q-55 0 -90 -27.5t-35 -74.5q0 -48 33 -77.5t92 -29.5q56 0 88.5 29.5t32.5 77.5q0 47 -33.5 74.5t-87.5 27.5zM516 655h-225v627l-160 -51l-55 176l274 96h166v-848zM238 0l542 780l469 711h176l-542 -780l-469 -711h-176z" />
    <glyph glyph-name="threeeighths" unicode="&#x215c;" horiz-adv-x="1935" 
d="M1520 -23q-151 0 -243.5 68t-92.5 184q0 144 137 205q-115 68 -115 187q0 104 86.5 170.5t227.5 66.5q140 0 225.5 -66t85.5 -171q0 -116 -115 -187q137 -65 137 -205q0 -116 -92.5 -184t-240.5 -68zM1520 692q-49 0 -80 -26.5t-31 -67.5q0 -46 31 -73t80 -27q48 0 78 27
t30 73q0 41 -30.5 67.5t-77.5 26.5zM1520 350q-55 0 -90 -27.5t-35 -74.5q0 -48 33 -77.5t92 -29.5q56 0 88 29.5t32 77.5q0 47 -33 74.5t-87 27.5zM373 0l542 780l469 711h177l-543 -780l-469 -711h-176zM408 633q-207 0 -351 131l123 151q113 -94 219 -94q51 0 84 25
t33 67q0 44 -38 68.5t-107 24.5h-101l-30 120l215 179h-338v186h604v-166l-225 -180q107 -13 174 -71t67 -161q0 -128 -90.5 -204t-238.5 -76z" />
    <glyph glyph-name="fiveeighths" unicode="&#x215d;" horiz-adv-x="1935" 
d="M1520 -23q-151 0 -243.5 68t-92.5 184q0 144 137 205q-115 68 -115 187q0 104 86.5 170.5t227.5 66.5q140 0 225.5 -66t85.5 -171q0 -116 -115 -187q137 -65 137 -205q0 -116 -92.5 -184t-240.5 -68zM1520 692q-49 0 -80 -26.5t-31 -67.5q0 -46 31 -73t80 -27q48 0 78 27
t30 73q0 41 -30.5 67.5t-77.5 26.5zM1520 350q-55 0 -90 -27.5t-35 -74.5q0 -48 33 -77.5t92 -29.5q56 0 88 29.5t32 77.5q0 47 -33 74.5t-87 27.5zM403 635q-191 0 -344 123l119 157q122 -88 221 -88q56 0 90.5 27t34.5 74t-34 72.5t-95 25.5q-82 0 -141 -35l-139 74
l37 426h553v-191h-383l-13 -133q58 21 148 21q126 0 207 -66t81 -190q0 -139 -93 -218t-249 -79zM373 0l542 780l469 711h177l-543 -780l-469 -711h-176z" />
    <glyph glyph-name="seveneighths" unicode="&#x215e;" horiz-adv-x="1935" 
d="M1520 -23q-151 0 -243.5 68t-92.5 184q0 144 137 205q-115 68 -115 187q0 104 86.5 170.5t227.5 66.5q140 0 225.5 -66t85.5 -171q0 -116 -115 -187q137 -65 137 -205q0 -116 -92.5 -184t-240.5 -68zM1520 692q-49 0 -80 -26.5t-31 -67.5q0 -46 31 -73t80 -27q48 0 78 27
t30 73q0 41 -30.5 67.5t-77.5 26.5zM1520 350q-55 0 -90 -27.5t-35 -74.5q0 -48 33 -77.5t92 -29.5q56 0 88 29.5t32 77.5q0 47 -33 74.5t-87 27.5zM395 649h-248l355 641h-379v201h633v-176zM309 0l543 780l469 711h176l-543 -780l-469 -711h-176z" />
    <glyph glyph-name="Delta" unicode="&#x2206;" horiz-adv-x="1693" 
d="M115 0l-43 297l563 1204h426l561 -1204l-41 -297h-1466zM842 1100l-330 -756h657z" />
    <glyph glyph-name="minus" unicode="&#x2212;" horiz-adv-x="1380" 
d="M1245 578h-1110v346h1110v-346z" />
    <glyph glyph-name="NUL" horiz-adv-x="0" 
 />
    <glyph glyph-name="CR" horiz-adv-x="616" 
 />
    <glyph glyph-name="Q.alt" horiz-adv-x="1794" 
d="M1315 -195l-199 197q-116 -29 -221 -29q-169 0 -318 60t-254 163t-166 245t-61 300v4q0 158 61 301t167 247.5t256 165.5t319 61t318 -60.5t254 -164t166 -245.5t61 -300v-5q0 -156 -56.5 -293t-162.5 -243l387 -395v-9h-551zM899 330q174 0 282.5 119.5t108.5 291.5v4
q0 112 -49 206.5t-140 152t-206 57.5q-171 0 -281 -120t-110 -291v-5q0 -112 49 -206t140 -151.5t206 -57.5z" />
    <glyph glyph-name="a.alt" horiz-adv-x="1454" 
d="M592 -25q-102 0 -194 41.5t-163 116.5t-113 189t-42 249v4q0 137 41.5 251.5t111.5 189.5t162.5 116.5t194.5 41.5q211 0 354 -166v143h387v-1151h-387v156q-45 -55 -89 -91.5t-112.5 -63t-150.5 -26.5zM707 301q103 0 173 75.5t70 196.5v5q0 117 -70.5 194.5
t-172.5 77.5q-104 0 -175 -76t-71 -196v-5q0 -120 71 -196t175 -76z" />
    <glyph glyph-name="uni039E.alt" horiz-adv-x="1609" 
d="M1513 330v-330h-1417v330h520v264h-460v313h460v254h-510v330h1397v-330h-512v-254h463v-313h-463v-264h522z" />
    <glyph glyph-name="uni0424.bgr" horiz-adv-x="2117" 
d="M860 -213v211q-349 25 -556.5 229.5t-207.5 513.5v4q0 305 208.5 512t555.5 236v211h397v-211q348 -25 556 -230t208 -513v-5q0 -150 -54 -282t-152 -230.5t-242 -160.5t-316 -74v-211h-397zM494 750v-5q0 -164 100 -274t280 -127v803q-181 -17 -280.5 -124.5
t-99.5 -272.5zM1626 741v4q0 163 -102 274t-281 128v-805q182 13 282.5 122t100.5 277z" />
    <glyph glyph-name="uni0432.bgr" horiz-adv-x="1417" 
d="M106 594v369q0 291 159 450.5t462 159.5q258 0 408.5 -123t150.5 -317v-3q0 -137 -70 -226.5t-192 -129.5q154 -43 235.5 -133t81.5 -240v-2q0 -190 -162.5 -309t-428.5 -119q-146 0 -262.5 36.5t-202.5 111t-132.5 195t-46.5 280.5zM659 641h-174v-55q0 -147 68 -223
t197 -76q97 0 152.5 48t55.5 122q0 184 -299 184zM485 975v-84h166q126 0 194 51t68 143q0 75 -50.5 123.5t-141.5 48.5q-115 0 -175.5 -74.5t-60.5 -207.5z" />
    <glyph glyph-name="uni0433.bgr" horiz-adv-x="1144" 
d="M506 -25q-205 0 -320.5 92t-115.5 259v2q0 145 96 232t313 153q142 46 184 66.5t42 51.5v3q0 63 -97 63q-164 0 -377 -119l-129 250q114 67 249 105t267 38q213 0 325 -93t112 -257v-2q0 -76 -24.5 -132t-80 -100t-125.5 -75.5t-180 -67.5q-137 -41 -182 -68.5t-45 -58.5
v-2q0 -63 102 -63q198 0 428 147l139 -241q-275 -183 -581 -183z" />
    <glyph glyph-name="uni0434.bgr" horiz-adv-x="1454" 
d="M678 -344q-309 0 -561 129l127 262q192 -106 399 -106q305 0 305 288v47q-71 -84 -154.5 -130t-201.5 -46q-105 0 -198 37t-163 104.5t-110.5 169.5t-40.5 224v4q0 122 41 224t110 169.5t159.5 104.5t189.5 37q121 0 205 -42t159 -120v139h387v-879q0 -309 -147 -456
q-160 -160 -506 -160zM705 403q109 0 177 64.5t68 167.5v4q0 100 -69.5 165.5t-175.5 65.5t-175 -65.5t-69 -167.5v-4q0 -102 68.5 -166t175.5 -64z" />
    <glyph glyph-name="uni0436.bgr" horiz-adv-x="1992" 
d="M1188 1554l-6 -817h63l293 414h436l-428 -563l443 -588h-441l-301 416h-65l6 -416h-383l6 416h-70l-301 -416h-436l440 565l-426 586h441l289 -414h63l-6 817h383z" />
    <glyph glyph-name="uni0438.bgr" horiz-adv-x="1361" 
d="M508 -25q-185 0 -289 112.5t-104 311.5v752h389v-627q0 -98 45.5 -150t124.5 -52q80 0 128 52.5t48 149.5v627h387v-1151h-387v160q-67 -85 -147.5 -135t-194.5 -50z" />
    <glyph glyph-name="uni0439.bgr" horiz-adv-x="1361" 
d="M508 -25q-185 0 -289 112.5t-104 311.5v752h389v-627q0 -98 45.5 -150t124.5 -52q80 0 128 52.5t48 149.5v627h387v-1151h-387v160q-67 -85 -147.5 -135t-194.5 -50zM676 1249q-178 0 -288.5 93t-127.5 260h234q41 -125 182 -125t182 125h234q-17 -167 -127.5 -260
t-288.5 -93z" />
    <glyph glyph-name="uni043A.bgr" horiz-adv-x="1329" 
d="M512 1556v-817h63l289 412h455l-440 -563l450 -588h-450l-299 414h-68v-414h-387v1556h387z" />
    <glyph glyph-name="uni043F.bgr" horiz-adv-x="1361" 
d="M125 0v1151h387v-162q143 185 342 185q185 0 289 -112.5t104 -311.5v-750h-389v627q0 97 -45.5 149.5t-124.5 52.5q-80 0 -128 -53t-48 -149v-627h-387z" />
    <glyph glyph-name="uni0442.bgr" horiz-adv-x="2074" 
d="M125 0v1151h387v-160q141 183 342 183q234 0 330 -185q161 185 383 185q186 0 289.5 -109.5t103.5 -310.5v-754h-389v629q0 97 -44 148.5t-120 51.5q-77 0 -124.5 -52t-47.5 -148v-629h-387v629q0 97 -43.5 148.5t-122.5 51.5q-77 0 -123.5 -52t-46.5 -148v-629h-387z
" />
    <glyph glyph-name="uni0446.bgr" horiz-adv-x="1441" 
d="M508 -25q-185 0 -289 112.5t-104 311.5v752h389v-627q0 -98 45.5 -150t124.5 -52q80 0 128 52.5t48 149.5v627h387v-815h156v-625h-353v289h-190v160q-67 -85 -147.5 -135t-194.5 -50z" />
    <glyph glyph-name="uni0448.bgr" horiz-adv-x="2074" 
d="M1950 1151v-1151h-387v160q-146 -185 -342 -185q-233 0 -330 187q-163 -187 -383 -187q-186 0 -289.5 109.5t-103.5 312.5v754h389v-629q0 -97 44 -148.5t120 -51.5q77 0 124.5 52t47.5 148v629h387v-629q0 -97 43.5 -148.5t122.5 -51.5q77 0 123.5 52t46.5 148v629h387z
" />
    <glyph glyph-name="uni0449.bgr" horiz-adv-x="2154" 
d="M1753 -289v289h-190v160q-146 -185 -342 -185q-233 0 -330 187q-163 -187 -383 -187q-186 0 -289.5 109.5t-103.5 312.5v754h389v-629q0 -97 44 -148.5t120 -51.5q77 0 124.5 52t47.5 148v629h387v-629q0 -97 43.5 -148.5t122.5 -51.5q77 0 123.5 52t46.5 148v629h387
v-815h155v-625h-352z" />
    <glyph glyph-name="uni044E.bgr" horiz-adv-x="1951" 
d="M1260 -27q-217 0 -377 122t-215 315h-156v-410h-387v1554h387v-806h160q53 186 217 306t375 120q172 0 313 -80.5t220 -216.5t79 -299v-5q0 -163 -79.5 -300t-221.5 -218.5t-315 -81.5zM1264 301q107 0 172 77.5t65 190.5v4q0 112 -68.5 192.5t-172.5 80.5
q-107 0 -173.5 -78t-66.5 -190v-5q0 -112 69.5 -192t174.5 -80z" />
    <glyph glyph-name="aacute.alt" horiz-adv-x="1454" 
d="M598 1262l223 389l355 -121l-306 -268h-272zM592 -25q-102 0 -194 41.5t-163 116.5t-113 189t-42 249v4q0 137 41.5 251.5t111.5 189.5t162.5 116.5t194.5 41.5q211 0 354 -166v143h387v-1151h-387v156q-45 -55 -89 -91.5t-112.5 -63t-150.5 -26.5zM707 301
q103 0 173 75.5t70 196.5v5q0 117 -70.5 194.5t-172.5 77.5q-104 0 -175 -76t-71 -196v-5q0 -120 71 -196t175 -76z" />
    <glyph glyph-name="abreve.alt" horiz-adv-x="1454" 
d="M592 -25q-102 0 -194 41.5t-163 116.5t-113 189t-42 249v4q0 137 41.5 251.5t111.5 189.5t162.5 116.5t194.5 41.5q211 0 354 -166v143h387v-1151h-387v156q-45 -55 -89 -91.5t-112.5 -63t-150.5 -26.5zM707 301q103 0 173 75.5t70 196.5v5q0 117 -70.5 194.5
t-172.5 77.5q-104 0 -175 -76t-71 -196v-5q0 -120 71 -196t175 -76zM748 1255q-178 0 -288.5 93t-127.5 260h233q41 -125 183 -125q141 0 182 125h233q-17 -167 -127 -260t-288 -93z" />
    <glyph glyph-name="acircumflex.alt" horiz-adv-x="1454" 
d="M315 1262l271 346h323l271 -346h-258l-177 131l-176 -131h-254zM592 -25q-102 0 -194 41.5t-163 116.5t-113 189t-42 249v4q0 137 41.5 251.5t111.5 189.5t162.5 116.5t194.5 41.5q211 0 354 -166v143h387v-1151h-387v156q-45 -55 -89 -91.5t-112.5 -63t-150.5 -26.5z
M707 301q103 0 173 75.5t70 196.5v5q0 117 -70.5 194.5t-172.5 77.5q-104 0 -175 -76t-71 -196v-5q0 -120 71 -196t175 -76z" />
    <glyph glyph-name="adieresis.alt" horiz-adv-x="1454" 
d="M801 1262v299h338v-299h-338zM356 1262v299h338v-299h-338zM592 -25q-102 0 -194 41.5t-163 116.5t-113 189t-42 249v4q0 137 41.5 251.5t111.5 189.5t162.5 116.5t194.5 41.5q211 0 354 -166v143h387v-1151h-387v156q-45 -55 -89 -91.5t-112.5 -63t-150.5 -26.5z
M707 301q103 0 173 75.5t70 196.5v5q0 117 -70.5 194.5t-172.5 77.5q-104 0 -175 -76t-71 -196v-5q0 -120 71 -196t175 -76z" />
    <glyph glyph-name="agrave.alt" horiz-adv-x="1454" 
d="M592 -25q-102 0 -194 41.5t-163 116.5t-113 189t-42 249v4q0 137 41.5 251.5t111.5 189.5t162.5 116.5t194.5 41.5q211 0 354 -166v143h387v-1151h-387v156q-45 -55 -89 -91.5t-112.5 -63t-150.5 -26.5zM707 301q103 0 173 75.5t70 196.5v5q0 117 -70.5 194.5
t-172.5 77.5q-104 0 -175 -76t-71 -196v-5q0 -120 71 -196t175 -76zM623 1262l-306 268l355 121l223 -389h-272z" />
    <glyph glyph-name="amacron.alt" horiz-adv-x="1454" 
d="M592 -25q-102 0 -194 41.5t-163 116.5t-113 189t-42 249v4q0 137 41.5 251.5t111.5 189.5t162.5 116.5t194.5 41.5q211 0 354 -166v143h387v-1151h-387v156q-45 -55 -89 -91.5t-112.5 -63t-150.5 -26.5zM707 301q103 0 173 75.5t70 196.5v5q0 117 -70.5 194.5
t-172.5 77.5q-104 0 -175 -76t-71 -196v-5q0 -120 71 -196t175 -76zM352 1276v237h791v-237h-791z" />
    <glyph glyph-name="aogonek.alt" horiz-adv-x="1454" 
d="M1350 -182v-168q-55 -8 -119 -8q-149 0 -232.5 51t-83.5 135q0 90 82 172h-53v156q-45 -55 -89 -91.5t-112.5 -63t-150.5 -26.5q-102 0 -194 41.5t-163 116.5t-113 189t-42 249v4q0 137 41.5 251.5t111.5 189.5t162.5 116.5t194.5 41.5q211 0 354 -166v143h387v-1151h-86
q-47 -52 -47 -104q0 -84 152 -78zM707 301q103 0 173 75.5t70 196.5v5q0 117 -70.5 194.5t-172.5 77.5q-104 0 -175 -76t-71 -196v-5q0 -120 71 -196t175 -76z" />
    <glyph glyph-name="aring.alt" horiz-adv-x="1454" 
d="M748 1262q-115 0 -196 78t-81 188q0 112 80.5 189t196.5 77t196 -77t80 -189q0 -110 -80.5 -188t-195.5 -78zM748 1382q60 0 102.5 43t42.5 103q0 61 -42.5 104t-102.5 43t-103 -43t-43 -104q0 -60 43 -103t103 -43zM592 -25q-102 0 -194 41.5t-163 116.5t-113 189
t-42 249v4q0 137 41.5 251.5t111.5 189.5t162.5 116.5t194.5 41.5q211 0 354 -166v143h387v-1151h-387v156q-45 -55 -89 -91.5t-112.5 -63t-150.5 -26.5zM707 301q103 0 173 75.5t70 196.5v5q0 117 -70.5 194.5t-172.5 77.5q-104 0 -175 -76t-71 -196v-5q0 -120 71 -196
t175 -76z" />
    <glyph glyph-name="aring.alt2" 
d="M453 -25q-169 0 -278 94.5t-109 260.5v4q0 177 121.5 269.5t330.5 92.5q149 0 279 -45v19q0 192 -234 192q-157 0 -317 -63l-84 278q153 60 272 76q-59 65 -59 158q0 112 80 189t196 77q117 0 198 -77t81 -189q0 -100 -74 -174q119 -34 197 -109q65 -65 94 -153.5
t29 -212.5v-662h-381v121q-133 -146 -342 -146zM588 221q94 0 153.5 53.5t59.5 139.5v53q-72 35 -168 35q-91 0 -143 -40t-52 -108v-4q0 -59 41.5 -94t108.5 -35zM508 1311q0 -60 41.5 -103t101.5 -43q61 0 103.5 43t42.5 103q0 62 -42.5 104.5t-103.5 42.5
q-60 0 -101.5 -42.5t-41.5 -104.5z" />
    <glyph glyph-name="aringacute.alt" horiz-adv-x="1454" 
d="M748 1262q-115 0 -196 78t-81 188q0 112 80.5 189t196.5 77t196 -77t80 -189q0 -110 -80.5 -188t-195.5 -78zM748 1382q60 0 102.5 43t42.5 103q0 61 -42.5 104t-102.5 43t-103 -43t-43 -104q0 -60 43 -103t103 -43zM592 -25q-102 0 -194 41.5t-163 116.5t-113 189
t-42 249v4q0 137 41.5 251.5t111.5 189.5t162.5 116.5t194.5 41.5q211 0 354 -166v143h387v-1151h-387v156q-45 -55 -89 -91.5t-112.5 -63t-150.5 -26.5zM707 301q103 0 173 75.5t70 196.5v5q0 117 -70.5 194.5t-172.5 77.5q-104 0 -175 -76t-71 -196v-5q0 -120 71 -196
t175 -76zM596 1866l244 336l346 -121l-318 -215h-272z" />
    <glyph glyph-name="aringacute.alt2" 
d="M453 -25q-169 0 -278 94.5t-109 260.5v4q0 177 121.5 269.5t330.5 92.5q149 0 279 -45v19q0 192 -234 192q-157 0 -317 -63l-84 278q153 60 272 76q-59 65 -59 158q0 112 80 189t196 77q117 0 198 -77t81 -189q0 -100 -74 -174q119 -34 197 -109q65 -65 94 -153.5
t29 -212.5v-662h-381v121q-133 -146 -342 -146zM588 221q94 0 153.5 53.5t59.5 139.5v53q-72 35 -168 35q-91 0 -143 -40t-52 -108v-4q0 -59 41.5 -94t108.5 -35zM508 1311q0 -60 41.5 -103t101.5 -43q61 0 103.5 43t42.5 103q0 62 -42.5 104.5t-103.5 42.5
q-60 0 -101.5 -42.5t-41.5 -104.5zM500 1653l243 336l347 -121l-318 -215h-272z" />
    <glyph glyph-name="atilde.alt" horiz-adv-x="1454" 
d="M592 -25q-102 0 -194 41.5t-163 116.5t-113 189t-42 249v4q0 137 41.5 251.5t111.5 189.5t162.5 116.5t194.5 41.5q211 0 354 -166v143h387v-1151h-387v156q-45 -55 -89 -91.5t-112.5 -63t-150.5 -26.5zM707 301q103 0 173 75.5t70 196.5v5q0 117 -70.5 194.5
t-172.5 77.5q-104 0 -175 -76t-71 -196v-5q0 -120 71 -196t175 -76zM938 1262q-89 0 -197 45q-86 36 -133 36q-41 0 -62.5 -22t-47.5 -78l-189 53q37 160 97.5 236t166.5 76q89 0 197 -45q88 -37 133 -37q41 0 63 22t48 78l188 -53q-37 -160 -97 -235.5t-167 -75.5z" />
    <glyph glyph-name="i.dot" horiz-adv-x="657" 
d="M127 1260v294h403v-294h-403zM135 0v1151h387v-1151h-387z" />
    <glyph glyph-name="uni0386.calt" horiz-adv-x="1708" 
d="M29 0l635 1501h378l635 -1501h-422l-112 281h-588l-113 -281h-413zM676 596h346l-172 434z" />
    <glyph glyph-name="uni0388.calt" horiz-adv-x="1439" 
d="M150 0v1491h1183v-338h-792v-244h712v-317h-712v-254h802v-338h-1193z" />
    <glyph glyph-name="uni0389.calt" horiz-adv-x="1636" 
d="M150 0v1491h395v-565h547v565h395v-1491h-395v573h-547v-573h-395z" />
    <glyph glyph-name="uni038A.calt" horiz-adv-x="716" 
d="M160 0v1491h397v-1491h-397z" />
    <glyph glyph-name="uni038C.calt" horiz-adv-x="1794" 
d="M895 -29q-169 0 -318 60.5t-254 164t-166 245.5t-61 300v4q0 158 61 301t167 247.5t256 165.5t319 61t318 -60.5t254 -164t166 -245.5t61 -300v-5q0 -158 -61 -301t-167 -247t-255.5 -165t-319.5 -61zM899 330q174 0 282.5 119.5t108.5 291.5v4q0 112 -49 206.5t-140 152
t-206 57.5q-171 0 -281 -120t-110 -291v-5q0 -112 49 -206t140 -151.5t206 -57.5z" />
    <glyph glyph-name="uni038E.calt" horiz-adv-x="1552" 
d="M580 0v563l-570 928h453l315 -555l322 555h444l-569 -920v-571h-395z" />
    <glyph glyph-name="uni038F.calt" horiz-adv-x="1830" 
d="M920 1520q181 0 329.5 -53t246.5 -145t151 -215t53 -265v-2q0 -312 -287 -521l320 3v-322h-699v317q123 87 190.5 195.5t67.5 263.5v2q0 170 -101 276.5t-276 106.5q-174 0 -274 -106t-100 -275v-2q0 -152 65.5 -260t192.5 -201v-317h-699v322l316 -3q-85 65 -144 133.5
t-99 170t-40 219.5v2q0 136 54 258t152.5 215t249 148t331.5 55z" />
    <glyph glyph-name="uni0399.calt" horiz-adv-x="716" 
d="M160 0v1491h397v-1491h-397zM424 1595v291h342v-291h-342zM-45 1595v291h342v-291h-342z" />
    <glyph glyph-name="uni03A5.calt" horiz-adv-x="1552" 
d="M580 0v563l-570 928h453l315 -555l322 555h444l-569 -920v-571h-395zM840 1595v291h342v-291h-342zM371 1595v291h342v-291h-342z" />
    <glyph glyph-name="uni0431.srb" horiz-adv-x="1396" 
d="M1182 1554v-317l-564 12q-47 0 -47 -30q0 -21 41 -39l213 -99q94 -41 164 -79.5t135 -89t106 -106t65 -127.5t24 -157v-2q0 -113 -44.5 -213t-124.5 -174t-199 -117t-261 -43q-270 0 -442 154.5t-172 390.5v2q0 189 102 313t293 168l-25 15q-64 35 -101.5 61t-73.5 61
t-52 76.5t-16 94.5q0 106 92.5 175.5t282.5 69.5h604zM700 289q110 0 178 68.5t68 177.5v2q0 107 -71 176t-177 69q-111 0 -179 -72t-68 -173v-2q0 -106 70.5 -176t178.5 -70z" />
    <glyph glyph-name="three.alt" horiz-adv-x="1329" 
d="M682 -29q-384 0 -631 260l250 248q162 -170 365 -170q97 0 150.5 40.5t53.5 107.5v4q0 139 -247 139h-158v303h158q106 0 159.5 38t53.5 101v5q0 60 -52 97.5t-139 37.5q-86 0 -157 -42t-146 -122l-248 227q71 85 146.5 142.5t186.5 95t245 37.5q246 0 396.5 -113
t150.5 -287v-4q0 -239 -218 -344q256 -96 256 -332v-4q0 -206 -154.5 -335.5t-420.5 -129.5z" />
    <glyph glyph-name="registered.alt" horiz-adv-x="1783" 
d="M891 -29q-159 0 -302.5 61.5t-245.5 165.5t-162 246t-60 297v4q0 104 27.5 203.5t77 184.5t120.5 157t156 122.5t186 79t207 28.5q212 0 389 -104.5t278 -281.5t101 -384v-5q0 -155 -60 -297.5t-162.5 -247t-246.5 -167t-303 -62.5zM891 57q190 0 347 93t246 251t89 344
v5q0 187 -88 343.5t-244 248.5t-346 92q-191 0 -349 -93.5t-246.5 -251t-88.5 -344.5v-4q0 -140 52 -266t141.5 -218t216.5 -146t270 -54zM557 358v820h379q179 0 270 -91q72 -72 72 -186v-4q0 -181 -172 -252l199 -287h-252l-168 252h-109v-252h-219zM776 782h156
q61 0 94 26.5t33 74.5v4q0 102 -129 102h-154v-207z" />
    <glyph glyph-name="one.sup_alt" horiz-adv-x="860" 
d="M770 889h-635v186h217v441l-190 -62l-56 178l306 105h166v-662h192v-186z" />
    <glyph glyph-name="one.inf_alt" horiz-adv-x="860" 
d="M770 -276h-635v186h217v440l-190 -61l-56 178l306 104h166v-661h192v-186z" />
    <glyph glyph-name="zero.num" horiz-adv-x="860" 
d="M428 633q-158 0 -256 118.5t-98 313.5v14q0 196 99.5 315t256.5 119t256.5 -118.5t99.5 -313.5v-14q0 -196 -100.5 -315t-257.5 -119zM428 1319q-58 0 -93.5 -56.5t-35.5 -168.5v-41q0 -113 35.5 -169.5t95.5 -56.5q59 0 95 57t36 169v41q0 112 -36.5 168.5t-96.5 56.5z
" />
    <glyph glyph-name="one.num" horiz-adv-x="700" 
d="M516 655h-225v627l-160 -51l-55 176l274 96h166v-848z" />
    <glyph glyph-name="one.num_alt" horiz-adv-x="860" 
d="M770 655h-635v187h217v440l-190 -61l-56 176l306 106h166v-661h192v-187z" />
    <glyph glyph-name="two.num" horiz-adv-x="860" 
d="M102 655v179l306 241q63 50 87.5 82t24.5 72t-26.5 62t-69.5 22q-46 0 -86.5 -25.5t-89.5 -81.5l-148 129q66 88 144.5 132t193.5 44q140 0 225 -71t85 -187q0 -86 -41.5 -148t-135.5 -134l-170 -129h353v-187h-652z" />
    <glyph glyph-name="three.num" horiz-adv-x="860" 
d="M422 633q-206 0 -350 131l123 151q113 -94 219 -94q51 0 83.5 25t32.5 67q0 44 -38 68.5t-107 24.5h-100l-31 120l215 179h-338v186h604v-166l-225 -180q108 -13 175 -71t67 -161q0 -128 -91 -204t-239 -76z" />
    <glyph glyph-name="four.num" horiz-adv-x="860" 
d="M690 811v-160h-211v160h-383l-26 188l374 500h246v-522h105v-166h-105zM483 973v303l-225 -303h225z" />
    <glyph glyph-name="five.num" horiz-adv-x="860" 
d="M418 635q-191 0 -344 123l119 157q122 -88 221 -88q56 0 90.5 27t34.5 74t-34 72.5t-95 25.5q-83 0 -142 -35l-139 74l37 426h553v-191h-383l-12 -133q58 21 147 21q126 0 207.5 -66t81.5 -190q0 -139 -93 -218t-249 -79z" />
    <glyph glyph-name="six.num" horiz-adv-x="860" 
d="M440 633q-153 0 -243 90q-109 109 -109 324v6q0 218 100.5 339t288.5 121q81 0 139 -18.5t117 -56.5l-90 -172q-77 57 -164 57q-68 0 -112 -47.5t-50 -128.5q74 49 179 49q113 0 190.5 -66.5t77.5 -193.5q0 -139 -92 -221t-232 -82zM432 809q54 0 85.5 31.5t31.5 83.5
q0 54 -31 85t-86 31q-57 0 -88 -31t-31 -85v-2q0 -49 33 -81.5t86 -31.5z" />
    <glyph glyph-name="seven.num" horiz-adv-x="860" 
d="M391 649h-248l355 641h-379v201h633v-176z" />
    <glyph glyph-name="eight.num" horiz-adv-x="860" 
d="M430 633q-151 0 -243.5 68t-92.5 184q0 144 137 205q-114 67 -114 186q0 104 86 170.5t227 66.5q140 0 225.5 -66t85.5 -171q0 -115 -114 -186q137 -65 137 -205q0 -115 -93 -183.5t-241 -68.5zM430 1348q-49 0 -80 -26.5t-31 -68.5q0 -46 31 -73t80 -27q48 0 78.5 27
t30.5 73q0 41 -31 68t-78 27zM430 1006q-55 0 -90 -28t-35 -75q0 -48 33 -77t92 -29q56 0 88.5 29t32.5 77q0 47 -33.5 75t-87.5 28z" />
    <glyph glyph-name="nine.num" horiz-adv-x="860" 
d="M420 1513q154 0 244 -90q108 -108 108 -323v-6q0 -219 -99 -340t-288 -121q-152 0 -274 84l90 172q86 -66 180 -66q68 0 112 44.5t54 123.5q-77 -47 -180 -47q-114 0 -192.5 66.5t-78.5 193.5q0 140 92 224.5t232 84.5zM428 1098q56 0 86.5 32t30.5 87v2q0 51 -32 85
t-85 33q-54 0 -85.5 -33t-31.5 -87q0 -55 31 -87t86 -32z" />
    <glyph glyph-name="zero.den" horiz-adv-x="860" 
d="M428 -23q-158 0 -256 119t-98 314v14q0 196 99.5 315t256.5 119t256.5 -118.5t99.5 -313.5v-14q0 -196 -100.5 -315.5t-257.5 -119.5zM428 664q-58 0 -93.5 -57t-35.5 -169v-41q0 -113 35.5 -169t95.5 -56q59 0 95 56.5t36 168.5v41q0 112 -36.5 169t-96.5 57z" />
    <glyph glyph-name="one.den" horiz-adv-x="700" 
d="M516 0h-225v627l-160 -52l-55 179l274 94h166v-848z" />
    <glyph glyph-name="one.den_alt" horiz-adv-x="860" 
d="M770 0h-635v186h217v441l-190 -62l-56 178l306 105h166v-662h192v-186z" />
    <glyph glyph-name="two.den" horiz-adv-x="860" 
d="M102 0v180l306 240q63 49 87.5 82t24.5 73q0 38 -27 60t-69 22q-46 0 -86.5 -25t-89.5 -81l-148 129q66 88 144.5 132t193.5 44q140 0 225 -71t85 -187q0 -86 -41.5 -148.5t-135.5 -132.5l-170 -129h353v-188h-652z" />
    <glyph glyph-name="three.den" horiz-adv-x="860" 
d="M422 -23q-205 0 -350 132l123 151q113 -94 219 -94q50 0 83 25.5t33 66.5q0 44 -38 68t-107 24h-100l-31 121l215 178h-338v187h604v-166l-225 -181q108 -13 175 -70.5t67 -160.5q0 -128 -91 -204.5t-239 -76.5z" />
    <glyph glyph-name="four.den" horiz-adv-x="860" 
d="M690 156v-160h-211v160h-383l-26 188l374 500h246v-522h105v-166h-105zM483 317v304l-225 -304h225z" />
    <glyph glyph-name="five.den" horiz-adv-x="860" 
d="M418 -20q-192 0 -344 122l119 158q122 -88 221 -88q56 0 90.5 26.5t34.5 73.5t-34.5 73t-94.5 26q-83 0 -142 -35l-139 74l37 426h553v-191h-383l-12 -133q56 20 147 20q126 0 207.5 -66t81.5 -190q0 -139 -93 -217.5t-249 -78.5z" />
    <glyph glyph-name="six.den" horiz-adv-x="860" 
d="M440 -23q-152 0 -243 91q-109 109 -109 323v6q0 218 100.5 339.5t288.5 121.5q81 0 139 -18.5t117 -57.5l-90 -172q-78 58 -164 58q-68 0 -112 -47.5t-50 -128.5q74 49 179 49q113 0 190.5 -66.5t77.5 -193.5q0 -139 -92 -221.5t-232 -82.5zM432 154q54 0 85.5 31.5
t31.5 82.5q0 54 -31 85.5t-86 31.5q-56 0 -87.5 -31.5t-31.5 -85.5v-2q0 -48 33 -80.5t86 -31.5z" />
    <glyph glyph-name="seven.den" horiz-adv-x="860" 
d="M391 -4h-248l355 641h-379v199h633v-177z" />
    <glyph glyph-name="eight.den" horiz-adv-x="860" 
d="M430 -23q-151 0 -243.5 68t-92.5 184q0 144 137 205q-114 67 -114 187q0 104 86 170.5t227 66.5q140 0 225.5 -66t85.5 -171q0 -116 -114 -187q137 -65 137 -205q0 -115 -93 -183.5t-241 -68.5zM430 692q-49 0 -80 -26.5t-31 -67.5q0 -46 31 -73t80 -27q48 0 78.5 27
t30.5 73q0 41 -31 67.5t-78 26.5zM430 350q-55 0 -90 -27.5t-35 -74.5q0 -48 33 -77.5t92 -29.5q56 0 88.5 29.5t32.5 77.5q0 47 -33.5 74.5t-87.5 27.5z" />
    <glyph glyph-name="nine.den" horiz-adv-x="860" 
d="M420 858q154 0 244 -90q108 -108 108 -324v-6q0 -219 -99 -340t-288 -121q-152 0 -274 84l90 172q85 -65 180 -65q68 0 112 44.5t54 123.5q-77 -47 -180 -47q-114 0 -192.5 67t-78.5 195q0 138 92.5 222.5t231.5 84.5zM428 442q56 0 86.5 32.5t30.5 88.5v2
q0 49 -32.5 83.5t-84.5 33.5q-53 0 -85 -33.5t-32 -85.5q0 -55 31 -88t86 -33z" />
    </font>
</defs>
</svg>
