<?xml version="1.0" standalone="no"?>
<!DOCTYPE svg PUBLIC "-//W3C//DTD SVG 1.1//EN" "http://www.w3.org/Graphics/SVG/1.1/DTD/svg11.dtd" >
<svg xmlns="http://www.w3.org/2000/svg" xmlns:xlink="http://www.w3.org/1999/xlink" version="1.1">
<metadata>
Created by FontForge 20201107 at Mon Apr  7 19:28:48 2025
 By 
Copyright (C) 2001, 2010 Hoefler &#38; Co. http://www.typography.com |DCNT
</metadata>
<defs>
<font id="GothamSSm-BlackItalic" horiz-adv-x="860" >
  <font-face 
    font-family="GothamSSm Black"
    font-weight="900"
    font-style="italic"
    font-stretch="normal"
    units-per-em="2048"
    panose-1="0 0 0 0 0 0 0 0 0 0"
    ascent="1638"
    descent="-410"
    x-height="1151"
    cap-height="1491"
    bbox="-682 -659 2775 2210"
    underline-thickness="102"
    underline-position="-204"
    slope="-15"
    unicode-range="U+0020-FB04"
  />
<missing-glyph horiz-adv-x="1024" 
d="M0 -410v2048h1024v-2048h-1024zM102 -156l353 770l-353 770v-1540zM145 -307h734l-367 799zM512 737l367 799h-734zM922 -156v1540l-353 -770z" />
    <glyph glyph-name="f_f" unicode="ff" horiz-adv-x="1794" 
d="M43 0l223 836h-135l86 315h133l8 27q44 176 138 270q127 121 350 121q139 0 252 -35l-76 -281q-77 25 -137 25q-61 0 -96 -26.5t-52 -84.5l-6 -22h262l-82 -309h-258l-223 -836h-387zM930 0l223 836h-135l86 315h133l8 27q44 177 137 270q127 121 351 121q139 0 252 -35
l-76 -281q-77 25 -137 25q-61 0 -96 -26.5t-52 -84.5l-6 -22h262l-82 -309h-258l-223 -836h-387z" />
    <glyph glyph-name="fi" unicode="fi" horiz-adv-x="1550" 
d="M870 0l308 1151h389l-310 -1151h-387zM1200 1260l80 294h406l-82 -294h-404zM43 0l223 836h-135l86 315h133l8 27q44 176 138 270q127 121 350 121q139 0 252 -35l-76 -281q-77 25 -137 25q-61 0 -96 -26.5t-52 -84.5l-6 -22h262l-82 -309h-258l-223 -836h-387z" />
    <glyph glyph-name="fl" unicode="fl" horiz-adv-x="1550" 
d="M870 0l418 1554h387l-418 -1554h-387zM43 0l223 836h-135l86 315h133l8 27q44 176 138 270q127 121 350 121q139 0 252 -35l-76 -281q-77 25 -137 25q-61 0 -96 -26.5t-52 -84.5l-6 -22h262l-82 -309h-258l-223 -836h-387z" />
    <glyph glyph-name="f_f_i" unicode="ffi" horiz-adv-x="2435" 
d="M1757 0l307 1151h390l-310 -1151h-387zM2087 1260l80 294h405l-82 -294h-403zM43 0l223 836h-135l86 315h133l8 27q44 176 138 270q127 121 350 121q139 0 252 -35l-76 -281q-77 25 -137 25q-61 0 -96 -26.5t-52 -84.5l-6 -22h262l-82 -309h-258l-223 -836h-387zM930 0
l223 836h-135l86 315h133l8 27q44 177 137 270q127 121 351 121q139 0 252 -35l-76 -281q-77 25 -137 25q-61 0 -96 -26.5t-52 -84.5l-6 -22h262l-82 -309h-258l-223 -836h-387z" />
    <glyph glyph-name="f_f_l" unicode="ffl" horiz-adv-x="2435" 
d="M1757 0l418 1554h387l-418 -1554h-387zM43 0l223 836h-135l86 315h133l8 27q44 176 138 270q127 121 350 121q139 0 252 -35l-76 -281q-77 25 -137 25q-61 0 -96 -26.5t-52 -84.5l-6 -22h262l-82 -309h-258l-223 -836h-387zM930 0l223 836h-135l86 315h133l8 27
q44 177 137 270q127 121 351 121q139 0 252 -35l-76 -281q-77 25 -137 25q-61 0 -96 -26.5t-52 -84.5l-6 -22h262l-82 -309h-258l-223 -836h-387z" />
    <glyph glyph-name=".notdef" horiz-adv-x="1024" 
d="M0 -410v2048h1024v-2048h-1024zM102 -156l353 770l-353 770v-1540zM145 -307h734l-367 799zM512 737l367 799h-734zM922 -156v1540l-353 -770z" />
    <glyph glyph-name=".null" horiz-adv-x="0" 
 />
    <glyph glyph-name="nonmarkingreturn" horiz-adv-x="682" 
 />
    <glyph glyph-name="space" unicode=" " horiz-adv-x="651" 
 />
    <glyph glyph-name="exclam" unicode="!" horiz-adv-x="708" 
d="M227 489l109 848l43 154h442l-43 -154l-346 -848h-205zM-2 0l94 358h406l-97 -358h-403z" />
    <glyph glyph-name="quotedbl" unicode="&#x22;" horiz-adv-x="1165" 
d="M166 743l199 748h419l-2 -10l-411 -738h-205zM713 743l198 748h418l-2 -10l-409 -738h-205z" />
    <glyph glyph-name="numbersign" unicode="#" horiz-adv-x="1501" 
d="M92 0l103 295h-175l76 328h215l88 254h-200l75 329h240l100 285h304l-101 -285h279l100 285h303l-100 -285h174l-76 -329h-215l-88 -254h201l-76 -328h-242l-102 -295h-303l104 295h-278l-103 -295h-303zM604 614h291l94 271h-293z" />
    <glyph glyph-name="dollar" unicode="$" horiz-adv-x="1409" 
d="M922 1614h221l-43 -150q221 -52 368 -186l-227 -264q-111 91 -242 135l-77 -262q76 -26 131.5 -52t106 -60.5t82 -75t49.5 -94.5t18 -120q0 -214 -179 -349.5t-458 -135.5h-10l-62 -209h-221l67 229q-301 60 -471 242l246 248q158 -140 328 -178l82 274q-99 33 -166 66
t-123 80t-82.5 110.5t-26.5 147.5q0 205 177 343t456 138h19zM625 1055q0 -37 23.5 -61t86.5 -50l70 236h-2q-89 -4 -134.5 -38.5t-43.5 -86.5zM920 442q0 36 -23.5 61.5t-83.5 49.5l-72 -240h2q86 5 132 37.5t45 91.5z" />
    <glyph glyph-name="percent" unicode="%" horiz-adv-x="1968" 
d="M532 711q-163 0 -256.5 95t-93.5 247q0 93 36 182t101 154q122 122 289 122q162 0 256 -95.5t94 -248.5q0 -93 -36 -182t-101 -154q-120 -120 -289 -120zM543 926q61 0 104 43q35 35 54.5 85.5t19.5 102.5q0 63 -33 101t-90 38q-59 0 -104 -45q-72 -72 -72 -188
q0 -62 32.5 -99.5t88.5 -37.5zM152 0l729 743l731 748h295l-729 -743l-732 -748h-294zM1448 -20q-162 0 -256 95.5t-94 248.5q0 92 36.5 180.5t102.5 154.5q121 121 289 121q163 0 256.5 -95t93.5 -247q0 -93 -36 -182t-101 -154q-122 -122 -291 -122zM1460 195q53 0 105 45
q71 71 71 188q0 62 -32.5 99.5t-87.5 37.5q-62 0 -105 -43q-35 -35 -54.5 -85.5t-19.5 -102.5q0 -63 33 -101t90 -38z" />
    <glyph glyph-name="ampersand" unicode="&#x26;" horiz-adv-x="1509" 
d="M1231 754l229 -162q-110 -167 -211 -273l125 -172l-264 -178l-106 152q-221 -144 -457 -144q-230 0 -367 110t-137 298q0 163 112 283.5t314 187.5q-70 128 -70 250q0 172 131.5 292t341.5 120q192 0 314.5 -105.5t122.5 -267.5q0 -273 -375 -412l135 -186q75 80 162 207
zM596 276q105 0 229 74l-207 293q-202 -88 -202 -227q0 -62 47.5 -101t132.5 -39zM725 1094q0 -74 51 -156q112 44 161.5 86.5t49.5 105.5q0 47 -32 80t-85 33q-64 0 -104.5 -43.5t-40.5 -105.5z" />
    <glyph glyph-name="quotesingle" unicode="'" horiz-adv-x="624" 
d="M166 743l199 748h423l-2 -10l-411 -738h-209z" />
    <glyph glyph-name="parenleft" unicode="(" horiz-adv-x="985" 
d="M750 -76l-226 -229q-411 316 -411 764q0 418 305 723q210 210 563 338l121 -269q-226 -103 -373 -250q-240 -240 -240 -532q0 -147 65.5 -277t195.5 -268z" />
    <glyph glyph-name="parenright" unicode=")" horiz-adv-x="985" 
d="M254 1296l225 230q412 -317 412 -762q0 -417 -305 -725q-217 -217 -563 -336l-121 266q224 102 372 250q240 240 240 533q0 147 -65 276.5t-195 267.5z" />
    <glyph glyph-name="asterisk" unicode="*" horiz-adv-x="946" 
d="M614 717l-206 55l118 254l-256 -119l-57 211l281 23l-232 164l156 153l162 -231l24 278l205 -55l-117 -254l256 119l58 -209l-283 -25l231 -163l-155 -152l-160 231z" />
    <glyph glyph-name="plus" unicode="+" horiz-adv-x="1384" 
d="M414 203l100 375h-377l92 344h377l101 374h356l-98 -374h376l-94 -344h-377l-98 -375h-358z" />
    <glyph glyph-name="comma" unicode="," horiz-adv-x="671" 
d="M-123 -350l-18 151q126 12 192.5 62.5t85.5 140.5h-157l108 399h404l-91 -344q-58 -208 -178.5 -305t-345.5 -104z" />
    <glyph glyph-name="hyphen" unicode="-" horiz-adv-x="907" 
d="M86 492l92 346h690l-92 -346h-690z" />
    <glyph glyph-name="period" unicode="." horiz-adv-x="671" 
d="M-20 0l106 401h406l-109 -401h-403z" />
    <glyph glyph-name="slash" unicode="/" horiz-adv-x="1157" 
d="M-293 -272l1452 1972h342l-1452 -1972h-342z" />
    <glyph glyph-name="zero" unicode="0" horiz-adv-x="1568" 
d="M942 1520q181 0 317 -79.5t206.5 -217t70.5 -312.5q0 -200 -75 -389.5t-210 -324.5q-226 -226 -534 -226q-181 0 -317 79t-206.5 216.5t-70.5 313.5q0 200 75 389.5t210 324.5q226 226 534 226zM750 322q109 0 206 94q83 83 131 216t48 263q0 133 -61.5 203.5
t-164.5 70.5q-113 0 -207 -94q-82 -82 -130 -215.5t-48 -263.5q0 -133 61.5 -203.5t164.5 -70.5z" />
    <glyph glyph-name="one" unicode="1" horiz-adv-x="937" 
d="M195 0l297 1112l-254 -59l-7 321l471 127h285l-403 -1501h-389z" />
    <glyph glyph-name="two" unicode="2" horiz-adv-x="1349" 
d="M-57 0l82 309l757 500q99 64 141 118.5t42 112.5q0 60 -40.5 94.5t-113.5 34.5q-155 0 -342 -184l-233 244q258 284 608 284q239 0 379.5 -116.5t140.5 -304.5q0 -145 -84.5 -263.5t-298.5 -253.5l-383 -249h600l-88 -326h-1167z" />
    <glyph glyph-name="three" unicode="3" horiz-adv-x="1318" 
d="M549 -29q-395 0 -588 287l275 221q63 -83 137.5 -124.5t179.5 -41.5q107 0 181.5 56t74.5 127q0 70 -62 107.5t-184 37.5h-131l-10 211l422 315h-559l88 324h1063l-80 -285l-461 -329q146 -38 226.5 -129t80.5 -234q0 -211 -147 -358q-88 -88 -218.5 -136.5t-287.5 -48.5
z" />
    <glyph glyph-name="four" unicode="4" horiz-adv-x="1458" 
d="M678 0l78 297h-684l-41 289l1016 915h411l-241 -905h192l-82 -299h-190l-80 -297h-379zM479 594h359l116 436z" />
    <glyph glyph-name="five" unicode="5" horiz-adv-x="1323" 
d="M561 -27q-174 0 -337.5 77t-254.5 188l254 233q160 -160 352 -160q120 0 195.5 60.5t75.5 148.5q0 74 -59 121t-175 47q-104 0 -209 -59l-200 143l235 719h967l-88 -330h-643l-72 -215q100 27 182 27q205 0 333 -114.5t128 -303.5q0 -225 -160 -385q-197 -197 -524 -197z
" />
    <glyph glyph-name="six" unicode="6" horiz-adv-x="1406" 
d="M684 -27q-266 0 -412 146q-153 153 -153 411q0 211 75.5 409t217.5 345q234 234 575 234q286 0 477 -164l-202 -279q-139 115 -293 115q-172 0 -291 -119q-84 -84 -131 -217q58 51 149.5 85t190.5 34q185 0 309.5 -109.5t124.5 -296.5q0 -115 -45.5 -219.5t-126.5 -185.5
q-89 -89 -210 -139t-255 -50zM682 279q107 0 178 71q72 72 72 168q0 79 -52.5 126.5t-138.5 47.5q-111 0 -182 -71q-70 -70 -70 -168q0 -71 50 -121q53 -53 143 -53z" />
    <glyph glyph-name="seven" unicode="7" horiz-adv-x="1325" 
d="M8 0l905 1157h-675l90 334h1132l-82 -299l-915 -1192h-455z" />
    <glyph glyph-name="eight" unicode="8" horiz-adv-x="1433" 
d="M657 -20q-162 0 -295.5 50.5t-214.5 146.5t-81 220q0 155 97.5 258.5t268.5 147.5q-79 47 -122.5 120.5t-43.5 161.5q0 78 38.5 153t110 136.5t186 99t253.5 37.5q243 0 395 -114.5t152 -288.5q0 -137 -85 -233t-237 -138q221 -91 221 -309q0 -123 -77.5 -224.5
t-226 -162.5t-339.5 -61zM680 274q102 0 171.5 50t70.5 133q0 74 -64 119t-162 45q-103 0 -171 -51.5t-70 -129.5q0 -74 63.5 -120t161.5 -46zM817 887q91 0 153.5 49.5t63.5 122.5q0 70 -56 114t-147 44q-88 0 -150.5 -50t-62.5 -123q-1 -71 55 -114t144 -43z" />
    <glyph glyph-name="nine" unicode="9" horiz-adv-x="1406" 
d="M520 -27q-297 0 -506 185l205 278q152 -133 313 -133q170 0 291 121q83 83 125 201q-59 -52 -149 -86.5t-189 -34.5q-185 0 -308.5 109.5t-123.5 304.5q0 241 172 413q90 90 209 139.5t256 49.5q125 0 233 -37.5t179 -108.5q155 -155 155 -432q0 -202 -76.5 -396
t-220.5 -339q-234 -234 -565 -234zM760 786q109 0 180 74q70 70 70 174q0 78 -47 125q-53 53 -146 53q-107 0 -176 -69q-74 -74 -74 -180q0 -81 53 -129t140 -48z" />
    <glyph glyph-name="colon" unicode=":" horiz-adv-x="679" 
d="M-16 0l108 401h404l-109 -401h-403zM184 750l107 401h405l-108 -401h-404z" />
    <glyph glyph-name="semicolon" unicode=";" horiz-adv-x="679" 
d="M-119 -354l-18 151q124 12 190.5 62.5t85.5 140.5h-155l108 401h404l-93 -346q-58 -207 -178.5 -304.5t-343.5 -104.5zM184 750l107 401h405l-108 -401h-404z" />
    <glyph glyph-name="less" unicode="&#x3c;" horiz-adv-x="1384" 
d="M1083 141l-938 428l97 359l1167 428l-102 -377l-768 -246l637 -246z" />
    <glyph glyph-name="equal" unicode="=" horiz-adv-x="1384" 
d="M90 297l90 340h1061l-92 -340h-1059zM240 862l92 340h1061l-93 -340h-1060z" />
    <glyph glyph-name="greater" unicode="&#x3e;" horiz-adv-x="1384" 
d="M63 141l105 379l766 246l-637 246l92 344l940 -428l-98 -359z" />
    <glyph glyph-name="question" unicode="?" horiz-adv-x="1173" 
d="M373 489l39 357l18 14q393 35 393 193q0 110 -147 110q-148 0 -293 -116l-166 274q103 93 239 141.5t285 48.5q220 0 351 -111.5t131 -277.5q0 -185 -134.5 -309t-404.5 -166l-63 -158h-248zM162 0l96 358h404l-97 -358h-403z" />
    <glyph glyph-name="at" unicode="@" horiz-adv-x="2082" 
d="M999 -330q-194 0 -359 61t-280 169.5t-180 262.5t-65 335q0 204 80.5 392.5t218.5 327.5t332.5 222.5t410.5 83.5q197 0 360.5 -58.5t271.5 -158.5t167 -232.5t59 -281.5q0 -168 -44.5 -299.5t-119 -210t-164.5 -118.5t-188 -40q-113 0 -194.5 46.5t-124.5 127.5
q-157 -172 -338 -172q-142 0 -238 100t-96 267q0 127 44 241t116.5 194t168 126.5t195.5 46.5q186 0 275 -154l45 142l297 -82l-162 -510q-25 -72 -25 -121q0 -59 36.5 -92t100.5 -33q54 0 110.5 36t105 102t79.5 173t31 234q0 131 -53 247t-149 204t-243 139t-323 51
q-200 0 -378.5 -76.5t-304 -204.5t-198.5 -300t-73 -359q0 -219 100 -388t281 -262.5t415 -93.5q223 0 437 96l34 -77q-223 -103 -471 -103zM991 395q96 0 170 84.5t74 200.5q0 68 -44 111t-112 43q-96 0 -168.5 -83.5t-72.5 -199.5q0 -72 40.5 -114t112.5 -42z" />
    <glyph glyph-name="A" unicode="A" horiz-adv-x="1667" 
d="M-139 0l1036 1501h387l234 -1501h-414l-39 281h-588l-186 -281h-430zM684 596h346l-57 440z" />
    <glyph glyph-name="B" unicode="B" horiz-adv-x="1544" 
d="M-4 0l399 1491h613q142 0 247.5 -29t165.5 -80.5t88.5 -114t28.5 -137.5q0 -142 -88 -240.5t-244 -135.5q104 -39 164 -113.5t60 -185.5q0 -205 -171 -330t-499 -125h-764zM467 324h328q110 0 173.5 44t63.5 119q0 121 -186 121h-301zM623 895h288q116 0 176 41t60 117
q0 114 -184 114h-269z" />
    <glyph glyph-name="C" unicode="C" horiz-adv-x="1566" 
d="M829 -29q-204 0 -363.5 79t-250 228t-90.5 345q0 174 69 337t199 293q126 126 294 196.5t366 70.5q220 0 374 -96.5t228 -268.5l-340 -192q-52 97 -127 146.5t-187 49.5q-174 0 -307 -133q-73 -73 -114 -170.5t-41 -206.5q0 -145 87.5 -232t225.5 -87q94 0 170 37.5
t156 113.5l264 -241q-247 -269 -613 -269z" />
    <glyph glyph-name="D" unicode="D" horiz-adv-x="1648" 
d="M-4 0l399 1491h473q391 0 584 -193q162 -162 162 -436q0 -342 -246 -588q-274 -274 -780 -274h-592zM1130 1042q-91 97 -303 97h-129l-213 -787h148q282 0 440 158q133 133 133 324q0 132 -76 208z" />
    <glyph glyph-name="E" unicode="E" horiz-adv-x="1443" 
d="M-4 0l399 1491h1178l-92 -338h-785l-65 -244h706l-84 -317h-708l-68 -254h797l-90 -338h-1188z" />
    <glyph glyph-name="F" unicode="F" horiz-adv-x="1413" 
d="M-4 0l399 1491h1182l-94 -350h-785l-71 -267h704l-88 -333h-706l-146 -541h-395z" />
    <glyph glyph-name="G" unicode="G" horiz-adv-x="1650" 
d="M840 -29q-108 0 -210 24t-194.5 76.5t-161.5 128t-110 185.5t-41 242q0 175 67 333.5t191 282.5q131 131 307.5 204t386.5 73q211 0 371 -72.5t246 -181.5l-271 -256q-155 155 -374 155q-108 0 -203 -39t-164 -108q-73 -73 -112.5 -170.5t-39.5 -206.5q0 -154 98 -239
t246 -85q118 0 213 43l62 209h-297l78 299h676l-211 -751q-255 -146 -553 -146z" />
    <glyph glyph-name="H" unicode="H" horiz-adv-x="1632" 
d="M-4 0l399 1491h398l-152 -565h541l151 565h396l-400 -1491h-397l153 573h-538l-156 -573h-395z" />
    <glyph glyph-name="I" unicode="I" horiz-adv-x="716" 
d="M6 0l402 1491h395l-400 -1491h-397z" />
    <glyph glyph-name="J" unicode="J" horiz-adv-x="1234" 
d="M426 -25q-156 0 -290 67.5t-212 190.5l271 238q60 -78 116.5 -111.5t128.5 -33.5q99 0 168 69q33 36 58 92t57 175l223 829h397l-243 -907q-45 -169 -94 -270t-125 -177q-167 -162 -455 -162z" />
    <glyph glyph-name="K" unicode="K" horiz-adv-x="1560" 
d="M-4 0l399 1491h398l-164 -610l641 610h508l-707 -647l334 -844h-428l-221 594l-271 -242l-94 -352h-395z" />
    <glyph glyph-name="L" unicode="L" horiz-adv-x="1339" 
d="M-4 0l399 1491h398l-306 -1141h717l-94 -350h-1114z" />
    <glyph glyph-name="M" unicode="M" horiz-adv-x="1857" 
d="M-4 0l399 1491h400l198 -588l518 588h443l-400 -1491h-395l236 881l-545 -596h-8l-224 592l-235 -877h-387z" />
    <glyph glyph-name="N" unicode="N" horiz-adv-x="1685" 
d="M-4 0l399 1491h369l397 -854l230 854h391l-400 -1491h-346l-411 883l-238 -883h-391z" />
    <glyph glyph-name="O" unicode="O" horiz-adv-x="1761" 
d="M1018 1518q155 0 287 -51.5t223 -140t142.5 -211.5t51.5 -263q0 -173 -68.5 -335.5t-191.5 -285.5q-122 -122 -281.5 -190t-346.5 -68q-155 0 -287 51.5t-223.5 140t-143 211.5t-51.5 263q0 173 68.5 335.5t191.5 285.5q122 122 282 190t347 68zM870 330q167 0 295 125
q72 72 113 170t41 196q0 152 -88.5 246t-249.5 94q-169 0 -297 -125q-71 -71 -111.5 -169t-40.5 -197q0 -152 88.5 -246t249.5 -94z" />
    <glyph glyph-name="P" unicode="P" horiz-adv-x="1454" 
d="M-4 0l399 1491h486q180 0 299.5 -37t201.5 -119q117 -117 117 -305q0 -237 -158 -395q-203 -203 -579 -203h-254l-117 -432h-395zM1049 1098q-55 55 -183 55h-166l-108 -405h170q179 0 270 88q60 66 60 151q0 68 -43 111z" />
    <glyph glyph-name="Q" unicode="Q" horiz-adv-x="1761" 
d="M1018 1518q155 0 287 -51.5t223 -140t142.5 -211.5t51.5 -263q0 -169 -64 -324.5t-183 -279.5l116 -152l-291 -192l-96 149q-177 -80 -370 -80q-155 0 -287 51.5t-223.5 140t-143 211.5t-51.5 263q0 173 68.5 335.5t191.5 285.5q122 122 282 190t347 68zM870 324
q64 0 123 18l-172 233l291 193l135 -211q72 126 72 260q0 155 -88 249.5t-250 94.5q-169 0 -297 -125q-72 -74 -113 -172t-41 -198q0 -153 89 -247.5t251 -94.5z" />
    <glyph glyph-name="R" unicode="R" horiz-adv-x="1556" 
d="M915 0l-204 457h-21h-176l-123 -457h-395l399 1491h559q350 0 504 -154q117 -117 117 -305q0 -223 -141 -358q-115 -115 -316 -170l236 -504h-439zM600 772h248q178 0 264 86q53 53 53 131q0 62 -41 103q-52 55 -188 55h-236z" />
    <glyph glyph-name="S" unicode="S" horiz-adv-x="1390" 
d="M651 -25q-217 0 -391.5 70.5t-292.5 202.5l262 262q212 -203 451 -203q80 0 130 33t50 88q0 47 -47.5 79.5t-202.5 94.5q-92 35 -157 70.5t-118.5 84t-80.5 112t-27 143.5q0 193 138 325q86 86 210.5 132.5t276.5 46.5q376 0 600 -224l-250 -270q-190 162 -385 162
q-82 0 -128 -33t-46 -82q0 -47 45 -76t207 -94q92 -36 155 -71t117.5 -83.5t81.5 -112.5t27 -145q0 -198 -137 -335q-177 -177 -488 -177z" />
    <glyph glyph-name="T" unicode="T" horiz-adv-x="1384" 
d="M336 0l307 1141h-448l94 350h1292l-94 -350h-449l-305 -1141h-397z" />
    <glyph glyph-name="U" unicode="U" horiz-adv-x="1640" 
d="M739 -27q-282 0 -438 135.5t-156 380.5q0 112 35 240l205 762h399l-213 -793q-20 -67 -20 -143q0 -106 61 -164.5t176 -58.5q127 0 209 82q85 82 131 252l222 825h399l-238 -885q-84 -297 -231 -444q-189 -189 -541 -189z" />
    <glyph glyph-name="V" unicode="V" horiz-adv-x="1587" 
d="M446 -10l-196 1501h430l86 -959l604 959h445l-1004 -1501h-365z" />
    <glyph glyph-name="W" unicode="W" horiz-adv-x="2369" 
d="M365 -10l-99 1501h408l31 -893l534 897h340l61 -897l508 893h432l-903 -1501h-356l-70 870l-534 -870h-352z" />
    <glyph glyph-name="X" unicode="X" horiz-adv-x="1531" 
d="M-139 0l725 778l-312 713h437l168 -432l378 432h484l-692 -743l327 -748h-436l-184 469l-412 -469h-483z" />
    <glyph glyph-name="Y" unicode="Y" horiz-adv-x="1449" 
d="M354 0l156 580l-303 911h428l153 -569l461 569h475l-829 -954l-145 -537h-396z" />
    <glyph glyph-name="Z" unicode="Z" horiz-adv-x="1474" 
d="M-59 0l77 289l969 866h-713l93 336h1255l-78 -289l-971 -866h742l-90 -336h-1284z" />
    <glyph glyph-name="bracketleft" unicode="[" horiz-adv-x="1015" 
d="M-39 -276l475 1767h727l-73 -270h-375l-330 -1227h375l-72 -270h-727z" />
    <glyph glyph-name="backslash" unicode="\" horiz-adv-x="1157" 
d="M688 -272l-440 1972h313l440 -1972h-313z" />
    <glyph glyph-name="bracketright" unicode="]" horiz-adv-x="1015" 
d="M1071 1491l-475 -1767h-727l74 270h374l330 1227h-375l72 270h727z" />
    <glyph glyph-name="asciicircum" unicode="^" horiz-adv-x="1085" 
d="M197 1051l428 438h262l188 -438h-250l-110 215l-226 -215h-292z" />
    <glyph glyph-name="underscore" unicode="_" horiz-adv-x="1298" 
d="M-238 -340l66 246h1288l-67 -246h-1287z" />
    <glyph glyph-name="grave" unicode="`" horiz-adv-x="1085" 
d="M725 1255l-229 269l362 121l121 -390h-254z" />
    <glyph glyph-name="a" unicode="a" horiz-adv-x="1288" 
d="M338 -23q-143 0 -233.5 86t-90.5 226q0 163 107 270q140 137 397 137q146 0 299 -45l4 13q10 42 10 75q0 125 -200 125q-167 0 -309 -57l-56 285q188 73 445 73q252 0 377.5 -93.5t125.5 -268.5q0 -83 -24 -168l-168 -635h-381l33 127q-150 -150 -336 -150zM516 219
q83 0 153 61.5t95 151.5l10 39q-85 29 -164 29q-114 0 -172 -58q-43 -46 -43 -112q0 -50 33 -80.5t88 -30.5z" />
    <glyph glyph-name="b" unicode="b" horiz-adv-x="1454" 
d="M754 -25q-229 0 -351 185l-43 -160h-387l416 1554h387l-141 -526q149 146 326 146q182 0 298.5 -128t116.5 -348q0 -163 -56.5 -303.5t-156.5 -240.5q-179 -179 -409 -179zM690 299q109 0 191 82q102 102 102 262q0 97 -56 153t-149 56q-108 0 -192 -84
q-105 -105 -105 -258q0 -96 58 -153.5t151 -57.5z" />
    <glyph glyph-name="c" unicode="c" horiz-adv-x="1216" 
d="M614 -27q-237 0 -387.5 138.5t-150.5 369.5q0 141 52.5 266.5t150.5 223.5q96 96 221.5 149.5t265.5 53.5q186 0 308 -83.5t175 -220.5l-301 -165q-35 72 -83 108.5t-126 36.5q-98 0 -178 -80q-51 -51 -80.5 -123t-29.5 -149q0 -92 53.5 -147.5t134.5 -55.5q64 0 116 25
t109 81l230 -213q-94 -105 -208 -160t-272 -55z" />
    <glyph glyph-name="d" unicode="d" horiz-adv-x="1454" 
d="M784 0l33 121q-153 -146 -325 -146q-178 0 -297 128.5t-119 347.5q0 163 57 304t158 242q180 177 407 177q232 0 353 -183l151 563h387l-418 -1554h-387zM674 297q108 0 192 84q107 104 107 258q0 96 -58 154.5t-151 58.5q-107 0 -191 -84q-104 -104 -104 -260
q0 -97 56 -154t149 -57z" />
    <glyph glyph-name="e" unicode="e" horiz-adv-x="1304" 
d="M1202 463h-770v-2q6 -90 63.5 -143t163.5 -52q117 0 246 92l178 -219q-199 -166 -462 -166q-251 0 -398 137.5t-147 370.5q0 137 54.5 267.5t152.5 228.5q197 197 483 197q120 0 214 -37.5t152 -103t87.5 -149t29.5 -179.5q0 -121 -47 -242zM545 803q-54 -54 -84 -133
h430q10 33 10 63q0 66 -41 109t-123 43q-110 0 -192 -82z" />
    <glyph glyph-name="f" unicode="f" horiz-adv-x="907" 
d="M43 0l223 836h-135l86 315h133l8 27q44 176 138 270q127 121 350 121q139 0 252 -35l-76 -281q-77 25 -137 25q-61 0 -96 -26.5t-52 -84.5l-6 -22h262l-82 -309h-258l-223 -836h-387z" />
    <glyph glyph-name="g" unicode="g" horiz-adv-x="1443" 
d="M522 -344q-168 0 -333 42.5t-273 115.5l180 245q194 -120 408 -120q153 0 241 88q63 63 97 188l8 29q-82 -74 -165.5 -109t-186.5 -35q-79 0 -152.5 26.5t-131.5 75.5t-93 126.5t-35 171.5q0 145 53.5 274t149.5 225q81 83 185.5 129t219.5 46q230 0 348 -191l45 168h388
l-246 -918q-39 -154 -86.5 -247t-118.5 -164q-85 -86 -205 -126t-297 -40zM668 385q114 0 196 82q90 90 90 209q0 85 -54 136.5t-146 51.5q-109 0 -191 -82q-90 -90 -90 -215q0 -85 53 -133.5t142 -48.5z" />
    <glyph glyph-name="h" unicode="h" horiz-adv-x="1359" 
d="M-27 0l418 1554h387l-143 -534q150 154 323 154q158 0 246 -91.5t88 -251.5q0 -78 -32 -206l-166 -625h-389l163 608q15 58 15 97q0 124 -135 124q-165 0 -222 -213l-166 -616h-387z" />
    <glyph glyph-name="i" unicode="i" horiz-adv-x="663" 
d="M-16 0l307 1151h389l-309 -1151h-387zM313 1260l80 294h406l-82 -294h-404z" />
    <glyph glyph-name="j" unicode="j" horiz-adv-x="663" 
d="M-100 -348q-84 0 -172 16l69 264q27 -6 56 -6q61 0 97.5 38t59.5 126l285 1061h387l-297 -1110q-59 -217 -175 -303t-310 -86zM315 1260l80 294h404l-78 -294h-406z" />
    <glyph glyph-name="k" unicode="k" horiz-adv-x="1292" 
d="M-27 0l418 1554h387l-209 -770l402 367h475l-535 -467l232 -684h-420l-131 424l-154 -133l-78 -291h-387z" />
    <glyph glyph-name="l" unicode="l" horiz-adv-x="663" 
d="M-16 0l417 1554h387l-417 -1554h-387z" />
    <glyph glyph-name="m" unicode="m" horiz-adv-x="2072" 
d="M-27 0l308 1151h389l-35 -127q150 150 317 150q114 0 191 -53t110 -148q173 201 416 201q163 0 250.5 -90t87.5 -250q0 -69 -35 -209l-166 -625h-389l164 608q14 54 14 97q0 124 -131 124q-159 0 -215 -213l-166 -616h-389l164 608q14 54 14 97q0 124 -129 124
q-161 0 -217 -213l-166 -616h-387z" />
    <glyph glyph-name="n" unicode="n" horiz-adv-x="1359" 
d="M-27 0l308 1151h389l-35 -131q150 154 323 154q158 0 246 -91.5t88 -251.5q0 -78 -32 -206l-166 -625h-389l163 608q15 58 15 97q0 124 -135 124q-165 0 -222 -213l-166 -616h-387z" />
    <glyph glyph-name="o" unicode="o" horiz-adv-x="1394" 
d="M754 1174q257 0 410 -150.5t153 -382.5q0 -131 -52.5 -252t-146.5 -217q-94 -94 -216.5 -146.5t-260.5 -52.5q-171 0 -299.5 71t-195 191.5t-66.5 272.5q0 130 52.5 252t146.5 215q199 199 475 199zM662 297q100 0 178 78q49 49 76.5 117t27.5 135q0 104 -58 163.5
t-153 59.5q-100 0 -176 -76q-50 -48 -77 -117t-27 -137q0 -103 57 -163t152 -60z" />
    <glyph glyph-name="p" unicode="p" horiz-adv-x="1454" 
d="M754 -25q-229 0 -351 185l-135 -500h-387l400 1491h389l-35 -123q149 146 326 146q182 0 298.5 -128t116.5 -348q0 -163 -56.5 -303.5t-156.5 -240.5q-179 -179 -409 -179zM690 299q109 0 191 82q102 102 102 262q0 97 -56 153t-149 56q-108 0 -192 -84
q-105 -105 -105 -258q0 -96 58 -153.5t151 -57.5z" />
    <glyph glyph-name="q" unicode="q" horiz-adv-x="1454" 
d="M492 -25q-178 0 -297 128.5t-119 347.5q0 163 57 304t158 242q180 177 407 177q232 0 353 -183l43 160h387l-400 -1491h-389l125 461q-153 -146 -325 -146zM674 297q108 0 192 84q107 104 107 258q0 96 -58 154.5t-151 58.5q-107 0 -191 -84q-104 -104 -104 -260
q0 -97 56 -154t149 -57z" />
    <glyph glyph-name="r" unicode="r" horiz-adv-x="931" 
d="M-27 0l308 1151h389l-64 -233q92 132 195.5 196.5t238.5 54.5l-110 -407h-31q-168 0 -277 -98t-165 -306l-97 -358h-387z" />
    <glyph glyph-name="s" unicode="s" horiz-adv-x="1103" 
d="M494 -27q-160 0 -307 52.5t-250 148.5l198 227q83 -75 184.5 -114t192.5 -39q109 0 109 76q0 29 -33 51t-119 57q-61 24 -104.5 45t-88.5 51t-72.5 62.5t-45 77.5t-17.5 98q0 178 133.5 293t360.5 115q145 0 276 -46.5t213 -115.5l-190 -234q-160 123 -320 123
q-106 0 -106 -74q0 -28 33.5 -50.5t124.5 -59.5q57 -23 97 -42t85.5 -49.5t73.5 -63t46.5 -79t18.5 -100.5q0 -178 -130.5 -294t-362.5 -116z" />
    <glyph glyph-name="t" unicode="t" horiz-adv-x="929" 
d="M457 -23q-168 0 -253 68.5t-85 194.5q0 63 22 149l119 447h-137l86 315h135l80 291h387l-78 -291h268l-86 -315h-268l-102 -387q-13 -59 -13 -68q0 -70 93 -70q64 0 155 31l-86 -322q-115 -43 -237 -43z" />
    <glyph glyph-name="u" unicode="u" horiz-adv-x="1359" 
d="M401 -25q-155 0 -244 91t-89 251q0 81 32 209l168 625h387l-163 -608q-15 -58 -15 -97q0 -124 137 -124q164 0 220 213l165 616h387l-307 -1151h-387l33 129q-154 -154 -324 -154z" />
    <glyph glyph-name="v" unicode="v" horiz-adv-x="1331" 
d="M332 -8l-148 1159h400l43 -690l409 690h414l-766 -1159h-352z" />
    <glyph glyph-name="w" unicode="w" horiz-adv-x="1849" 
d="M231 -8l-41 1159h379l-4 -604l348 608h322l22 -610l326 606h379l-666 -1159h-335l-27 618l-365 -618h-338z" />
    <glyph glyph-name="x" unicode="x" horiz-adv-x="1269" 
d="M600 1151l107 -289l239 289h440l-536 -584l244 -567h-404l-110 301l-254 -301h-443l553 598l-241 553h405z" />
    <glyph glyph-name="y" unicode="y" horiz-adv-x="1333" 
d="M346 10l-147 1141h393l49 -711l395 711h410l-711 -1151q-122 -191 -242.5 -269.5t-285.5 -78.5q-177 0 -299 84l180 282q74 -55 152 -55q32 0 55 9.5t51 37.5z" />
    <glyph glyph-name="z" unicode="z" horiz-adv-x="1208" 
d="M-68 0l68 258l692 584h-516l82 309h1022l-70 -258l-692 -584h541l-84 -309h-1043z" />
    <glyph glyph-name="braceleft" unicode="{" horiz-adv-x="1075" 
d="M801 -86l-111 -215q-242 31 -342 109t-100 206q0 72 37 176q32 88 32 160q0 67 -36.5 98t-147.5 31h-57l69 264h60q83 0 134.5 14.5t86.5 49.5q62 62 88 233q10 73 20 119.5t39 109t74 107.5q75 73 200 110t318 38l27 -234q-191 -20 -264 -90q-29 -29 -48 -75
t-24.5 -77.5t-15.5 -99.5q-10 -60 -17.5 -94.5t-28.5 -84t-53 -81.5q-81 -81 -252 -102q93 -17 138 -70.5t45 -130.5q0 -68 -33 -154q-2 -8 -8.5 -28t-9.5 -31t-7 -27.5t-6 -31t-2 -27.5q0 -66 40.5 -103.5t154.5 -68.5z" />
    <glyph glyph-name="bar" unicode="|" horiz-adv-x="774" 
d="M12 -272l529 1972h297l-531 -1972h-295z" />
    <glyph glyph-name="braceright" unicode="}" horiz-adv-x="1075" 
d="M295 1309l111 215q242 -31 342 -109.5t100 -206.5q0 -72 -37 -176q-33 -90 -33 -160q0 -67 37 -98t148 -31h57l-70 -264h-59q-84 0 -135 -14t-86 -49q-62 -62 -88 -234q-10 -73 -20 -119.5t-39 -109t-74 -107.5q-75 -73 -200 -109.5t-319 -37.5l-26 233q193 20 264 91
q29 29 48 74.5t25 77t15 99.5q10 62 17 95.5t28 83.5t53 82q81 81 252 102q-93 17 -137.5 70t-44.5 131q0 67 33 153q32 107 32 146q0 67 -40 103t-154 69z" />
    <glyph glyph-name="asciitilde" unicode="~" horiz-adv-x="1097" 
d="M289 463l-185 86q60 146 147.5 223.5t190.5 77.5q86 0 176 -64q67 -53 111 -53t76 30t67 91l185 -86q-60 -143 -149 -222t-191 -79q-81 0 -176 65q-42 30 -65 42t-46 12q-41 0 -74 -31.5t-67 -91.5z" />
    <glyph glyph-name="uni00A0" unicode="&#xa0;" horiz-adv-x="0" 
 />
    <glyph glyph-name="exclamdown" unicode="&#xa1;" horiz-adv-x="708" 
d="M571 1001l-106 -847l-43 -154h-445l43 154l347 847h204zM803 1491l-96 -358h-406l96 358h406z" />
    <glyph glyph-name="cent" unicode="&#xa2;" horiz-adv-x="1267" 
d="M924 1503h231l-76 -194q177 -79 248 -254l-283 -156q-38 78 -92 117l-217 -555h2q120 8 232 114l215 -206q-183 -209 -473 -209q-55 0 -80 2l-70 -174h-231l90 229q-138 62 -213.5 181.5t-75.5 283.5q0 284 195 479q95 95 222 147t273 52q31 0 45 -2zM475 698
q0 -115 74 -180l211 539h-2q-100 -12 -174 -86q-53 -53 -81 -125.5t-28 -147.5z" />
    <glyph glyph-name="sterling" unicode="&#xa3;" horiz-adv-x="1370" 
d="M-33 0l64 240l176 59l74 266h-162l76 283h161l35 139q62 238 193 369q160 160 428 160q155 0 273 -62.5t183 -165.5l-274 -237q-41 57 -86.5 84.5t-114.5 27.5q-80 0 -137 -57q-50 -47 -80 -152l-28 -106h454l-76 -283h-454l-66 -248h617l-86 -317h-1170z" />
    <glyph glyph-name="yen" unicode="&#xa5;" horiz-adv-x="1546" 
d="M424 0l53 199h-393l68 247h391l28 113h-391l68 250h299l-262 682h420l159 -504l418 504h467l-625 -682h295l-65 -250h-391l-31 -113h391l-66 -247h-393l-53 -199h-387z" />
    <glyph glyph-name="section" unicode="&#xa7;" horiz-adv-x="1355" 
d="M1300 770q0 -63 -25 -114t-67 -83t-86 -50.5t-92 -28.5q70 -75 70 -175q0 -146 -135 -245t-357 -99q-168 0 -309 53.5t-227 147.5l207 213q69 -63 160.5 -103t178.5 -40q119 0 119 65q0 31 -41 51.5t-168 59.5q-69 19 -121.5 38t-103 46t-83.5 57.5t-53 72t-20 89.5
q0 209 271 276q-70 70 -70 175q0 146 135.5 245t356.5 99q168 0 309 -53.5t227 -147.5l-207 -213q-69 63 -161 103t-179 40q-118 0 -118 -67q0 -30 42 -51.5t167 -57.5q72 -23 121.5 -41t102.5 -45.5t84 -56.5t51.5 -70t20.5 -90zM465 791q0 -35 40.5 -60t143.5 -59
q93 -31 137 -42.5t82 -11.5q48 0 81.5 24t33.5 60q0 37 -40.5 62t-143.5 59q-154 51 -219 51q-49 0 -82 -23t-33 -60z" />
    <glyph glyph-name="dieresis" unicode="&#xa8;" horiz-adv-x="1085" 
d="M319 1255l82 299h344l-81 -299h-345zM784 1255l82 299h344l-82 -299h-344z" />
    <glyph glyph-name="copyright" unicode="&#xa9;" horiz-adv-x="1787" 
d="M895 332q-169 0 -274 97t-105 261q0 97 36.5 185.5t104.5 156.5q148 148 357 148q125 0 211.5 -52.5t128.5 -148.5l-189 -107q-57 107 -172 107q-100 0 -172 -72q-80 -83 -80 -202q0 -84 47 -128.5t123 -44.5q93 0 181 82l147 -135q-136 -147 -344 -147zM1704 842
q0 -174 -67 -338.5t-189 -286.5q-246 -246 -592 -246q-204 0 -361 89.5t-240 243.5t-83 345q0 174 67 338.5t189 286.5q246 246 592 246q204 0 361 -89.5t240 -243.5t83 -345zM262 655q0 -125 40.5 -233.5t115.5 -190t188.5 -128t251.5 -46.5q306 0 520 211q236 236 236 570
q0 123 -40.5 231.5t-115.5 189.5t-188.5 128t-251.5 47q-306 0 -520 -211q-236 -236 -236 -568z" />
    <glyph glyph-name="ordfeminine" unicode="&#xaa;" 
d="M401 848q-79 0 -128.5 47.5t-49.5 124.5q0 104 76 164.5t201 60.5q78 0 164 -28l4 14q6 15 6 35q0 71 -111 71q-80 0 -168 -30l-30 155q104 39 243 39q137 0 206 -51.5t69 -146.5q0 -43 -13 -93l-94 -348h-211l21 70q-91 -84 -185 -84zM498 981q45 0 85 34t52 83l4 20
q-51 19 -92 19q-51 0 -83 -26t-32 -69q0 -26 18.5 -43.5t47.5 -17.5zM109 580l45 157h602l-43 -157h-604z" />
    <glyph glyph-name="guillemotleft" unicode="&#xab;" horiz-adv-x="1368" 
d="M338 68l-256 471l22 86l496 454l186 -184l-331 -354l149 -357zM901 61l-264 488l6 20l537 498l188 -186l-342 -363l141 -338z" />
    <glyph glyph-name="registered" unicode="&#xae;" horiz-adv-x="804" 
d="M594 1511q146 0 238 -93.5t92 -231.5q0 -174 -123 -297q-117 -123 -287 -123q-148 0 -239 94t-91 234q0 176 121 297q120 120 289 120zM518 807q146 0 250 104q113 116 113 271q0 125 -79 208t-214 83q-143 0 -248 -105q-113 -113 -113 -270q0 -125 78 -208t213 -83z
M487 1065l-30 -115h-119l104 393h156q86 0 125 -33.5t39 -88.5q0 -104 -113 -140l56 -131h-125l-48 115h-45zM510 1157h57q45 0 64 19q12 12 12 30q0 37 -51 37h-57z" />
    <glyph glyph-name="macron" unicode="&#xaf;" horiz-adv-x="1085" 
d="M332 1266l63 239h793l-64 -239h-792z" />
    <glyph glyph-name="degree" unicode="&#xb0;" horiz-adv-x="980" 
d="M621 1505q162 0 258 -95.5t96 -240.5q0 -180 -125 -299q-120 -120 -291 -120q-160 0 -256 96t-96 241q0 180 125 299q119 119 289 119zM569 940q75 0 131 53q68 68 68 166q0 72 -43 115t-115 43q-76 0 -129 -53q-67 -70 -67 -166q0 -72 43 -115t112 -43z" />
    <glyph glyph-name="plusminus" unicode="&#xb1;" horiz-adv-x="1384" 
d="M492 449l98 354l-385 -2l84 313l385 -2l92 356h330l-97 -356l383 2l-84 -313l-383 2l-92 -354h-331zM-6 0l76 293h1093l-80 -293h-1089z" />
    <glyph glyph-name="two.sup" unicode="&#xb2;" 
d="M186 889l47 180l420 283q53 37 77 65.5t24 59.5q0 69 -88 69t-199 -102l-123 143q158 158 354 158q134 0 211.5 -63.5t77.5 -168.5q0 -89 -52 -157t-181 -146l-213 -133h348l-51 -188h-652z" />
    <glyph glyph-name="three.sup" unicode="&#xb3;" 
d="M539 866q-221 0 -338 146l145 137q94 -94 199 -94q61 0 102 30.5t41 73.5q0 39 -36.5 61.5t-106.5 22.5h-78l-6 119l260 176h-330l49 186h604l-45 -163l-278 -185q192 -38 192 -200q0 -136 -109.5 -223t-264.5 -87z" />
    <glyph glyph-name="acute" unicode="&#xb4;" horiz-adv-x="1085" 
d="M440 1255l332 390l350 -121l-379 -269h-303z" />
    <glyph glyph-name="mu" unicode="&#xb5;" horiz-adv-x="1499" 
d="M260 -340h-377l398 1491h389l-160 -596q-16 -66 -16 -109q0 -64 37 -99.5t108 -35.5q81 0 132.5 46t80.5 147l172 647h389l-192 -715q-13 -50 -13 -78q0 -37 24.5 -52t76.5 -15q21 0 67 4l-78 -285q-93 -26 -186 -26q-205 0 -258 153q-96 -147 -260 -147q-177 0 -242 168
h-6q0 -179 -37 -316z" />
    <glyph glyph-name="paragraph" unicode="&#xb6;" horiz-adv-x="1292" 
d="M594 0l121 451q-304 15 -441 149q-108 111 -108 299q0 237 156 393q199 199 596 199h471l-400 -1491h-395z" />
    <glyph glyph-name="periodcentered" unicode="&#xb7;" horiz-adv-x="671" 
d="M96 465l109 399h405l-108 -399h-406z" />
    <glyph glyph-name="cedilla" unicode="&#xb8;" horiz-adv-x="1085" 
d="M348 -369l-282 131l264 269h268z" />
    <glyph glyph-name="one.sup" unicode="&#xb9;" horiz-adv-x="700" 
d="M375 889l168 622l-174 -51l-11 180l304 97h163l-225 -848h-225z" />
    <glyph glyph-name="ordmasculine" unicode="&#xba;" horiz-adv-x="876" 
d="M115 580l43 157h600l-43 -157h-600zM434 1145q0 -55 31 -90t84 -35q57 0 100 43q56 59 56 139q0 54 -32 88.5t-83 34.5q-61 0 -101 -43q-55 -52 -55 -137zM909 1208q0 -148 -110 -258q-106 -106 -260 -106q-141 0 -225.5 83t-84.5 212q0 151 111 256q103 108 260 108
q140 0 224.5 -82.5t84.5 -212.5z" />
    <glyph glyph-name="guillemotright" unicode="&#xbb;" horiz-adv-x="1368" 
d="M1028 1075l258 -471l-24 -86l-496 -457l-186 187l331 354l-147 356zM465 1079l264 -485l-6 -21l-537 -497l-188 186l342 363l-139 338z" />
    <glyph glyph-name="onequarter" unicode="&#xbc;" horiz-adv-x="1775" 
d="M268 655l166 623l-172 -53l-10 182l301 96h166l-225 -848h-226zM63 0l750 780l657 711h191l-750 -780l-657 -711h-191zM1190 -2l43 160h-383l27 190l503 500h250l-139 -522h104l-45 -168h-106l-41 -160h-213zM1063 319h217l80 297h-2z" />
    <glyph glyph-name="onehalf" unicode="&#xbd;" horiz-adv-x="1775" 
d="M834 0l47 180l419 283q53 37 77 65.5t24 59.5q0 69 -88 69t-199 -102l-123 143q158 158 355 158q134 0 211 -63t77 -168q0 -89 -52 -157t-181 -146l-213 -134h348l-51 -188h-651zM268 655l166 623l-172 -53l-10 182l301 96h166l-225 -848h-226zM43 0l750 780l657 711h190
l-749 -780l-658 -711h-190z" />
    <glyph glyph-name="threequarters" unicode="&#xbe;" horiz-adv-x="1935" 
d="M434 633q-221 0 -340 145l148 137q88 -94 198 -94q61 0 102.5 31t41.5 74q0 39 -37 61.5t-107 22.5h-78l-6 118l260 177h-329l49 186h604l-45 -164l-279 -184q193 -38 193 -203q0 -135 -110 -221t-265 -86zM213 0l750 780l657 711h190l-749 -780l-658 -711h-190zM1350 -2
l43 160h-383l26 190l504 500h250l-139 -522h104l-45 -168h-106l-41 -160h-213zM1223 319h217l80 297h-2z" />
    <glyph glyph-name="questiondown" unicode="&#xbf;" horiz-adv-x="1173" 
d="M893 1001l-39 -356l-18 -14q-396 -35 -396 -193q0 -110 150 -110q149 0 291 116l168 -274q-103 -93 -239 -141.5t-286 -48.5q-220 0 -350.5 111.5t-130.5 277.5q0 185 134.5 309t404.5 166l63 157h248zM1104 1491l-96 -358h-406l98 358h404z" />
    <glyph glyph-name="Agrave" unicode="&#xc0;" horiz-adv-x="1667" 
d="M-139 0l1036 1501h387l234 -1501h-414l-39 281h-588l-186 -281h-430zM684 596h346l-57 440zM973 1616l-250 225l371 117l143 -342h-264z" />
    <glyph glyph-name="Aacute" unicode="&#xc1;" horiz-adv-x="1667" 
d="M-139 0l1036 1501h387l234 -1501h-414l-39 281h-588l-186 -281h-430zM684 596h346l-57 440zM965 1616l329 342l359 -117l-371 -225h-317z" />
    <glyph glyph-name="Acircumflex" unicode="&#xc2;" horiz-adv-x="1667" 
d="M-139 0l1036 1501h387l234 -1501h-414l-39 281h-588l-186 -281h-430zM684 596h346l-57 440zM664 1610l350 317h348l180 -317h-252l-137 114l-199 -114h-290z" />
    <glyph glyph-name="Atilde" unicode="&#xc3;" horiz-adv-x="1667" 
d="M-139 0l1036 1501h387l234 -1501h-414l-39 281h-588l-186 -281h-430zM684 596h346l-57 440zM864 1599l-190 58q64 160 135 233.5t176 73.5q78 0 207 -47q101 -37 127 -37q43 0 71.5 23t59.5 77l190 -57q-62 -160 -133 -233.5t-176 -73.5q-78 0 -207 47q-101 37 -127 37
q-45 0 -72.5 -23t-60.5 -78z" />
    <glyph glyph-name="Adieresis" unicode="&#xc4;" horiz-adv-x="1667" 
d="M-139 0l1036 1501h387l234 -1501h-414l-39 281h-588l-186 -281h-430zM684 596h346l-57 440zM719 1616l80 291h342l-80 -291h-342zM1188 1616l80 291h344l-80 -291h-344z" />
    <glyph glyph-name="Aring" unicode="&#xc5;" horiz-adv-x="1667" 
d="M-139 0l987 1427q-35 53 -35 117q0 122 92 208.5t236 86.5q114 0 190 -66.5t76 -160.5q0 -132 -107 -221l218 -1391h-414l-39 281h-588l-186 -281h-430zM684 596h346l-57 440zM1092 1442q77 0 123.5 47.5t46.5 105.5q0 54 -37 86.5t-97 32.5q-77 0 -123.5 -48t-46.5 -107
q0 -54 37 -85.5t97 -31.5z" />
    <glyph glyph-name="AE" unicode="&#xc6;" horiz-adv-x="2310" 
d="M-145 0l1179 1491h1405l-90 -338h-743l-66 -244h666l-86 -317h-664l-70 -254h754l-90 -338h-1141l76 281h-481l-219 -281h-430zM748 596h323l152 573h-31z" />
    <glyph glyph-name="Ccedilla" unicode="&#xc7;" horiz-adv-x="1566" 
d="M625 -369l-283 131l240 244q-211 63 -334 224.5t-123 392.5q0 174 69 337t199 293q126 126 294 196.5t366 70.5q220 0 374 -96.5t228 -268.5l-340 -192q-52 97 -127 146.5t-187 49.5q-174 0 -307 -133q-73 -73 -114 -170.5t-41 -206.5q0 -145 87.5 -232t225.5 -87
q94 0 170 37.5t156 113.5l264 -241q-118 -127 -263.5 -197.5t-338.5 -71.5h-2z" />
    <glyph glyph-name="Egrave" unicode="&#xc8;" horiz-adv-x="1443" 
d="M858 1595l-250 226l371 116l143 -342h-264zM-4 0l399 1491h1178l-92 -338h-785l-65 -244h706l-84 -317h-708l-68 -254h797l-90 -338h-1188z" />
    <glyph glyph-name="Eacute" unicode="&#xc9;" horiz-adv-x="1443" 
d="M848 1595l330 342l358 -116l-371 -226h-317zM-4 0l399 1491h1178l-92 -338h-785l-65 -244h706l-84 -317h-708l-68 -254h797l-90 -338h-1188z" />
    <glyph glyph-name="Ecircumflex" unicode="&#xca;" horiz-adv-x="1443" 
d="M-4 0l399 1491h1178l-92 -338h-785l-65 -244h706l-84 -317h-708l-68 -254h797l-90 -338h-1188zM551 1595l350 318h348l181 -318h-252l-138 115l-198 -115h-291z" />
    <glyph glyph-name="Edieresis" unicode="&#xcb;" horiz-adv-x="1443" 
d="M604 1595l80 291h342l-80 -291h-342zM1073 1595l80 291h344l-80 -291h-344zM-4 0l399 1491h1178l-92 -338h-785l-65 -244h706l-84 -317h-708l-68 -254h797l-90 -338h-1188z" />
    <glyph glyph-name="Igrave" unicode="&#xcc;" horiz-adv-x="716" 
d="M6 0l402 1491h395l-400 -1491h-397zM481 1595l-250 226l371 116l143 -342h-264z" />
    <glyph glyph-name="Iacute" unicode="&#xcd;" horiz-adv-x="716" 
d="M6 0l402 1491h395l-400 -1491h-397zM471 1595l330 342l358 -116l-371 -226h-317z" />
    <glyph glyph-name="Icircumflex" unicode="&#xce;" horiz-adv-x="716" 
d="M6 0l402 1491h395l-400 -1491h-397zM174 1595l350 318h348l181 -318h-252l-137 115l-199 -115h-291z" />
    <glyph glyph-name="Idieresis" unicode="&#xcf;" horiz-adv-x="716" 
d="M6 0l402 1491h395l-400 -1491h-397zM227 1595l80 291h342l-80 -291h-342zM696 1595l80 291h344l-80 -291h-344z" />
    <glyph glyph-name="Eth" unicode="&#xd0;" horiz-adv-x="1726" 
d="M82 0l164 616h-178l71 269h178l164 606h463q391 0 584 -193q162 -162 162 -436q0 -344 -244 -588q-274 -274 -782 -274h-582zM907 618h-274l-74 -276h150q139 0 255.5 42t196.5 120q135 141 135 334q0 133 -77 213q-105 98 -310 98h-133l-71 -268h274z" />
    <glyph glyph-name="Ntilde" unicode="&#xd1;" horiz-adv-x="1685" 
d="M856 1579l-190 57q64 160 135 234t176 74q76 0 207 -48q98 -36 127 -36q43 0 71.5 23t59.5 77l190 -57q-62 -160 -133 -234t-176 -74q-78 0 -207 47q-101 37 -127 37q-45 0 -72.5 -22.5t-60.5 -77.5zM-4 0l399 1491h369l397 -854l230 854h391l-400 -1491h-346l-411 883
l-238 -883h-391z" />
    <glyph glyph-name="Ograve" unicode="&#xd2;" horiz-adv-x="1761" 
d="M991 1616l-250 225l371 117l143 -342h-264zM1018 1518q155 0 287 -51.5t223 -140t142.5 -211.5t51.5 -263q0 -173 -68.5 -335.5t-191.5 -285.5q-122 -122 -281.5 -190t-346.5 -68q-155 0 -287 51.5t-223.5 140t-143 211.5t-51.5 263q0 173 68.5 335.5t191.5 285.5
q122 122 282 190t347 68zM870 330q167 0 295 125q72 72 113 170t41 196q0 152 -88.5 246t-249.5 94q-169 0 -297 -125q-71 -71 -111.5 -169t-40.5 -197q0 -152 88.5 -246t249.5 -94z" />
    <glyph glyph-name="Oacute" unicode="&#xd3;" horiz-adv-x="1761" 
d="M963 1616l329 342l359 -117l-371 -225h-317zM1018 1518q155 0 287 -51.5t223 -140t142.5 -211.5t51.5 -263q0 -173 -68.5 -335.5t-191.5 -285.5q-122 -122 -281.5 -190t-346.5 -68q-155 0 -287 51.5t-223.5 140t-143 211.5t-51.5 263q0 173 68.5 335.5t191.5 285.5
q122 122 282 190t347 68zM870 330q167 0 295 125q72 72 113 170t41 196q0 152 -88.5 246t-249.5 94q-169 0 -297 -125q-71 -71 -111.5 -169t-40.5 -197q0 -152 88.5 -246t249.5 -94z" />
    <glyph glyph-name="Ocircumflex" unicode="&#xd4;" horiz-adv-x="1761" 
d="M1018 1518q155 0 287 -51.5t223 -140t142.5 -211.5t51.5 -263q0 -173 -68.5 -335.5t-191.5 -285.5q-122 -122 -281.5 -190t-346.5 -68q-155 0 -287 51.5t-223.5 140t-143 211.5t-51.5 263q0 173 68.5 335.5t191.5 285.5q122 122 282 190t347 68zM870 330q167 0 295 125
q72 72 113 170t41 196q0 152 -88.5 246t-249.5 94q-169 0 -297 -125q-71 -71 -111.5 -169t-40.5 -197q0 -152 88.5 -246t249.5 -94zM684 1616l350 317h348l181 -317h-252l-137 115l-199 -115h-291z" />
    <glyph glyph-name="Otilde" unicode="&#xd5;" horiz-adv-x="1761" 
d="M883 1599l-191 58q64 160 135.5 233.5t176.5 73.5q77 0 206 -47q101 -37 127 -37q43 0 71.5 23t59.5 77l191 -57q-62 -160 -133 -233.5t-176 -73.5q-78 0 -207 47q-101 37 -127 37q-45 0 -72.5 -23t-60.5 -78zM1018 1518q155 0 287 -51.5t223 -140t142.5 -211.5
t51.5 -263q0 -173 -68.5 -335.5t-191.5 -285.5q-122 -122 -281.5 -190t-346.5 -68q-155 0 -287 51.5t-223.5 140t-143 211.5t-51.5 263q0 173 68.5 335.5t191.5 285.5q122 122 282 190t347 68zM870 330q167 0 295 125q72 72 113 170t41 196q0 152 -88.5 246t-249.5 94
q-169 0 -297 -125q-71 -71 -111.5 -169t-40.5 -197q0 -152 88.5 -246t249.5 -94z" />
    <glyph glyph-name="Odieresis" unicode="&#xd6;" horiz-adv-x="1761" 
d="M735 1616l80 291h342l-80 -291h-342zM1204 1616l80 291h344l-80 -291h-344zM1018 1518q155 0 287 -51.5t223 -140t142.5 -211.5t51.5 -263q0 -173 -68.5 -335.5t-191.5 -285.5q-122 -122 -281.5 -190t-346.5 -68q-155 0 -287 51.5t-223.5 140t-143 211.5t-51.5 263
q0 173 68.5 335.5t191.5 285.5q122 122 282 190t347 68zM870 330q167 0 295 125q72 72 113 170t41 196q0 152 -88.5 246t-249.5 94q-169 0 -297 -125q-71 -71 -111.5 -169t-40.5 -197q0 -152 88.5 -246t249.5 -94z" />
    <glyph glyph-name="multiply" unicode="&#xd7;" horiz-adv-x="1384" 
d="M299 195l-195 258l408 315l-236 315l285 222l225 -324l406 326l194 -260l-409 -316l237 -313l-284 -221l-228 321z" />
    <glyph glyph-name="Oslash" unicode="&#xd8;" horiz-adv-x="1761" 
d="M1018 1518q259 0 455 -146l141 129h313l-311 -282q106 -162 106 -367q0 -173 -68.5 -335.5t-191.5 -285.5q-122 -122 -281.5 -190t-346.5 -68q-261 0 -455 144l-141 -127h-314l312 280q-107 158 -107 369q0 173 68.5 335.5t191.5 285.5q122 122 282 190t347 68zM520 668
q0 -74 21 -133l643 585q-90 54 -203 54q-173 0 -303 -130q-73 -73 -115.5 -174.5t-42.5 -201.5zM868 317q178 0 303 132q74 71 116 172t42 202q0 75 -20 131l-641 -583q85 -54 200 -54z" />
    <glyph glyph-name="Ugrave" unicode="&#xd9;" horiz-adv-x="1640" 
d="M936 1595l-250 226l371 116l143 -342h-264zM739 -27q-282 0 -438 135.5t-156 380.5q0 112 35 240l205 762h399l-213 -793q-20 -67 -20 -143q0 -106 61 -164.5t176 -58.5q127 0 209 82q85 82 131 252l222 825h399l-238 -885q-84 -297 -231 -444q-189 -189 -541 -189z" />
    <glyph glyph-name="Uacute" unicode="&#xda;" horiz-adv-x="1640" 
d="M926 1595l329 342l359 -116l-371 -226h-317zM739 -27q-282 0 -438 135.5t-156 380.5q0 112 35 240l205 762h399l-213 -793q-20 -67 -20 -143q0 -106 61 -164.5t176 -58.5q127 0 209 82q85 82 131 252l222 825h399l-238 -885q-84 -297 -231 -444q-189 -189 -541 -189z" />
    <glyph glyph-name="Ucircumflex" unicode="&#xdb;" horiz-adv-x="1640" 
d="M739 -27q-282 0 -438 135.5t-156 380.5q0 112 35 240l205 762h399l-213 -793q-20 -67 -20 -143q0 -106 61 -164.5t176 -58.5q127 0 209 82q85 82 131 252l222 825h399l-238 -885q-84 -297 -231 -444q-189 -189 -541 -189zM629 1595l350 318h348l180 -318h-252l-137 115
l-198 -115h-291z" />
    <glyph glyph-name="Udieresis" unicode="&#xdc;" horiz-adv-x="1640" 
d="M682 1595l80 291h342l-80 -291h-342zM1151 1595l80 291h344l-80 -291h-344zM739 -27q-282 0 -438 135.5t-156 380.5q0 112 35 240l205 762h399l-213 -793q-20 -67 -20 -143q0 -106 61 -164.5t176 -58.5q127 0 209 82q85 82 131 252l222 825h399l-238 -885
q-84 -297 -231 -444q-189 -189 -541 -189z" />
    <glyph glyph-name="Yacute" unicode="&#xdd;" horiz-adv-x="1449" 
d="M354 0l156 580l-303 911h428l153 -569l461 569h475l-829 -954l-145 -537h-396zM807 1595l330 342l358 -116l-371 -226h-317z" />
    <glyph glyph-name="Thorn" unicode="&#xde;" horiz-adv-x="1476" 
d="M-4 0l399 1491h398l-56 -213h92q179 0 297.5 -37t200.5 -119q117 -117 117 -301q0 -235 -156 -391q-203 -203 -575 -203h-260l-62 -227h-395zM539 547h170q182 0 270 88q59 59 59 151q0 66 -43 109q-54 57 -182 57h-166z" />
    <glyph glyph-name="germandbls" unicode="&#xdf;" horiz-adv-x="1378" 
d="M506 -4l76 283q157 0 232 56.5t75 145.5q0 62 -51 105t-160 53l57 215q136 28 201 93.5t65 156.5q0 69 -40 107t-103 38q-160 0 -223 -235l-270 -1014h-388l277 1030q69 255 199 385q156 156 419 156q225 0 358.5 -114.5t133.5 -299.5q0 -155 -86.5 -264t-247.5 -156
q104 -39 164.5 -111.5t60.5 -176.5q0 -101 -45 -186t-134 -149t-235.5 -96t-334.5 -22z" />
    <glyph glyph-name="agrave" unicode="&#xe0;" horiz-adv-x="1288" 
d="M338 -23q-143 0 -233.5 86t-90.5 226q0 163 107 270q140 137 397 137q146 0 299 -45l4 13q10 42 10 75q0 125 -200 125q-167 0 -309 -57l-56 285q188 73 445 73q252 0 377.5 -93.5t125.5 -268.5q0 -83 -24 -168l-168 -635h-381l33 127q-150 -150 -336 -150zM516 219
q83 0 153 61.5t95 151.5l10 39q-85 29 -164 29q-114 0 -172 -58q-43 -46 -43 -112q0 -50 33 -80.5t88 -30.5zM684 1262l-229 268l362 121l121 -389h-254z" />
    <glyph glyph-name="aacute" unicode="&#xe1;" horiz-adv-x="1288" 
d="M338 -23q-143 0 -233.5 86t-90.5 226q0 163 107 270q140 137 397 137q146 0 299 -45l4 13q10 42 10 75q0 125 -200 125q-167 0 -309 -57l-56 285q188 73 445 73q252 0 377.5 -93.5t125.5 -268.5q0 -83 -24 -168l-168 -635h-381l33 127q-150 -150 -336 -150zM516 219
q83 0 153 61.5t95 151.5l10 39q-85 29 -164 29q-114 0 -172 -58q-43 -46 -43 -112q0 -50 33 -80.5t88 -30.5zM668 1262l331 389l351 -121l-379 -268h-303z" />
    <glyph glyph-name="acircumflex" unicode="&#xe2;" horiz-adv-x="1288" 
d="M338 -23q-143 0 -233.5 86t-90.5 226q0 163 107 270q140 137 397 137q146 0 299 -45l4 13q10 42 10 75q0 125 -200 125q-167 0 -309 -57l-56 285q188 73 445 73q252 0 377.5 -93.5t125.5 -268.5q0 -83 -24 -168l-168 -635h-381l33 127q-150 -150 -336 -150zM516 219
q83 0 153 61.5t95 151.5l10 39q-85 29 -164 29q-114 0 -172 -58q-43 -46 -43 -112q0 -50 33 -80.5t88 -30.5zM373 1262l362 346h324l178 -346h-240l-141 131l-213 -131h-270z" />
    <glyph glyph-name="atilde" unicode="&#xe3;" horiz-adv-x="1288" 
d="M338 -23q-143 0 -233.5 86t-90.5 226q0 163 107 270q140 137 397 137q146 0 299 -45l4 13q10 42 10 75q0 125 -200 125q-167 0 -309 -57l-56 285q188 73 445 73q252 0 377.5 -93.5t125.5 -268.5q0 -83 -24 -168l-168 -635h-381l33 127q-150 -150 -336 -150zM516 219
q83 0 153 61.5t95 151.5l10 39q-85 29 -164 29q-114 0 -172 -58q-43 -46 -43 -112q0 -50 33 -80.5t88 -30.5zM1135 1626l190 -59q-64 -161 -133.5 -233t-175.5 -72q-76 0 -191 45q-80 36 -123 36q-45 0 -71 -22.5t-58 -77.5l-190 60q63 161 132 233t175 72q78 0 193 -45
q79 -37 123 -37q42 0 69 22.5t60 77.5z" />
    <glyph glyph-name="adieresis" unicode="&#xe4;" horiz-adv-x="1288" 
d="M338 -23q-143 0 -233.5 86t-90.5 226q0 163 107 270q140 137 397 137q146 0 299 -45l4 13q10 42 10 75q0 125 -200 125q-167 0 -309 -57l-56 285q188 73 445 73q252 0 377.5 -93.5t125.5 -268.5q0 -83 -24 -168l-168 -635h-381l33 127q-150 -150 -336 -150zM516 219
q83 0 153 61.5t95 151.5l10 39q-85 29 -164 29q-114 0 -172 -58q-43 -46 -43 -112q0 -50 33 -80.5t88 -30.5zM416 1262l82 299h344l-82 -299h-344zM881 1262l82 299h344l-82 -299h-344z" />
    <glyph glyph-name="aring" unicode="&#xe5;" horiz-adv-x="1288" 
d="M338 -23q-143 0 -233.5 86t-90.5 226q0 163 107 270q140 137 397 137q146 0 299 -45l4 13q10 42 10 75q0 125 -200 125q-167 0 -309 -57l-56 285q188 73 445 73q252 0 377.5 -93.5t125.5 -268.5q0 -83 -24 -168l-168 -635h-381l33 127q-150 -150 -336 -150zM516 219
q83 0 153 61.5t95 151.5l10 39q-85 29 -164 29q-114 0 -172 -58q-43 -46 -43 -112q0 -50 33 -80.5t88 -30.5zM1169 1563q0 -122 -87 -211.5t-214 -89.5q-115 0 -183.5 66t-68.5 167q0 121 87.5 210t214.5 89q115 0 183 -65t68 -166zM756 1505q0 -55 33 -89t85 -34
q66 0 111 51t45 119q0 55 -33.5 89t-85.5 34q-66 0 -110.5 -51t-44.5 -119z" />
    <glyph glyph-name="ae" unicode="&#xe6;" horiz-adv-x="2009" 
d="M1319 -27q-299 0 -436 211q-109 -106 -231 -156.5t-269 -50.5q-172 0 -270.5 84.5t-98.5 227.5q0 163 107 270q140 137 397 137q146 0 299 -45l4 13q10 42 10 75q0 125 -200 125q-167 0 -309 -57l-56 285q188 73 445 73q268 0 374 -143q180 152 400 152
q115 0 206.5 -37.5t147.5 -102.5t85.5 -149t29.5 -180q0 -121 -47 -242h-770v-2q6 -90 63.5 -143t163.5 -52q117 0 246 92l178 -219q-191 -166 -469 -166zM539 219q65 0 140 31.5t134 89.5q-16 59 -16 121q-93 39 -187 39q-114 0 -172 -58q-43 -46 -43 -112q0 -51 37 -81
t107 -30zM1249 803q-54 -54 -84 -133h430q11 37 11 63q0 66 -41.5 109t-122.5 43q-111 0 -193 -82z" />
    <glyph glyph-name="ccedilla" unicode="&#xe7;" horiz-adv-x="1216" 
d="M422 -369l-283 131l246 250q-144 57 -226.5 178t-82.5 291q0 141 52.5 266.5t150.5 223.5q96 96 221.5 149.5t265.5 53.5q186 0 308 -83.5t175 -220.5l-301 -165q-35 72 -83 108.5t-126 36.5q-98 0 -178 -80q-51 -51 -80.5 -123t-29.5 -149q0 -92 53.5 -147.5
t134.5 -55.5q64 0 116 25t109 81l230 -213q-92 -103 -199 -157t-258 -58h-2z" />
    <glyph glyph-name="egrave" unicode="&#xe8;" horiz-adv-x="1304" 
d="M1202 463h-770v-2q6 -90 63.5 -143t163.5 -52q117 0 246 92l178 -219q-199 -166 -462 -166q-251 0 -398 137.5t-147 370.5q0 137 54.5 267.5t152.5 228.5q197 197 483 197q120 0 214 -37.5t152 -103t87.5 -149t29.5 -179.5q0 -121 -47 -242zM545 803q-54 -54 -84 -133
h430q10 33 10 63q0 66 -41 109t-123 43q-110 0 -192 -82zM711 1262l-230 268l363 121l121 -389h-254z" />
    <glyph glyph-name="eacute" unicode="&#xe9;" horiz-adv-x="1304" 
d="M692 1262l332 389l350 -121l-379 -268h-303zM1202 463h-770v-2q6 -90 63.5 -143t163.5 -52q117 0 246 92l178 -219q-199 -166 -462 -166q-251 0 -398 137.5t-147 370.5q0 137 54.5 267.5t152.5 228.5q197 197 483 197q120 0 214 -37.5t152 -103t87.5 -149t29.5 -179.5
q0 -121 -47 -242zM545 803q-54 -54 -84 -133h430q10 33 10 63q0 66 -41 109t-123 43q-110 0 -192 -82z" />
    <glyph glyph-name="ecircumflex" unicode="&#xea;" horiz-adv-x="1304" 
d="M399 1262l363 346h323l179 -346h-240l-141 131l-213 -131h-271zM1202 463h-770v-2q6 -90 63.5 -143t163.5 -52q117 0 246 92l178 -219q-199 -166 -462 -166q-251 0 -398 137.5t-147 370.5q0 137 54.5 267.5t152.5 228.5q197 197 483 197q120 0 214 -37.5t152 -103
t87.5 -149t29.5 -179.5q0 -121 -47 -242zM545 803q-54 -54 -84 -133h430q10 33 10 63q0 66 -41 109t-123 43q-110 0 -192 -82z" />
    <glyph glyph-name="edieresis" unicode="&#xeb;" horiz-adv-x="1304" 
d="M442 1262l82 299h344l-82 -299h-344zM907 1262l82 299h344l-82 -299h-344zM1202 463h-770v-2q6 -90 63.5 -143t163.5 -52q117 0 246 92l178 -219q-199 -166 -462 -166q-251 0 -398 137.5t-147 370.5q0 137 54.5 267.5t152.5 228.5q197 197 483 197q120 0 214 -37.5
t152 -103t87.5 -149t29.5 -179.5q0 -121 -47 -242zM545 803q-54 -54 -84 -133h430q10 33 10 63q0 66 -41 109t-123 43q-110 0 -192 -82z" />
    <glyph glyph-name="igrave" unicode="&#xec;" horiz-adv-x="663" 
d="M-16 0l307 1151h389l-309 -1151h-387zM377 1255l-230 269l363 121l121 -390h-254z" />
    <glyph glyph-name="iacute" unicode="&#xed;" horiz-adv-x="663" 
d="M360 1255l332 390l350 -121l-378 -269h-304zM-16 0l307 1151h389l-309 -1151h-387z" />
    <glyph glyph-name="icircumflex" unicode="&#xee;" horiz-adv-x="663" 
d="M70 1255l362 347h324l178 -347h-240l-141 131l-213 -131h-270zM-16 0l307 1151h389l-309 -1151h-387z" />
    <glyph glyph-name="idieresis" unicode="&#xef;" horiz-adv-x="663" 
d="M111 1255l82 299h344l-82 -299h-344zM575 1255l82 299h344l-81 -299h-345zM-16 0l307 1151h389l-309 -1151h-387z" />
    <glyph glyph-name="eth" unicode="&#xf0;" horiz-adv-x="1406" 
d="M549 1206l-51 170l190 47q-76 83 -131 131h451l36 -43l240 60l53 -168l-178 -45q174 -269 174 -570q0 -185 -61 -344.5t-174 -275.5q-91 -91 -211 -143t-258 -52q-254 0 -401.5 144.5t-147.5 382.5q0 135 51 260t143 217q170 170 394 170q171 0 288 -123
q-46 119 -143 248zM651 295q105 0 185 80q48 48 76 116t28 140q0 99 -56 159t-149 60q-107 0 -184 -80q-48 -48 -75 -114.5t-27 -139.5q0 -101 53.5 -161t148.5 -60z" />
    <glyph glyph-name="ntilde" unicode="&#xf1;" horiz-adv-x="1359" 
d="M-27 0l308 1151h389l-35 -131q150 154 323 154q158 0 246 -91.5t88 -251.5q0 -78 -32 -206l-166 -625h-389l163 608q15 58 15 97q0 124 -135 124q-165 0 -222 -213l-166 -616h-387zM1171 1626l191 -59q-64 -161 -133.5 -233t-175.5 -72q-76 0 -191 45q-80 36 -123 36
q-45 0 -71 -22.5t-58 -77.5l-190 60q63 161 132 233t175 72q78 0 193 -45q79 -37 122 -37q42 0 69 22.5t60 77.5z" />
    <glyph glyph-name="ograve" unicode="&#xf2;" horiz-adv-x="1394" 
d="M754 1174q257 0 410 -150.5t153 -382.5q0 -131 -52.5 -252t-146.5 -217q-94 -94 -216.5 -146.5t-260.5 -52.5q-171 0 -299.5 71t-195 191.5t-66.5 272.5q0 130 52.5 252t146.5 215q199 199 475 199zM662 297q100 0 178 78q49 49 76.5 117t27.5 135q0 104 -58 163.5
t-153 59.5q-100 0 -176 -76q-50 -48 -77 -117t-27 -137q0 -103 57 -163t152 -60zM739 1262l-229 268l362 121l121 -389h-254z" />
    <glyph glyph-name="oacute" unicode="&#xf3;" horiz-adv-x="1394" 
d="M705 1262l331 389l350 -121l-378 -268h-303zM754 1174q257 0 410 -150.5t153 -382.5q0 -131 -52.5 -252t-146.5 -217q-94 -94 -216.5 -146.5t-260.5 -52.5q-171 0 -299.5 71t-195 191.5t-66.5 272.5q0 130 52.5 252t146.5 215q199 199 475 199zM662 297q100 0 178 78
q49 49 76.5 117t27.5 135q0 104 -58 163.5t-153 59.5q-100 0 -176 -76q-50 -48 -77 -117t-27 -137q0 -103 57 -163t152 -60z" />
    <glyph glyph-name="ocircumflex" unicode="&#xf4;" horiz-adv-x="1394" 
d="M430 1262l363 346h323l178 -346h-239l-142 131l-213 -131h-270zM754 1174q257 0 410 -150.5t153 -382.5q0 -131 -52.5 -252t-146.5 -217q-94 -94 -216.5 -146.5t-260.5 -52.5q-171 0 -299.5 71t-195 191.5t-66.5 272.5q0 130 52.5 252t146.5 215q199 199 475 199z
M662 297q100 0 178 78q49 49 76.5 117t27.5 135q0 104 -58 163.5t-153 59.5q-100 0 -176 -76q-50 -48 -77 -117t-27 -137q0 -103 57 -163t152 -60z" />
    <glyph glyph-name="otilde" unicode="&#xf5;" horiz-adv-x="1394" 
d="M754 1174q257 0 410 -150.5t153 -382.5q0 -131 -52.5 -252t-146.5 -217q-94 -94 -216.5 -146.5t-260.5 -52.5q-171 0 -299.5 71t-195 191.5t-66.5 272.5q0 130 52.5 252t146.5 215q199 199 475 199zM662 297q100 0 178 78q49 49 76.5 117t27.5 135q0 104 -58 163.5
t-153 59.5q-100 0 -176 -76q-50 -48 -77 -117t-27 -137q0 -103 57 -163t152 -60zM1192 1626l190 -59q-64 -161 -133.5 -233t-175.5 -72q-75 0 -190 45q-80 36 -123 36q-45 0 -71 -22.5t-58 -77.5l-191 60q63 160 132.5 232.5t175.5 72.5q77 0 192 -45q79 -37 123 -37
q42 0 69 22.5t60 77.5z" />
    <glyph glyph-name="odieresis" unicode="&#xf6;" horiz-adv-x="1394" 
d="M473 1262l82 299h344l-82 -299h-344zM938 1262l82 299h344l-82 -299h-344zM754 1174q257 0 410 -150.5t153 -382.5q0 -131 -52.5 -252t-146.5 -217q-94 -94 -216.5 -146.5t-260.5 -52.5q-171 0 -299.5 71t-195 191.5t-66.5 272.5q0 130 52.5 252t146.5 215
q199 199 475 199zM662 297q100 0 178 78q49 49 76.5 117t27.5 135q0 104 -58 163.5t-153 59.5q-100 0 -176 -76q-50 -48 -77 -117t-27 -137q0 -103 57 -163t152 -60z" />
    <glyph glyph-name="divide" unicode="&#xf7;" horiz-adv-x="1384" 
d="M385 115l88 336h371l-90 -336h-369zM141 594l84 313h1112l-86 -313h-1110zM635 1049l88 335h371l-90 -335h-369z" />
    <glyph glyph-name="oslash" unicode="&#xf8;" horiz-adv-x="1394" 
d="M754 1174q206 0 360 -109l107 96h282l-262 -235q76 -125 76 -285q0 -131 -52.5 -252t-146.5 -217q-94 -94 -216.5 -146.5t-260.5 -52.5q-213 0 -360 109l-105 -94h-285l263 235q-74 121 -74 285q0 130 52.5 252t146.5 215q199 199 475 199zM739 864q-110 0 -194 -84
q-50 -50 -79.5 -121t-29.5 -139q0 -23 4 -59l418 375q-54 28 -119 28zM958 629q0 32 -6 59l-415 -377q54 -28 120 -28q106 0 193 84q53 53 80.5 122t27.5 140z" />
    <glyph glyph-name="ugrave" unicode="&#xf9;" horiz-adv-x="1359" 
d="M401 -25q-155 0 -244 91t-89 251q0 81 32 209l168 625h387l-163 -608q-15 -58 -15 -97q0 -124 137 -124q164 0 220 213l165 616h387l-307 -1151h-387l33 129q-154 -154 -324 -154zM719 1255l-230 269l363 121l121 -390h-254z" />
    <glyph glyph-name="uacute" unicode="&#xfa;" horiz-adv-x="1359" 
d="M702 1255l332 390l350 -121l-378 -269h-304zM401 -25q-155 0 -244 91t-89 251q0 81 32 209l168 625h387l-163 -608q-15 -58 -15 -97q0 -124 137 -124q164 0 220 213l165 616h387l-307 -1151h-387l33 129q-154 -154 -324 -154z" />
    <glyph glyph-name="ucircumflex" unicode="&#xfb;" horiz-adv-x="1359" 
d="M408 1255l362 347h324l178 -347h-240l-141 131l-213 -131h-270zM401 -25q-155 0 -244 91t-89 251q0 81 32 209l168 625h387l-163 -608q-15 -58 -15 -97q0 -124 137 -124q164 0 220 213l165 616h387l-307 -1151h-387l33 129q-154 -154 -324 -154z" />
    <glyph glyph-name="udieresis" unicode="&#xfc;" horiz-adv-x="1359" 
d="M451 1255l81 299h345l-82 -299h-344zM915 1255l82 299h344l-81 -299h-345zM401 -25q-155 0 -244 91t-89 251q0 81 32 209l168 625h387l-163 -608q-15 -58 -15 -97q0 -124 137 -124q164 0 220 213l165 616h387l-307 -1151h-387l33 129q-154 -154 -324 -154z" />
    <glyph glyph-name="yacute" unicode="&#xfd;" horiz-adv-x="1333" 
d="M346 10l-147 1141h393l49 -711l395 711h410l-711 -1151q-122 -191 -242.5 -269.5t-285.5 -78.5q-177 0 -299 84l180 282q74 -55 152 -55q32 0 55 9.5t51 37.5zM684 1255l332 390l350 -121l-379 -269h-303z" />
    <glyph glyph-name="thorn" unicode="&#xfe;" horiz-adv-x="1454" 
d="M776 1554l-141 -526q149 146 326 146q182 0 298.5 -128t116.5 -348q0 -163 -56.5 -303.5t-156.5 -240.5q-179 -179 -409 -179q-229 0 -351 185l-133 -500h-387l506 1894h387zM690 299q109 0 191 82q102 102 102 262q0 97 -56 153t-149 56q-108 0 -192 -84
q-105 -105 -105 -258q0 -96 58 -153.5t151 -57.5z" />
    <glyph glyph-name="ydieresis" unicode="&#xff;" horiz-adv-x="1333" 
d="M346 10l-147 1141h393l49 -711l395 711h410l-711 -1151q-122 -191 -242.5 -269.5t-285.5 -78.5q-177 0 -299 84l180 282q74 -55 152 -55q32 0 55 9.5t51 37.5zM434 1255l82 299h344l-82 -299h-344zM899 1255l82 299h344l-82 -299h-344z" />
    <glyph glyph-name="Amacron" unicode="&#x100;" horiz-adv-x="1667" 
d="M-139 0l1036 1501h387l234 -1501h-414l-39 281h-588l-186 -281h-430zM684 596h346l-57 440zM709 1630l67 246h840l-68 -246h-839z" />
    <glyph glyph-name="amacron" unicode="&#x101;" horiz-adv-x="1288" 
d="M338 -23q-143 0 -233.5 86t-90.5 226q0 163 107 270q140 137 397 137q146 0 299 -45l4 13q10 42 10 75q0 125 -200 125q-167 0 -309 -57l-56 285q188 73 445 73q252 0 377.5 -93.5t125.5 -268.5q0 -83 -24 -168l-168 -635h-381l33 127q-150 -150 -336 -150zM516 219
q83 0 153 61.5t95 151.5l10 39q-85 29 -164 29q-114 0 -172 -58q-43 -46 -43 -112q0 -50 33 -80.5t88 -30.5zM426 1272l63 239h793l-63 -239h-793z" />
    <glyph glyph-name="Abreve" unicode="&#x102;" horiz-adv-x="1667" 
d="M-139 0l1036 1501h387l234 -1501h-414l-39 281h-588l-186 -281h-430zM684 596h346l-57 440zM1126 1612q-179 0 -267 82t-68 239h227q12 -98 156 -98q71 0 117.5 24.5t80.5 73.5h252q-61 -158 -190 -239.5t-308 -81.5z" />
    <glyph glyph-name="abreve" unicode="&#x103;" horiz-adv-x="1288" 
d="M338 -23q-143 0 -233.5 86t-90.5 226q0 163 107 270q140 137 397 137q146 0 299 -45l4 13q10 42 10 75q0 125 -200 125q-167 0 -309 -57l-56 285q188 73 445 73q252 0 377.5 -93.5t125.5 -268.5q0 -83 -24 -168l-168 -635h-381l33 127q-150 -150 -336 -150zM516 219
q83 0 153 61.5t95 151.5l10 39q-85 29 -164 29q-114 0 -172 -58q-43 -46 -43 -112q0 -50 33 -80.5t88 -30.5zM852 1257q-182 0 -277.5 94.5t-93.5 256.5h238q5 -54 42 -89.5t105 -35.5q78 0 126.5 32t88.5 93h238q-48 -161 -172 -256t-295 -95z" />
    <glyph glyph-name="Aogonek" unicode="&#x104;" horiz-adv-x="1667" 
d="M1507 -182l-45 -166q-59 -10 -133 -10q-125 0 -192.5 37.5t-67.5 109.5q0 102 141 211h-106l-39 281h-588l-186 -281h-430l1036 1501h387l234 -1501h-62q-82 -76 -82 -127q0 -31 31.5 -43t101.5 -12zM684 596h346l-57 440z" />
    <glyph glyph-name="aogonek" unicode="&#x105;" horiz-adv-x="1288" 
d="M1014 -182l-45 -166q-59 -10 -133 -10q-125 0 -193 37.5t-68 109.5q0 101 142 211h-76l33 127q-150 -150 -336 -150q-143 0 -233.5 86t-90.5 226q0 163 107 270q140 137 397 137q146 0 299 -45l4 13q10 42 10 75q0 125 -200 125q-167 0 -309 -57l-56 285q188 73 445 73
q252 0 377.5 -93.5t125.5 -268.5q0 -83 -24 -168l-168 -635h-59q-82 -76 -82 -127q0 -31 31.5 -43t101.5 -12zM516 219q83 0 153 61.5t95 151.5l10 39q-85 29 -164 29q-114 0 -172 -58q-43 -46 -43 -112q0 -50 33 -80.5t88 -30.5z" />
    <glyph glyph-name="Cacute" unicode="&#x106;" horiz-adv-x="1566" 
d="M829 -29q-204 0 -363.5 79t-250 228t-90.5 345q0 174 69 337t199 293q126 126 294 196.5t366 70.5q220 0 374 -96.5t228 -268.5l-340 -192q-52 97 -127 146.5t-187 49.5q-174 0 -307 -133q-73 -73 -114 -170.5t-41 -206.5q0 -145 87.5 -232t225.5 -87q94 0 170 37.5
t156 113.5l264 -241q-247 -269 -613 -269zM954 1616l330 342l358 -117l-370 -225h-318z" />
    <glyph glyph-name="cacute" unicode="&#x107;" horiz-adv-x="1216" 
d="M662 1262l331 389l350 -121l-378 -268h-303zM614 -27q-237 0 -387.5 138.5t-150.5 369.5q0 141 52.5 266.5t150.5 223.5q96 96 221.5 149.5t265.5 53.5q186 0 308 -83.5t175 -220.5l-301 -165q-35 72 -83 108.5t-126 36.5q-98 0 -178 -80q-51 -51 -80.5 -123t-29.5 -149
q0 -92 53.5 -147.5t134.5 -55.5q64 0 116 25t109 81l230 -213q-94 -105 -208 -160t-272 -55z" />
    <glyph glyph-name="Cdotaccent" unicode="&#x10a;" horiz-adv-x="1566" 
d="M938 1616l80 291h354l-80 -291h-354zM829 -29q-204 0 -363.5 79t-250 228t-90.5 345q0 174 69 337t199 293q126 126 294 196.5t366 70.5q220 0 374 -96.5t228 -268.5l-340 -192q-52 97 -127 146.5t-187 49.5q-174 0 -307 -133q-73 -73 -114 -170.5t-41 -206.5
q0 -145 87.5 -232t225.5 -87q94 0 170 37.5t156 113.5l264 -241q-247 -269 -613 -269z" />
    <glyph glyph-name="cdotaccent" unicode="&#x10b;" horiz-adv-x="1216" 
d="M614 -27q-237 0 -387.5 138.5t-150.5 369.5q0 141 52.5 266.5t150.5 223.5q96 96 221.5 149.5t265.5 53.5q186 0 308 -83.5t175 -220.5l-301 -165q-35 72 -83 108.5t-126 36.5q-98 0 -178 -80q-51 -51 -80.5 -123t-29.5 -149q0 -92 53.5 -147.5t134.5 -55.5q64 0 116 25
t109 81l230 -213q-94 -105 -208 -160t-272 -55zM639 1262l82 299h352l-82 -299h-352z" />
    <glyph glyph-name="Ccaron" unicode="&#x10c;" horiz-adv-x="1566" 
d="M829 -29q-204 0 -363.5 79t-250 228t-90.5 345q0 174 69 337t199 293q126 126 294 196.5t366 70.5q220 0 374 -96.5t228 -268.5l-340 -192q-52 97 -127 146.5t-187 49.5q-174 0 -307 -133q-73 -73 -114 -170.5t-41 -206.5q0 -145 87.5 -232t225.5 -87q94 0 170 37.5
t156 113.5l264 -241q-247 -269 -613 -269zM1653 1933l-348 -317h-351l-180 317h252l137 -114l199 114h291z" />
    <glyph glyph-name="ccaron" unicode="&#x10d;" horiz-adv-x="1216" 
d="M606 1262l-176 346h240l141 -131l213 131h270l-362 -346h-326zM614 -27q-237 0 -387.5 138.5t-150.5 369.5q0 141 52.5 266.5t150.5 223.5q96 96 221.5 149.5t265.5 53.5q186 0 308 -83.5t175 -220.5l-301 -165q-35 72 -83 108.5t-126 36.5q-98 0 -178 -80
q-51 -51 -80.5 -123t-29.5 -149q0 -92 53.5 -147.5t134.5 -55.5q64 0 116 25t109 81l230 -213q-94 -105 -208 -160t-272 -55z" />
    <glyph glyph-name="Dcaron" unicode="&#x10e;" horiz-adv-x="1648" 
d="M1559 1913l-349 -318h-350l-180 318h252l137 -115l199 115h291zM-4 0l399 1491h473q391 0 584 -193q162 -162 162 -436q0 -342 -246 -588q-274 -274 -780 -274h-592zM1130 1042q-91 97 -303 97h-129l-213 -787h148q282 0 440 158q133 133 133 324q0 132 -76 208z" />
    <glyph glyph-name="dcaron" unicode="&#x10f;" horiz-adv-x="1454" 
d="M1612 1249l121 455h290l-2 -8l-256 -447h-153zM784 0l33 121q-153 -146 -325 -146q-178 0 -297 128.5t-119 347.5q0 163 57 304t158 242q180 177 407 177q232 0 353 -183l151 563h387l-418 -1554h-387zM674 297q108 0 192 84q107 104 107 258q0 96 -58 154.5t-151 58.5
q-107 0 -191 -84q-104 -104 -104 -260q0 -97 56 -154t149 -57z" />
    <glyph glyph-name="Dcroat" unicode="&#x110;" horiz-adv-x="1726" 
d="M82 0l164 616h-178l71 269h178l164 606h463q391 0 584 -193q162 -162 162 -436q0 -344 -244 -588q-274 -274 -782 -274h-582zM907 618h-274l-74 -276h150q139 0 255.5 42t196.5 120q135 141 135 334q0 133 -77 213q-105 98 -310 98h-133l-71 -268h274z" />
    <glyph glyph-name="dcroat" unicode="&#x111;" horiz-adv-x="1454" 
d="M801 1266l51 188h324l26 100h387l-26 -100h133l-49 -188h-136l-340 -1266h-387l33 121q-153 -146 -325 -146q-178 0 -297 128.5t-119 347.5q0 163 57 304t158 242q180 177 407 177q232 0 353 -183l73 275h-323zM674 297q108 0 192 84q107 104 107 258q0 96 -58 154.5
t-151 58.5q-107 0 -191 -84q-104 -104 -104 -260q0 -97 56 -154t149 -57z" />
    <glyph glyph-name="Emacron" unicode="&#x112;" horiz-adv-x="1443" 
d="M596 1610l68 245h839l-67 -245h-840zM-4 0l399 1491h1178l-92 -338h-785l-65 -244h706l-84 -317h-708l-68 -254h797l-90 -338h-1188z" />
    <glyph glyph-name="emacron" unicode="&#x113;" horiz-adv-x="1304" 
d="M1202 463h-770v-2q6 -90 63.5 -143t163.5 -52q117 0 246 92l178 -219q-199 -166 -462 -166q-251 0 -398 137.5t-147 370.5q0 137 54.5 267.5t152.5 228.5q197 197 483 197q120 0 214 -37.5t152 -103t87.5 -149t29.5 -179.5q0 -121 -47 -242zM545 803q-54 -54 -84 -133
h430q10 33 10 63q0 66 -41 109t-123 43q-110 0 -192 -82zM453 1272l63 239h793l-64 -239h-792z" />
    <glyph glyph-name="Ebreve" unicode="&#x114;" horiz-adv-x="1443" 
d="M1012 1591q-179 0 -267.5 82.5t-68.5 239.5h227q12 -98 156 -98q71 0 117.5 24.5t80.5 73.5h252q-61 -158 -189.5 -240t-307.5 -82zM-4 0l399 1491h1178l-92 -338h-785l-65 -244h706l-84 -317h-708l-68 -254h797l-90 -338h-1188z" />
    <glyph glyph-name="ebreve" unicode="&#x115;" horiz-adv-x="1304" 
d="M1202 463h-770v-2q6 -90 63.5 -143t163.5 -52q117 0 246 92l178 -219q-199 -166 -462 -166q-251 0 -398 137.5t-147 370.5q0 137 54.5 267.5t152.5 228.5q197 197 483 197q120 0 214 -37.5t152 -103t87.5 -149t29.5 -179.5q0 -121 -47 -242zM545 803q-54 -54 -84 -133
h430q10 33 10 63q0 66 -41 109t-123 43q-110 0 -192 -82zM879 1257q-182 0 -277.5 94.5t-93.5 256.5h237q5 -54 42.5 -89.5t105.5 -35.5q78 0 126.5 32t88.5 93h238q-48 -161 -172 -256t-295 -95z" />
    <glyph glyph-name="Edotaccent" unicode="&#x116;" horiz-adv-x="1443" 
d="M834 1595l79 291h355l-80 -291h-354zM-4 0l399 1491h1178l-92 -338h-785l-65 -244h706l-84 -317h-708l-68 -254h797l-90 -338h-1188z" />
    <glyph glyph-name="edotaccent" unicode="&#x117;" horiz-adv-x="1304" 
d="M1202 463h-770v-2q6 -90 63.5 -143t163.5 -52q117 0 246 92l178 -219q-199 -166 -462 -166q-251 0 -398 137.5t-147 370.5q0 137 54.5 267.5t152.5 228.5q197 197 483 197q120 0 214 -37.5t152 -103t87.5 -149t29.5 -179.5q0 -121 -47 -242zM545 803q-54 -54 -84 -133
h430q10 33 10 63q0 66 -41 109t-123 43q-110 0 -192 -82zM670 1262l82 299h352l-82 -299h-352z" />
    <glyph glyph-name="Eogonek" unicode="&#x118;" horiz-adv-x="1443" 
d="M-4 0l399 1491h1178l-92 -338h-785l-65 -244h706l-84 -317h-708l-68 -254h797l-90 -338h-76q-82 -76 -82 -127q0 -31 31.5 -43t101.5 -12l-45 -166q-59 -10 -133 -10q-125 0 -192.5 37.5t-67.5 109.5q0 102 141 211h-866z" />
    <glyph glyph-name="eogonek" unicode="&#x119;" horiz-adv-x="1304" 
d="M905 358l178 -217q-143 -108 -186 -151q-68 -68 -68 -117q0 -31 31.5 -43t102.5 -12l-45 -166q-59 -10 -134 -10q-125 0 -192.5 37.5t-67.5 109.5q0 83 109 186h-19q-247 0 -392.5 137t-145.5 369q0 137 54.5 267.5t152.5 228.5q197 197 483 197q120 0 214 -37.5
t152 -103t87.5 -149t29.5 -179.5q0 -121 -47 -242h-770v-2q6 -90 63.5 -143t163.5 -52q117 0 246 92zM545 803q-54 -54 -84 -133h430q10 33 10 63q0 66 -41 109t-123 43q-110 0 -192 -82z" />
    <glyph glyph-name="Ecaron" unicode="&#x11a;" horiz-adv-x="1443" 
d="M1546 1913l-348 -318h-350l-180 318h252l137 -115l198 115h291zM-4 0l399 1491h1178l-92 -338h-785l-65 -244h706l-84 -317h-708l-68 -254h797l-90 -338h-1188z" />
    <glyph glyph-name="ecaron" unicode="&#x11b;" horiz-adv-x="1304" 
d="M637 1262l-176 346h239l142 -131l213 131h270l-362 -346h-326zM1202 463h-770v-2q6 -90 63.5 -143t163.5 -52q117 0 246 92l178 -219q-199 -166 -462 -166q-251 0 -398 137.5t-147 370.5q0 137 54.5 267.5t152.5 228.5q197 197 483 197q120 0 214 -37.5t152 -103
t87.5 -149t29.5 -179.5q0 -121 -47 -242zM545 803q-54 -54 -84 -133h430q10 33 10 63q0 66 -41 109t-123 43q-110 0 -192 -82z" />
    <glyph glyph-name="Gbreve" unicode="&#x11e;" horiz-adv-x="1650" 
d="M1133 1612q-179 0 -267.5 82.5t-68.5 238.5h227q12 -98 156 -98q71 0 117.5 24.5t80.5 73.5h252q-61 -158 -189.5 -239.5t-307.5 -81.5zM840 -29q-108 0 -210 24t-194.5 76.5t-161.5 128t-110 185.5t-41 242q0 175 67 333.5t191 282.5q131 131 307.5 204t386.5 73
q211 0 371 -72.5t246 -181.5l-271 -256q-155 155 -374 155q-108 0 -203 -39t-164 -108q-73 -73 -112.5 -170.5t-39.5 -206.5q0 -154 98 -239t246 -85q118 0 213 43l62 209h-297l78 299h676l-211 -751q-255 -146 -553 -146z" />
    <glyph glyph-name="gbreve" unicode="&#x11f;" horiz-adv-x="1443" 
d="M522 -344q-168 0 -333 42.5t-273 115.5l180 245q194 -120 408 -120q153 0 241 88q63 63 97 188l8 29q-82 -74 -165.5 -109t-186.5 -35q-79 0 -152.5 26.5t-131.5 75.5t-93 126.5t-35 171.5q0 145 53.5 274t149.5 225q81 83 185.5 129t219.5 46q230 0 348 -191l45 168h388
l-246 -918q-39 -154 -86.5 -247t-118.5 -164q-85 -86 -205 -126t-297 -40zM668 385q114 0 196 82q90 90 90 209q0 85 -54 136.5t-146 51.5q-109 0 -191 -82q-90 -90 -90 -215q0 -85 53 -133.5t142 -48.5zM942 1257q-182 0 -277.5 94.5t-93.5 256.5h238q5 -54 42 -89.5
t105 -35.5q78 0 126.5 32t88.5 93h238q-48 -161 -172 -256t-295 -95z" />
    <glyph glyph-name="Gdotaccent" unicode="&#x120;" horiz-adv-x="1650" 
d="M954 1616l80 291h355l-80 -291h-355zM840 -29q-108 0 -210 24t-194.5 76.5t-161.5 128t-110 185.5t-41 242q0 175 67 333.5t191 282.5q131 131 307.5 204t386.5 73q211 0 371 -72.5t246 -181.5l-271 -256q-155 155 -374 155q-108 0 -203 -39t-164 -108
q-73 -73 -112.5 -170.5t-39.5 -206.5q0 -154 98 -239t246 -85q118 0 213 43l62 209h-297l78 299h676l-211 -751q-255 -146 -553 -146z" />
    <glyph glyph-name="gdotaccent" unicode="&#x121;" horiz-adv-x="1443" 
d="M522 -344q-168 0 -333 42.5t-273 115.5l180 245q194 -120 408 -120q153 0 241 88q63 63 97 188l8 29q-82 -74 -165.5 -109t-186.5 -35q-79 0 -152.5 26.5t-131.5 75.5t-93 126.5t-35 171.5q0 145 53.5 274t149.5 225q81 83 185.5 129t219.5 46q230 0 348 -191l45 168h388
l-246 -918q-39 -154 -86.5 -247t-118.5 -164q-85 -86 -205 -126t-297 -40zM668 385q114 0 196 82q90 90 90 209q0 85 -54 136.5t-146 51.5q-109 0 -191 -82q-90 -90 -90 -215q0 -85 53 -133.5t142 -48.5zM735 1262l82 299h352l-82 -299h-352z" />
    <glyph glyph-name="Gcommaaccent" unicode="&#x122;" horiz-adv-x="1650" 
d="M840 -29q-108 0 -210 24t-194.5 76.5t-161.5 128t-110 185.5t-41 242q0 175 67 333.5t191 282.5q131 131 307.5 204t386.5 73q211 0 371 -72.5t246 -181.5l-271 -256q-155 155 -374 155q-108 0 -203 -39t-164 -108q-73 -73 -112.5 -170.5t-39.5 -206.5q0 -154 98 -239
t246 -85q118 0 213 43l62 209h-297l78 299h676l-211 -751q-255 -146 -553 -146zM428 -659l14 116q176 14 201 142h-143l75 280h334l-63 -239q-41 -157 -145 -225.5t-273 -73.5z" />
    <glyph glyph-name="gcommaaccent" unicode="&#x123;" horiz-adv-x="1443" 
d="M522 -344q-168 0 -333 42.5t-273 115.5l180 245q194 -120 408 -120q153 0 241 88q63 63 97 188l8 29q-82 -74 -165.5 -109t-186.5 -35q-79 0 -152.5 26.5t-131.5 75.5t-93 126.5t-35 171.5q0 145 53.5 274t149.5 225q81 83 185.5 129t219.5 46q230 0 348 -191l45 168h388
l-246 -918q-39 -154 -86.5 -247t-118.5 -164q-85 -86 -205 -126t-297 -40zM668 385q114 0 196 82q90 90 90 209q0 85 -54 136.5t-146 51.5q-109 0 -191 -82q-90 -90 -90 -215q0 -85 53 -133.5t142 -48.5zM1219 1800l-15 -117q-175 -14 -200 -141h143l-76 -280h-334l64 239
q42 157 145.5 225.5t272.5 73.5z" />
    <glyph glyph-name="Hbar" unicode="&#x126;" horiz-adv-x="1632" 
d="M160 1100l59 223h131l45 168h398l-45 -168h540l45 168h396l-46 -168h134l-62 -223h-131l-295 -1100h-397l153 573h-538l-156 -573h-395l295 1100h-131zM641 926h541l47 178h-541z" />
    <glyph glyph-name="hbar" unicode="&#x127;" horiz-adv-x="1361" 
d="M176 1266l49 188h142l26 100h387l-26 -100h317l-49 -188h-320l-65 -246q150 154 324 154q157 0 245 -91t88 -252q0 -78 -32 -206l-166 -625h-389l163 608q15 58 15 97q0 124 -135 124q-165 0 -222 -213l-166 -616h-387l340 1266h-139z" />
    <glyph glyph-name="Imacron" unicode="&#x12a;" horiz-adv-x="716" 
d="M6 0l402 1491h395l-400 -1491h-397zM219 1610l68 245h839l-67 -245h-840z" />
    <glyph glyph-name="imacron" unicode="&#x12b;" horiz-adv-x="663" 
d="M-16 0l307 1151h389l-309 -1151h-387zM123 1266l63 239h793l-64 -239h-792z" />
    <glyph glyph-name="Ibreve" unicode="&#x12c;" horiz-adv-x="716" 
d="M6 0l402 1491h395l-400 -1491h-397zM635 1591q-179 0 -267.5 82.5t-68.5 239.5h227q12 -98 156 -98q132 0 199 98h252q-61 -158 -190 -240t-308 -82z" />
    <glyph glyph-name="ibreve" unicode="&#x12d;" horiz-adv-x="663" 
d="M-16 0l307 1151h389l-309 -1151h-387zM545 1251q-182 0 -277.5 94.5t-93.5 256.5h238q5 -54 42 -89.5t105 -35.5q78 0 126.5 32t88.5 93h238q-48 -161 -172 -256t-295 -95z" />
    <glyph glyph-name="Iogonek" unicode="&#x12e;" horiz-adv-x="716" 
d="M6 0l402 1491h395l-400 -1491h-67q-82 -76 -82 -127q0 -31 31.5 -43t101.5 -12l-45 -166q-59 -10 -133 -10q-125 0 -192.5 37.5t-67.5 109.5q0 102 141 211h-84z" />
    <glyph glyph-name="iogonek" unicode="&#x12f;" horiz-adv-x="663" 
d="M-80 -211q0 97 141 211h-77l307 1151h389l-309 -1151h-64q-82 -76 -82 -127q0 -31 31.5 -43t101.5 -12l-45 -166q-59 -10 -133 -10q-125 0 -192.5 37.5t-67.5 109.5zM313 1260l80 294h406l-82 -294h-404z" />
    <glyph glyph-name="Idotaccent" unicode="&#x130;" horiz-adv-x="716" 
d="M6 0l402 1491h395l-400 -1491h-397zM457 1595l80 291h354l-80 -291h-354z" />
    <glyph glyph-name="dotlessi" unicode="&#x131;" horiz-adv-x="663" 
d="M-16 0l307 1151h389l-309 -1151h-387z" />
    <glyph glyph-name="Kcommaaccent" unicode="&#x136;" horiz-adv-x="1560" 
d="M-4 0l399 1491h398l-164 -610l641 610h508l-707 -647l334 -844h-428l-221 594l-271 -242l-94 -352h-395zM342 -641l14 117q176 14 201 141h-143l75 281h334l-63 -240q-41 -157 -145 -225.5t-273 -73.5z" />
    <glyph glyph-name="kcommaaccent" unicode="&#x137;" horiz-adv-x="1292" 
d="M166 -647l14 117q176 14 201 141h-143l75 280h334l-63 -239q-41 -157 -145 -225.5t-273 -73.5zM-27 0l418 1554h387l-209 -770l402 367h475l-535 -467l232 -684h-420l-131 424l-154 -133l-78 -291h-387z" />
    <glyph glyph-name="Lacute" unicode="&#x139;" horiz-adv-x="1339" 
d="M494 1595l329 342l359 -116l-371 -226h-317zM-4 0l399 1491h398l-306 -1141h717l-94 -350h-1114z" />
    <glyph glyph-name="lacute" unicode="&#x13a;" horiz-adv-x="663" 
d="M463 1636l330 342l358 -116l-371 -226h-317zM-16 0l417 1554h387l-417 -1554h-387z" />
    <glyph glyph-name="Lcommaaccent" unicode="&#x13b;" horiz-adv-x="1339" 
d="M-4 0l399 1491h398l-306 -1141h717l-94 -350h-1114zM201 -647l14 117q176 14 201 141h-144l76 280h334l-64 -239q-41 -157 -144.5 -225.5t-272.5 -73.5z" />
    <glyph glyph-name="lcommaaccent" unicode="&#x13c;" horiz-adv-x="663" 
d="M-156 -647l15 117q175 14 200 141h-143l76 280h334l-64 -239q-41 -157 -145 -225.5t-273 -73.5zM-16 0l417 1554h387l-417 -1554h-387z" />
    <glyph glyph-name="Lcaron" unicode="&#x13d;" horiz-adv-x="1339" 
d="M-4 0l399 1491h398l-306 -1141h717l-94 -350h-1114zM801 1038l121 455h290l-2 -8l-256 -447h-153z" />
    <glyph glyph-name="lcaron" unicode="&#x13e;" horiz-adv-x="663" 
d="M813 1249l121 455h291l-2 -8l-256 -447h-154zM-16 0l417 1554h387l-417 -1554h-387z" />
    <glyph glyph-name="Ldot" unicode="&#x13f;" horiz-adv-x="1339" 
d="M889 690l88 322h332l-86 -322h-334zM-4 0l399 1491h398l-306 -1141h717l-94 -350h-1114z" />
    <glyph glyph-name="ldot" unicode="&#x140;" horiz-adv-x="901" 
d="M653 649l84 314h279l-84 -314h-279zM-16 0l417 1554h387l-417 -1554h-387z" />
    <glyph glyph-name="Lslash" unicode="&#x141;" horiz-adv-x="1433" 
d="M55 481l99 357l174 47l161 606h398l-131 -487l409 112l-96 -356l-407 -113l-80 -297h716l-94 -350h-1114l141 528z" />
    <glyph glyph-name="lslash" unicode="&#x142;" horiz-adv-x="849" 
d="M49 518l92 350l185 50l172 636h387l-142 -524l185 49l-94 -350l-185 -49l-182 -680h-387l151 567z" />
    <glyph glyph-name="Nacute" unicode="&#x143;" horiz-adv-x="1685" 
d="M954 1595l330 342l358 -116l-370 -226h-318zM-4 0l399 1491h369l397 -854l230 854h391l-400 -1491h-346l-411 883l-238 -883h-391z" />
    <glyph glyph-name="nacute" unicode="&#x144;" horiz-adv-x="1359" 
d="M705 1262l331 389l350 -121l-378 -268h-303zM-27 0l308 1151h389l-35 -131q150 154 323 154q158 0 246 -91.5t88 -251.5q0 -78 -32 -206l-166 -625h-389l163 608q15 58 15 97q0 124 -135 124q-165 0 -222 -213l-166 -616h-387z" />
    <glyph glyph-name="Ncommaaccent" unicode="&#x145;" horiz-adv-x="1685" 
d="M356 -641l15 117q175 14 200 141h-143l76 281h334l-64 -240q-41 -157 -145 -225.5t-273 -73.5zM-4 0l399 1491h369l397 -854l230 854h391l-400 -1491h-346l-411 883l-238 -883h-391z" />
    <glyph glyph-name="ncommaaccent" unicode="&#x146;" horiz-adv-x="1359" 
d="M184 -647l15 117q175 14 200 141h-143l76 280h334l-64 -239q-41 -157 -145 -225.5t-273 -73.5zM-27 0l308 1151h389l-35 -131q150 154 323 154q158 0 246 -91.5t88 -251.5q0 -78 -32 -206l-166 -625h-389l163 608q15 58 15 97q0 124 -135 124q-165 0 -222 -213l-166 -616
h-387z" />
    <glyph glyph-name="Ncaron" unicode="&#x147;" horiz-adv-x="1685" 
d="M1653 1913l-348 -318h-351l-180 318h252l137 -115l199 115h291zM-4 0l399 1491h369l397 -854l230 854h391l-400 -1491h-346l-411 883l-238 -883h-391z" />
    <glyph glyph-name="ncaron" unicode="&#x148;" horiz-adv-x="1359" 
d="M647 1262l-176 346h240l141 -131l213 131h270l-362 -346h-326zM-27 0l308 1151h389l-35 -131q150 154 323 154q158 0 246 -91.5t88 -251.5q0 -78 -32 -206l-166 -625h-389l163 608q15 58 15 97q0 124 -135 124q-165 0 -222 -213l-166 -616h-387z" />
    <glyph glyph-name="Omacron" unicode="&#x14c;" horiz-adv-x="1761" 
d="M727 1630l68 246h839l-67 -246h-840zM1018 1518q155 0 287 -51.5t223 -140t142.5 -211.5t51.5 -263q0 -173 -68.5 -335.5t-191.5 -285.5q-122 -122 -281.5 -190t-346.5 -68q-155 0 -287 51.5t-223.5 140t-143 211.5t-51.5 263q0 173 68.5 335.5t191.5 285.5
q122 122 282 190t347 68zM870 330q167 0 295 125q72 72 113 170t41 196q0 152 -88.5 246t-249.5 94q-169 0 -297 -125q-71 -71 -111.5 -169t-40.5 -197q0 -152 88.5 -246t249.5 -94z" />
    <glyph glyph-name="omacron" unicode="&#x14d;" horiz-adv-x="1394" 
d="M483 1272l64 239h792l-63 -239h-793zM754 1174q257 0 410 -150.5t153 -382.5q0 -131 -52.5 -252t-146.5 -217q-94 -94 -216.5 -146.5t-260.5 -52.5q-171 0 -299.5 71t-195 191.5t-66.5 272.5q0 130 52.5 252t146.5 215q199 199 475 199zM662 297q100 0 178 78
q49 49 76.5 117t27.5 135q0 104 -58 163.5t-153 59.5q-100 0 -176 -76q-50 -48 -77 -117t-27 -137q0 -103 57 -163t152 -60z" />
    <glyph glyph-name="Obreve" unicode="&#x14e;" horiz-adv-x="1761" 
d="M1143 1612q-179 0 -267.5 82.5t-68.5 238.5h227q12 -98 156 -98q132 0 199 98h251q-61 -158 -189.5 -239.5t-307.5 -81.5zM1018 1518q155 0 287 -51.5t223 -140t142.5 -211.5t51.5 -263q0 -173 -68.5 -335.5t-191.5 -285.5q-122 -122 -281.5 -190t-346.5 -68
q-155 0 -287 51.5t-223.5 140t-143 211.5t-51.5 263q0 173 68.5 335.5t191.5 285.5q122 122 282 190t347 68zM870 330q167 0 295 125q72 72 113 170t41 196q0 152 -88.5 246t-249.5 94q-169 0 -297 -125q-71 -71 -111.5 -169t-40.5 -197q0 -152 88.5 -246t249.5 -94z" />
    <glyph glyph-name="obreve" unicode="&#x14f;" horiz-adv-x="1394" 
d="M754 1174q257 0 410 -150.5t153 -382.5q0 -131 -52.5 -252t-146.5 -217q-94 -94 -216.5 -146.5t-260.5 -52.5q-171 0 -299.5 71t-195 191.5t-66.5 272.5q0 130 52.5 252t146.5 215q199 199 475 199zM662 297q100 0 178 78q49 49 76.5 117t27.5 135q0 104 -58 163.5
t-153 59.5q-100 0 -176 -76q-50 -48 -77 -117t-27 -137q0 -103 57 -163t152 -60zM907 1257q-182 0 -277 94.5t-93 256.5h237q5 -54 42.5 -89.5t105.5 -35.5q78 0 126.5 32t88.5 93h237q-48 -161 -172 -256t-295 -95z" />
    <glyph glyph-name="Ohungarumlaut" unicode="&#x150;" horiz-adv-x="1761" 
d="M1018 1518q155 0 287 -51.5t223 -140t142.5 -211.5t51.5 -263q0 -173 -68.5 -335.5t-191.5 -285.5q-122 -122 -281.5 -190t-346.5 -68q-155 0 -287 51.5t-223.5 140t-143 211.5t-51.5 263q0 173 68.5 335.5t191.5 285.5q122 122 282 190t347 68zM870 330q167 0 295 125
q72 72 113 170t41 196q0 152 -88.5 246t-249.5 94q-169 0 -297 -125q-71 -71 -111.5 -169t-40.5 -197q0 -152 88.5 -246t249.5 -94zM1151 1616l205 219l-344 -219h-287l319 342l322 -115l107 115l327 -117l-362 -225h-287z" />
    <glyph glyph-name="ohungarumlaut" unicode="&#x151;" horiz-adv-x="1394" 
d="M428 1262l322 389l307 -121l-361 -268h-268zM862 1262l316 389l311 -121l-359 -268h-268zM754 1174q257 0 410 -150.5t153 -382.5q0 -131 -52.5 -252t-146.5 -217q-94 -94 -216.5 -146.5t-260.5 -52.5q-171 0 -299.5 71t-195 191.5t-66.5 272.5q0 130 52.5 252t146.5 215
q199 199 475 199zM662 297q100 0 178 78q49 49 76.5 117t27.5 135q0 104 -58 163.5t-153 59.5q-100 0 -176 -76q-50 -48 -77 -117t-27 -137q0 -103 57 -163t152 -60z" />
    <glyph glyph-name="OE" unicode="&#x152;" horiz-adv-x="2316" 
d="M2056 0h-1184q-210 0 -350.5 50.5t-238.5 148.5q-156 150 -156 430q0 344 244 588q274 274 782 274h1292l-92 -338h-741l-66 -244h664l-84 -317h-666l-67 -254h753zM608 449q49 -49 120 -73t183 -24h93l213 787h-109q-282 0 -440 -158q-133 -133 -133 -324
q0 -135 73 -208z" />
    <glyph glyph-name="oe" unicode="&#x153;" horiz-adv-x="2164" 
d="M2064 463h-770v-2q6 -90 64 -143t164 -52q116 0 245 92l179 -219q-191 -166 -469 -166q-133 0 -236.5 49t-165.5 138q-84 -88 -195 -137.5t-239 -49.5q-171 0 -299.5 71t-195 191.5t-66.5 272.5q0 130 52.5 252t146.5 215q199 199 475 199q287 0 422 -197
q190 197 456 197q117 0 210 -37.5t151 -102.5t88 -149t30 -180q0 -121 -47 -242zM662 297q100 0 178 78q49 49 76.5 117t27.5 135q0 104 -58 163.5t-153 59.5q-100 0 -176 -76q-50 -48 -77 -117t-27 -137q0 -103 57 -163t152 -60zM1407 803q-54 -54 -84 -133h430
q10 33 10 63q0 66 -41.5 109t-122.5 43q-110 0 -192 -82z" />
    <glyph glyph-name="Racute" unicode="&#x154;" horiz-adv-x="1556" 
d="M915 0l-204 457h-21h-176l-123 -457h-395l399 1491h559q350 0 504 -154q117 -117 117 -305q0 -223 -141 -358q-115 -115 -316 -170l236 -504h-439zM600 772h248q178 0 264 86q53 53 53 131q0 62 -41 103q-52 55 -188 55h-236zM831 1595l330 342l359 -116l-371 -226h-318z
" />
    <glyph glyph-name="racute" unicode="&#x155;" horiz-adv-x="931" 
d="M500 1255l331 390l351 -121l-379 -269h-303zM-27 0l308 1151h389l-64 -233q92 132 195.5 196.5t238.5 54.5l-110 -407h-31q-168 0 -277 -98t-165 -306l-97 -358h-387z" />
    <glyph glyph-name="Rcommaaccent" unicode="&#x156;" horiz-adv-x="1556" 
d="M915 0l-204 457h-21h-176l-123 -457h-395l399 1491h559q350 0 504 -154q117 -117 117 -305q0 -223 -141 -358q-115 -115 -316 -170l236 -504h-439zM600 772h248q178 0 264 86q53 53 53 131q0 62 -41 103q-52 55 -188 55h-236zM289 -641l14 117q176 14 201 141h-144
l76 281h334l-63 -240q-41 -157 -145 -225.5t-273 -73.5z" />
    <glyph glyph-name="rcommaaccent" unicode="&#x157;" horiz-adv-x="931" 
d="M-150 -647l15 117q176 14 201 141h-144l76 280h334l-64 -239q-41 -157 -145 -225.5t-273 -73.5zM-27 0l308 1151h389l-64 -233q92 132 195.5 196.5t238.5 54.5l-110 -407h-31q-168 0 -277 -98t-165 -306l-97 -358h-387z" />
    <glyph glyph-name="Rcaron" unicode="&#x158;" horiz-adv-x="1556" 
d="M1530 1913l-348 -318h-351l-180 318h252l137 -115l199 115h291zM915 0l-204 457h-21h-176l-123 -457h-395l399 1491h559q350 0 504 -154q117 -117 117 -305q0 -223 -141 -358q-115 -115 -316 -170l236 -504h-439zM600 772h248q178 0 264 86q53 53 53 131q0 62 -41 103
q-52 55 -188 55h-236z" />
    <glyph glyph-name="rcaron" unicode="&#x159;" horiz-adv-x="931" 
d="M444 1255l-176 347h240l141 -132l213 132h271l-363 -347h-326zM-27 0l308 1151h389l-64 -233q92 132 195.5 196.5t238.5 54.5l-110 -407h-31q-168 0 -277 -98t-165 -306l-97 -358h-387z" />
    <glyph glyph-name="Sacute" unicode="&#x15a;" horiz-adv-x="1390" 
d="M651 -25q-217 0 -391.5 70.5t-292.5 202.5l262 262q212 -203 451 -203q80 0 130 33t50 88q0 47 -47.5 79.5t-202.5 94.5q-92 35 -157 70.5t-118.5 84t-80.5 112t-27 143.5q0 193 138 325q86 86 210.5 132.5t276.5 46.5q376 0 600 -224l-250 -270q-190 162 -385 162
q-82 0 -128 -33t-46 -82q0 -47 45 -76t207 -94q92 -36 155 -71t117.5 -83.5t81.5 -112.5t27 -145q0 -198 -137 -335q-177 -177 -488 -177zM776 1616l330 342l358 -117l-370 -225h-318z" />
    <glyph glyph-name="sacute" unicode="&#x15b;" horiz-adv-x="1103" 
d="M563 1262l332 389l350 -121l-379 -268h-303zM494 -27q-160 0 -307 52.5t-250 148.5l198 227q83 -75 184.5 -114t192.5 -39q109 0 109 76q0 29 -33 51t-119 57q-61 24 -104.5 45t-88.5 51t-72.5 62.5t-45 77.5t-17.5 98q0 178 133.5 293t360.5 115q145 0 276 -46.5
t213 -115.5l-190 -234q-160 123 -320 123q-106 0 -106 -74q0 -28 33.5 -50.5t124.5 -59.5q57 -23 97 -42t85.5 -49.5t73.5 -63t46.5 -79t18.5 -100.5q0 -178 -130.5 -294t-362.5 -116z" />
    <glyph glyph-name="Scedilla" unicode="&#x15e;" horiz-adv-x="1390" 
d="M432 -369l-282 131l237 242q-260 61 -420 244l262 262q212 -203 451 -203q80 0 130 33t50 88q0 47 -47.5 79.5t-202.5 94.5q-92 35 -157 70.5t-118.5 84t-80.5 112t-27 143.5q0 193 138 325q86 86 210.5 132.5t276.5 46.5q376 0 600 -224l-250 -270q-190 162 -385 162
q-82 0 -128 -33t-46 -82q0 -47 45 -76t207 -94q92 -36 155 -71t117.5 -83.5t81.5 -112.5t27 -145q0 -198 -137 -335q-177 -177 -488 -177h-4z" />
    <glyph glyph-name="scedilla" unicode="&#x15f;" horiz-adv-x="1103" 
d="M301 -369l-283 131l238 242q-196 52 -319 170l198 227q83 -75 184.5 -114t192.5 -39q109 0 109 76q0 29 -33 51t-119 57q-61 24 -104.5 45t-88.5 51t-72.5 62.5t-45 77.5t-17.5 98q0 178 133.5 293t360.5 115q145 0 276 -46.5t213 -115.5l-190 -234q-160 123 -320 123
q-106 0 -106 -74q0 -28 33.5 -50.5t124.5 -59.5q57 -23 97 -42t85.5 -49.5t73.5 -63t46.5 -79t18.5 -100.5q0 -83 -31 -156t-89.5 -129t-149 -89.5t-201.5 -35.5h-2z" />
    <glyph glyph-name="Scaron" unicode="&#x160;" horiz-adv-x="1390" 
d="M651 -25q-217 0 -391.5 70.5t-292.5 202.5l262 262q212 -203 451 -203q80 0 130 33t50 88q0 47 -47.5 79.5t-202.5 94.5q-92 35 -157 70.5t-118.5 84t-80.5 112t-27 143.5q0 193 138 325q86 86 210.5 132.5t276.5 46.5q376 0 600 -224l-250 -270q-190 162 -385 162
q-82 0 -128 -33t-46 -82q0 -47 45 -76t207 -94q92 -36 155 -71t117.5 -83.5t81.5 -112.5t27 -145q0 -198 -137 -335q-177 -177 -488 -177zM1475 1933l-349 -317h-350l-180 317h252l137 -114l199 114h291z" />
    <glyph glyph-name="scaron" unicode="&#x161;" horiz-adv-x="1103" 
d="M510 1262l-176 346h239l142 -131l213 131h270l-362 -346h-326zM494 -27q-160 0 -307 52.5t-250 148.5l198 227q83 -75 184.5 -114t192.5 -39q109 0 109 76q0 29 -33 51t-119 57q-61 24 -104.5 45t-88.5 51t-72.5 62.5t-45 77.5t-17.5 98q0 178 133.5 293t360.5 115
q145 0 276 -46.5t213 -115.5l-190 -234q-160 123 -320 123q-106 0 -106 -74q0 -28 33.5 -50.5t124.5 -59.5q57 -23 97 -42t85.5 -49.5t73.5 -63t46.5 -79t18.5 -100.5q0 -178 -130.5 -294t-362.5 -116z" />
    <glyph glyph-name="Tcommaaccent" unicode="&#x162;" horiz-adv-x="1384" 
d="M336 0l307 1141h-448l94 350h1292l-94 -350h-449l-305 -1141h-397zM201 -647l14 117q176 14 201 141h-144l76 280h334l-64 -239q-41 -157 -144.5 -225.5t-272.5 -73.5z" />
    <glyph glyph-name="Tcommaaccent" unicode="&#x21a;" horiz-adv-x="1384" 
d="M336 0l307 1141h-448l94 350h1292l-94 -350h-449l-305 -1141h-397zM201 -647l14 117q176 14 201 141h-144l76 280h334l-64 -239q-41 -157 -144.5 -225.5t-272.5 -73.5z" />
    <glyph glyph-name="tcommaaccent" unicode="&#x163;" horiz-adv-x="929" 
d="M39 -651l14 116q176 14 201 142h-143l75 280h334l-63 -239q-41 -157 -145 -225.5t-273 -73.5zM457 -23q-168 0 -253 68.5t-85 194.5q0 63 22 149l119 447h-137l86 315h135l80 291h387l-78 -291h268l-86 -315h-268l-102 -387q-13 -59 -13 -68q0 -70 93 -70q64 0 155 31
l-86 -322q-115 -43 -237 -43z" />
    <glyph glyph-name="tcommaaccent" unicode="&#x21b;" horiz-adv-x="929" 
d="M39 -651l14 116q176 14 201 142h-143l75 280h334l-63 -239q-41 -157 -145 -225.5t-273 -73.5zM457 -23q-168 0 -253 68.5t-85 194.5q0 63 22 149l119 447h-137l86 315h135l80 291h387l-78 -291h268l-86 -315h-268l-102 -387q-13 -59 -13 -68q0 -70 93 -70q64 0 155 31
l-86 -322q-115 -43 -237 -43z" />
    <glyph glyph-name="Tcaron" unicode="&#x164;" horiz-adv-x="1384" 
d="M1499 1913l-348 -318h-350l-180 318h251l138 -115l198 115h291zM336 0l307 1141h-448l94 350h1292l-94 -350h-449l-305 -1141h-397z" />
    <glyph glyph-name="tcaron" unicode="&#x165;" horiz-adv-x="929" 
d="M860 1253l121 455h291l-2 -8l-256 -447h-154zM457 -23q-168 0 -253 68.5t-85 194.5q0 63 22 149l119 447h-137l86 315h135l80 291h387l-78 -291h268l-86 -315h-268l-102 -387q-13 -59 -13 -68q0 -70 93 -70q64 0 155 31l-86 -322q-115 -43 -237 -43z" />
    <glyph glyph-name="Umacron" unicode="&#x16a;" horiz-adv-x="1640" 
d="M672 1610l67 245h840l-68 -245h-839zM739 -27q-282 0 -438 135.5t-156 380.5q0 112 35 240l205 762h399l-213 -793q-20 -67 -20 -143q0 -106 61 -164.5t176 -58.5q127 0 209 82q85 82 131 252l222 825h399l-238 -885q-84 -297 -231 -444q-189 -189 -541 -189z" />
    <glyph glyph-name="umacron" unicode="&#x16b;" horiz-adv-x="1359" 
d="M401 -25q-155 0 -244 91t-89 251q0 81 32 209l168 625h387l-163 -608q-15 -58 -15 -97q0 -124 137 -124q164 0 220 213l165 616h387l-307 -1151h-387l33 129q-154 -154 -324 -154zM461 1266l63 239h793l-64 -239h-792z" />
    <glyph glyph-name="Ubreve" unicode="&#x16c;" horiz-adv-x="1640" 
d="M1081 1573q-179 0 -267.5 82.5t-68.5 238.5h228q12 -98 155 -98q132 0 199 98h252q-61 -158 -190 -239.5t-308 -81.5zM739 -27q-282 0 -438 135.5t-156 380.5q0 112 35 240l205 762h399l-213 -793q-20 -67 -20 -143q0 -106 61 -164.5t176 -58.5q127 0 209 82
q85 82 131 252l222 825h399l-238 -885q-84 -297 -231 -444q-189 -189 -541 -189z" />
    <glyph glyph-name="ubreve" unicode="&#x16d;" horiz-adv-x="1359" 
d="M401 -25q-155 0 -244 91t-89 251q0 81 32 209l168 625h387l-163 -608q-15 -58 -15 -97q0 -124 137 -124q164 0 220 213l165 616h387l-307 -1151h-387l33 129q-154 -154 -324 -154zM885 1251q-182 0 -277.5 94.5t-93.5 256.5h238q5 -54 42 -89.5t105 -35.5q78 0 126.5 32
t88.5 93h238q-48 -161 -172 -256t-295 -95z" />
    <glyph glyph-name="Uring" unicode="&#x16e;" horiz-adv-x="1640" 
d="M739 -27q-282 0 -438 135.5t-156 380.5q0 112 35 240l205 762h399l-213 -793q-20 -67 -20 -143q0 -106 61 -164.5t176 -58.5q127 0 209 82q85 82 131 252l222 825h399l-238 -885q-84 -297 -231 -444q-189 -189 -541 -189zM1163 2071q114 0 190.5 -67t76.5 -161
q0 -122 -92 -208.5t-236 -86.5q-114 0 -190 67t-76 161q0 122 91.5 208.5t235.5 86.5zM1114 1673q77 0 123.5 48.5t46.5 107.5q0 54 -36.5 85.5t-96.5 31.5q-77 0 -123.5 -48t-46.5 -106q0 -54 36.5 -86.5t96.5 -32.5z" />
    <glyph glyph-name="uring" unicode="&#x16f;" horiz-adv-x="1361" 
d="M1186 1532q0 -122 -87 -211.5t-214 -89.5q-115 0 -183.5 66t-68.5 167q0 121 87 210t214 89q115 0 183.5 -65.5t68.5 -165.5zM772 1475q0 -55 33.5 -89t85.5 -34q66 0 111 51t45 119q0 55 -33.5 89t-85.5 34q-66 0 -111 -51t-45 -119zM401 -25q-155 0 -244 91t-89 251
q0 81 32 209l168 625h387l-163 -608q-15 -58 -15 -97q0 -124 137 -124q164 0 220 213l165 616h387l-307 -1151h-387l33 129q-154 -154 -324 -154z" />
    <glyph glyph-name="Uhungarumlaut" unicode="&#x170;" horiz-adv-x="1640" 
d="M739 -27q-282 0 -438 135.5t-156 380.5q0 112 35 240l205 762h399l-213 -793q-20 -67 -20 -143q0 -106 61 -164.5t176 -58.5q127 0 209 82q85 82 131 252l222 825h399l-238 -885q-84 -297 -231 -444q-189 -189 -541 -189zM1096 1595l204 220l-344 -220h-286l319 342
l322 -114l106 114l328 -116l-363 -226h-286z" />
    <glyph glyph-name="uhungarumlaut" unicode="&#x171;" horiz-adv-x="1359" 
d="M401 -25q-155 0 -244 91t-89 251q0 81 32 209l168 625h387l-163 -608q-15 -58 -15 -97q0 -124 137 -124q164 0 220 213l165 616h387l-307 -1151h-387l33 129q-154 -154 -324 -154zM408 1255l321 390l307 -121l-360 -269h-268zM842 1255l315 390l311 -121l-358 -269h-268z
" />
    <glyph glyph-name="Uogonek" unicode="&#x172;" horiz-adv-x="1640" 
d="M858 -182l-45 -166q-59 -10 -133 -10q-125 0 -192.5 37.5t-67.5 109.5q0 95 131 203q-196 41 -301 169t-105 328q0 112 35 240l205 762h399l-213 -793q-20 -67 -20 -143q0 -106 61 -164.5t176 -58.5q127 0 209 82q85 82 131 252l222 825h399l-238 -885
q-84 -297 -231 -444q-177 -177 -498 -189h-2q-55 -55 -55 -100q0 -31 31.5 -43t101.5 -12z" />
    <glyph glyph-name="uogonek" unicode="&#x173;" horiz-adv-x="1361" 
d="M401 -25q-155 0 -244 91t-89 251q0 81 32 209l168 625h387l-163 -608q-15 -58 -15 -97q0 -124 137 -124q164 0 220 213l165 616h387l-307 -1151h-57q-82 -76 -82 -127q0 -31 31.5 -43t101.5 -12l-45 -166q-59 -10 -133 -10q-125 0 -192.5 37.5t-67.5 109.5q0 102 141 211
h-84l33 129q-154 -154 -324 -154z" />
    <glyph glyph-name="Wcircumflex" unicode="&#x174;" horiz-adv-x="2369" 
d="M365 -10l-99 1501h408l31 -893l534 897h340l61 -897l508 893h432l-903 -1501h-356l-70 870l-534 -870h-352zM981 1595l350 318h348l181 -318h-252l-138 115l-198 -115h-291z" />
    <glyph glyph-name="wcircumflex" unicode="&#x175;" horiz-adv-x="1849" 
d="M657 1255l363 347h323l179 -347h-240l-141 131l-213 -131h-271zM231 -8l-41 1159h379l-4 -604l348 608h322l22 -610l326 606h379l-666 -1159h-335l-27 618l-365 -618h-338z" />
    <glyph glyph-name="Ycircumflex" unicode="&#x176;" horiz-adv-x="1449" 
d="M354 0l156 580l-303 911h428l153 -569l461 569h475l-829 -954l-145 -537h-396zM510 1595l350 318h348l181 -318h-252l-138 115l-198 -115h-291z" />
    <glyph glyph-name="ycircumflex" unicode="&#x177;" horiz-adv-x="1333" 
d="M346 10l-147 1141h393l49 -711l395 711h410l-711 -1151q-122 -191 -242.5 -269.5t-285.5 -78.5q-177 0 -299 84l180 282q74 -55 152 -55q32 0 55 9.5t51 37.5zM389 1255l363 347h323l178 -347h-239l-142 131l-213 -131h-270z" />
    <glyph glyph-name="Ydieresis" unicode="&#x178;" horiz-adv-x="1449" 
d="M354 0l156 580l-303 911h428l153 -569l461 569h475l-829 -954l-145 -537h-396zM563 1595l80 291h342l-80 -291h-342zM1032 1595l80 291h344l-80 -291h-344z" />
    <glyph glyph-name="Zacute" unicode="&#x179;" horiz-adv-x="1474" 
d="M-59 0l77 289l969 866h-713l93 336h1255l-78 -289l-971 -866h742l-90 -336h-1284zM823 1595l330 342l358 -116l-370 -226h-318z" />
    <glyph glyph-name="zacute" unicode="&#x17a;" horiz-adv-x="1208" 
d="M610 1255l332 390l350 -121l-379 -269h-303zM-68 0l68 258l692 584h-516l82 309h1022l-70 -258l-692 -584h541l-84 -309h-1043z" />
    <glyph glyph-name="Zdotaccent" unicode="&#x17b;" horiz-adv-x="1474" 
d="M807 1595l80 291h354l-80 -291h-354zM-59 0l77 289l969 866h-713l93 336h1255l-78 -289l-971 -866h742l-90 -336h-1284z" />
    <glyph glyph-name="zdotaccent" unicode="&#x17c;" horiz-adv-x="1208" 
d="M-68 0l68 258l692 584h-516l82 309h1022l-70 -258l-692 -584h541l-84 -309h-1043zM588 1255l82 299h352l-82 -299h-352z" />
    <glyph glyph-name="Zcaron" unicode="&#x17d;" horiz-adv-x="1474" 
d="M1522 1913l-348 -318h-351l-180 318h252l137 -115l199 115h291zM-59 0l77 289l969 866h-713l93 336h1255l-78 -289l-971 -866h742l-90 -336h-1284z" />
    <glyph glyph-name="zcaron" unicode="&#x17e;" horiz-adv-x="1208" 
d="M557 1255l-176 347h240l141 -132l213 132h270l-362 -347h-326zM-68 0l68 258l692 584h-516l82 309h1022l-70 -258l-692 -584h541l-84 -309h-1043z" />
    <glyph glyph-name="uni018F" unicode="&#x18f;" horiz-adv-x="1691" 
d="M127 571q0 166 61 322h1078v2q-12 126 -100 199.5t-238 72.5q-191 0 -398 -129l-170 301q284 177 594 177q315 0 505 -180.5t190 -481.5q0 -181 -68.5 -342t-189.5 -283q-258 -258 -625 -258q-153 0 -275.5 46t-201.5 127.5t-120.5 190t-41.5 236.5zM1112 442
q77 77 111 158h-711q-6 -27 -6 -57q0 -101 70.5 -168.5t214.5 -67.5q186 0 321 135z" />
    <glyph glyph-name="florin" unicode="&#x192;" horiz-adv-x="1204" 
d="M131 -25q-110 0 -207 23l68 287q59 -15 104 -15q54 0 95.5 32.5t76.5 113.5l131 293h-137l70 297h200l74 168q78 178 198.5 260t305.5 82q155 0 256 -37l-68 -289q-79 27 -151 27q-71 0 -117.5 -35.5t-77.5 -108.5l-32 -67h251l-69 -297h-314l-172 -390
q-84 -186 -200 -265t-285 -79z" />
    <glyph glyph-name="Aringacute" unicode="&#x1fa;" horiz-adv-x="1667" 
d="M-139 0l987 1427q-35 53 -35 117q0 122 92 208.5t236 86.5q114 0 190 -66.5t76 -160.5q0 -132 -107 -221l218 -1391h-414l-39 281h-588l-186 -281h-430zM684 596h346l-57 440zM1092 1442q77 0 123.5 47.5t46.5 105.5q0 54 -37 86.5t-97 32.5q-77 0 -123.5 -48t-46.5 -107
q0 -54 37 -85.5t97 -31.5zM1022 1892l340 318l344 -121l-381 -197h-303z" />
    <glyph glyph-name="aringacute" unicode="&#x1fb;" horiz-adv-x="1288" 
d="M338 -23q-143 0 -233.5 86t-90.5 226q0 163 107 270q140 137 397 137q146 0 299 -45l4 13q10 42 10 75q0 125 -200 125q-167 0 -309 -57l-56 285q188 73 445 73q252 0 377.5 -93.5t125.5 -268.5q0 -83 -24 -168l-168 -635h-381l33 127q-150 -150 -336 -150zM516 219
q83 0 153 61.5t95 151.5l10 39q-85 29 -164 29q-114 0 -172 -58q-43 -46 -43 -112q0 -50 33 -80.5t88 -30.5zM1167 1563q0 -122 -87 -211.5t-214 -89.5q-115 0 -183.5 66t-68.5 167q0 121 87 210t214 89q115 0 183.5 -65.5t68.5 -165.5zM754 1505q0 -55 33 -89t85 -34
q66 0 111 51t45 119q0 55 -33.5 89t-85.5 34q-66 0 -110.5 -51t-44.5 -119zM823 1866l334 336l340 -121l-375 -215h-299z" />
    <glyph glyph-name="AEacute" unicode="&#x1fc;" horiz-adv-x="2310" 
d="M1380 1595l330 342l358 -116l-370 -226h-318zM-145 0l1179 1491h1405l-90 -338h-743l-66 -244h666l-86 -317h-664l-70 -254h754l-90 -338h-1141l76 281h-481l-219 -281h-430zM748 596h323l152 573h-31z" />
    <glyph glyph-name="aeacute" unicode="&#x1fd;" horiz-adv-x="2009" 
d="M999 1255l332 390l350 -121l-378 -269h-304zM1319 -27q-299 0 -436 211q-109 -106 -231 -156.5t-269 -50.5q-172 0 -270.5 84.5t-98.5 227.5q0 163 107 270q140 137 397 137q146 0 299 -45l4 13q10 42 10 75q0 125 -200 125q-167 0 -309 -57l-56 285q188 73 445 73
q268 0 374 -143q180 152 400 152q115 0 206.5 -37.5t147.5 -102.5t85.5 -149t29.5 -180q0 -121 -47 -242h-770v-2q6 -90 63.5 -143t163.5 -52q117 0 246 92l178 -219q-191 -166 -469 -166zM539 219q65 0 140 31.5t134 89.5q-16 59 -16 121q-93 39 -187 39q-114 0 -172 -58
q-43 -46 -43 -112q0 -51 37 -81t107 -30zM1249 803q-54 -54 -84 -133h430q11 37 11 63q0 66 -41.5 109t-122.5 43q-111 0 -193 -82z" />
    <glyph glyph-name="Oslashacute" unicode="&#x1fe;" horiz-adv-x="1761" 
d="M1018 1518q259 0 455 -146l141 129h313l-311 -282q106 -162 106 -367q0 -173 -68.5 -335.5t-191.5 -285.5q-122 -122 -281.5 -190t-346.5 -68q-261 0 -455 144l-141 -127h-314l312 280q-107 158 -107 369q0 173 68.5 335.5t191.5 285.5q122 122 282 190t347 68zM520 668
q0 -74 21 -133l643 585q-90 54 -203 54q-173 0 -303 -130q-73 -73 -115.5 -174.5t-42.5 -201.5zM868 317q178 0 303 132q74 71 116 172t42 202q0 75 -20 131l-641 -583q85 -54 200 -54zM963 1616l329 342l359 -117l-371 -225h-317z" />
    <glyph glyph-name="oslashacute" unicode="&#x1ff;" horiz-adv-x="1394" 
d="M754 1174q206 0 360 -109l107 96h282l-262 -235q76 -125 76 -285q0 -131 -52.5 -252t-146.5 -217q-94 -94 -216.5 -146.5t-260.5 -52.5q-213 0 -360 109l-105 -94h-285l263 235q-74 121 -74 285q0 130 52.5 252t146.5 215q199 199 475 199zM739 864q-110 0 -194 -84
q-50 -50 -79.5 -121t-29.5 -139q0 -23 4 -59l418 375q-54 28 -119 28zM958 629q0 32 -6 59l-415 -377q54 -28 120 -28q106 0 193 84q53 53 80.5 122t27.5 140zM705 1262l331 389l350 -121l-378 -268h-303z" />
    <glyph glyph-name="Scommaaccent" unicode="&#x218;" horiz-adv-x="1390" 
d="M651 -25q-217 0 -391.5 70.5t-292.5 202.5l262 262q212 -203 451 -203q80 0 130 33t50 88q0 47 -47.5 79.5t-202.5 94.5q-92 35 -157 70.5t-118.5 84t-80.5 112t-27 143.5q0 193 138 325q86 86 210.5 132.5t276.5 46.5q376 0 600 -224l-250 -270q-190 162 -385 162
q-82 0 -128 -33t-46 -82q0 -47 45 -76t207 -94q92 -36 155 -71t117.5 -83.5t81.5 -112.5t27 -145q0 -198 -137 -335q-177 -177 -488 -177zM209 -659l14 116q176 14 201 142h-143l75 280h334l-63 -239q-41 -157 -145 -225.5t-273 -73.5z" />
    <glyph glyph-name="scommaaccent" unicode="&#x219;" horiz-adv-x="1103" 
d="M61 -651l15 116q175 14 200 142h-143l76 280h334l-64 -239q-41 -157 -145 -225.5t-273 -73.5zM494 -27q-160 0 -307 52.5t-250 148.5l198 227q83 -75 184.5 -114t192.5 -39q109 0 109 76q0 29 -33 51t-119 57q-61 24 -104.5 45t-88.5 51t-72.5 62.5t-45 77.5t-17.5 98
q0 178 133.5 293t360.5 115q145 0 276 -46.5t213 -115.5l-190 -234q-160 123 -320 123q-106 0 -106 -74q0 -28 33.5 -50.5t124.5 -59.5q57 -23 97 -42t85.5 -49.5t73.5 -63t46.5 -79t18.5 -100.5q0 -178 -130.5 -294t-362.5 -116z" />
    <glyph glyph-name="schwa" unicode="&#x259;" horiz-adv-x="1304" 
d="M53 444q0 118 49 244h768v2q-6 91 -62.5 143.5t-162.5 51.5q-117 0 -246 -92l-180 217q195 166 463 166q252 0 398.5 -137t146.5 -371q0 -136 -54 -267.5t-151 -228.5q-200 -197 -483 -197q-121 0 -216 37.5t-153 103t-87.5 148.5t-29.5 180zM760 348q54 54 82 133h-428
q-11 -33 -11 -65q0 -66 40.5 -108t121.5 -42q113 0 195 82z" />
    <glyph glyph-name="circumflex" unicode="&#x2c6;" horiz-adv-x="1085" 
d="M293 1255l362 347h324l178 -347h-239l-142 131l-213 -131h-270z" />
    <glyph glyph-name="caron" unicode="&#x2c7;" horiz-adv-x="1085" 
d="M557 1255l-176 347h240l141 -132l213 132h270l-362 -347h-326z" />
    <glyph glyph-name="breve" unicode="&#x2d8;" horiz-adv-x="1085" 
d="M768 1251q-182 0 -277.5 94.5t-93.5 256.5h238q5 -54 42 -89.5t105 -35.5q78 0 126.5 32t88.5 93h238q-48 -161 -172 -256t-295 -95z" />
    <glyph glyph-name="dotaccent" unicode="&#x2d9;" horiz-adv-x="1085" 
d="M549 1255l82 299h352l-82 -299h-352z" />
    <glyph glyph-name="ring" unicode="&#x2da;" horiz-adv-x="1085" 
d="M1071 1556q0 -122 -87 -211.5t-214 -89.5q-114 0 -183 66.5t-69 167.5q0 121 87 210t214 89q115 0 183.5 -65.5t68.5 -166.5zM657 1499q0 -55 33.5 -89t85.5 -34q66 0 111 51t45 119q0 55 -33.5 89t-85.5 34q-66 0 -111 -51t-45 -119z" />
    <glyph glyph-name="ogonek" unicode="&#x2db;" horiz-adv-x="1085" 
d="M602 -182l-45 -166q-59 -10 -133 -10q-125 0 -192.5 37.5t-67.5 109.5q0 103 168 231h241q-104 -95 -104 -147q0 -31 31.5 -43t101.5 -12z" />
    <glyph glyph-name="tilde" unicode="&#x2dc;" horiz-adv-x="1085" 
d="M1049 1620l190 -59q-64 -161 -133.5 -233.5t-175.5 -72.5q-76 0 -191 45q-82 37 -123 37q-45 0 -71 -22.5t-58 -77.5l-190 59q63 161 132 233.5t175 72.5q75 0 193 -46q77 -36 123 -36q42 0 69 22.5t60 77.5z" />
    <glyph glyph-name="hungarumlaut" unicode="&#x2dd;" horiz-adv-x="1085" 
d="M252 1255l321 390l308 -121l-361 -269h-268zM686 1255l315 390l312 -121l-359 -269h-268z" />
    <glyph glyph-name="commaaccent" unicode="&#x326;" horiz-adv-x="1085" 
d="M53 -647l15 117q175 14 200 141h-143l76 280h334l-64 -239q-41 -157 -145 -225.5t-273 -73.5z" />
    <glyph glyph-name="uni0384" unicode="&#x384;" horiz-adv-x="1085" 
d="M516 1255l246 402l338 -119l-307 -283h-277z" />
    <glyph glyph-name="uni0385" unicode="&#x385;" horiz-adv-x="1085" 
d="M950 1255l80 297h297l-82 -297h-295zM205 1255l80 297h297l-82 -297h-295zM551 1255l201 461l307 -69l-289 -392h-219z" />
    <glyph glyph-name="uni0386" unicode="&#x386;" horiz-adv-x="1667" 
d="M-139 0l1036 1501h387l234 -1501h-414l-39 281h-588l-186 -281h-430zM684 596h346l-57 440zM111 1034l141 463h393l-303 -463h-231z" />
    <glyph glyph-name="uni0387" unicode="&#x387;" horiz-adv-x="647" 
d="M168 750l106 401h406l-107 -401h-405z" />
    <glyph glyph-name="uni0388" unicode="&#x388;" horiz-adv-x="1443" 
d="M-205 1028l142 463h393l-303 -463h-232zM-4 0l399 1491h1178l-92 -338h-785l-65 -244h706l-84 -317h-708l-68 -254h797l-90 -338h-1188z" />
    <glyph glyph-name="uni0389" unicode="&#x389;" horiz-adv-x="1632" 
d="M8 0l400 1491h397l-152 -565h541l152 565h395l-400 -1491h-397l154 573h-539l-156 -573h-395zM-205 1028l142 463h393l-303 -463h-232z" />
    <glyph glyph-name="uni038A" unicode="&#x38a;" horiz-adv-x="716" 
d="M6 0l402 1491h395l-400 -1491h-397zM-205 1028l142 463h393l-303 -463h-232z" />
    <glyph glyph-name="uni038C" unicode="&#x38c;" horiz-adv-x="1761" 
d="M-180 1042l141 463h393l-303 -463h-231zM1018 1518q155 0 287 -51.5t223 -140t142.5 -211.5t51.5 -263q0 -173 -68.5 -335.5t-191.5 -285.5q-122 -122 -281.5 -190t-346.5 -68q-155 0 -287 51.5t-223.5 140t-143 211.5t-51.5 263q0 173 68.5 335.5t191.5 285.5
q122 122 282 190t347 68zM870 330q167 0 295 125q72 72 113 170t41 196q0 152 -88.5 246t-249.5 94q-169 0 -297 -125q-71 -71 -111.5 -169t-40.5 -197q0 -152 88.5 -246t249.5 -94z" />
    <glyph glyph-name="uni038E" unicode="&#x38e;" horiz-adv-x="1449" 
d="M354 0l156 580l-303 911h428l153 -569l461 569h475l-829 -954l-145 -537h-396zM-342 1028l141 463h394l-304 -463h-231z" />
    <glyph glyph-name="uni038F" unicode="&#x38f;" horiz-adv-x="1826" 
d="M590 690q0 -201 143 -373l-84 -317h-676l86 322l324 -3q-88 99 -140.5 207.5t-52.5 243.5q0 153 62.5 290t174.5 239t277.5 161.5t360.5 59.5q168 0 303.5 -45t223 -123.5t134 -183t46.5 -224.5q0 -104 -29.5 -195t-86.5 -167.5t-125.5 -138.5t-160.5 -124l313 3
l-86 -322h-718l86 315q81 48 148 103.5t124 123t89 149t32 167.5q0 139 -85.5 221t-238.5 82q-202 0 -323 -133t-121 -338zM-178 1042l141 463h393l-303 -463h-231z" />
    <glyph glyph-name="uni0390" unicode="&#x390;" horiz-adv-x="751" 
d="M737 1255l80 297h297l-82 -297h-295zM-8 1255l80 297h297l-82 -297h-295zM338 1255l201 461l307 -69l-289 -392h-219zM627 295l-76 -285q-93 -26 -186 -26q-150 0 -226 72t-76 200q0 90 37 233l176 662h390l-193 -715q-14 -58 -14 -78q0 -37 25 -52t77 -15q20 0 66 4z
" />
    <glyph glyph-name="uni0391" unicode="&#x391;" horiz-adv-x="1667" 
d="M-139 0l1036 1501h387l234 -1501h-414l-39 281h-588l-186 -281h-430zM684 596h346l-57 440z" />
    <glyph glyph-name="uni0392" unicode="&#x392;" horiz-adv-x="1544" 
d="M-4 0l399 1491h613q142 0 247.5 -29t165.5 -80.5t88.5 -114t28.5 -137.5q0 -142 -88 -240.5t-244 -135.5q104 -39 164 -113.5t60 -185.5q0 -205 -171 -330t-499 -125h-764zM467 324h328q110 0 173.5 44t63.5 119q0 121 -186 121h-301zM623 895h288q116 0 176 41t60 117
q0 114 -184 114h-269z" />
    <glyph glyph-name="uni0393" unicode="&#x393;" horiz-adv-x="1349" 
d="M-4 0l399 1491h1125l-95 -346h-727l-307 -1145h-395z" />
    <glyph glyph-name="uni0394" unicode="&#x394;" horiz-adv-x="1693" 
d="M1309 1501l233 -1204l-123 -297h-1452l37 297l879 1204h426zM999 1081l-512 -737h633z" />
    <glyph glyph-name="uni0395" unicode="&#x395;" horiz-adv-x="1443" 
d="M-4 0l399 1491h1178l-92 -338h-785l-65 -244h706l-84 -317h-708l-68 -254h797l-90 -338h-1188z" />
    <glyph glyph-name="uni0396" unicode="&#x396;" horiz-adv-x="1474" 
d="M-59 0l77 289l969 866h-713l93 336h1255l-78 -289l-971 -866h742l-90 -336h-1284z" />
    <glyph glyph-name="uni0397" unicode="&#x397;" horiz-adv-x="1632" 
d="M-4 0l399 1491h398l-152 -565h541l151 565h396l-400 -1491h-397l153 573h-538l-156 -573h-395z" />
    <glyph glyph-name="uni0398" unicode="&#x398;" horiz-adv-x="1765" 
d="M1231 901l-80 -301h-524l80 301h524zM518 666q0 -156 90.5 -249t257.5 -93q187 0 318 131q73 73 113 170t40 200q0 156 -91.5 249t-258.5 93q-187 0 -315 -131q-73 -73 -113.5 -170t-40.5 -200zM129 639q0 171 68.5 333t191.5 285q121 124 282 192.5t349 68.5
q155 0 287 -51.5t224 -140t143.5 -211.5t51.5 -263q0 -171 -68.5 -333.5t-191.5 -285.5q-260 -260 -632 -260q-155 0 -287 51.5t-223.5 140t-143 211.5t-51.5 263z" />
    <glyph glyph-name="uni0399" unicode="&#x399;" horiz-adv-x="716" 
d="M6 0l402 1491h395l-400 -1491h-397z" />
    <glyph glyph-name="uni039A" unicode="&#x39a;" horiz-adv-x="1560" 
d="M-4 0l399 1491h398l-164 -610l641 610h508l-707 -647l334 -844h-428l-221 594l-271 -242l-94 -352h-395z" />
    <glyph glyph-name="uni039B" unicode="&#x39b;" horiz-adv-x="1617" 
d="M1245 1501l215 -1501h-426l-108 930l-609 -930h-452l1020 1501h360z" />
    <glyph glyph-name="uni039C" unicode="&#x39c;" horiz-adv-x="1857" 
d="M-4 0l399 1491h400l198 -588l518 588h443l-400 -1491h-395l236 881l-545 -596h-8l-224 592l-235 -877h-387z" />
    <glyph glyph-name="uni039D" unicode="&#x39d;" horiz-adv-x="1685" 
d="M-4 0l399 1491h369l397 -854l230 854h391l-400 -1491h-346l-411 883l-238 -883h-391z" />
    <glyph glyph-name="uni039E" unicode="&#x39e;" horiz-adv-x="1441" 
d="M1274 342l-92 -342h-1225l92 342h1225zM276 1149l93 342h1204l-94 -342h-1203zM1366 909l-86 -317h-1104l86 317h1104z" />
    <glyph glyph-name="uni039F" unicode="&#x39f;" horiz-adv-x="1761" 
d="M1018 1518q155 0 287 -51.5t223 -140t142.5 -211.5t51.5 -263q0 -173 -68.5 -335.5t-191.5 -285.5q-122 -122 -281.5 -190t-346.5 -68q-155 0 -287 51.5t-223.5 140t-143 211.5t-51.5 263q0 173 68.5 335.5t191.5 285.5q122 122 282 190t347 68zM870 330q167 0 295 125
q72 72 113 170t41 196q0 152 -88.5 246t-249.5 94q-169 0 -297 -125q-71 -71 -111.5 -169t-40.5 -197q0 -152 88.5 -246t249.5 -94z" />
    <glyph glyph-name="uni03A0" unicode="&#x3a0;" horiz-adv-x="1619" 
d="M-4 0l399 1491h1321l-401 -1491h-395l305 1139h-529l-305 -1139h-395z" />
    <glyph glyph-name="uni03A1" unicode="&#x3a1;" horiz-adv-x="1454" 
d="M-4 0l399 1491h486q180 0 299.5 -37t201.5 -119q117 -117 117 -305q0 -237 -158 -395q-203 -203 -579 -203h-254l-117 -432h-395zM1049 1098q-55 55 -183 55h-166l-108 -405h170q179 0 270 88q60 66 60 151q0 68 -43 111z" />
    <glyph glyph-name="uni03A3" unicode="&#x3a3;" horiz-adv-x="1458" 
d="M1108 731l-498 -397l703 2l-88 -336h-1280l75 285l611 481l-359 440l78 285h1235l-90 -336l-711 2z" />
    <glyph glyph-name="uni03A4" unicode="&#x3a4;" horiz-adv-x="1384" 
d="M336 0l307 1141h-448l94 350h1292l-94 -350h-449l-305 -1141h-397z" />
    <glyph glyph-name="uni03A5" unicode="&#x3a5;" horiz-adv-x="1449" 
d="M354 0l156 580l-303 911h428l153 -569l461 569h475l-829 -954l-145 -537h-396z" />
    <glyph glyph-name="uni03A6" unicode="&#x3a6;" horiz-adv-x="2117" 
d="M1114 1516h395l-41 -148q281 -30 445 -176.5t164 -376.5q0 -205 -117.5 -361.5t-331.5 -244t-495 -92.5l-37 -142h-396l41 150q-281 30 -445.5 176.5t-164.5 376.5q0 204 117.5 360.5t331.5 243.5t495 92zM524 702q0 -111 78 -176t234 -77l159 600q-219 -6 -344 -99
t-127 -248zM1683 791q0 110 -79 175.5t-232 75.5l-160 -598q219 6 344 99t127 248z" />
    <glyph glyph-name="uni03A7" unicode="&#x3a7;" horiz-adv-x="1531" 
d="M-139 0l725 778l-312 713h437l168 -432l378 432h484l-692 -743l327 -748h-436l-184 469l-412 -469h-483z" />
    <glyph glyph-name="uni03A8" unicode="&#x3a8;" horiz-adv-x="1925" 
d="M2050 1491l-168 -629q-70 -245 -188 -360q-107 -107 -256 -156.5t-348 -54.5h-3l-75 -291h-404l80 303q-231 33 -357 152.5t-126 314.5q0 113 47 287l119 434h391l-127 -469q-35 -122 -35 -191q0 -161 193 -176l225 836h385l-227 -838h2q157 6 233 88q60 58 98 195
l150 555h391z" />
    <glyph glyph-name="uni03A9" unicode="&#x3a9;" horiz-adv-x="1826" 
d="M590 690q0 -201 143 -373l-84 -317h-676l86 322l324 -3q-88 99 -140.5 207.5t-52.5 243.5q0 153 62.5 290t174.5 239t277.5 161.5t360.5 59.5q168 0 303.5 -45t223 -123.5t134 -183t46.5 -224.5q0 -104 -29.5 -195t-86.5 -167.5t-125.5 -138.5t-160.5 -124l313 3
l-86 -322h-718l86 315q81 48 148 103.5t124 123t89 149t32 167.5q0 139 -85.5 221t-238.5 82q-202 0 -323 -133t-121 -338z" />
    <glyph glyph-name="uni03AA" unicode="&#x3aa;" horiz-adv-x="716" 
d="M6 0l402 1491h395l-400 -1491h-397zM227 1595l80 291h342l-80 -291h-342zM696 1595l80 291h344l-80 -291h-344z" />
    <glyph glyph-name="uni03AB" unicode="&#x3ab;" horiz-adv-x="1449" 
d="M354 0l156 580l-303 911h428l153 -569l461 569h475l-829 -954l-145 -537h-396zM563 1595l80 291h342l-80 -291h-342zM1032 1595l80 291h344l-80 -291h-344z" />
    <glyph glyph-name="uni03AC" unicode="&#x3ac;" horiz-adv-x="1564" 
d="M760 1262l246 401l337 -119l-307 -282h-276zM1479 1151l-191 -713q-14 -58 -14 -80q0 -37 25 -52t77 -15q20 0 66 4l-78 -285q-89 -26 -184 -26q-222 0 -271 163q-93 -93 -187 -132.5t-204 -39.5q-200 0 -321 128.5t-121 347.5q0 163 56.5 304.5t156.5 241.5
q180 177 409 177q230 0 351 -183l41 160h389zM674 297q101 0 192 84q105 105 105 258q0 96 -58 154.5t-151 58.5q-105 0 -189 -84q-104 -104 -104 -260q0 -97 56 -154t149 -57z" />
    <glyph glyph-name="uni03AD" unicode="&#x3ad;" horiz-adv-x="1273" 
d="M637 1262l246 401l338 -119l-308 -282h-276zM328 594q-154 81 -154 223q0 148 153 252.5t416 104.5q319 0 555 -170l-182 -250q-165 123 -375 123q-190 0 -190 -101q0 -40 32.5 -59t118.5 -19h244l-65 -245h-267q-96 0 -139 -22.5t-43 -70.5q0 -90 193 -90q195 0 399 82
l78 -274q-100 -47 -241.5 -76t-276.5 -29q-268 0 -410.5 87t-142.5 233q0 111 75.5 188.5t221.5 112.5z" />
    <glyph glyph-name="uni03AE" unicode="&#x3ae;" horiz-adv-x="1357" 
d="M745 1262l246 401l338 -119l-307 -282h-277zM-27 0l308 1151h389l-35 -131q150 154 326 154q155 0 244 -91.5t89 -251.5q0 -100 -34 -206l-259 -965h-387l256 948q13 50 13 97q0 124 -135 124q-165 0 -222 -213l-166 -616h-387z" />
    <glyph glyph-name="uni03AF" unicode="&#x3af;" horiz-adv-x="751" 
d="M348 1255l246 402l338 -119l-307 -283h-277zM627 295l-76 -285q-93 -26 -186 -26q-150 0 -226 72t-76 200q0 90 37 233l176 662h390l-193 -715q-14 -58 -14 -78q0 -37 25 -52t77 -15q20 0 66 4z" />
    <glyph glyph-name="uni03B0" unicode="&#x3b0;" horiz-adv-x="1359" 
d="M1085 1255l80 297h297l-82 -297h-295zM340 1255l80 297h297l-82 -297h-295zM686 1255l201 461l307 -69l-289 -392h-219zM119 602l147 549h387l-159 -596q-2 -9 -6.5 -29t-7 -32.5t-5 -30.5t-2.5 -33q0 -59 37 -92t113 -33q88 0 143 55q46 46 80 164l166 627h389
l-182 -684q-60 -212 -177 -334q-160 -160 -448 -160q-241 0 -374.5 108t-133.5 300q0 89 33 221z" />
    <glyph glyph-name="uni03B1" unicode="&#x3b1;" horiz-adv-x="1564" 
d="M1479 1151l-191 -713q-14 -58 -14 -80q0 -37 25 -52t77 -15q20 0 66 4l-78 -285q-89 -26 -184 -26q-222 0 -271 163q-93 -93 -187 -132.5t-204 -39.5q-200 0 -321 128.5t-121 347.5q0 163 56.5 304.5t156.5 241.5q180 177 409 177q230 0 351 -183l41 160h389zM674 297
q101 0 192 84q105 105 105 258q0 96 -58 154.5t-151 58.5q-105 0 -189 -84q-104 -104 -104 -260q0 -97 56 -154t149 -57z" />
    <glyph glyph-name="uni03B2" unicode="&#x3b2;" horiz-adv-x="1460" 
d="M-117 -340l359 1341q37 139 84 232t118 164q176 176 486 176q242 0 385 -119.5t143 -304.5q0 -310 -358 -408q231 -102 231 -327q0 -183 -147 -308.5t-363 -125.5q-153 0 -251.5 49t-166.5 137l-137 -506h-383zM664 645h-140l-12 -51q-12 -50 -12 -92q0 -99 65.5 -154
t177.5 -55q100 0 157.5 52.5t57.5 129.5q0 170 -294 170zM616 981l-24 -88h180q146 0 225.5 55.5t79.5 155.5q0 69 -45.5 111t-130.5 42q-109 0 -180 -71t-105 -205z" />
    <glyph glyph-name="uni03B3" unicode="&#x3b3;" horiz-adv-x="1329" 
d="M612 -340h-387l101 379l-140 1112h394l41 -702l411 702h414l-735 -1122z" />
    <glyph glyph-name="uni03B4" unicode="&#x3b4;" horiz-adv-x="1392" 
d="M909 1262l125 -136q137 -147 203 -271t66 -275q0 -126 -46.5 -237.5t-129 -193t-202.5 -129t-261 -47.5q-142 0 -256 42.5t-184.5 114.5t-108 164t-37.5 195q0 206 124 356t390 253l-174 184l74 272h931l-82 -301zM932 573q0 146 -133 304q-190 -69 -270 -161t-80 -204
q0 -92 58 -154.5t165 -62.5q116 0 188 79t72 199z" />
    <glyph glyph-name="uni03B5" unicode="&#x3b5;" horiz-adv-x="1273" 
d="M328 594q-154 81 -154 223q0 148 153 252.5t416 104.5q319 0 555 -170l-182 -250q-165 123 -375 123q-190 0 -190 -101q0 -40 32.5 -59t118.5 -19h244l-65 -245h-267q-96 0 -139 -22.5t-43 -70.5q0 -90 193 -90q195 0 399 82l78 -274q-100 -47 -241.5 -76t-276.5 -29
q-268 0 -410.5 87t-142.5 233q0 111 75.5 188.5t221.5 112.5z" />
    <glyph glyph-name="uni03B6" unicode="&#x3b6;" horiz-adv-x="1234" 
d="M1339 1266l-729 -570q-89 -68 -124 -114.5t-35 -94.5q0 -54 39.5 -84t142.5 -53l434 -96l-143 -543h-359l82 299l-176 41q-216 49 -317 143t-101 244q0 142 81.5 256t277.5 260l379 289h-433l82 311h977z" />
    <glyph glyph-name="uni03B7" unicode="&#x3b7;" horiz-adv-x="1357" 
d="M-27 0l308 1151h389l-35 -131q150 154 326 154q155 0 244 -91.5t89 -251.5q0 -100 -34 -206l-259 -965h-387l256 948q13 50 13 97q0 124 -135 124q-165 0 -222 -213l-166 -616h-387z" />
    <glyph glyph-name="uni03B8" unicode="&#x3b8;" horiz-adv-x="1441" 
d="M1419 993q0 -133 -31.5 -275.5t-104 -289.5t-175.5 -250q-205 -205 -475 -205q-127 0 -225 43.5t-159.5 122t-92.5 182t-31 228.5q0 208 79.5 435t229.5 382q203 203 477 203q127 0 225 -42.5t159.5 -120.5t92.5 -182t31 -231zM483 539q0 -248 176 -248q104 0 183 82
q88 84 149 258h-504q-4 -70 -4 -92zM702 1174q-90 -90 -149 -256h504q4 62 4 88q0 247 -178 247q-99 0 -181 -79z" />
    <glyph glyph-name="uni03B9" unicode="&#x3b9;" horiz-adv-x="751" 
d="M627 295l-76 -285q-93 -26 -186 -26q-150 0 -226 72t-76 200q0 90 37 233l176 662h390l-193 -715q-14 -58 -14 -78q0 -37 25 -52t77 -15q20 0 66 4z" />
    <glyph glyph-name="uni03BA" unicode="&#x3ba;" horiz-adv-x="1329" 
d="M670 1151l-109 -401l430 401h492l-555 -485l225 -666h-410l-133 412l-182 -162l-66 -250h-389l308 1151h389z" />
    <glyph glyph-name="uni03BB" unicode="&#x3bb;" horiz-adv-x="1351" 
d="M793 0l-62 692l-424 -692h-420l766 1135v8q-6 47 -32 76q-37 34 -123 34q-88 0 -148 -18l66 309q103 25 213 25q184 0 280 -99q103 -103 138 -391l127 -1079h-381z" />
    <glyph glyph-name="uni03BC" unicode="&#x3bc;" horiz-adv-x="1499" 
d="M260 -340h-377l398 1491h389l-160 -596q-16 -66 -16 -109q0 -64 37 -99.5t108 -35.5q81 0 132.5 46t80.5 147l172 647h389l-192 -715q-13 -50 -13 -78q0 -37 24.5 -52t76.5 -15q21 0 67 4l-78 -285q-93 -26 -186 -26q-205 0 -258 153q-96 -147 -260 -147q-177 0 -242 168
h-6q0 -179 -37 -316z" />
    <glyph glyph-name="uni03BD" unicode="&#x3bd;" horiz-adv-x="1331" 
d="M332 -8l-148 1159h400l43 -690l409 690h414l-766 -1159h-352z" />
    <glyph glyph-name="uni03BE" unicode="&#x3be;" horiz-adv-x="1228" 
d="M616 344l433 -96l-144 -537h-358l82 299l-137 31q-222 53 -331.5 145.5t-109.5 245.5q0 155 101.5 254.5t298.5 140.5q-74 59 -113 126.5t-39 158.5q0 195 157.5 328t411.5 133q330 0 553 -240l-231 -241q-147 151 -307 151q-99 0 -155 -50.5t-56 -125.5q0 -162 254 -162
h149l-78 -293h-315q-236 0 -236 -133q0 -51 40 -83t130 -52z" />
    <glyph glyph-name="uni03BF" unicode="&#x3bf;" horiz-adv-x="1394" 
d="M754 1174q257 0 410 -150.5t153 -382.5q0 -131 -52.5 -252t-146.5 -217q-94 -94 -216.5 -146.5t-260.5 -52.5q-171 0 -299.5 71t-195 191.5t-66.5 272.5q0 130 52.5 252t146.5 215q199 199 475 199zM662 297q100 0 178 78q49 49 76.5 117t27.5 135q0 104 -58 163.5
t-153 59.5q-100 0 -176 -76q-50 -48 -77 -117t-27 -137q0 -103 57 -163t152 -60z" />
    <glyph glyph-name="uni03C0" unicode="&#x3c0;" horiz-adv-x="1609" 
d="M1448 295l-76 -285q-93 -26 -186 -26q-150 0 -225.5 72t-75.5 200q0 90 37 233l86 328h-308l-219 -817h-387l219 817h-178l88 334h1448l-88 -334h-186l-103 -381q-14 -58 -14 -78q0 -37 25 -52t77 -15q20 0 66 4z" />
    <glyph glyph-name="uni03C1" unicode="&#x3c1;" horiz-adv-x="1431" 
d="M-137 -340l248 926q78 286 206 411q177 177 455 177q259 0 417.5 -148.5t158.5 -384.5q0 -139 -52 -264.5t-149 -222.5q-179 -179 -412 -179q-228 0 -350 185l-133 -500h-389zM676 299q112 0 190 78q49 49 77 118t28 136q0 104 -56 162.5t-149 58.5q-108 0 -186 -78
q-50 -49 -78.5 -119t-28.5 -143q0 -98 56.5 -155.5t146.5 -57.5z" />
    <glyph glyph-name="uni03C2" unicode="&#x3c2;" horiz-adv-x="1236" 
d="M719 324l325 -72l-143 -541h-358l82 303l-105 25q-436 106 -436 489q0 131 48.5 248t133.5 205q196 193 477 193q356 0 512 -289l-288 -191q-83 156 -230 156q-112 0 -190 -78q-88 -88 -88 -215q0 -92 59.5 -146.5t200.5 -86.5z" />
    <glyph glyph-name="uni03C3" unicode="&#x3c3;" horiz-adv-x="1476" 
d="M1284 543q0 -220 -160 -377q-193 -193 -481 -193q-262 0 -412.5 145.5t-150.5 377.5q0 272 182 454q201 201 539 201h758l-84 -315l-304 6q113 -126 113 -299zM659 295q105 0 181 76q92 92 92 237q0 107 -55.5 165t-149.5 58q-103 0 -180 -77q-43 -45 -69.5 -110.5
t-26.5 -133.5q0 -104 54.5 -159.5t153.5 -55.5z" />
    <glyph glyph-name="uni03C4" unicode="&#x3c4;" horiz-adv-x="1269" 
d="M1346 1151l-89 -334h-380l-93 -354q-16 -66 -16 -90q0 -48 32.5 -68t100.5 -20q55 0 129 12l-76 -289q-103 -20 -211 -20q-180 0 -277 76t-97 223q0 68 32 196l88 334h-358l90 334h1125z" />
    <glyph glyph-name="uni03C5" unicode="&#x3c5;" horiz-adv-x="1359" 
d="M119 602l147 549h387l-159 -596q-2 -9 -6.5 -29t-7 -32.5t-5 -30.5t-2.5 -33q0 -59 37 -92t113 -33q88 0 143 55q46 46 80 164l166 627h389l-182 -684q-60 -212 -177 -334q-160 -160 -448 -160q-241 0 -374.5 108t-133.5 300q0 89 33 221z" />
    <glyph glyph-name="uni03C6" unicode="&#x3c6;" horiz-adv-x="1873" 
d="M1798 625q0 -232 -166 -398q-111 -111 -280 -170.5t-379 -60.5h-2l-88 -336h-381l94 350q-247 41 -383.5 176.5t-136.5 337.5q0 232 166 398q111 111 280 171.5t379 61.5h2l107 399h381l-113 -415q247 -41 383.5 -176t136.5 -338zM455 545q0 -90 60.5 -151.5t174.5 -78.5
l141 525h-2q-198 -3 -297 -107q-77 -74 -77 -188zM1419 606q0 89 -60.5 150t-174.5 78l-142 -523h2q198 0 297 107q78 75 78 188z" />
    <glyph glyph-name="uni03C7" unicode="&#x3c7;" horiz-adv-x="1355" 
d="M590 1151l127 -416l313 416h451l-619 -748l268 -743h-405l-145 465l-367 -465h-453l674 791l-250 700h406z" />
    <glyph glyph-name="uni03C8" unicode="&#x3c8;" horiz-adv-x="1847" 
d="M1886 1151l-168 -631q-31 -110 -71.5 -188.5t-104.5 -141.5q-185 -191 -586 -194h-2l-88 -336h-381l93 344q-226 29 -349 147.5t-123 307.5q0 112 33 227l125 465h385l-135 -500q-22 -93 -22 -141q0 -79 43.5 -121.5t134.5 -54.5l327 1220h373l-330 -1226h2q146 3 220 80
q60 60 88 172l151 571h385z" />
    <glyph glyph-name="uni03C9" unicode="&#x3c9;" horiz-adv-x="1976" 
d="M799 594l88 344h377l-82 -320q-25 -106 -25 -157q0 -144 133 -144q100 0 154.5 95.5t54.5 249.5q0 241 -127 489h385q51 -100 86 -232.5t35 -256.5q0 -306 -160.5 -494t-417.5 -188q-160 0 -252.5 73t-123.5 201q-148 -274 -416 -274q-205 0 -314.5 125.5t-109.5 324.5
q0 188 89 373t261 348h436q-407 -369 -407 -672q0 -78 33.5 -120t93.5 -42q69 0 119 64t90 213z" />
    <glyph glyph-name="uni03CA" unicode="&#x3ca;" horiz-adv-x="751" 
d="M100 1255l82 299h344l-82 -299h-344zM565 1255l82 299h344l-82 -299h-344zM627 295l-76 -285q-93 -26 -186 -26q-150 0 -226 72t-76 200q0 90 37 233l176 662h390l-193 -715q-14 -58 -14 -78q0 -37 25 -52t77 -15q20 0 66 4z" />
    <glyph glyph-name="uni03CB" unicode="&#x3cb;" horiz-adv-x="1359" 
d="M449 1255l81 299h344l-81 -299h-344zM913 1255l82 299h344l-82 -299h-344zM119 602l147 549h387l-159 -596q-2 -9 -6.5 -29t-7 -32.5t-5 -30.5t-2.5 -33q0 -59 37 -92t113 -33q88 0 143 55q46 46 80 164l166 627h389l-182 -684q-60 -212 -177 -334q-160 -160 -448 -160
q-241 0 -374.5 108t-133.5 300q0 89 33 221z" />
    <glyph glyph-name="uni03CC" unicode="&#x3cc;" horiz-adv-x="1394" 
d="M719 1262l246 401l338 -119l-308 -282h-276zM754 1174q257 0 410 -150.5t153 -382.5q0 -131 -52.5 -252t-146.5 -217q-94 -94 -216.5 -146.5t-260.5 -52.5q-171 0 -299.5 71t-195 191.5t-66.5 272.5q0 130 52.5 252t146.5 215q199 199 475 199zM662 297q100 0 178 78
q49 49 76.5 117t27.5 135q0 104 -58 163.5t-153 59.5q-100 0 -176 -76q-50 -48 -77 -117t-27 -137q0 -103 57 -163t152 -60z" />
    <glyph glyph-name="uni03CD" unicode="&#x3cd;" horiz-adv-x="1359" 
d="M696 1255l246 402l338 -119l-307 -283h-277zM119 602l147 549h387l-159 -596q-2 -9 -6.5 -29t-7 -32.5t-5 -30.5t-2.5 -33q0 -59 37 -92t113 -33q88 0 143 55q46 46 80 164l166 627h389l-182 -684q-60 -212 -177 -334q-160 -160 -448 -160q-241 0 -374.5 108t-133.5 300
q0 89 33 221z" />
    <glyph glyph-name="uni03CE" unicode="&#x3ce;" horiz-adv-x="1976" 
d="M1008 1255l245 402l338 -119l-307 -283h-276zM799 594l88 344h377l-82 -320q-25 -106 -25 -157q0 -144 133 -144q100 0 154.5 95.5t54.5 249.5q0 241 -127 489h385q51 -100 86 -232.5t35 -256.5q0 -306 -160.5 -494t-417.5 -188q-160 0 -252.5 73t-123.5 201
q-148 -274 -416 -274q-205 0 -314.5 125.5t-109.5 324.5q0 188 89 373t261 348h436q-407 -369 -407 -672q0 -78 33.5 -120t93.5 -42q69 0 119 64t90 213z" />
    <glyph glyph-name="uni0400" unicode="&#x400;" horiz-adv-x="1443" 
d="M858 1595l-250 226l371 116l143 -342h-264zM-4 0l399 1491h1178l-92 -338h-785l-65 -244h706l-84 -317h-708l-68 -254h797l-90 -338h-1188z" />
    <glyph glyph-name="uni0401" unicode="&#x401;" horiz-adv-x="1443" 
d="M604 1595l80 291h342l-80 -291h-342zM1073 1595l80 291h344l-80 -291h-344zM-4 0l399 1491h1178l-92 -338h-785l-65 -244h706l-84 -317h-708l-68 -254h797l-90 -338h-1188z" />
    <glyph glyph-name="uni0402" unicode="&#x402;" horiz-adv-x="1800" 
d="M1473 1147h-453l-62 -227q116 14 201 14q271 0 410 -110.5t139 -305.5q0 -239 -172 -380.5t-506 -141.5h-94l80 303h26q130 0 200.5 48.5t70.5 123.5q0 69 -55.5 102t-182.5 33q-95 0 -205 -14l-157 -592h-396l308 1147h-430l94 344h1276z" />
    <glyph glyph-name="uni0403" unicode="&#x403;" horiz-adv-x="1349" 
d="M784 1595l330 342l359 -116l-371 -226h-318zM-4 0l399 1491h1125l-95 -346h-727l-307 -1145h-395z" />
    <glyph glyph-name="uni0404" unicode="&#x404;" horiz-adv-x="1558" 
d="M1030 1520q403 0 645 -293l-286 -244q-76 91 -168 138.5t-215 47.5q-205 0 -340 -135q-57 -57 -95 -135l629 4l-84 -307l-596 2v-2q13 -132 105.5 -204t236.5 -70q183 0 359 129l196 -281q-254 -199 -579 -199q-207 0 -368 78.5t-253 230.5t-92 357q0 364 256 620
q124 124 291 193.5t358 69.5z" />
    <glyph glyph-name="uni0405" unicode="&#x405;" horiz-adv-x="1390" 
d="M651 -25q-217 0 -391.5 70.5t-292.5 202.5l262 262q212 -203 451 -203q80 0 130 33t50 88q0 47 -47.5 79.5t-202.5 94.5q-92 35 -157 70.5t-118.5 84t-80.5 112t-27 143.5q0 193 138 325q86 86 210.5 132.5t276.5 46.5q376 0 600 -224l-250 -270q-190 162 -385 162
q-82 0 -128 -33t-46 -82q0 -47 45 -76t207 -94q92 -36 155 -71t117.5 -83.5t81.5 -112.5t27 -145q0 -198 -137 -335q-177 -177 -488 -177z" />
    <glyph glyph-name="uni0406" unicode="&#x406;" horiz-adv-x="716" 
d="M6 0l402 1491h395l-400 -1491h-397z" />
    <glyph glyph-name="uni0407" unicode="&#x407;" horiz-adv-x="716" 
d="M6 0l402 1491h395l-400 -1491h-397zM227 1595l80 291h342l-80 -291h-342zM696 1595l80 291h344l-80 -291h-344z" />
    <glyph glyph-name="uni0408" unicode="&#x408;" horiz-adv-x="1234" 
d="M426 -25q-156 0 -290 67.5t-212 190.5l271 238q60 -78 116.5 -111.5t128.5 -33.5q99 0 168 69q33 36 58 92t57 175l223 829h397l-243 -907q-45 -169 -94 -270t-125 -177q-167 -162 -455 -162z" />
    <glyph glyph-name="uni0409" unicode="&#x409;" horiz-adv-x="2379" 
d="M926 0l313 1169h-20l-908 -1169h-456l1179 1491h688l-120 -451h118q281 0 432.5 -116.5t151.5 -333.5q0 -229 -154 -383q-207 -207 -622 -207h-602zM1898 561q0 81 -56.5 121.5t-162.5 40.5h-163l-105 -391h166q178 0 262 84q59 56 59 145z" />
    <glyph glyph-name="uni040A" unicode="&#x40a;" horiz-adv-x="2363" 
d="M911 0l154 573h-520l-154 -573h-395l399 1491h398l-154 -565h520l152 565h395l-121 -451h121q279 0 431.5 -117t152.5 -333q0 -229 -154 -383q-207 -207 -625 -207h-600zM1884 561q0 81 -56.5 121.5t-162.5 40.5h-166l-104 -391h166q178 0 262 84q61 58 61 145z" />
    <glyph glyph-name="uni040B" unicode="&#x40b;" horiz-adv-x="1832" 
d="M1473 1147h-453l-66 -242q99 13 207 13q84 0 158 -14t141 -46t115 -80t76 -120.5t28 -163.5q0 -109 -39 -248l-65 -246h-395l75 281q25 91 25 143q0 145 -223 145q-96 0 -197 -16l-147 -553h-396l308 1147h-430l94 344h1276z" />
    <glyph glyph-name="uni040C" unicode="&#x40c;" horiz-adv-x="1566" 
d="M879 1595l329 342l359 -116l-371 -226h-317zM-4 0l399 1491h398l-158 -576h74l573 576h504l-817 -774l471 -717h-441l-364 584h-90l-154 -584h-395z" />
    <glyph glyph-name="uni040D" unicode="&#x40d;" horiz-adv-x="1691" 
d="M961 1595l-250 226l370 116l144 -342h-264zM1399 1491h389l-402 -1491h-395l228 850l-857 -850h-366l399 1491h398l-222 -821z" />
    <glyph glyph-name="uni040E" unicode="&#x40e;" horiz-adv-x="1574" 
d="M1022 1591q-179 0 -267.5 82.5t-68.5 239.5h227q12 -98 156 -98q132 0 199 98h252q-61 -158 -190 -240t-308 -82zM1808 1491l-1198 -1491h-460l417 514l-315 977h420l188 -633l492 633h456z" />
    <glyph glyph-name="uni040F" unicode="&#x40f;" horiz-adv-x="1619" 
d="M1716 1491l-401 -1491h-475l-84 -317h-367l86 317h-479l399 1491h398l-306 -1139h527l305 1139h397z" />
    <glyph glyph-name="uni0410" unicode="&#x410;" horiz-adv-x="1667" 
d="M-139 0l1036 1501h387l234 -1501h-414l-39 281h-588l-186 -281h-430zM684 596h346l-57 440z" />
    <glyph glyph-name="uni0411" unicode="&#x411;" horiz-adv-x="1523" 
d="M629 924h211q177 0 290 -33t185 -105q53 -53 76.5 -117.5t23.5 -152.5q0 -98 -35.5 -185.5t-101.5 -150.5q-97 -96 -249 -138t-372 -42h-661l399 1491h1166l-91 -334h-778zM545 612l-78 -290h268q171 0 236 65q41 41 41 105q0 48 -29 77q-28 25 -73.5 34t-129.5 9h-235z
" />
    <glyph glyph-name="uni0412" unicode="&#x412;" horiz-adv-x="1544" 
d="M-4 0l399 1491h613q142 0 247.5 -29t165.5 -80.5t88.5 -114t28.5 -137.5q0 -142 -88 -240.5t-244 -135.5q104 -39 164 -113.5t60 -185.5q0 -205 -171 -330t-499 -125h-764zM467 324h328q110 0 173.5 44t63.5 119q0 121 -186 121h-301zM623 895h288q116 0 176 41t60 117
q0 114 -184 114h-269z" />
    <glyph glyph-name="uni0413" unicode="&#x413;" horiz-adv-x="1349" 
d="M-4 0l399 1491h1125l-95 -346h-727l-307 -1145h-395z" />
    <glyph glyph-name="uni0414" unicode="&#x414;" horiz-adv-x="1906" 
d="M8 352h180l797 1149h432l176 -1149h189l-180 -669h-367l84 317h-1040l-84 -317h-367zM1098 1071l-488 -733h582z" />
    <glyph glyph-name="uni0415" unicode="&#x415;" horiz-adv-x="1443" 
d="M-4 0l399 1491h1178l-92 -338h-785l-65 -244h706l-84 -317h-708l-68 -254h797l-90 -338h-1188z" />
    <glyph glyph-name="uni0416" unicode="&#x416;" horiz-adv-x="2387" 
d="M1647 1491l-162 -578h57l572 578h493l-805 -770l426 -721h-432l-323 586h-78l-150 -586h-395l164 586h-64l-598 -586h-493l841 778l-395 713h434l297 -578h66l149 578h396z" />
    <glyph glyph-name="uni0417" unicode="&#x417;" horiz-adv-x="1462" 
d="M393 1055l-137 299q295 166 629 166q267 0 425 -112.5t158 -291.5q0 -280 -338 -387q97 -44 153 -119t56 -180q0 -140 -91.5 -246t-239 -159.5t-324.5 -53.5q-225 0 -394 67t-306 191l225 265q211 -185 483 -185q110 0 179 43.5t69 112.5q0 137 -219 137h-299l80 299h284
q134 0 202.5 38.5t68.5 111.5q0 61 -54 96t-155 35q-222 0 -455 -127z" />
    <glyph glyph-name="uni0418" unicode="&#x418;" horiz-adv-x="1691" 
d="M1399 1491h389l-402 -1491h-395l228 850l-857 -850h-366l399 1491h398l-222 -821z" />
    <glyph glyph-name="uni0419" unicode="&#x419;" horiz-adv-x="1691" 
d="M1114 1591q-179 0 -267.5 82.5t-68.5 239.5h228q12 -98 155 -98q132 0 199 98h252q-61 -158 -190 -240t-308 -82zM1399 1491h389l-402 -1491h-395l228 850l-857 -850h-366l399 1491h398l-222 -821z" />
    <glyph glyph-name="uni041A" unicode="&#x41a;" horiz-adv-x="1566" 
d="M-4 0l399 1491h398l-158 -576h74l573 576h504l-817 -774l471 -717h-441l-364 584h-90l-154 -584h-395z" />
    <glyph glyph-name="uni041B" unicode="&#x41b;" horiz-adv-x="1617" 
d="M1245 1501l215 -1501h-426l-108 930l-609 -930h-452l1020 1501h360z" />
    <glyph glyph-name="uni041C" unicode="&#x41c;" horiz-adv-x="1857" 
d="M-4 0l399 1491h400l198 -588l518 588h443l-400 -1491h-395l236 881l-545 -596h-8l-224 592l-235 -877h-387z" />
    <glyph glyph-name="uni041D" unicode="&#x41d;" horiz-adv-x="1632" 
d="M8 0l400 1491h397l-152 -565h541l152 565h395l-400 -1491h-397l154 573h-539l-156 -573h-395z" />
    <glyph glyph-name="uni041E" unicode="&#x41e;" horiz-adv-x="1761" 
d="M1018 1518q155 0 287 -51.5t223 -140t142.5 -211.5t51.5 -263q0 -173 -68.5 -335.5t-191.5 -285.5q-122 -122 -281.5 -190t-346.5 -68q-155 0 -287 51.5t-223.5 140t-143 211.5t-51.5 263q0 173 68.5 335.5t191.5 285.5q122 122 282 190t347 68zM870 330q167 0 295 125
q72 72 113 170t41 196q0 152 -88.5 246t-249.5 94q-169 0 -297 -125q-71 -71 -111.5 -169t-40.5 -197q0 -152 88.5 -246t249.5 -94z" />
    <glyph glyph-name="uni041F" unicode="&#x41f;" horiz-adv-x="1619" 
d="M-4 0l399 1491h1321l-401 -1491h-395l305 1139h-529l-305 -1139h-395z" />
    <glyph glyph-name="uni0420" unicode="&#x420;" horiz-adv-x="1454" 
d="M-4 0l399 1491h486q180 0 299.5 -37t201.5 -119q117 -117 117 -305q0 -237 -158 -395q-203 -203 -579 -203h-254l-117 -432h-395zM1049 1098q-55 55 -183 55h-166l-108 -405h170q179 0 270 88q60 66 60 151q0 68 -43 111z" />
    <glyph glyph-name="uni0421" unicode="&#x421;" horiz-adv-x="1566" 
d="M829 -29q-204 0 -363.5 79t-250 228t-90.5 345q0 174 69 337t199 293q126 126 294 196.5t366 70.5q220 0 374 -96.5t228 -268.5l-340 -192q-52 97 -127 146.5t-187 49.5q-174 0 -307 -133q-73 -73 -114 -170.5t-41 -206.5q0 -145 87.5 -232t225.5 -87q94 0 170 37.5
t156 113.5l264 -241q-247 -269 -613 -269z" />
    <glyph glyph-name="uni0422" unicode="&#x422;" horiz-adv-x="1384" 
d="M336 0l307 1141h-448l94 350h1292l-94 -350h-449l-305 -1141h-397z" />
    <glyph glyph-name="uni0423" unicode="&#x423;" horiz-adv-x="1574" 
d="M1808 1491l-1198 -1491h-460l417 514l-315 977h420l188 -633l492 633h456z" />
    <glyph glyph-name="uni0424" unicode="&#x424;" horiz-adv-x="2117" 
d="M1114 1516h395l-41 -148q281 -30 445 -176.5t164 -376.5q0 -205 -117.5 -361.5t-331.5 -244t-495 -92.5l-37 -142h-396l41 150q-281 30 -445.5 176.5t-164.5 376.5q0 204 117.5 360.5t331.5 243.5t495 92zM524 702q0 -111 78 -176t234 -77l159 600q-219 -6 -344 -99
t-127 -248zM1683 791q0 110 -79 175.5t-232 75.5l-160 -598q219 6 344 99t127 248z" />
    <glyph glyph-name="uni0425" unicode="&#x425;" horiz-adv-x="1531" 
d="M-139 0l725 778l-312 713h437l168 -432l378 432h484l-692 -743l327 -748h-436l-184 469l-412 -469h-483z" />
    <glyph glyph-name="uni0426" unicode="&#x426;" horiz-adv-x="1726" 
d="M1716 1491l-307 -1139h213l-180 -669h-367l86 317h-1165l399 1491h398l-306 -1139h527l305 1139h397z" />
    <glyph glyph-name="uni0427" unicode="&#x427;" horiz-adv-x="1544" 
d="M844 0l117 442q-99 -18 -220 -18q-110 0 -201 22.5t-166.5 71t-118 134t-42.5 200.5q0 112 39 248l104 391h396l-113 -422q-25 -91 -25 -137q0 -152 222 -152q105 0 223 23l186 688h395l-399 -1491h-397z" />
    <glyph glyph-name="uni0428" unicode="&#x428;" horiz-adv-x="2408" 
d="M2505 1491l-400 -1491h-2109l399 1491h398l-306 -1139h461l305 1139h396l-306 -1139h461l305 1139h396z" />
    <glyph glyph-name="uni0429" unicode="&#x429;" horiz-adv-x="2514" 
d="M2505 1491l-305 -1139h210l-180 -669h-366l86 317h-1954l399 1491h398l-306 -1139h461l305 1139h396l-306 -1139h461l305 1139h396z" />
    <glyph glyph-name="uni042A" unicode="&#x42a;" horiz-adv-x="1800" 
d="M328 0l309 1153h-442l92 338h837l-120 -451h137q279 0 431 -117t152 -333q0 -230 -153 -383q-207 -207 -625 -207h-618zM1319 561q0 81 -56.5 121.5t-162.5 40.5h-182l-105 -391h182q178 0 262 84q62 59 62 145z" />
    <glyph glyph-name="uni042B" unicode="&#x42b;" horiz-adv-x="2095" 
d="M1415 0l402 1491h395l-400 -1491h-397zM-4 0l399 1491h398l-121 -451h137q279 0 431.5 -117t152.5 -333q0 -229 -154 -383q-207 -207 -625 -207h-618zM987 561q0 81 -56.5 121.5t-162.5 40.5h-182l-105 -391h183q178 0 262 84q61 58 61 145z" />
    <glyph glyph-name="uni042C" unicode="&#x42c;" horiz-adv-x="1466" 
d="M-4 0l399 1491h398l-121 -451h137q279 0 431.5 -117t152.5 -333q0 -229 -154 -383q-207 -207 -625 -207h-618zM987 561q0 81 -56.5 121.5t-162.5 40.5h-182l-105 -391h183q178 0 262 84q61 58 61 145z" />
    <glyph glyph-name="uni042D" unicode="&#x42d;" horiz-adv-x="1560" 
d="M643 -29q-423 0 -661 291l262 252q168 -192 411 -192q207 0 336 129q59 59 96 147l-636 -2l81 309l592 -4v2q-17 129 -105 198t-235 68q-191 0 -370 -125l-176 295q259 181 579 181q321 0 514 -182t193 -484q0 -189 -65.5 -350.5t-184.5 -282.5q-120 -120 -281.5 -185
t-349.5 -65z" />
    <glyph glyph-name="uni042E" unicode="&#x42e;" horiz-adv-x="2371" 
d="M-4 0l399 1491h398l-152 -565h201q71 198 215 342q250 250 598 250q151 0 278.5 -50.5t215 -139t136 -212t48.5 -266.5q0 -173 -68 -337.5t-190 -287.5q-252 -252 -602 -252q-285 0 -468 166t-208 432v2h-252l-154 -573h-395zM1507 330q153 0 269 116q69 69 111 169
t42 208q0 152 -80.5 245t-228.5 93q-151 0 -268 -117q-70 -70 -112 -169.5t-42 -206.5q0 -152 80.5 -245t228.5 -93z" />
    <glyph glyph-name="uni042F" unicode="&#x42f;" horiz-adv-x="1576" 
d="M1673 1491l-399 -1491h-397l122 457h-213h-2l-385 -457h-471l484 557q-95 58 -150 151.5t-55 217.5q0 218 147 368q197 197 611 197h708zM1184 1147h-279q-167 0 -237 -70q-56 -56 -56 -141q0 -81 58.5 -122.5t169.5 -41.5h243z" />
    <glyph glyph-name="uni0430" unicode="&#x430;" horiz-adv-x="1288" 
d="M338 -23q-143 0 -233.5 86t-90.5 226q0 163 107 270q140 137 397 137q146 0 299 -45l4 13q10 42 10 75q0 125 -200 125q-167 0 -309 -57l-56 285q188 73 445 73q252 0 377.5 -93.5t125.5 -268.5q0 -83 -24 -168l-168 -635h-381l33 127q-150 -150 -336 -150zM516 219
q83 0 153 61.5t95 151.5l10 39q-85 29 -164 29q-114 0 -172 -58q-43 -46 -43 -112q0 -50 33 -80.5t88 -30.5z" />
    <glyph glyph-name="uni0431" unicode="&#x431;" horiz-adv-x="1439" 
d="M1350 602q0 -128 -53 -244.5t-143 -200t-214.5 -133t-261.5 -49.5q-266 0 -410 144q-149 152 -149 424q0 209 70 403t212 336q123 123 272 185t367 79l392 29l-2 -334l-402 -31q-305 -22 -442 -159q-52 -52 -94 -138q162 131 395 131q218 0 340.5 -121.5t122.5 -320.5z
M485 506q0 -94 55.5 -153.5t155.5 -59.5q119 0 198 83.5t79 203.5q0 93 -54.5 148.5t-154.5 55.5q-118 0 -198.5 -80.5t-80.5 -197.5z" />
    <glyph glyph-name="uni0432" unicode="&#x432;" horiz-adv-x="1312" 
d="M-27 0l308 1151h555q93 0 166.5 -15t121.5 -40.5t79.5 -62t45 -78t13.5 -89.5q0 -106 -72 -185.5t-199 -111.5q83 -29 135 -85.5t52 -141.5q0 -154 -137.5 -248t-399.5 -94h-668zM535 690h178q178 0 178 121q0 84 -131 84h-170zM418 254h192q93 0 140 34.5t47 92.5
q0 43 -33 65.5t-109 22.5h-178z" />
    <glyph glyph-name="uni0433" unicode="&#x433;" horiz-adv-x="1105" 
d="M-27 0l308 1151h925l-90 -336h-536l-220 -815h-387z" />
    <glyph glyph-name="uni0434" unicode="&#x434;" horiz-adv-x="1540" 
d="M-20 336h139l588 821h440l141 -821h144l-166 -625h-353l78 293h-749l-76 -293h-350zM840 791l-312 -469h373z" />
    <glyph glyph-name="uni0435" unicode="&#x435;" horiz-adv-x="1304" 
d="M1202 463h-770v-2q6 -90 63.5 -143t163.5 -52q117 0 246 92l178 -219q-199 -166 -462 -166q-251 0 -398 137.5t-147 370.5q0 137 54.5 267.5t152.5 228.5q197 197 483 197q120 0 214 -37.5t152 -103t87.5 -149t29.5 -179.5q0 -121 -47 -242zM545 803q-54 -54 -84 -133
h430q10 33 10 63q0 66 -41 109t-123 43q-110 0 -192 -82z" />
    <glyph glyph-name="uni0436" unicode="&#x436;" horiz-adv-x="1970" 
d="M1333 1151l-116 -418h61l387 418h449l-580 -598l287 -553h-406l-203 420h-79l-107 -420h-387l119 420h-72l-397 -420h-447l596 602l-274 549h403l197 -418h76l106 418h387z" />
    <glyph glyph-name="uni0437" unicode="&#x437;" horiz-adv-x="1257" 
d="M1112 315q0 -69 -35.5 -130t-103 -108.5t-175 -75.5t-241.5 -28q-175 0 -327 47.5t-259 122.5l166 250q183 -123 418 -123q87 0 132.5 27.5t45.5 71.5q0 84 -151 84h-263l64 245h260q174 0 174 95q0 84 -162 84q-184 0 -372 -80l-107 268q114 54 238 81.5t286 27.5
q242 0 374 -91t132 -233q0 -112 -71.5 -186.5t-194.5 -108.5q88 -38 130 -94.5t42 -145.5z" />
    <glyph glyph-name="uni0438" unicode="&#x438;" horiz-adv-x="1400" 
d="M1057 1151h370l-309 -1151h-383l158 582l-559 -582h-361l308 1151h383l-150 -563z" />
    <glyph glyph-name="uni0439" unicode="&#x439;" horiz-adv-x="1400" 
d="M1057 1151h370l-309 -1151h-383l158 582l-559 -582h-361l308 1151h383l-150 -563zM901 1251q-182 0 -277.5 94.5t-93.5 256.5h238q5 -54 42 -89.5t105 -35.5q78 0 126.5 32t88.5 93h238q-48 -161 -172 -256t-295 -95z" />
    <glyph glyph-name="uni043A" unicode="&#x43a;" horiz-adv-x="1329" 
d="M-27 0l308 1151h389l-117 -418h76l379 418h477l-598 -606l293 -545h-416l-207 418h-88l-109 -418h-387z" />
    <glyph glyph-name="uni043B" unicode="&#x43b;" horiz-adv-x="1386" 
d="M1034 1159l174 -1159h-393l-67 684l-437 -684h-424l787 1159h360z" />
    <glyph glyph-name="uni043C" unicode="&#x43c;" horiz-adv-x="1574" 
d="M682 178l-170 430l-164 -608h-375l308 1151h360l164 -430l377 430h422l-310 -1151h-374l165 612l-397 -434h-6z" />
    <glyph glyph-name="uni043D" unicode="&#x43d;" horiz-adv-x="1384" 
d="M1411 1151l-309 -1151h-387l110 410h-354l-111 -410h-387l308 1151h389l-109 -403h354l109 403h387z" />
    <glyph glyph-name="uni043E" unicode="&#x43e;" horiz-adv-x="1394" 
d="M754 1174q257 0 410 -150.5t153 -382.5q0 -131 -52.5 -252t-146.5 -217q-94 -94 -216.5 -146.5t-260.5 -52.5q-171 0 -299.5 71t-195 191.5t-66.5 272.5q0 130 52.5 252t146.5 215q199 199 475 199zM662 297q100 0 178 78q49 49 76.5 117t27.5 135q0 104 -58 163.5
t-153 59.5q-100 0 -176 -76q-50 -48 -77 -117t-27 -137q0 -103 57 -163t152 -60z" />
    <glyph glyph-name="uni043F" unicode="&#x43f;" horiz-adv-x="1390" 
d="M1419 1151l-309 -1151h-387l217 815h-360l-220 -815h-387l308 1151h1138z" />
    <glyph glyph-name="uni0440" unicode="&#x440;" horiz-adv-x="1454" 
d="M754 -25q-229 0 -351 185l-135 -500h-387l400 1491h389l-35 -123q149 146 326 146q182 0 298.5 -128t116.5 -348q0 -163 -56.5 -303.5t-156.5 -240.5q-179 -179 -409 -179zM690 299q109 0 191 82q102 102 102 262q0 97 -56 153t-149 56q-108 0 -192 -84
q-105 -105 -105 -258q0 -96 58 -153.5t151 -57.5z" />
    <glyph glyph-name="uni0441" unicode="&#x441;" horiz-adv-x="1216" 
d="M614 -27q-237 0 -387.5 138.5t-150.5 369.5q0 141 52.5 266.5t150.5 223.5q96 96 221.5 149.5t265.5 53.5q186 0 308 -83.5t175 -220.5l-301 -165q-35 72 -83 108.5t-126 36.5q-98 0 -178 -80q-51 -51 -80.5 -123t-29.5 -149q0 -92 53.5 -147.5t134.5 -55.5q64 0 116 25
t109 81l230 -213q-94 -105 -208 -160t-272 -55z" />
    <glyph glyph-name="uni0442" unicode="&#x442;" horiz-adv-x="1247" 
d="M225 1151h1114l-88 -334h-364l-219 -817h-387l219 817h-365z" />
    <glyph glyph-name="uni0443" unicode="&#x443;" horiz-adv-x="1333" 
d="M346 10l-147 1141h393l49 -711l395 711h410l-711 -1151q-122 -191 -242.5 -269.5t-285.5 -78.5q-177 0 -299 84l180 282q74 -55 152 -55q32 0 55 9.5t51 37.5z" />
    <glyph glyph-name="uni0444" unicode="&#x444;" horiz-adv-x="1873" 
d="M1798 625q0 -232 -166 -398q-111 -111 -280 -170.5t-379 -60.5h-2l-88 -336h-381l94 350q-247 41 -383.5 176.5t-136.5 337.5q0 232 166 398q111 111 280 171.5t379 61.5h2l107 399h381l-113 -415q247 -41 383.5 -176t136.5 -338zM455 545q0 -90 60.5 -151.5t174.5 -78.5
l141 525h-2q-198 -3 -297 -107q-77 -74 -77 -188zM1419 606q0 89 -60.5 150t-174.5 78l-142 -523h2q198 0 297 107q78 75 78 188z" />
    <glyph glyph-name="uni0445" unicode="&#x445;" horiz-adv-x="1269" 
d="M600 1151l107 -289l239 289h440l-536 -584l244 -567h-404l-110 301l-254 -301h-443l553 598l-241 553h405z" />
    <glyph glyph-name="uni0446" unicode="&#x446;" horiz-adv-x="1480" 
d="M-27 0l308 1151h389l-219 -815h362l217 815h389l-219 -815h158l-168 -625h-350l78 289h-945z" />
    <glyph glyph-name="uni0447" unicode="&#x447;" horiz-adv-x="1314" 
d="M1343 1151l-309 -1151h-387l80 301q-63 -8 -147 -8q-217 0 -334 86.5t-117 265.5q0 86 35 217l78 289h385l-88 -328q-15 -73 -15 -92q0 -56 40.5 -79t129.5 -23q71 0 123 8l137 514h389z" />
    <glyph glyph-name="uni0448" unicode="&#x448;" horiz-adv-x="2078" 
d="M-27 0l308 1151h389l-219 -815h331l217 815h390l-220 -815h332l217 815h389l-309 -1151h-1825z" />
    <glyph glyph-name="uni0449" unicode="&#x449;" horiz-adv-x="2168" 
d="M-27 0l308 1151h389l-219 -815h331l217 815h390l-220 -815h332l217 815h389l-219 -815h162l-168 -625h-350l78 289h-1637z" />
    <glyph glyph-name="uni044A" unicode="&#x44a;" horiz-adv-x="1507" 
d="M838 844h88q241 0 366 -95.5t125 -265.5q0 -221 -174 -352t-489 -131h-529l221 831h-317l84 320h707zM881 565h-123l-74 -276h123q119 0 179.5 44.5t60.5 119.5q0 112 -166 112z" />
    <glyph glyph-name="uni044B" unicode="&#x44b;" horiz-adv-x="1859" 
d="M1190 0l307 1151h389l-309 -1151h-387zM633 565h-127l-74 -276h131q119 0 178.5 44.5t59.5 121.5q0 110 -168 110zM586 844h100q237 0 361 -96t124 -265q0 -221 -170 -352t-481 -131h-547l308 1151h387z" />
    <glyph glyph-name="uni044C" unicode="&#x44c;" horiz-adv-x="1255" 
d="M629 565h-123l-74 -276h123q119 0 179.5 44.5t60.5 119.5q0 112 -166 112zM586 844h88q241 0 366 -95.5t125 -265.5q0 -221 -174 -352t-489 -131h-529l308 1151h387z" />
    <glyph glyph-name="uni044D" unicode="&#x44d;" horiz-adv-x="1257" 
d="M-29 174l211 234q72 -66 143.5 -99t163.5 -33q157 0 250 93q30 30 58 84l-480 -7l70 256l438 -4v2q-17 86 -79.5 130t-161.5 42q-145 0 -289 -84l-133 259q213 127 452 127q263 0 416.5 -144.5t153.5 -384.5q0 -132 -50 -256t-145 -221q-195 -195 -502 -195
q-166 0 -289 51t-227 150z" />
    <glyph glyph-name="uni044E" unicode="&#x44e;" horiz-adv-x="1949" 
d="M-27 0l308 1151h389l-109 -403h144q52 130 155 233q90 90 209 141.5t252 51.5q167 0 293 -70t191 -190t65 -273q0 -133 -52.5 -256t-146.5 -217q-195 -195 -463 -195q-224 0 -369 120t-173 315v2h-195l-111 -410h-387zM1227 297q89 0 170 78q47 47 73.5 114.5t26.5 139.5
q0 104 -51 162.5t-143 58.5q-91 0 -170 -76q-47 -47 -74 -114.5t-27 -139.5q0 -105 51.5 -164t143.5 -59z" />
    <glyph glyph-name="uni044F" unicode="&#x44f;" horiz-adv-x="1341" 
d="M1368 1151l-307 -1151h-385l94 348h-117h-2l-293 -348h-442l385 436q-151 99 -151 285q0 194 152.5 312t428.5 118h637zM911 872h-190q-95 0 -145 -39.5t-50 -105.5q0 -115 160 -115h154z" />
    <glyph glyph-name="uni0450" unicode="&#x450;" horiz-adv-x="1304" 
d="M1202 463h-770v-2q6 -90 63.5 -143t163.5 -52q117 0 246 92l178 -219q-199 -166 -462 -166q-251 0 -398 137.5t-147 370.5q0 137 54.5 267.5t152.5 228.5q197 197 483 197q120 0 214 -37.5t152 -103t87.5 -149t29.5 -179.5q0 -121 -47 -242zM545 803q-54 -54 -84 -133
h430q10 33 10 63q0 66 -41 109t-123 43q-110 0 -192 -82zM711 1262l-230 268l363 121l121 -389h-254z" />
    <glyph glyph-name="uni0451" unicode="&#x451;" horiz-adv-x="1304" 
d="M442 1262l82 299h344l-82 -299h-344zM907 1262l82 299h344l-82 -299h-344zM1202 463h-770v-2q6 -90 63.5 -143t163.5 -52q117 0 246 92l178 -219q-199 -166 -462 -166q-251 0 -398 137.5t-147 370.5q0 137 54.5 267.5t152.5 228.5q197 197 483 197q120 0 214 -37.5
t152 -103t87.5 -149t29.5 -179.5q0 -121 -47 -242zM545 803q-54 -54 -84 -133h430q10 33 10 63q0 66 -41 109t-123 43q-110 0 -192 -82z" />
    <glyph glyph-name="uni0452" unicode="&#x452;" horiz-adv-x="1333" 
d="M721 72l94 354q14 68 14 92q0 56 -41 79.5t-129 23.5q-73 0 -120 -9l-166 -612h-387l307 1143h-180l75 284h181l34 127h388l-35 -127h321l-76 -282h-321l-53 -199q82 10 149 10q217 0 335 -87t118 -265q0 -82 -37 -217l-96 -358q-55 -209 -171.5 -293t-314.5 -84
q-115 0 -196 20l71 265q27 -7 74 -7q69 0 104 29t58 113z" />
    <glyph glyph-name="uni0453" unicode="&#x453;" horiz-adv-x="1105" 
d="M586 1255l332 390l350 -121l-379 -269h-303zM-27 0l308 1151h925l-90 -336h-536l-220 -815h-387z" />
    <glyph glyph-name="uni0454" unicode="&#x454;" horiz-adv-x="1251" 
d="M78 496q0 139 50 262t144 215q95 95 225.5 148t286.5 53q163 0 286.5 -52.5t227.5 -150.5l-233 -230q-126 129 -297 129q-154 0 -244 -90q-41 -41 -59 -84l479 6l-67 -256l-443 7v-2q14 -87 75 -131.5t165 -43.5q152 0 297 89l135 -261q-219 -131 -453 -131
q-263 0 -419 144t-156 379z" />
    <glyph glyph-name="uni0455" unicode="&#x455;" horiz-adv-x="1105" 
d="M494 -27q-160 0 -307 52.5t-250 148.5l198 227q83 -75 184.5 -114t192.5 -39q109 0 109 76q0 29 -33 51t-119 57q-61 24 -104.5 45t-88.5 51t-72.5 62.5t-45 77.5t-17.5 98q0 178 133.5 293t360.5 115q145 0 276 -46.5t213 -115.5l-190 -234q-160 123 -320 123
q-106 0 -106 -74q0 -28 33.5 -50.5t124.5 -59.5q57 -23 97 -42t85.5 -49.5t73.5 -63t46.5 -79t18.5 -100.5q0 -178 -130.5 -294t-362.5 -116z" />
    <glyph glyph-name="uni0456" unicode="&#x456;" horiz-adv-x="663" 
d="M-16 0l307 1151h389l-309 -1151h-387zM313 1260l80 294h406l-82 -294h-404z" />
    <glyph glyph-name="uni0457" unicode="&#x457;" horiz-adv-x="663" 
d="M111 1255l82 299h344l-82 -299h-344zM575 1255l82 299h344l-81 -299h-345zM-16 0l307 1151h389l-309 -1151h-387z" />
    <glyph glyph-name="uni0458" unicode="&#x458;" horiz-adv-x="663" 
d="M-100 -348q-84 0 -172 16l69 264q27 -6 56 -6q61 0 97.5 38t59.5 126l285 1061h387l-297 -1110q-59 -217 -175 -303t-310 -86zM315 1260l80 294h404l-78 -294h-406z" />
    <glyph glyph-name="uni0459" unicode="&#x459;" horiz-adv-x="1943" 
d="M-143 0l868 1151h651l-80 -307h66q242 0 366.5 -95.5t124.5 -265.5q0 -221 -174 -352t-489 -131h-508l229 858h-4l-635 -858h-415zM1317 565h-100l-74 -276h102q117 0 177.5 44.5t60.5 119.5q0 112 -166 112z" />
    <glyph glyph-name="uni045A" unicode="&#x45a;" horiz-adv-x="1964" 
d="M1317 844h65q242 0 367 -95.5t125 -265.5q0 -221 -174 -352t-490 -131h-508l109 410h-340l-111 -410h-387l308 1151h389l-107 -403h340l109 403h385zM1337 565h-100l-74 -276h103q117 0 177 44.5t60 119.5q0 112 -166 112z" />
    <glyph glyph-name="uni045B" unicode="&#x45b;" horiz-adv-x="1333" 
d="M1001 1145h-321l-53 -199q82 10 149 10q217 0 335 -87t118 -265q0 -82 -37 -217l-102 -387h-390l115 426q14 68 14 92q0 56 -41 79.5t-129 23.5q-73 0 -120 -9l-166 -612h-387l307 1143h-180l75 284h181l34 127h388l-35 -127h321z" />
    <glyph glyph-name="uni045C" unicode="&#x45c;" horiz-adv-x="1329" 
d="M672 1255l332 390l350 -121l-379 -269h-303zM-27 0l308 1151h389l-117 -418h76l379 418h477l-598 -606l293 -545h-416l-207 418h-88l-109 -418h-387z" />
    <glyph glyph-name="uni045D" unicode="&#x45d;" horiz-adv-x="1400" 
d="M733 1255l-229 269l362 121l121 -390h-254zM1057 1151h370l-309 -1151h-383l158 582l-559 -582h-361l308 1151h383l-150 -563z" />
    <glyph glyph-name="uni045E" unicode="&#x45e;" horiz-adv-x="1333" 
d="M346 10l-147 1141h393l49 -711l395 711h410l-711 -1151q-122 -191 -242.5 -269.5t-285.5 -78.5q-177 0 -299 84l180 282q74 -55 152 -55q32 0 55 9.5t51 37.5zM868 1251q-182 0 -277 94.5t-93 256.5h237q5 -54 42.5 -89.5t105.5 -35.5q78 0 126.5 32t88.5 93h237
q-48 -161 -172 -256t-295 -95z" />
    <glyph glyph-name="uni045F" unicode="&#x45f;" horiz-adv-x="1390" 
d="M-27 0l308 1151h389l-219 -815h362l217 815h389l-309 -1151h-391l-78 -289h-350l78 289h-396z" />
    <glyph glyph-name="uni0462" unicode="&#x462;" horiz-adv-x="1800" 
d="M1479 1063h-480l-47 -180h254q234 0 366 -96.5t132 -284.5q0 -194 -131 -328q-177 -174 -531 -174h-714l280 1053h-436l82 305h436l43 158h387l-43 -158h479zM1298 473q0 113 -159 113h-267l-73 -275h272q125 0 186 58q41 47 41 104z" />
    <glyph glyph-name="uni0463" unicode="&#x463;" horiz-adv-x="1511" 
d="M807 735h172q213 0 320.5 -81.5t107.5 -231.5q0 -195 -151 -308.5t-425 -113.5h-606l230 860h-320l78 291h319l109 403h385l-108 -403h399l-76 -285h-399zM911 479h-176l-57 -213h176q91 0 137.5 34.5t46.5 92.5q0 86 -127 86z" />
    <glyph glyph-name="uni0472" unicode="&#x472;" horiz-adv-x="1738" 
d="M1006 1518q153 0 283.5 -51t221 -140t141 -212t50.5 -263q0 -173 -67 -335.5t-189 -285.5q-120 -122 -279.5 -190t-343.5 -68q-204 0 -363 88t-245 239t-86 339q0 174 66.5 336t189.5 285q121 122 279 190t342 68zM1171 438q69 69 109 160h-774v-2q20 -133 109 -212.5
t237 -78.5q183 0 319 133zM1323 901v2q-19 131 -107.5 207t-238.5 76q-187 0 -318 -131q-66 -66 -106 -154h770z" />
    <glyph glyph-name="uni0473" unicode="&#x473;" horiz-adv-x="1378" 
d="M743 1174q127 0 232 -40.5t175.5 -112t109 -169.5t38.5 -211q0 -132 -50.5 -253t-143.5 -216q-199 -199 -471 -199q-126 0 -231 41t-175 113t-108.5 170t-38.5 211q0 131 50.5 253t143.5 214q199 199 469 199zM649 264q121 0 211 90q47 47 74 105h-518v-2q18 -92 78 -143
t155 -50zM518 795q-47 -47 -74 -105h517v2q-17 89 -79 140.5t-153 50.5q-126 0 -211 -88z" />
    <glyph glyph-name="uni0474" unicode="&#x474;" horiz-adv-x="1687" 
d="M1395 889l-584 -899h-365l-196 1501h430l90 -959l328 543q96 166 183.5 254t201 127t286.5 39q19 0 68 -2t55 -2l-94 -342h-31q-56 0 -96 -8t-73 -23t-66 -49t-62.5 -73t-74.5 -107z" />
    <glyph glyph-name="uni0475" unicode="&#x475;" horiz-adv-x="1380" 
d="M676 -8h-354l-138 1159h400l39 -690l194 325q70 117 131 189.5t129.5 112.5t136.5 53.5t166 13.5q83 0 113 -6l-82 -303h-22q-63 0 -103.5 -16.5t-82 -60.5t-107.5 -140z" />
    <glyph glyph-name="uni0490" unicode="&#x490;" horiz-adv-x="1349" 
d="M1423 1141h-725l-307 -1141h-395l399 1491h756l82 303h366z" />
    <glyph glyph-name="uni0491" unicode="&#x491;" horiz-adv-x="1105" 
d="M1116 815h-536l-220 -815h-387l308 1151h579l72 262h344z" />
    <glyph glyph-name="uni0492" unicode="&#x492;" horiz-adv-x="1429" 
d="M76 0l147 551h-168l74 268h166l180 672h1124l-94 -346h-727l-88 -328h344l-73 -266h-343l-147 -551h-395z" />
    <glyph glyph-name="uni0493" unicode="&#x493;" horiz-adv-x="1155" 
d="M23 0l106 401h-135l51 189h135l150 561h925l-90 -336h-536l-62 -225h256l-51 -189h-256l-106 -401h-387z" />
    <glyph glyph-name="uni0496" unicode="&#x496;" horiz-adv-x="2404" 
d="M2607 1491l-805 -770l217 -369h342l-180 -669h-366l86 317h-105l-323 586h-78l-150 -586h-395l164 586h-64l-598 -586h-493l841 778l-395 713h434l297 -578h66l149 578h396l-162 -578h57l572 578h493z" />
    <glyph glyph-name="uni0497" unicode="&#x497;" horiz-adv-x="2011" 
d="M2114 1151l-580 -598l113 -217h276l-168 -625h-350l78 289h-68l-203 420h-79l-107 -420h-387l119 420h-72l-397 -420h-447l596 602l-274 549h403l197 -418h76l106 418h387l-116 -418h61l387 418h449z" />
    <glyph glyph-name="uni0498" unicode="&#x498;" horiz-adv-x="1462" 
d="M393 1055l-137 299q295 166 629 166q267 0 425 -112.5t158 -291.5q0 -280 -338 -387q97 -44 153 -119t56 -180q0 -128 -76.5 -228t-202.5 -156.5t-284 -70.5h-2l-72 -292h-374l102 315q-246 51 -446 231l225 265q211 -185 483 -185q110 0 179 43.5t69 112.5
q0 137 -219 137h-299l80 299h284q134 0 202.5 38.5t68.5 111.5q0 61 -54 96t-155 35q-222 0 -455 -127z" />
    <glyph glyph-name="uni0499" unicode="&#x499;" horiz-adv-x="1257" 
d="M1112 315q0 -129 -121 -225t-338 -113l-61 -266h-365l95 287q-212 45 -351 145l166 250q183 -123 418 -123q87 0 132.5 27.5t45.5 71.5q0 84 -151 84h-263l64 245h260q174 0 174 95q0 84 -162 84q-184 0 -372 -80l-107 268q114 54 238 81.5t286 27.5q242 0 374 -91
t132 -233q0 -112 -71.5 -186.5t-194.5 -108.5q88 -38 130 -94.5t42 -145.5z" />
    <glyph glyph-name="uni049A" unicode="&#x49a;" horiz-adv-x="1613" 
d="M1786 1491l-817 -774l239 -365h336l-180 -669h-367l86 317h-84l-364 584h-90l-154 -584h-395l399 1491h398l-158 -576h74l573 576h504z" />
    <glyph glyph-name="uni049B" unicode="&#x49b;" horiz-adv-x="1363" 
d="M1485 1151l-598 -606l112 -209h287l-168 -625h-350l78 289h-82l-207 418h-88l-109 -418h-387l308 1151h389l-117 -418h76l379 418h477z" />
    <glyph glyph-name="uni049C" unicode="&#x49c;" horiz-adv-x="1675" 
d="M1495 0h-414l-215 555h-2l-80 -338h-204l108 381h-137l-160 -598h-395l399 1491h398l-158 -586h135l104 410h203l-106 -365h2l454 541h463l-692 -768z" />
    <glyph glyph-name="uni049D" unicode="&#x49d;" horiz-adv-x="1458" 
d="M1274 0h-402l-147 430h-2l-70 -293h-164l82 305h-94l-119 -442h-385l308 1151h387l-117 -434h94l78 293h164l-82 -271h2l348 412h444l-548 -584z" />
    <glyph glyph-name="uni04A0" unicode="&#x4a0;" horiz-adv-x="1900" 
d="M328 0l309 1153h-442l92 338h837l-157 -576h73l574 576h504l-818 -774l472 -717h-441l-364 584h-90l-154 -584h-395z" />
    <glyph glyph-name="uni04A1" unicode="&#x4a1;" horiz-adv-x="1583" 
d="M211 0l221 831h-317l84 320h708l-116 -418h75l379 418h477l-598 -606l293 -545h-416l-206 418h-88l-109 -418h-387z" />
    <glyph glyph-name="uni04A2" unicode="&#x4a2;" horiz-adv-x="1746" 
d="M8 0l400 1491h397l-152 -565h541l152 565h395l-305 -1139h213l-181 -669h-366l86 317h-244l154 573h-539l-156 -573h-395z" />
    <glyph glyph-name="uni04A3" unicode="&#x4a3;" horiz-adv-x="1472" 
d="M1411 1151l-219 -815h162l-168 -625h-350l77 289h-198l110 410h-354l-111 -410h-387l308 1151h389l-109 -403h354l109 403h387z" />
    <glyph glyph-name="uni04A4" unicode="&#x4a4;" horiz-adv-x="2199" 
d="M913 0l152 573h-520l-154 -573h-395l399 1491h398l-154 -565h520l154 565h1057l-95 -346h-659l-307 -1145h-396z" />
    <glyph glyph-name="uni04A5" unicode="&#x4a5;" horiz-adv-x="1818" 
d="M707 0l108 410h-344l-111 -410h-387l308 1151h389l-107 -403h344l109 403h903l-90 -336h-518l-217 -815h-387z" />
    <glyph glyph-name="uni04AA" unicode="&#x4aa;" horiz-adv-x="1566" 
d="M449 -317l108 329q-200 67 -316 228t-116 383q0 174 69 337t199 293q126 126 294 196.5t366 70.5q220 0 374 -96.5t228 -268.5l-340 -192q-52 97 -127 146.5t-187 49.5q-174 0 -307 -133q-73 -73 -114 -170.5t-41 -206.5q0 -145 87.5 -232t225.5 -87q94 0 170 37.5
t156 113.5l264 -241q-111 -119 -242.5 -187.5t-304.5 -79.5l-72 -290h-374z" />
    <glyph glyph-name="uni04AB" unicode="&#x4ab;" horiz-adv-x="1216" 
d="M258 -289l102 312q-133 58 -208.5 176.5t-75.5 281.5q0 141 52.5 266.5t150.5 223.5q96 96 221.5 149.5t265.5 53.5q186 0 308 -83.5t175 -220.5l-301 -165q-35 72 -83 108.5t-126 36.5q-98 0 -178 -80q-51 -51 -80.5 -123t-29.5 -149q0 -92 53.5 -147.5t134.5 -55.5
q64 0 116 25t109 81l230 -213q-83 -93 -181.5 -146.5t-228.5 -64.5l-61 -266h-365z" />
    <glyph glyph-name="uni04AE" unicode="&#x4ae;" horiz-adv-x="1449" 
d="M354 0l156 580l-303 911h428l153 -569l461 569h475l-829 -954l-145 -537h-396z" />
    <glyph glyph-name="uni04AF" unicode="&#x4af;" horiz-adv-x="1323" 
d="M610 -340h-387l101 379l-140 1112h394l40 -702l412 702h414l-735 -1122z" />
    <glyph glyph-name="uni04B0" unicode="&#x4b0;" horiz-adv-x="1449" 
d="M354 0l95 352h-332l71 269h308l-289 870h428l153 -569l461 569h475l-757 -870h297l-70 -269h-350l-94 -352h-396z" />
    <glyph glyph-name="uni04B1" unicode="&#x4b1;" horiz-adv-x="1335" 
d="M1083 190l-51 -190h-319l-90 -340h-387l90 340h-314l51 190h254l-120 961h393l41 -702l411 702h414l-629 -961h256z" />
    <glyph glyph-name="uni04B2" unicode="&#x4b2;" horiz-adv-x="1634" 
d="M-139 0l725 778l-312 713h437l168 -432l378 432h484l-692 -743l172 -396h307l-180 -669h-367l86 317h-127l-184 469l-412 -469h-483z" />
    <glyph glyph-name="uni04B3" unicode="&#x4b3;" horiz-adv-x="1320" 
d="M600 1151l107 -289l239 289h440l-536 -584l98 -231h279l-168 -625h-350l77 289h-96l-110 301l-254 -301h-443l553 598l-241 553h405z" />
    <glyph glyph-name="uni04B6" unicode="&#x4b6;" horiz-adv-x="1650" 
d="M844 0l117 442q-99 -18 -220 -18q-110 0 -201 22.5t-166.5 71t-118 134t-42.5 200.5q0 112 39 248l104 391h396l-113 -422q-25 -91 -25 -137q0 -152 222 -152q105 0 223 23l186 688h395l-305 -1139h211l-180 -669h-367l86 317h-241z" />
    <glyph glyph-name="uni04B7" unicode="&#x4b7;" horiz-adv-x="1406" 
d="M1346 1151l-220 -815h162l-168 -625h-350l78 289h-199l80 301q-63 -8 -147 -8q-217 0 -334 86.5t-117 265.5q0 86 35 217l78 289h385l-88 -328q-15 -73 -15 -92q0 -56 40.5 -79t129.5 -23q71 0 123 8l137 514h390z" />
    <glyph glyph-name="uni04B8" unicode="&#x4b8;" horiz-adv-x="1552" 
d="M1253 1491h398l-402 -1491h-395l119 451q-48 -8 -154 -19h-2l-72 -287h-204l84 295q-90 13 -161.5 42t-129.5 78t-89.5 125t-31.5 175t41 248l102 383h396l-113 -418q-25 -91 -25 -139q0 -106 107 -135l100 391h203l-113 -402h2q70 3 156 21z" />
    <glyph glyph-name="uni04B9" unicode="&#x4b9;" horiz-adv-x="1341" 
d="M1370 1151l-309 -1151h-385l84 311q-34 -6 -107 -10l-53 -209h-164l60 209q-181 17 -275 103t-94 239q0 82 37 217l78 291h379l-86 -328q-17 -63 -17 -90q0 -69 70 -90l67 272h164l-80 -284q72 4 109 10l137 510h385z" />
    <glyph glyph-name="uni04BA" unicode="&#x4ba;" horiz-adv-x="1544" 
d="M791 1491l-119 -442q122 18 223 18q110 0 201 -22.5t166.5 -71t118 -134t42.5 -200.5q0 -112 -39 -248l-104 -391h-397l114 422q25 91 25 137q0 152 -221 152q-120 0 -226 -25l-184 -686h-397l401 1491h396z" />
    <glyph glyph-name="uni04BB" unicode="&#x4bb;" horiz-adv-x="1361" 
d="M-25 0l418 1554h387l-143 -534q150 154 324 154q157 0 245 -91t88 -252q0 -78 -32 -206l-166 -625h-389l163 608q15 58 15 97q0 124 -135 124q-165 0 -222 -213l-166 -616h-387z" />
    <glyph glyph-name="uni04C0" unicode="&#x4c0;" horiz-adv-x="716" 
d="M6 0l402 1491h395l-400 -1491h-397z" />
    <glyph glyph-name="uni04C1" unicode="&#x4c1;" horiz-adv-x="2387" 
d="M1481 1591q-179 0 -267.5 82.5t-68.5 239.5h227q12 -98 156 -98q71 0 117.5 24.5t80.5 73.5h252q-61 -158 -189.5 -240t-307.5 -82zM1647 1491l-162 -578h57l572 578h493l-805 -770l426 -721h-432l-323 586h-78l-150 -586h-395l164 586h-64l-598 -586h-493l841 778
l-395 713h434l297 -578h66l149 578h396z" />
    <glyph glyph-name="uni04C2" unicode="&#x4c2;" horiz-adv-x="1970" 
d="M1333 1151l-116 -418h61l387 418h449l-580 -598l287 -553h-406l-203 420h-79l-107 -420h-387l119 420h-72l-397 -420h-447l596 602l-274 549h403l197 -418h76l106 418h387zM1196 1251q-182 0 -277.5 94.5t-93.5 256.5h238q5 -54 42 -89.5t105 -35.5q78 0 126.5 32
t88.5 93h238q-48 -161 -172 -256t-295 -95z" />
    <glyph glyph-name="uni04CF" unicode="&#x4cf;" horiz-adv-x="663" 
d="M-16 0l417 1554h387l-417 -1554h-387z" />
    <glyph glyph-name="uni04D0" unicode="&#x4d0;" horiz-adv-x="1667" 
d="M-139 0l1036 1501h387l234 -1501h-414l-39 281h-588l-186 -281h-430zM684 596h346l-57 440zM1126 1612q-179 0 -267 82t-68 239h227q12 -98 156 -98q71 0 117.5 24.5t80.5 73.5h252q-61 -158 -190 -239.5t-308 -81.5z" />
    <glyph glyph-name="uni04D1" unicode="&#x4d1;" horiz-adv-x="1288" 
d="M338 -23q-143 0 -233.5 86t-90.5 226q0 163 107 270q140 137 397 137q146 0 299 -45l4 13q10 42 10 75q0 125 -200 125q-167 0 -309 -57l-56 285q188 73 445 73q252 0 377.5 -93.5t125.5 -268.5q0 -83 -24 -168l-168 -635h-381l33 127q-150 -150 -336 -150zM516 219
q83 0 153 61.5t95 151.5l10 39q-85 29 -164 29q-114 0 -172 -58q-43 -46 -43 -112q0 -50 33 -80.5t88 -30.5zM852 1257q-182 0 -277.5 94.5t-93.5 256.5h238q5 -54 42 -89.5t105 -35.5q78 0 126.5 32t88.5 93h238q-48 -161 -172 -256t-295 -95z" />
    <glyph glyph-name="uni04D2" unicode="&#x4d2;" horiz-adv-x="1667" 
d="M-139 0l1036 1501h387l234 -1501h-414l-39 281h-588l-186 -281h-430zM684 596h346l-57 440zM719 1616l80 291h342l-80 -291h-342zM1188 1616l80 291h344l-80 -291h-344z" />
    <glyph glyph-name="uni04D3" unicode="&#x4d3;" horiz-adv-x="1288" 
d="M338 -23q-143 0 -233.5 86t-90.5 226q0 163 107 270q140 137 397 137q146 0 299 -45l4 13q10 42 10 75q0 125 -200 125q-167 0 -309 -57l-56 285q188 73 445 73q252 0 377.5 -93.5t125.5 -268.5q0 -83 -24 -168l-168 -635h-381l33 127q-150 -150 -336 -150zM516 219
q83 0 153 61.5t95 151.5l10 39q-85 29 -164 29q-114 0 -172 -58q-43 -46 -43 -112q0 -50 33 -80.5t88 -30.5zM416 1262l82 299h344l-82 -299h-344zM881 1262l82 299h344l-82 -299h-344z" />
    <glyph glyph-name="uni04D4" unicode="&#x4d4;" horiz-adv-x="2310" 
d="M-145 0l1179 1491h1405l-90 -338h-743l-66 -244h666l-86 -317h-664l-70 -254h754l-90 -338h-1141l76 281h-481l-219 -281h-430zM748 596h323l152 573h-31z" />
    <glyph glyph-name="uni04D5" unicode="&#x4d5;" horiz-adv-x="2009" 
d="M1319 -27q-299 0 -436 211q-109 -106 -231 -156.5t-269 -50.5q-172 0 -270.5 84.5t-98.5 227.5q0 163 107 270q140 137 397 137q146 0 299 -45l4 13q10 42 10 75q0 125 -200 125q-167 0 -309 -57l-56 285q188 73 445 73q268 0 374 -143q180 152 400 152
q115 0 206.5 -37.5t147.5 -102.5t85.5 -149t29.5 -180q0 -121 -47 -242h-770v-2q6 -90 63.5 -143t163.5 -52q117 0 246 92l178 -219q-191 -166 -469 -166zM539 219q65 0 140 31.5t134 89.5q-16 59 -16 121q-93 39 -187 39q-114 0 -172 -58q-43 -46 -43 -112q0 -51 37 -81
t107 -30zM1249 803q-54 -54 -84 -133h430q11 37 11 63q0 66 -41.5 109t-122.5 43q-111 0 -193 -82z" />
    <glyph glyph-name="uni04D6" unicode="&#x4d6;" horiz-adv-x="1443" 
d="M1012 1591q-179 0 -267.5 82.5t-68.5 239.5h227q12 -98 156 -98q71 0 117.5 24.5t80.5 73.5h252q-61 -158 -189.5 -240t-307.5 -82zM-4 0l399 1491h1178l-92 -338h-785l-65 -244h706l-84 -317h-708l-68 -254h797l-90 -338h-1188z" />
    <glyph glyph-name="uni04D7" unicode="&#x4d7;" horiz-adv-x="1304" 
d="M1202 463h-770v-2q6 -90 63.5 -143t163.5 -52q117 0 246 92l178 -219q-199 -166 -462 -166q-251 0 -398 137.5t-147 370.5q0 137 54.5 267.5t152.5 228.5q197 197 483 197q120 0 214 -37.5t152 -103t87.5 -149t29.5 -179.5q0 -121 -47 -242zM545 803q-54 -54 -84 -133
h430q10 33 10 63q0 66 -41 109t-123 43q-110 0 -192 -82zM879 1257q-182 0 -277.5 94.5t-93.5 256.5h237q5 -54 42.5 -89.5t105.5 -35.5q78 0 126.5 32t88.5 93h238q-48 -161 -172 -256t-295 -95z" />
    <glyph glyph-name="uni04D8" unicode="&#x4d8;" horiz-adv-x="1691" 
d="M127 571q0 166 61 322h1078v2q-12 126 -100 199.5t-238 72.5q-191 0 -398 -129l-170 301q284 177 594 177q315 0 505 -180.5t190 -481.5q0 -181 -68.5 -342t-189.5 -283q-258 -258 -625 -258q-153 0 -275.5 46t-201.5 127.5t-120.5 190t-41.5 236.5zM1112 442
q77 77 111 158h-711q-6 -27 -6 -57q0 -101 70.5 -168.5t214.5 -67.5q186 0 321 135z" />
    <glyph glyph-name="uni04D9" unicode="&#x4d9;" horiz-adv-x="1304" 
d="M53 444q0 118 49 244h768v2q-6 91 -62.5 143.5t-162.5 51.5q-117 0 -246 -92l-180 217q195 166 463 166q252 0 398.5 -137t146.5 -371q0 -136 -54 -267.5t-151 -228.5q-200 -197 -483 -197q-121 0 -216 37.5t-153 103t-87.5 148.5t-29.5 180zM760 348q54 54 82 133h-428
q-11 -33 -11 -65q0 -66 40.5 -108t121.5 -42q113 0 195 82z" />
    <glyph glyph-name="uni04DC" unicode="&#x4dc;" horiz-adv-x="2387" 
d="M1073 1595l80 291h342l-80 -291h-342zM1542 1595l80 291h344l-80 -291h-344zM1647 1491l-162 -578h57l572 578h493l-805 -770l426 -721h-432l-323 586h-78l-150 -586h-395l164 586h-64l-598 -586h-493l841 778l-395 713h434l297 -578h66l149 578h396z" />
    <glyph glyph-name="uni04DD" unicode="&#x4dd;" horiz-adv-x="1970" 
d="M762 1255l82 299h344l-82 -299h-344zM1227 1255l82 299h344l-82 -299h-344zM1333 1151l-116 -418h61l387 418h449l-580 -598l287 -553h-406l-203 420h-79l-107 -420h-387l119 420h-72l-397 -420h-447l596 602l-274 549h403l197 -418h76l106 418h387z" />
    <glyph glyph-name="uni04DE" unicode="&#x4de;" horiz-adv-x="1462" 
d="M559 1616l80 291h342l-80 -291h-342zM1028 1616l80 291h344l-80 -291h-344zM393 1055l-137 299q295 166 629 166q267 0 425 -112.5t158 -291.5q0 -280 -338 -387q97 -44 153 -119t56 -180q0 -140 -91.5 -246t-239 -159.5t-324.5 -53.5q-225 0 -394 67t-306 191l225 265
q211 -185 483 -185q110 0 179 43.5t69 112.5q0 137 -219 137h-299l80 299h284q134 0 202.5 38.5t68.5 111.5q0 61 -54 96t-155 35q-222 0 -455 -127z" />
    <glyph glyph-name="uni04DF" unicode="&#x4df;" horiz-adv-x="1257" 
d="M362 1262l82 299h344l-81 -299h-345zM827 1262l82 299h344l-82 -299h-344zM1112 315q0 -69 -35.5 -130t-103 -108.5t-175 -75.5t-241.5 -28q-175 0 -327 47.5t-259 122.5l166 250q183 -123 418 -123q87 0 132.5 27.5t45.5 71.5q0 84 -151 84h-263l64 245h260
q174 0 174 95q0 84 -162 84q-184 0 -372 -80l-107 268q114 54 238 81.5t286 27.5q242 0 374 -91t132 -233q0 -112 -71.5 -186.5t-194.5 -108.5q88 -38 130 -94.5t42 -145.5z" />
    <glyph glyph-name="uni04E2" unicode="&#x4e2;" horiz-adv-x="1691" 
d="M696 1610l68 245h840l-68 -245h-840zM1399 1491h389l-402 -1491h-395l228 850l-857 -850h-366l399 1491h398l-222 -821z" />
    <glyph glyph-name="uni04E3" unicode="&#x4e3;" horiz-adv-x="1400" 
d="M477 1266l64 239h792l-63 -239h-793zM1057 1151h370l-309 -1151h-383l158 582l-559 -582h-361l308 1151h383l-150 -563z" />
    <glyph glyph-name="uni04E4" unicode="&#x4e4;" horiz-adv-x="1691" 
d="M707 1595l79 291h342l-79 -291h-342zM1176 1595l79 291h344l-79 -291h-344zM1399 1491h389l-402 -1491h-395l228 850l-857 -850h-366l399 1491h398l-222 -821z" />
    <glyph glyph-name="uni04E5" unicode="&#x4e5;" horiz-adv-x="1400" 
d="M467 1255l82 299h344l-82 -299h-344zM932 1255l82 299h344l-82 -299h-344zM1057 1151h370l-309 -1151h-383l158 582l-559 -582h-361l308 1151h383l-150 -563z" />
    <glyph glyph-name="uni04E6" unicode="&#x4e6;" horiz-adv-x="1761" 
d="M735 1616l80 291h342l-80 -291h-342zM1204 1616l80 291h344l-80 -291h-344zM1018 1518q155 0 287 -51.5t223 -140t142.5 -211.5t51.5 -263q0 -173 -68.5 -335.5t-191.5 -285.5q-122 -122 -281.5 -190t-346.5 -68q-155 0 -287 51.5t-223.5 140t-143 211.5t-51.5 263
q0 173 68.5 335.5t191.5 285.5q122 122 282 190t347 68zM870 330q167 0 295 125q72 72 113 170t41 196q0 152 -88.5 246t-249.5 94q-169 0 -297 -125q-71 -71 -111.5 -169t-40.5 -197q0 -152 88.5 -246t249.5 -94z" />
    <glyph glyph-name="uni04E7" unicode="&#x4e7;" horiz-adv-x="1394" 
d="M473 1262l82 299h344l-82 -299h-344zM938 1262l82 299h344l-82 -299h-344zM754 1174q257 0 410 -150.5t153 -382.5q0 -131 -52.5 -252t-146.5 -217q-94 -94 -216.5 -146.5t-260.5 -52.5q-171 0 -299.5 71t-195 191.5t-66.5 272.5q0 130 52.5 252t146.5 215
q199 199 475 199zM662 297q100 0 178 78q49 49 76.5 117t27.5 135q0 104 -58 163.5t-153 59.5q-100 0 -176 -76q-50 -48 -77 -117t-27 -137q0 -103 57 -163t152 -60z" />
    <glyph glyph-name="uni04E8" unicode="&#x4e8;" horiz-adv-x="1738" 
d="M1006 1518q153 0 283.5 -51t221 -140t141 -212t50.5 -263q0 -173 -67 -335.5t-189 -285.5q-120 -122 -279.5 -190t-343.5 -68q-204 0 -363 88t-245 239t-86 339q0 174 66.5 336t189.5 285q121 122 279 190t342 68zM1171 438q69 69 109 160h-774v-2q20 -133 109 -212.5
t237 -78.5q183 0 319 133zM1323 901v2q-19 131 -107.5 207t-238.5 76q-187 0 -318 -131q-66 -66 -106 -154h770z" />
    <glyph glyph-name="uni04E9" unicode="&#x4e9;" horiz-adv-x="1378" 
d="M743 1174q127 0 232 -40.5t175.5 -112t109 -169.5t38.5 -211q0 -132 -50.5 -253t-143.5 -216q-199 -199 -471 -199q-126 0 -231 41t-175 113t-108.5 170t-38.5 211q0 131 50.5 253t143.5 214q199 199 469 199zM649 264q121 0 211 90q47 47 74 105h-518v-2q18 -92 78 -143
t155 -50zM518 795q-47 -47 -74 -105h517v2q-17 89 -79 140.5t-153 50.5q-126 0 -211 -88z" />
    <glyph glyph-name="uni04EE" unicode="&#x4ee;" horiz-adv-x="1574" 
d="M606 1610l68 245h839l-67 -245h-840zM1808 1491l-1198 -1491h-460l417 514l-315 977h420l188 -633l492 633h456z" />
    <glyph glyph-name="uni04EF" unicode="&#x4ef;" horiz-adv-x="1333" 
d="M346 10l-147 1141h393l49 -711l395 711h410l-711 -1151q-122 -191 -242.5 -269.5t-285.5 -78.5q-177 0 -299 84l180 282q74 -55 152 -55q32 0 55 9.5t51 37.5zM444 1266l64 239h792l-63 -239h-793z" />
    <glyph glyph-name="uni04F0" unicode="&#x4f0;" horiz-adv-x="1574" 
d="M616 1595l80 291h342l-80 -291h-342zM1085 1595l80 291h344l-79 -291h-345zM1808 1491l-1198 -1491h-460l417 514l-315 977h420l188 -633l492 633h456z" />
    <glyph glyph-name="uni04F1" unicode="&#x4f1;" horiz-adv-x="1333" 
d="M346 10l-147 1141h393l49 -711l395 711h410l-711 -1151q-122 -191 -242.5 -269.5t-285.5 -78.5q-177 0 -299 84l180 282q74 -55 152 -55q32 0 55 9.5t51 37.5zM434 1255l82 299h344l-82 -299h-344zM899 1255l82 299h344l-82 -299h-344z" />
    <glyph glyph-name="uni04F2" unicode="&#x4f2;" horiz-adv-x="1574" 
d="M1808 1491l-1198 -1491h-460l417 514l-315 977h420l188 -633l492 633h456zM1030 1595l205 220l-344 -220h-287l320 342l321 -114l107 114l327 -116l-362 -226h-287z" />
    <glyph glyph-name="uni04F3" unicode="&#x4f3;" horiz-adv-x="1333" 
d="M346 10l-147 1141h393l49 -711l395 711h410l-711 -1151q-122 -191 -242.5 -269.5t-285.5 -78.5q-177 0 -299 84l180 282q74 -55 152 -55q32 0 55 9.5t51 37.5zM389 1255l322 390l307 -121l-361 -269h-268zM823 1255l316 390l311 -121l-358 -269h-269z" />
    <glyph glyph-name="uni04F4" unicode="&#x4f4;" horiz-adv-x="1544" 
d="M844 0l117 442q-99 -18 -220 -18q-110 0 -201 22.5t-166.5 71t-118 134t-42.5 200.5q0 112 39 248l104 391h396l-113 -422q-25 -91 -25 -137q0 -152 222 -152q105 0 223 23l186 688h395l-399 -1491h-397zM600 1595l80 291h342l-80 -291h-342zM1069 1595l80 291h344
l-80 -291h-344z" />
    <glyph glyph-name="uni04F5" unicode="&#x4f5;" horiz-adv-x="1314" 
d="M397 1255l82 299h344l-82 -299h-344zM862 1255l82 299h344l-82 -299h-344zM1343 1151l-309 -1151h-387l80 301q-63 -8 -147 -8q-217 0 -334 86.5t-117 265.5q0 86 35 217l78 289h385l-88 -328q-15 -73 -15 -92q0 -56 40.5 -79t129.5 -23q71 0 123 8l137 514h389z" />
    <glyph glyph-name="uni04F8" unicode="&#x4f8;" horiz-adv-x="2095" 
d="M1415 0l402 1491h395l-400 -1491h-397zM-4 0l399 1491h398l-121 -451h137q279 0 431.5 -117t152.5 -333q0 -229 -154 -383q-207 -207 -625 -207h-618zM987 561q0 81 -56.5 121.5t-162.5 40.5h-182l-105 -391h183q178 0 262 84q61 58 61 145zM918 1595l79 291h342
l-79 -291h-342zM1386 1595l80 291h344l-79 -291h-345z" />
    <glyph glyph-name="uni04F9" unicode="&#x4f9;" horiz-adv-x="1859" 
d="M694 1255l82 299h344l-82 -299h-344zM1159 1255l82 299h344l-82 -299h-344zM1190 0l307 1151h389l-309 -1151h-387zM633 565h-127l-74 -276h131q119 0 178.5 44.5t59.5 121.5q0 110 -168 110zM586 844h100q237 0 361 -96t124 -265q0 -221 -170 -352t-481 -131h-547
l308 1151h387z" />
    <glyph glyph-name="baht" unicode="&#xe3f;" horiz-adv-x="1406" 
d="M-35 0l402 1491h551h2l63 170h197l-70 -184q93 -16 162 -50t109.5 -81t59.5 -101t19 -115q0 -148 -93.5 -248t-262.5 -137q196 -88 196 -290q0 -205 -170.5 -330t-498.5 -125h-72l-90 -244h-195l91 244h-400zM967 483q0 140 -185 146l-125 -334h56q117 0 185.5 51
t68.5 137zM532 872h168l119 324h-2h-201zM1114 1055q0 111 -125 135l-117 -318q117 1 179.5 49t62.5 134zM375 295h110l125 334h-145z" />
    <glyph glyph-name="Wgrave" unicode="&#x1e80;" horiz-adv-x="2369" 
d="M1290 1595l-250 226l371 116l143 -342h-264zM365 -10l-99 1501h408l31 -893l534 897h340l61 -897l508 893h432l-903 -1501h-356l-70 870l-534 -870h-352z" />
    <glyph glyph-name="wgrave" unicode="&#x1e81;" horiz-adv-x="1849" 
d="M231 -8l-41 1159h379l-4 -604l348 608h322l22 -610l326 606h379l-666 -1159h-335l-27 618l-365 -618h-338zM965 1255l-230 269l363 121l121 -390h-254z" />
    <glyph glyph-name="Wacute" unicode="&#x1e82;" horiz-adv-x="2369" 
d="M1280 1595l330 342l358 -116l-371 -226h-317zM365 -10l-99 1501h408l31 -893l534 897h340l61 -897l508 893h432l-903 -1501h-356l-70 870l-534 -870h-352z" />
    <glyph glyph-name="wacute" unicode="&#x1e83;" horiz-adv-x="1849" 
d="M950 1255l332 390l350 -121l-379 -269h-303zM231 -8l-41 1159h379l-4 -604l348 608h322l22 -610l326 606h379l-666 -1159h-335l-27 618l-365 -618h-338z" />
    <glyph glyph-name="Wdieresis" unicode="&#x1e84;" horiz-adv-x="2369" 
d="M1034 1595l80 291h342l-80 -291h-342zM1503 1595l80 291h344l-80 -291h-344zM365 -10l-99 1501h408l31 -893l534 897h340l61 -897l508 893h432l-903 -1501h-356l-70 870l-534 -870h-352z" />
    <glyph glyph-name="wdieresis" unicode="&#x1e85;" horiz-adv-x="1849" 
d="M700 1255l82 299h344l-82 -299h-344zM1165 1255l82 299h344l-82 -299h-344zM231 -8l-41 1159h379l-4 -604l348 608h322l22 -610l326 606h379l-666 -1159h-335l-27 618l-365 -618h-338z" />
    <glyph glyph-name="Ygrave" unicode="&#x1ef2;" horiz-adv-x="1449" 
d="M354 0l156 580l-303 911h428l153 -569l461 569h475l-829 -954l-145 -537h-396zM817 1595l-250 226l371 116l143 -342h-264z" />
    <glyph glyph-name="ygrave" unicode="&#x1ef3;" horiz-adv-x="1333" 
d="M346 10l-147 1141h393l49 -711l395 711h410l-711 -1151q-122 -191 -242.5 -269.5t-285.5 -78.5q-177 0 -299 84l180 282q74 -55 152 -55q32 0 55 9.5t51 37.5zM702 1255l-229 269l363 121l120 -390h-254z" />
    <glyph glyph-name="enspace" unicode="&#x2002;" horiz-adv-x="1024" 
 />
    <glyph glyph-name="emspace" unicode="&#x2003;" horiz-adv-x="2048" 
 />
    <glyph glyph-name="threeperemspace" unicode="&#x2004;" horiz-adv-x="681" 
 />
    <glyph glyph-name="fourperemspace" unicode="&#x2005;" horiz-adv-x="512" 
 />
    <glyph glyph-name="figurespace" unicode="&#x2007;" horiz-adv-x="1290" 
 />
    <glyph glyph-name="thinspace" unicode="&#x2009;" horiz-adv-x="272" 
 />
    <glyph glyph-name="hairspace" unicode="&#x200a;" horiz-adv-x="153" 
 />
    <glyph glyph-name="endash" unicode="&#x2013;" horiz-adv-x="1142" 
d="M86 496l90 338h930l-92 -338h-928z" />
    <glyph glyph-name="emdash" unicode="&#x2014;" horiz-adv-x="1931" 
d="M86 496l90 338h1716l-90 -338h-1716z" />
    <glyph glyph-name="quoteleft" unicode="&#x2018;" horiz-adv-x="671" 
d="M158 750l92 346q55 207 176.5 304.5t345.5 104.5l19 -151q-124 -12 -191 -62.5t-88 -140.5h158l-109 -401h-403z" />
    <glyph glyph-name="quoteright" unicode="&#x2019;" horiz-adv-x="671" 
d="M160 737l-17 152q238 22 277 201h-156l107 401h405l-92 -344q-60 -210 -179 -306.5t-345 -103.5z" />
    <glyph glyph-name="quotesinglbase" unicode="&#x201a;" horiz-adv-x="671" 
d="M-125 -354l-16 151q124 12 190.5 62.5t85.5 140.5h-155l106 401h406l-93 -346q-58 -207 -178.5 -304.5t-345.5 -104.5z" />
    <glyph glyph-name="quotedblleft" unicode="&#x201c;" horiz-adv-x="1228" 
d="M160 748l92 346q55 209 174 305.5t344 103.5l18 -151q-124 -12 -188.5 -62t-85.5 -141h154l-109 -401h-399zM721 748l92 346q55 209 174 305.5t344 103.5l19 -151q-124 -12 -189 -62t-84 -141h152l-109 -401h-399z" />
    <glyph glyph-name="quotedblright" unicode="&#x201d;" horiz-adv-x="1228" 
d="M162 737l-19 152q125 12 190.5 62t84.5 139h-154l109 401h401l-92 -344q-60 -210 -178 -306.5t-342 -103.5zM723 737l-18 152q125 12 190 62t84 139h-152l107 401h401l-92 -344q-60 -210 -178 -306.5t-342 -103.5z" />
    <glyph glyph-name="quotedblbase" unicode="&#x201e;" horiz-adv-x="1228" 
d="M-125 -354l-16 151q124 12 188.5 62t83.5 141h-151l106 401h401l-92 -346q-39 -139 -101 -225t-164.5 -132.5t-254.5 -51.5zM438 -354l-18 151q124 12 188.5 62t83.5 141h-151l108 401h400l-93 -346q-58 -207 -177 -304.5t-341 -104.5z" />
    <glyph glyph-name="dagger" unicode="&#x2020;" horiz-adv-x="897" 
d="M322 481l176 576l-273 -27l58 211l256 -24l41 274h229l-104 -274l268 24l-58 -211l-256 27l-133 -576h-204z" />
    <glyph glyph-name="daggerdbl" unicode="&#x2021;" horiz-adv-x="915" 
d="M188 0l105 274l-268 -24l57 211l256 -27l57 311l111 312l-273 -27l58 211l256 -24l41 274h229l-104 -274l268 24l-57 -211l-256 27l-60 -312l-110 -311l272 27l-55 -211l-256 24l-41 -274h-230z" />
    <glyph glyph-name="bullet" unicode="&#x2022;" horiz-adv-x="1087" 
d="M645 1110q131 0 205 -76.5t74 -202.5q0 -91 -36 -177.5t-100 -153.5q-112 -109 -253 -109q-131 0 -205 76.5t-74 202.5q0 93 35.5 179t101.5 152q109 109 252 109z" />
    <glyph glyph-name="ellipsis" unicode="&#x2026;" horiz-adv-x="1855" 
d="M-20 0l104 393h399l-106 -393h-397zM575 0l105 393h399l-106 -393h-398zM1171 0l105 393h399l-106 -393h-398z" />
    <glyph glyph-name="perthousand" unicode="&#x2030;" horiz-adv-x="2867" 
d="M532 711q-163 0 -256.5 95t-93.5 247q0 93 36 182t101 154q122 122 289 122q162 0 256 -95.5t94 -248.5q0 -93 -36 -182t-101 -154q-120 -120 -289 -120zM543 926q61 0 104 43q35 35 54.5 85.5t19.5 102.5q0 63 -33 101t-90 38q-59 0 -104 -45q-72 -72 -72 -188
q0 -62 32.5 -99.5t88.5 -37.5zM152 0l729 743l731 748h295l-729 -743l-732 -748h-294zM1448 -20q-162 0 -256 95.5t-94 248.5q0 92 36.5 180.5t102.5 154.5q121 121 289 121q163 0 256.5 -95t93.5 -247q0 -93 -36 -182t-101 -154q-122 -122 -291 -122zM1460 195q53 0 105 45
q71 71 71 188q0 62 -32.5 99.5t-87.5 37.5q-62 0 -105 -43q-35 -35 -54.5 -85.5t-19.5 -102.5q0 -63 33 -101t90 -38zM2347 -20q-162 0 -256 95.5t-94 248.5q0 92 36.5 180.5t102.5 154.5q118 121 289 121q163 0 256.5 -95t93.5 -247q0 -93 -36 -182t-101 -154
q-122 -122 -291 -122zM2359 195q53 0 105 45q71 71 71 188q0 62 -32.5 99.5t-87.5 37.5q-62 0 -105 -43q-35 -35 -54.5 -85.5t-19.5 -102.5q0 -63 33 -101t90 -38z" />
    <glyph glyph-name="guilsinglleft" unicode="&#x2039;" horiz-adv-x="788" 
d="M330 61l-252 463l22 86l500 461l188 -186l-337 -359l145 -346z" />
    <glyph glyph-name="guilsinglright" unicode="&#x203a;" horiz-adv-x="788" 
d="M455 1069l252 -465l-23 -84l-500 -461l-186 187l336 358l-144 346z" />
    <glyph glyph-name="fraction" unicode="&#x2044;" horiz-adv-x="233" 
d="M-682 0l750 780l657 711h190l-749 -780l-658 -711h-190z" />
    <glyph glyph-name="zero.sup" unicode="&#x2070;" 
d="M999 1442q0 -127 -46.5 -250.5t-131.5 -208.5q-120 -117 -270 -117q-139 0 -220 82.5t-81 222.5q0 127 46.5 250.5t131.5 208.5q120 117 270 117q139 0 220 -82.5t81 -222.5zM473 1178q0 -55 24.5 -86t71.5 -31q44 0 90 43q52 52 84.5 155t32.5 177q0 55 -24.5 85.5
t-71.5 30.5t-90 -43q-52 -52 -84.5 -154.5t-32.5 -176.5z" />
    <glyph glyph-name="four.sup" unicode="&#x2074;" 
d="M563 887l43 160h-383l27 190l504 500h250l-140 -523h105l-45 -167h-107l-41 -160h-213zM436 1208h217l80 297h-2z" />
    <glyph glyph-name="five.sup" unicode="&#x2075;" 
d="M541 868q-104 0 -197 38.5t-154 107.5l146 141q101 -94 207 -94q68 0 111.5 31t43.5 82q0 39 -32.5 64.5t-90.5 25.5q-73 0 -126 -35l-125 80l147 415h549l-51 -190h-375l-49 -133q63 18 127 18q112 0 184 -62.5t72 -166.5q0 -141 -110.5 -231.5t-276.5 -90.5z" />
    <glyph glyph-name="six.sup" unicode="&#x2076;" 
d="M563 866q-146 0 -224.5 82.5t-78.5 225.5q0 113 48 230t134 206q137 137 326 137q145 0 250 -90l-117 -158q-60 57 -147 57q-98 0 -166 -71q-47 -47 -74 -119q83 64 199 64q95 0 157 -58.5t62 -161.5q0 -148 -109 -246t-260 -98zM573 1040q59 0 99.5 41t40.5 99
q0 42 -27.5 69t-73.5 27q-61 0 -100 -39q-41 -47 -41 -98q0 -45 27.5 -72t74.5 -27z" />
    <glyph glyph-name="seven.sup" unicode="&#x2077;" 
d="M215 885l512 641h-373l56 198h624l-49 -178l-522 -661h-248z" />
    <glyph glyph-name="eight.sup" unicode="&#x2078;" 
d="M563 866q-142 0 -233.5 64.5t-91.5 171.5q0 90 56.5 149.5t154.5 85.5q-95 53 -95 162q0 100 90.5 174t247.5 74q137 0 221 -64.5t84 -164.5q0 -83 -48.5 -137t-135.5 -78q113 -58 113 -170q0 -110 -101 -188.5t-262 -78.5zM578 1030q58 0 98.5 31t40.5 80q0 44 -34 71
t-91 27q-59 0 -98 -31.5t-41 -79.5q0 -43 33.5 -70.5t91.5 -27.5zM666 1386q52 0 88.5 30.5t36.5 78.5q0 37 -28.5 61.5t-80.5 24.5q-56 0 -92.5 -28.5t-36.5 -75.5q-2 -37 29 -64t84 -27z" />
    <glyph glyph-name="nine.sup" unicode="&#x2079;" 
d="M487 866q-156 0 -264 101l117 157q70 -67 162 -67q96 0 164 65q43 43 73 123q-83 -67 -198 -67q-96 0 -157.5 58t-61.5 163q0 146 108 247t258 101q146 0 225.5 -82t79.5 -225q0 -114 -46 -232t-130 -202q-140 -140 -330 -140zM641 1329q56 0 100 41q39 39 39 100
q0 48 -26.5 75.5t-73.5 27.5q-61 -1 -100 -43t-39 -103q0 -45 26.5 -71.5t73.5 -26.5z" />
    <glyph glyph-name="zero.inf" unicode="&#x2080;" 
d="M688 276q0 -127 -46.5 -250t-131.5 -208q-120 -117 -270 -117q-139 0 -220 82.5t-81 222.5q0 127 46.5 250.5t131.5 208.5q120 117 270 117q139 0 220 -83t81 -223zM162 12q0 -55 24.5 -85.5t71.5 -30.5q44 0 90 43q52 52 84.5 154.5t32.5 176.5q0 55 -24.5 86t-71.5 31
t-90 -43q-52 -52 -84.5 -155t-32.5 -177z" />
    <glyph glyph-name="one.inf" unicode="&#x2081;" horiz-adv-x="700" 
d="M63 -276l168 622l-174 -51l-10 180l303 96h164l-225 -847h-226z" />
    <glyph glyph-name="two.inf" unicode="&#x2082;" 
d="M-125 -276l47 180l420 282q53 37 76.5 65.5t23.5 59.5q0 70 -88 70q-87 0 -198 -102l-123 143q158 158 354 158q134 0 211.5 -63.5t77.5 -168.5q0 -89 -52.5 -157t-181.5 -146l-213 -133h349l-52 -188h-651z" />
    <glyph glyph-name="three.inf" unicode="&#x2083;" 
d="M225 -299q-222 0 -338 145l146 138q47 -47 93 -71t105 -24q61 0 102.5 31t41.5 74q0 39 -37 61.5t-107 22.5h-77l-7 119l261 176h-330l49 186h604l-45 -164l-278 -184q192 -38 192 -201q0 -136 -110 -222.5t-265 -86.5z" />
    <glyph glyph-name="four.inf" unicode="&#x2084;" 
d="M252 -279l43 160h-383l27 191l503 499h250l-139 -522h104l-45 -168h-106l-41 -160h-213zM125 43h217l80 297h-2z" />
    <glyph glyph-name="five.inf" unicode="&#x2085;" 
d="M229 -297q-104 0 -196.5 38t-153.5 107l146 142q101 -94 206 -94q68 0 112 31t44 81q0 39 -32.5 64.5t-90.5 25.5q-74 0 -127 -35l-125 80l148 416h549l-52 -190h-374l-50 -133q63 18 127 18q112 0 184 -62.5t72 -166.5q0 -141 -110.5 -231.5t-276.5 -90.5z" />
    <glyph glyph-name="six.inf" unicode="&#x2086;" 
d="M252 -299q-146 0 -224.5 82t-78.5 225q0 113 48 230t134 206q138 138 326 138q145 0 250 -90l-117 -158q-60 57 -148 57q-97 0 -166 -72q-46 -46 -73 -118q82 63 198 63q96 0 158 -58t62 -161q0 -148 -109 -246t-260 -98zM262 -125q59 0 99 40.5t40 98.5q0 42 -27 69.5
t-73 27.5q-61 0 -100 -39q-41 -47 -41 -99q0 -45 27.5 -71.5t74.5 -26.5z" />
    <glyph glyph-name="seven.inf" unicode="&#x2087;" 
d="M-74 -281l512 641h-372l55 199h624l-49 -178l-522 -662h-248z" />
    <glyph glyph-name="eight.inf" unicode="&#x2088;" 
d="M250 -299q-142 0 -234 64.5t-92 171.5q0 90 56.5 149.5t154.5 85.5q-94 52 -94 162q0 100 90.5 174t247.5 74q137 0 221 -65t84 -165q0 -83 -48.5 -137t-135.5 -78q112 -58 112 -170q0 -110 -100.5 -188t-261.5 -78zM264 -135q58 0 98.5 31t40.5 79q0 45 -33.5 72
t-90.5 27q-60 0 -99 -31.5t-41 -79.5q0 -43 33.5 -70.5t91.5 -27.5zM352 221q52 0 88.5 30.5t36.5 78.5q0 37 -28 61.5t-80 24.5q-56 0 -92.5 -29t-36.5 -76q-2 -37 28.5 -63.5t83.5 -26.5z" />
    <glyph glyph-name="nine.inf" unicode="&#x2089;" 
d="M176 -299q-157 0 -264 100l117 158q71 -68 161 -68q95 0 164 66q45 45 74 123q-84 -68 -199 -68q-96 0 -157.5 58t-61.5 163q0 146 108.5 247.5t258.5 101.5q146 0 225.5 -82.5t79.5 -225.5q0 -114 -46 -232t-130 -202q-139 -139 -330 -139zM330 164q56 0 100 41
q39 39 39 100q0 48 -26.5 75.5t-73.5 27.5q-61 -1 -100.5 -43t-39.5 -103q0 -45 27 -71.5t74 -26.5z" />
    <glyph glyph-name="colonmonetary" unicode="&#x20a1;" horiz-adv-x="1357" 
d="M1260 1661h155l-100 -258q91 -52 166 -148l-219 -272q-37 48 -88 96l-291 -747q89 30 196 119l150 -261q-92 -78 -212.5 -130t-254.5 -62l-94 -242h-156l96 244q-84 12 -121 25l-104 -269h-156l129 328q-128 76 -198 208t-70 304q0 189 68.5 360.5t195.5 298.5
q226 226 555 238l68 168h155l-69 -174q50 -7 119 -25zM446 608q0 -118 52 -188l290 741q-97 -34 -165 -102q-87 -87 -132 -212.5t-45 -238.5zM930 1180l-328 -842q64 -25 139 -25l326 834q-64 30 -137 33z" />
    <glyph glyph-name="naira" unicode="&#x20a6;" horiz-adv-x="1861" 
d="M1761 406h-221l-108 -406h-400l-127 406h-321l-109 -406h-358l108 406h-217l58 202h215l75 283h-217l56 205h217l106 395h422l123 -395h305l107 395h356l-107 -395h224l-56 -205h-223l-76 -283h226zM729 973l-102 -377h227l-113 377h-12zM1217 551h12l94 352h-213z" />
    <glyph glyph-name="rupee" unicode="&#x20a8;" horiz-adv-x="2355" 
d="M1898 322q0 35 -29.5 59t-115.5 59q-57 26 -93 44.5t-78.5 48.5t-66.5 60.5t-40.5 75t-16.5 97.5q0 175 128.5 291.5t338.5 116.5q141 0 255 -43t192 -107l-174 -238q-71 56 -150.5 87.5t-146.5 31.5q-50 0 -79.5 -20.5t-29.5 -55.5q0 -31 30 -54t113 -60q47 -22 77 -37
t68 -38.5t61.5 -47t46 -54.5t32.5 -69.5t10 -83.5q0 -84 -32 -158.5t-90 -131t-147 -89.5t-196 -33q-146 0 -278 50t-232 139l183 225q74 -70 170 -107.5t172 -37.5q56 0 87 22t31 58zM756 0l-148 467h-139l-127 -467h-362l399 1491h461q103 0 188 -18.5t144 -51.5t103 -75
t69 -92t37 -99.5t12 -101.5q0 -204 -116.5 -344.5t-303.5 -192.5l180 -516h-397zM549 766h166q136 0 215.5 61.5t79.5 176.5q0 71 -49 118t-154 47h-150z" />
    <glyph glyph-name="won" unicode="&#x20a9;" horiz-adv-x="2422" 
d="M2310 416h-332l-221 -422h-450l10 426h-301l-217 -426h-447l4 422h-331l57 215h278l2 227h-227l58 215h172l6 418h409l-30 -418h266l215 422h424l-8 -422h270l190 418h435l-220 -418h175l-58 -215h-229l-119 -227h279zM692 438h13l221 439h-199zM1327 1038l-219 -422h221
l10 422h-12zM1626 438h12l199 439h-203z" />
    <glyph glyph-name="sheqel" unicode="&#x20aa;" horiz-adv-x="1380" 
d="M-37 0l307 1151h439q139 0 208.5 -60t69.5 -167q0 -48 -16 -117l-94 -342h-166l43 170q14 57 14 104q0 65 -38.5 94t-117.5 29h-161l-232 -862h-256zM1108 0h-340q-199 0 -279.5 91.5t-56.5 273.5l45 321h168l-20 -205q-12 -112 32 -153t160 -41h111l229 864h258z" />
    <glyph glyph-name="Euro" unicode="&#x20ac;" horiz-adv-x="1480" 
d="M143 807l58 219h143q67 162 184 279q212 215 527 215q387 0 528 -320l-299 -188q-45 85 -104 125.5t-154 40.5q-131 0 -221 -93q-41 -41 -53 -61h372l-57 -215h-395q-16 -46 -27 -119h391l-57 -215h-340q36 -162 211 -162q80 0 143 31t131 100l236 -239
q-211 -234 -524 -234q-243 0 -402 136t-184 366h-197l60 219h145q2 12 23 115h-138z" />
    <glyph glyph-name="peso" unicode="&#x20b1;" horiz-adv-x="1673" 
d="M1708 831h-180q-45 -140 -150 -245q-104 -104 -259 -158.5t-347 -54.5h-162l-98 -373h-395l223 831h-211l51 197h213l125 463h471q305 0 457 -152q115 -115 115 -311h200zM682 668h129q178 0 272 94q35 35 56 84h-410zM821 1184l-47 -170h397q-10 66 -47 108
q-62 62 -178 62h-125z" />
    <glyph glyph-name="hryvnia" unicode="&#x20b4;" horiz-adv-x="1419" 
d="M178 903l47 131l576 -78q89 52 122 84t33 68q0 90 -133 90q-138 0 -338 -104l-118 292q251 134 507 134q244 0 366 -103t122 -262q0 -146 -102 -260l196 -25l-49 -133l-289 39l-178 -108l418 -56l-49 -133l-566 76q-115 -67 -151.5 -101.5t-36.5 -72.5q0 -88 135 -88
q80 0 180.5 30t196.5 80l121 -290q-114 -63 -259.5 -102.5t-287.5 -39.5q-243 0 -368.5 102.5t-125.5 266.5q0 159 127 278l-196 27l49 131l303 -41l180 109z" />
    <glyph glyph-name="numero" unicode="&#x2116;" horiz-adv-x="2437" 
d="M-16 0l401 1491h354l262 -829l222 829h370l-399 -1491h-334l-276 862l-226 -862h-374zM1989 580q-177 0 -275 102.5t-98 271.5q0 117 42 226.5t114 181.5q139 139 321 139q176 0 275.5 -103.5t99.5 -271.5q0 -116 -42.5 -225t-115.5 -182q-139 -139 -321 -139zM2003 813
q53 0 98 45q41 41 66.5 114t25.5 144t-29 111.5t-85 40.5q-54 0 -99 -45q-41 -41 -66.5 -114t-25.5 -144t29.5 -111.5t85.5 -40.5zM1462 250l58 211h747l-59 -211h-746z" />
    <glyph glyph-name="published" unicode="&#x2117;" horiz-adv-x="1787" 
d="M754 1169h280q153 0 239.5 -65t86.5 -191q0 -153 -112.5 -240t-293.5 -87h-135l-63 -236h-221zM1139 891q0 94 -117 94h-98l-60 -225h94q78 0 129.5 33t51.5 98zM1020 1520q204 0 361 -89.5t240 -243.5t83 -345q0 -174 -67 -338.5t-189 -286.5q-246 -246 -592 -246
q-204 0 -361 89.5t-240 243.5t-83 345q0 174 67 338.5t189 286.5q246 246 592 246zM858 57q306 0 520 211q236 236 236 570q0 123 -40.5 231.5t-115.5 189.5t-188.5 128t-251.5 47q-306 0 -520 -211q-236 -236 -236 -568q0 -125 40.5 -233.5t115.5 -190t188.5 -128
t251.5 -46.5z" />
    <glyph glyph-name="servicemark" unicode="&#x2120;" horiz-adv-x="1515" 
d="M446 821q-180 0 -301 121l113 113q95 -92 207 -92q38 0 62 15.5t24 43.5q0 23 -21.5 37.5t-95.5 44.5q-93 36 -131.5 75t-38.5 103q0 85 58 143q78 78 217 78q166 0 264 -98l-105 -115q-77 74 -178 74q-38 0 -61 -15t-23 -40q0 -23 21.5 -38.5t97.5 -43.5
q90 -34 129 -72.5t39 -107.5q0 -90 -59 -146q-77 -80 -218 -80zM786 836l177 655h176l90 -258l229 258h193l-174 -655h-174l106 395l-240 -266h-8l-98 266l-107 -395h-170z" />
    <glyph glyph-name="trademark" unicode="&#x2122;" horiz-adv-x="1503" 
d="M291 836l135 501h-195l41 154h568l-43 -154h-195l-135 -501h-176zM774 836l176 655h176l91 -258l229 258h192l-176 -655h-172l107 395l-240 -266h-8l-98 266l-107 -395h-170z" />
    <glyph glyph-name="Omega" unicode="&#x2126;" horiz-adv-x="1826" 
d="M590 690q0 -201 143 -373l-84 -317h-676l86 322l324 -3q-88 99 -140.5 207.5t-52.5 243.5q0 153 62.5 290t174.5 239t277.5 161.5t360.5 59.5q168 0 303.5 -45t223 -123.5t134 -183t46.5 -224.5q0 -104 -29.5 -195t-86.5 -167.5t-125.5 -138.5t-160.5 -124l313 3
l-86 -322h-718l86 315q81 48 148 103.5t124 123t89 149t32 167.5q0 139 -85.5 221t-238.5 82q-202 0 -323 -133t-121 -338z" />
    <glyph glyph-name="onethird" unicode="&#x2153;" horiz-adv-x="1775" 
d="M1186 -23q-221 0 -338 146l145 137q94 -94 199 -94q61 0 102 30.5t41 73.5q0 39 -36.5 61.5t-106.5 22.5h-78l-6 119l260 176h-330l49 187h605l-45 -164l-279 -185q193 -38 193 -200q0 -136 -110 -223t-265 -87zM268 655l166 623l-172 -53l-10 182l301 96h166l-225 -848
h-226zM20 0l750 780l657 711h191l-750 -780l-657 -711h-191z" />
    <glyph glyph-name="twothirds" unicode="&#x2154;" horiz-adv-x="1935" 
d="M1346 -23q-221 0 -338 146l145 137q94 -94 199 -94q61 0 102 30.5t41 73.5q0 39 -36.5 61.5t-106.5 22.5h-78l-6 119l260 176h-330l49 187h604l-45 -164l-278 -185q192 -38 192 -200q0 -136 -109.5 -223t-264.5 -87zM66 655l47 179l419 284q52 36 75.5 65t23.5 60
q0 33 -22.5 51.5t-63.5 18.5q-90 0 -199 -103l-123 144q157 157 355 157q134 0 210 -63t76 -168q0 -89 -51.5 -157t-179.5 -146l-215 -135h348l-49 -187h-651zM170 0l750 780l657 711h190l-749 -780l-658 -711h-190z" />
    <glyph glyph-name="onefifth" unicode="&#x2155;" horiz-adv-x="1775" 
d="M1188 -20q-104 0 -196.5 38t-153.5 107l145 141q101 -94 207 -94q68 0 112 31t44 82q0 39 -32.5 64.5t-90.5 25.5q-74 0 -127 -35l-125 80l147 416h549l-51 -191h-375l-49 -133q63 18 127 18q112 0 184 -62.5t72 -166.5q0 -141 -110.5 -231t-276.5 -90zM268 655l166 623
l-172 -53l-10 182l301 96h166l-225 -848h-226zM31 0l749 780l658 711h190l-749 -780l-658 -711h-190z" />
    <glyph glyph-name="twofifths" unicode="&#x2156;" horiz-adv-x="1935" 
d="M66 655l47 179l419 284q52 36 75.5 65t23.5 60q0 33 -22.5 51.5t-63.5 18.5q-90 0 -199 -103l-123 144q157 157 355 157q134 0 210 -63t76 -168q0 -89 -51.5 -157t-179.5 -146l-215 -135h348l-49 -187h-651zM190 0l750 780l657 711h191l-750 -780l-657 -711h-191z
M1348 -20q-105 0 -197.5 38t-153.5 107l146 141q101 -94 207 -94q68 0 111.5 31t43.5 82q0 39 -32.5 64.5t-90.5 25.5q-74 0 -127 -35l-125 80l148 416h549l-51 -191h-375l-49 -133q63 18 127 18q112 0 184 -62.5t72 -166.5q0 -141 -110.5 -231t-276.5 -90z" />
    <glyph glyph-name="threefifths" unicode="&#x2157;" horiz-adv-x="1935" 
d="M1348 -20q-105 0 -197.5 38t-153.5 107l146 141q101 -94 207 -94q68 0 111.5 31t43.5 82q0 39 -32.5 64.5t-90.5 25.5q-74 0 -127 -35l-125 80l148 416h549l-51 -191h-375l-49 -133q63 18 127 18q112 0 184 -62.5t72 -166.5q0 -141 -110.5 -231t-276.5 -90zM160 0
l749 780l658 711h190l-749 -780l-658 -711h-190zM416 633q-221 0 -340 145l147 137q88 -94 199 -94q61 0 102 31t41 74q0 39 -36.5 61.5t-106.5 22.5h-78l-6 118l260 177h-330l49 186h605l-45 -164l-279 -184q193 -38 193 -203q0 -135 -110 -221t-265 -86z" />
    <glyph glyph-name="fourfifths" unicode="&#x2158;" horiz-adv-x="1935" 
d="M440 651l43 160h-383l27 188l506 500h248l-140 -522h105l-45 -166h-105l-43 -160h-213zM315 973h217l78 297h-2zM1348 -20q-105 0 -197.5 38t-153.5 107l146 141q101 -94 207 -94q68 0 111.5 31t43.5 82q0 39 -32.5 64.5t-90.5 25.5q-74 0 -127 -35l-125 80l148 416h549
l-51 -191h-375l-49 -133q63 18 127 18q112 0 184 -62.5t72 -166.5q0 -141 -110.5 -231t-276.5 -90zM190 0l750 780l657 711h191l-750 -780l-657 -711h-191z" />
    <glyph glyph-name="onesixth" unicode="&#x2159;" horiz-adv-x="1775" 
d="M1210 -23q-146 0 -224.5 82.5t-78.5 225.5q0 112 48.5 229.5t134.5 206.5q137 137 325 137q145 0 250 -90l-117 -158q-62 58 -147 58q-97 0 -166 -72q-47 -47 -74 -119q83 64 199 64q96 0 157.5 -58t61.5 -161q0 -148 -109 -246.5t-260 -98.5zM1221 152q59 0 99 40.5
t40 98.5q0 42 -27 69t-73 27q-62 0 -101 -39q-41 -47 -41 -98q0 -44 28 -71t75 -27zM268 655l166 623l-172 -53l-10 182l301 96h166l-225 -848h-226zM43 0l750 780l657 711h190l-749 -780l-658 -711h-190z" />
    <glyph glyph-name="fivesixths" unicode="&#x215a;" horiz-adv-x="1935" 
d="M1370 -23q-146 0 -224.5 82.5t-78.5 225.5q0 113 48 230t134 206q137 137 326 137q145 0 250 -90l-117 -158q-62 58 -147 58q-97 0 -166 -72q-47 -47 -74 -119q83 64 199 64q96 0 157.5 -58t61.5 -161q0 -148 -109 -246.5t-260 -98.5zM1380 152q59 0 99.5 40.5t40.5 98.5
q0 42 -27.5 69t-73.5 27q-61 0 -100 -39q-41 -47 -41 -98q0 -45 27.5 -71.5t74.5 -26.5zM418 635q-103 0 -195 38t-153 107l143 140q104 -93 207 -93q69 0 112 31t43 82q0 39 -32 64.5t-90 25.5q-51 0 -127 -35l-123 80l145 416h549l-49 -191h-375l-49 -133q63 19 125 19
q114 0 185 -62.5t71 -167.5q0 -141 -110.5 -231t-276.5 -90zM170 0l750 780l657 711h190l-749 -780l-658 -711h-190z" />
    <glyph glyph-name="oneeighth" unicode="&#x215b;" horiz-adv-x="1775" 
d="M1210 -23q-142 0 -233.5 64.5t-91.5 171.5q0 91 56.5 150.5t154.5 85.5q-95 53 -95 161q0 100 90.5 174t247.5 74q138 0 222 -64.5t84 -164.5q0 -82 -49 -136.5t-136 -78.5q113 -58 113 -170q0 -110 -101 -188.5t-262 -78.5zM1225 141q58 0 98.5 31t40.5 80q0 44 -34 71
t-91 27q-60 0 -98.5 -31t-40.5 -79q0 -43 33.5 -71t91.5 -28zM1313 498q53 0 89 30t36 78q0 37 -28.5 61.5t-80.5 24.5q-56 0 -92.5 -28.5t-36.5 -75.5q-2 -37 29 -63.5t84 -26.5zM268 655l166 623l-172 -53l-10 182l301 96h166l-225 -848h-226zM35 0l749 780l658 711h190
l-749 -780l-658 -711h-190z" />
    <glyph glyph-name="threeeighths" unicode="&#x215c;" horiz-adv-x="1935" 
d="M1370 -23q-142 0 -234 64.5t-92 171.5q0 91 56.5 150.5t154.5 85.5q-94 52 -94 161q0 100 90.5 174t247.5 74q137 0 221 -64.5t84 -164.5q0 -83 -48.5 -137t-135.5 -78q113 -58 113 -170q0 -110 -101 -188.5t-262 -78.5zM1384 141q58 0 99 31t41 80q0 44 -34 71t-91 27
q-60 0 -98.5 -31t-40.5 -79q0 -43 33 -71t91 -28zM1473 498q52 0 88 30t36 78q0 37 -28 61.5t-80 24.5q-56 0 -92.5 -28.5t-36.5 -75.5q-2 -37 29 -63.5t84 -26.5zM170 0l750 780l657 711h190l-749 -780l-658 -711h-190zM416 633q-221 0 -340 145l147 137q88 -94 199 -94
q61 0 102 31t41 74q0 39 -36.5 61.5t-106.5 22.5h-78l-6 118l260 177h-330l49 186h605l-45 -164l-279 -184q193 -38 193 -203q0 -135 -110 -221t-265 -86z" />
    <glyph glyph-name="fiveeighths" unicode="&#x215d;" horiz-adv-x="1935" 
d="M1370 -23q-142 0 -234 64.5t-92 171.5q0 91 56.5 150.5t154.5 85.5q-94 52 -94 161q0 100 90.5 174t247.5 74q137 0 221 -64.5t84 -164.5q0 -83 -48.5 -137t-135.5 -78q113 -58 113 -170q0 -110 -101 -188.5t-262 -78.5zM1384 141q58 0 99 31t41 80q0 44 -34 71t-91 27
q-60 0 -98.5 -31t-40.5 -79q0 -43 33 -71t91 -28zM1473 498q52 0 88 30t36 78q0 37 -28 61.5t-80 24.5q-56 0 -92.5 -28.5t-36.5 -75.5q-2 -37 29 -63.5t84 -26.5zM418 635q-103 0 -195 38t-153 107l143 140q104 -93 207 -93q69 0 112 31t43 82q0 39 -32 64.5t-90 25.5
q-51 0 -127 -35l-123 80l145 416h549l-49 -191h-375l-49 -133q63 19 125 19q114 0 185 -62.5t71 -167.5q0 -141 -110.5 -231t-276.5 -90zM170 0l750 780l657 711h190l-749 -780l-658 -711h-190z" />
    <glyph glyph-name="seveneighths" unicode="&#x215e;" horiz-adv-x="1935" 
d="M1370 -23q-142 0 -234 64.5t-92 171.5q0 91 56.5 150.5t154.5 85.5q-94 52 -94 161q0 100 90.5 174t247.5 74q137 0 221 -64.5t84 -164.5q0 -83 -48.5 -137t-135.5 -78q113 -58 113 -170q0 -110 -101 -188.5t-262 -78.5zM1384 141q58 0 99 31t41 80q0 44 -34 71t-91 27
q-60 0 -98.5 -31t-40.5 -79q0 -43 33 -71t91 -28zM1473 498q52 0 88 30t36 78q0 37 -28 61.5t-80 24.5q-56 0 -92.5 -28.5t-36.5 -75.5q-2 -37 29 -63.5t84 -26.5zM133 649l512 641h-373l54 201h624l-47 -178l-524 -664h-246zM106 0l750 780l657 711h191l-750 -780
l-657 -711h-191z" />
    <glyph glyph-name="Delta" unicode="&#x2206;" horiz-adv-x="1693" 
d="M1309 1501l233 -1204l-123 -297h-1452l37 297l879 1204h426zM999 1081l-512 -737h633z" />
    <glyph glyph-name="minus" unicode="&#x2212;" horiz-adv-x="1384" 
d="M137 578l92 346h1110l-92 -346h-1110z" />
    <glyph glyph-name="NUL" horiz-adv-x="0" 
 />
    <glyph glyph-name="CR" horiz-adv-x="620" 
 />
    <glyph glyph-name="Q.alt" horiz-adv-x="1761" 
d="M1018 1518q155 0 287 -51.5t223 -140t142.5 -211.5t51.5 -263q0 -169 -64 -324.5t-183 -279.5l116 -152l-291 -192l-96 149q-177 -80 -370 -80q-155 0 -287 51.5t-223.5 140t-143 211.5t-51.5 263q0 173 68.5 335.5t191.5 285.5q122 122 282 190t347 68zM870 324
q64 0 123 18l-172 233l291 193l135 -211q72 126 72 260q0 155 -88 249.5t-250 94.5q-169 0 -297 -125q-72 -74 -113 -172t-41 -198q0 -153 89 -247.5t251 -94.5z" />
    <glyph glyph-name="a.alt" horiz-adv-x="1454" 
d="M492 -25q-178 0 -297 128.5t-119 347.5q0 163 57 304t158 242q180 177 407 177q232 0 353 -183l43 160h387l-310 -1151h-387l33 121q-153 -146 -325 -146zM674 297q108 0 192 84q107 104 107 258q0 96 -58 154.5t-151 58.5q-107 0 -191 -84q-104 -104 -104 -260
q0 -97 56 -154t149 -57z" />
    <glyph glyph-name="uni039E.alt" horiz-adv-x="1628" 
d="M1554 905l-86 -309h-464l-72 -266h526l-88 -330h-1413l88 330h514l72 266h-455l86 309h455l69 256h-507l90 330h1390l-90 -330h-510l-69 -256h464z" />
    <glyph glyph-name="uni0424.bgr" horiz-adv-x="2131" 
d="M129 672q0 152 57.5 290t161.5 242q137 137 332.5 214t427.5 81h2l55 205h398l-62 -225q270 -51 428 -223t158 -437q0 -150 -58.5 -288.5t-160.5 -243.5q-138 -138 -333.5 -214.5t-428.5 -80.5h-2l-55 -205h-396l60 225q-269 51 -426.5 223t-157.5 437zM522 680
q0 -134 75 -221.5t220 -110.5l213 801h-2q-117 -6 -215.5 -47t-167.5 -113q-123 -123 -123 -309zM1694 811q0 132 -76 219.5t-221 110.5l-213 -801h2q246 16 383 162q57 57 91 136.5t34 172.5z" />
    <glyph glyph-name="uni0432.bgr" horiz-adv-x="1431" 
d="M98 477q0 87 29 203l86 321q37 137 85 230.5t120 165.5q173 176 485 176q241 0 385 -120t144 -304q0 -309 -361 -408q234 -103 234 -327q0 -197 -167 -318t-438 -121q-283 0 -442.5 135t-159.5 367zM637 645h-139l-13 -51q-14 -46 -14 -92q0 -99 61.5 -154t176.5 -55
q102 0 161.5 52.5t59.5 129.5q0 78 -70 124t-223 46zM874 1257q-111 0 -182 -71q-64 -64 -104 -205l-25 -88h182q143 0 224.5 56t81.5 155q0 68 -46.5 110.5t-130.5 42.5z" />
    <glyph glyph-name="uni0433.bgr" horiz-adv-x="1148" 
d="M23 311q0 151 102 239.5t346 158.5q201 58 231 71q46 20 51 47q1 5 1 11q0 59 -113 59q-151 0 -358 -86l-88 256q248 104 479 104q215 0 324.5 -91t109.5 -251q0 -68 -21 -121.5t-56 -91.5t-96.5 -70.5t-125.5 -55.5t-160 -50q-177 -49 -224.5 -70t-47.5 -59
q0 -59 121 -59q174 0 417 104l91 -256q-266 -123 -545 -123q-209 0 -323.5 83.5t-114.5 250.5z" />
    <glyph glyph-name="uni0434.bgr" horiz-adv-x="1443" 
d="M522 -344q-168 0 -333 42.5t-273 115.5l180 245q194 -120 408 -120q153 0 241 88q63 63 97 188l8 29q-82 -74 -165.5 -109t-186.5 -35q-79 0 -152.5 26.5t-131.5 75.5t-93 126.5t-35 171.5q0 145 53.5 274t149.5 225q81 83 185.5 129t219.5 46q230 0 348 -191l45 168h388
l-246 -918q-39 -154 -86.5 -247t-118.5 -164q-85 -86 -205 -126t-297 -40zM668 385q114 0 196 82q90 90 90 209q0 85 -54 136.5t-146 51.5q-109 0 -191 -82q-90 -90 -90 -215q0 -85 53 -133.5t142 -48.5z" />
    <glyph glyph-name="uni0436.bgr" horiz-adv-x="1970" 
d="M1442 1554l-228 -821h64l387 418h449l-580 -598l287 -553h-406l-203 420h-79l-107 -420h-387l119 420h-72l-397 -420h-447l596 602l-274 549h403l197 -418h78l213 821h387z" />
    <glyph glyph-name="uni0438.bgr" horiz-adv-x="1361" 
d="M401 -25q-155 0 -244 91t-89 251q0 81 32 209l168 625h387l-163 -608q-15 -58 -15 -97q0 -124 137 -124q164 0 220 213l165 616h387l-307 -1151h-387l33 129q-154 -154 -324 -154z" />
    <glyph glyph-name="uni0439.bgr" horiz-adv-x="1361" 
d="M401 -25q-155 0 -244 91t-89 251q0 81 32 209l168 625h387l-163 -608q-15 -58 -15 -97q0 -124 137 -124q164 0 220 213l165 616h387l-307 -1151h-387l33 129q-154 -154 -324 -154zM893 1251q-182 0 -277.5 94.5t-93.5 256.5h238q5 -54 42 -89.5t105 -35.5q78 0 126.5 32
t88.5 93h238q-48 -161 -172 -256t-295 -95z" />
    <glyph glyph-name="uni043A.bgr" horiz-adv-x="1329" 
d="M1180 0h-416l-207 418h-88l-109 -418h-387l418 1554h387l-225 -821h76l379 418h477l-598 -606z" />
    <glyph glyph-name="uni043F.bgr" horiz-adv-x="1361" 
d="M-25 0l308 1151h389l-35 -131q150 154 324 154q157 0 245 -91t88 -252q0 -78 -32 -206l-166 -625h-389l163 608q15 58 15 97q0 124 -135 124q-165 0 -222 -213l-166 -616h-387z" />
    <glyph glyph-name="uni0442.bgr" horiz-adv-x="2072" 
d="M-27 0l308 1151h389l-35 -127q150 150 317 150q114 0 191 -53t110 -148q173 201 416 201q163 0 250.5 -90t87.5 -250q0 -69 -35 -209l-166 -625h-389l164 608q14 54 14 97q0 124 -131 124q-159 0 -215 -213l-166 -616h-389l164 608q14 54 14 97q0 124 -129 124
q-161 0 -217 -213l-166 -616h-387z" />
    <glyph glyph-name="uni0446.bgr" horiz-adv-x="1443" 
d="M401 -25q-155 0 -244 91t-89 251q0 81 32 209l168 625h387l-163 -608q-15 -58 -15 -97q0 -124 137 -124q164 0 220 213l165 616h387l-217 -815h160l-168 -625h-350l78 289h-197l33 129q-154 -154 -324 -154z" />
    <glyph glyph-name="uni0448.bgr" horiz-adv-x="2072" 
d="M2099 1151l-307 -1151h-387l33 127q-152 -152 -318 -152q-113 0 -188.5 53t-112.5 148q-173 -201 -416 -201q-160 0 -248.5 90.5t-88.5 249.5q0 75 34 211l168 625h387l-163 -608q-15 -58 -15 -97q0 -124 131 -124q159 0 215 213l166 616h389l-164 -608q-14 -54 -14 -97
q0 -124 131 -124q159 0 215 213l166 616h387z" />
    <glyph glyph-name="uni0449.bgr" horiz-adv-x="2156" 
d="M2099 1151l-217 -815h160l-168 -625h-350l78 289h-197l33 127q-152 -152 -318 -152q-113 0 -188.5 53t-112.5 148q-173 -201 -416 -201q-160 0 -248.5 90.5t-88.5 249.5q0 75 34 211l168 625h387l-163 -608q-15 -58 -15 -97q0 -124 131 -124q159 0 215 213l166 616h389
l-164 -608q-14 -54 -14 -97q0 -124 131 -124q159 0 215 213l166 616h387z" />
    <glyph glyph-name="uni044E.bgr" horiz-adv-x="1949" 
d="M1321 1174q167 0 293 -70t191 -190t65 -273q0 -133 -52.5 -256t-146.5 -217q-195 -195 -463 -195q-224 0 -369 120t-173 315v2h-195l-111 -410h-387l418 1554h387l-217 -806h144q52 130 155 233q90 90 209 141.5t252 51.5zM1227 297q89 0 170 78q47 47 73.5 114.5
t26.5 139.5q0 104 -51 162.5t-143 58.5q-91 0 -170 -76q-47 -47 -74 -114.5t-27 -139.5q0 -105 51.5 -164t143.5 -59z" />
    <glyph glyph-name="aacute.alt" horiz-adv-x="1454" 
d="M764 1262l332 389l350 -121l-379 -268h-303zM492 -25q-178 0 -297 128.5t-119 347.5q0 163 57 304t158 242q180 177 407 177q232 0 353 -183l43 160h387l-310 -1151h-387l33 121q-153 -146 -325 -146zM674 297q108 0 192 84q107 104 107 258q0 96 -58 154.5t-151 58.5
q-107 0 -191 -84q-104 -104 -104 -260q0 -97 56 -154t149 -57z" />
    <glyph glyph-name="abreve.alt" horiz-adv-x="1454" 
d="M492 -25q-178 0 -297 128.5t-119 347.5q0 163 57 304t158 242q180 177 407 177q232 0 353 -183l43 160h387l-310 -1151h-387l33 121q-153 -146 -325 -146zM674 297q108 0 192 84q107 104 107 258q0 96 -58 154.5t-151 58.5q-107 0 -191 -84q-104 -104 -104 -260
q0 -97 56 -154t149 -57zM948 1257q-182 0 -277 94.5t-93 256.5h237q5 -54 42.5 -89.5t105.5 -35.5q78 0 126.5 32t88.5 93h237q-48 -161 -172 -256t-295 -95z" />
    <glyph glyph-name="acircumflex.alt" horiz-adv-x="1454" 
d="M471 1262l363 346h323l178 -346h-239l-142 131l-213 -131h-270zM492 -25q-178 0 -297 128.5t-119 347.5q0 163 57 304t158 242q180 177 407 177q232 0 353 -183l43 160h387l-310 -1151h-387l33 121q-153 -146 -325 -146zM674 297q108 0 192 84q107 104 107 258
q0 96 -58 154.5t-151 58.5q-107 0 -191 -84q-104 -104 -104 -260q0 -97 56 -154t149 -57z" />
    <glyph glyph-name="adieresis.alt" horiz-adv-x="1454" 
d="M514 1262l82 299h344l-82 -299h-344zM979 1262l82 299h344l-82 -299h-344zM492 -25q-178 0 -297 128.5t-119 347.5q0 163 57 304t158 242q180 177 407 177q232 0 353 -183l43 160h387l-310 -1151h-387l33 121q-153 -146 -325 -146zM674 297q108 0 192 84q107 104 107 258
q0 96 -58 154.5t-151 58.5q-107 0 -191 -84q-104 -104 -104 -260q0 -97 56 -154t149 -57z" />
    <glyph glyph-name="agrave.alt" horiz-adv-x="1454" 
d="M492 -25q-178 0 -297 128.5t-119 347.5q0 163 57 304t158 242q180 177 407 177q232 0 353 -183l43 160h387l-310 -1151h-387l33 121q-153 -146 -325 -146zM674 297q108 0 192 84q107 104 107 258q0 96 -58 154.5t-151 58.5q-107 0 -191 -84q-104 -104 -104 -260
q0 -97 56 -154t149 -57zM780 1262l-229 268l362 121l121 -389h-254z" />
    <glyph glyph-name="amacron.alt" horiz-adv-x="1454" 
d="M492 -25q-178 0 -297 128.5t-119 347.5q0 163 57 304t158 242q180 177 407 177q232 0 353 -183l43 160h387l-310 -1151h-387l33 121q-153 -146 -325 -146zM674 297q108 0 192 84q107 104 107 258q0 96 -58 154.5t-151 58.5q-107 0 -191 -84q-104 -104 -104 -260
q0 -97 56 -154t149 -57zM524 1272l64 239h792l-63 -239h-793z" />
    </font>
</defs>
</svg>
