<?xml version="1.0" standalone="no"?>
<!DOCTYPE svg PUBLIC "-//W3C//DTD SVG 1.1//EN" "http://www.w3.org/Graphics/SVG/1.1/DTD/svg11.dtd" >
<svg xmlns="http://www.w3.org/2000/svg" xmlns:xlink="http://www.w3.org/1999/xlink" version="1.1">
<metadata>
Created by FontForge 20201107 at Mon Apr  7 19:28:47 2025
 By 
Copyright (C) 2001, 2010 Hoefler &#38; Co. http://www.typography.com |DCNT
</metadata>
<defs>
<font id="GothamSSm-Bold" horiz-adv-x="860" >
  <font-face 
    font-family="GothamSSm"
    font-weight="700"
    font-stretch="normal"
    units-per-em="2048"
    panose-1="0 0 0 0 0 0 0 0 0 0"
    ascent="1638"
    descent="-410"
    x-height="1139"
    cap-height="1491"
    bbox="-477 -621 2548 2163"
    underline-thickness="102"
    underline-position="-204"
    unicode-range="U+0020-FB04"
  />
<missing-glyph horiz-adv-x="1024" 
d="M0 -410v2048h1024v-2048h-1024zM145 1536l367 -799l367 799h-734zM102 -156l353 770l-353 770v-1540zM922 1384l-353 -770l353 -770v1540zM512 492l-367 -799h734z" />
    <glyph glyph-name="f_f" unicode="ff" horiz-adv-x="1638" 
d="M213 0v872h-137v256h137v74q0 183 90 279q88 88 260 88q126 0 228 -31v-258q-83 27 -150 27q-123 0 -123 -131v-50h270v-254h-266v-872h-309zM1024 0v872h-137v256h137v74q0 183 90 279q88 88 260 88q126 0 228 -31v-258q-83 27 -150 27q-123 0 -123 -131v-50h270v-254
h-266v-872h-309z" />
    <glyph glyph-name="fi" unicode="fi" horiz-adv-x="1464" 
d="M213 0v872h-137v256h137v74q0 183 90 279q88 88 260 88q126 0 228 -31v-258q-83 27 -150 27q-123 0 -123 -131v-50h270v-254h-266v-872h-309zM973 1274v278h327v-278h-327zM983 0v1139h309v-1139h-309z" />
    <glyph glyph-name="fl" unicode="fl" horiz-adv-x="1464" 
d="M213 0v872h-137v256h137v74q0 183 90 279q88 88 260 88q126 0 228 -31v-258q-83 27 -150 27q-123 0 -123 -131v-50h270v-254h-266v-872h-309zM983 0v1554h309v-1554h-309z" />
    <glyph glyph-name="f_f_i" unicode="ffi" horiz-adv-x="2275" 
d="M213 0v872h-137v256h137v74q0 183 90 279q88 88 260 88q126 0 228 -31v-258q-83 27 -150 27q-123 0 -123 -131v-50h270v-254h-266v-872h-309zM1024 0v872h-137v256h137v74q0 183 90 279q88 88 260 88q126 0 228 -31v-258q-83 27 -150 27q-123 0 -123 -131v-50h270v-254
h-266v-872h-309zM1784 1274v278h327v-278h-327zM1794 0v1139h309v-1139h-309z" />
    <glyph glyph-name="f_f_l" unicode="ffl" horiz-adv-x="2275" 
d="M213 0v872h-137v256h137v74q0 183 90 279q88 88 260 88q126 0 228 -31v-258q-83 27 -150 27q-123 0 -123 -131v-50h270v-254h-266v-872h-309zM1024 0v872h-137v256h137v74q0 183 90 279q88 88 260 88q126 0 228 -31v-258q-83 27 -150 27q-123 0 -123 -131v-50h270v-254
h-266v-872h-309zM1794 0v1554h309v-1554h-309z" />
    <glyph glyph-name=".notdef" horiz-adv-x="1024" 
d="M0 -410v2048h1024v-2048h-1024zM145 1536l367 -799l367 799h-734zM102 -156l353 770l-353 770v-1540zM922 1384l-353 -770l353 -770v1540zM512 492l-367 -799h734z" />
    <glyph glyph-name=".null" horiz-adv-x="0" 
 />
    <glyph glyph-name="nonmarkingreturn" horiz-adv-x="682" 
 />
    <glyph glyph-name="space" unicode=" " horiz-adv-x="651" 
 />
    <glyph glyph-name="exclam" unicode="!" horiz-adv-x="696" 
d="M262 500l-96 942v49h364v-49l-96 -942h-172zM182 0v332h332v-332h-332z" />
    <glyph glyph-name="quotedbl" unicode="&#x22;" horiz-adv-x="1110" 
d="M627 819l41 672h344v-10l-228 -662h-157zM131 819l41 672h344v-10l-227 -662h-158z" />
    <glyph glyph-name="numbersign" unicode="#" horiz-adv-x="1507" 
d="M1348 586v-262h-240l-55 -324h-271l56 324h-316l-55 -324h-270l55 324h-168v262h213l55 327h-192v263h237l56 315h270l-55 -315h315l55 315h271l-56 -315h170v-263h-215l-55 -327h195zM616 922l-57 -344h330l57 344h-330z" />
    <glyph glyph-name="dollar" unicode="$" horiz-adv-x="1390" 
d="M1219 1327l-140 -237q-142 92 -268 127v-340q245 -67 354 -172t109 -281v-4q0 -175 -123.5 -286t-329.5 -132v-211h-215v215q-286 35 -502 205l160 231q189 -143 352 -174v355q-239 64 -347.5 165t-108.5 283v4q0 175 120.5 285.5t325.5 130.5v123h215v-127
q216 -32 398 -160zM975 403v5q0 58 -36 95.5t-128 69.5v-315q164 21 164 145zM459 1094v-4q0 -58 32.5 -94.5t124.5 -67.5v307q-157 -19 -157 -141z" />
    <glyph glyph-name="percent" unicode="%" horiz-adv-x="1843" 
d="M463 745q-157 0 -258 109.5t-101 267.5v4q0 161 102 271t261 110q158 0 258 -109t100 -268v-4q0 -160 -101 -270.5t-261 -110.5zM463 1321q-66 0 -103.5 -54.5t-37.5 -136.5v-4q0 -80 40.5 -136t104.5 -56q66 0 103.5 54.5t37.5 133.5v4q0 81 -40.5 138t-104.5 57z
M850 801l493 690h246l-596 -801l-493 -690h-246zM1376 -16q-158 0 -258 108.5t-100 267.5v5q0 160 100.5 270t261.5 110q157 0 258 -109t101 -267v-4q0 -160 -102 -270.5t-261 -110.5zM1380 170q66 0 104 55.5t38 134.5v5q0 79 -42 135.5t-104 56.5q-66 0 -103.5 -54.5
t-37.5 -133.5v-4q0 -81 40.5 -138t104.5 -57z" />
    <glyph glyph-name="ampersand" unicode="&#x26;" horiz-adv-x="1499" 
d="M1198 -31l-176 181q-201 -170 -442 -170q-217 0 -357.5 117t-140.5 311v4q0 277 297 411q-109 149 -109 301v4q0 160 121 274t326 114q186 0 301 -106.5t115 -264.5v-4q0 -267 -318 -389l211 -211q98 161 148 262l231 -127q-106 -197 -197 -320l222 -223zM651 918
q105 38 155 86t50 118v4q0 66 -39.5 105t-105.5 39q-69 0 -110.5 -43.5t-41.5 -112.5v-4q0 -50 21 -92.5t71 -99.5zM616 238q115 0 230 94l-295 299q-152 -79 -152 -207v-4q0 -82 60 -132t157 -50z" />
    <glyph glyph-name="quotesingle" unicode="'" horiz-adv-x="618" 
d="M131 819l41 672h348v-10l-227 -662h-162z" />
    <glyph glyph-name="parenleft" unicode="(" horiz-adv-x="962" 
d="M862 -94l-137 -207q-298 161 -444 384t-146 527v2q0 303 146.5 527t443.5 385l137 -207q-221 -155 -319.5 -318.5t-98.5 -388.5v-2q0 -222 99.5 -388t318.5 -314z" />
    <glyph glyph-name="parenright" unicode=")" horiz-adv-x="962" 
d="M238 -301l-138 207q221 155 319.5 317.5t98.5 386.5v2q0 223 -99.5 390t-318.5 315l138 207q297 -161 443 -385t146 -529v-2q0 -303 -145.5 -525.5t-443.5 -383.5z" />
    <glyph glyph-name="asterisk" unicode="*" horiz-adv-x="931" 
d="M381 797l33 256l-207 -158l-86 149l237 103l-237 100l86 150l207 -158l-33 256h170l-33 -256l207 158l88 -150l-240 -100l240 -103l-88 -149l-207 158l33 -256h-170z" />
    <glyph glyph-name="plus" unicode="+" horiz-adv-x="1376" 
d="M543 221v387h-389v283h389v387h291v-387h391v-283h-391v-387h-291z" />
    <glyph glyph-name="comma" unicode="," horiz-adv-x="618" 
d="M94 -338l-26 129q217 24 202 209h-127v332h332v-281q0 -199 -95 -291.5t-286 -97.5z" />
    <glyph glyph-name="hyphen" unicode="-" horiz-adv-x="884" 
d="M117 508v301h651v-301h-651z" />
    <glyph glyph-name="period" unicode="." horiz-adv-x="618" 
d="M143 0v332h332v-332h-332z" />
    <glyph glyph-name="slash" unicode="/" horiz-adv-x="1140" 
d="M-49 -272l946 1972h264l-946 -1972h-264z" />
    <glyph glyph-name="zero" unicode="0" horiz-adv-x="1568" 
d="M782 -25q-194 0 -345 101.5t-231.5 275t-80.5 389.5v4q0 215 82.5 390.5t234.5 278t344 102.5q193 0 344 -101.5t232.5 -275.5t81.5 -389v-5q0 -216 -81.5 -390.5t-233.5 -277t-347 -102.5zM786 258q151 0 242.5 136.5t91.5 346.5v4q0 136 -41.5 246.5t-119.5 176
t-177 65.5q-150 0 -241.5 -136.5t-91.5 -346.5v-5q0 -212 92.5 -349.5t244.5 -137.5z" />
    <glyph glyph-name="one" unicode="1" horiz-adv-x="903" 
d="M387 0v1182l-262 -66l-66 258l424 127h215v-1501h-311z" />
    <glyph glyph-name="two" unicode="2" horiz-adv-x="1339" 
d="M113 0v250l499 412q77 67 120.5 108t79 86t49 85t13.5 87q0 96 -57 149.5t-151 53.5q-87 0 -154.5 -47t-157.5 -158l-221 176q77 107 149.5 171t173 101t230.5 37q229 0 369.5 -125t140.5 -331v-4q0 -62 -10 -114t-33.5 -100.5t-52 -88.5t-77.5 -88t-96.5 -88t-121.5 -99
l-256 -201h661v-272h-1097z" />
    <glyph glyph-name="three" unicode="3" horiz-adv-x="1337" 
d="M670 -25q-362 0 -578 258l217 205q82 -92 167.5 -137t197.5 -45q99 0 160 52t61 138v5q0 96 -79 147t-222 51h-133l-51 199l366 373h-598v270h1004v-238l-385 -372q66 -10 122.5 -29t110 -52.5t91 -78.5t60.5 -111t23 -147v-4q0 -214 -145.5 -349t-388.5 -135z" />
    <glyph glyph-name="four" unicode="4" horiz-adv-x="1480" 
d="M862 0v324h-733l-53 223l821 954h266v-921h203v-256h-203v-324h-301zM446 580h416v489z" />
    <glyph glyph-name="five" unicode="5" horiz-adv-x="1355" 
d="M657 -25q-172 0 -306.5 57t-248.5 167l191 227q91 -82 177.5 -124t182.5 -42q120 0 189 57t69 160v4q0 99 -74 155t-198 56q-122 0 -254 -57l-184 123l43 733h911v-277h-641l-18 -276q114 29 204 29q110 0 203 -28t165 -84.5t112.5 -149t40.5 -213.5v-5q0 -234 -154 -373
t-410 -139z" />
    <glyph glyph-name="six" unicode="6" horiz-adv-x="1423" 
d="M729 -25q-270 0 -428 158q-87 87 -131.5 220.5t-44.5 344.5v4q0 175 40.5 322t119.5 257.5t204.5 172.5t286.5 62q143 0 251 -40.5t212 -123.5l-166 -244q-79 65 -147 94t-160 29q-68 0 -122 -26t-87.5 -65t-56.5 -91.5t-33.5 -99t-13.5 -93.5h2q141 111 317 111
q149 0 266 -53.5t186.5 -162.5t69.5 -257v-7q0 -226 -160.5 -369t-404.5 -143zM717 244q124 0 194 64t70 165v6q0 101 -71.5 163.5t-196.5 62.5q-122 0 -193 -63t-71 -163v-4q0 -100 73 -165.5t195 -65.5z" />
    <glyph glyph-name="seven" unicode="7" horiz-adv-x="1331" 
d="M197 0l667 1219h-710v272h1067v-238l-668 -1253h-356z" />
    <glyph glyph-name="eight" unicode="8" horiz-adv-x="1357" 
d="M680 -20q-163 0 -294 53t-206.5 151t-75.5 224v4q0 133 61.5 218.5t186.5 141.5q-97 58 -146.5 135t-49.5 193v4q0 174 146 290.5t378 116.5q231 0 376.5 -116t145.5 -291v-4q0 -115 -49.5 -192.5t-144.5 -135.5q124 -62 184.5 -143t60.5 -209v-4q0 -133 -75.5 -233
t-204.5 -151.5t-293 -51.5zM680 879q100 0 161.5 51.5t61.5 136.5v4q0 75 -61 127.5t-162 52.5t-163 -51.5t-62 -126.5v-4q0 -85 61.5 -137.5t163.5 -52.5zM680 240q124 0 196 54t72 138v4q0 89 -74 140t-194 51t-195 -51t-75 -140v-4q0 -82 72.5 -137t197.5 -55z" />
    <glyph glyph-name="nine" unicode="9" horiz-adv-x="1423" 
d="M657 260q68 0 123 25.5t88.5 64t57 89.5t34 96.5t13.5 91.5h-2q-118 -115 -312 -115q-244 0 -387 127.5t-143 351.5v4q0 227 157.5 374t407.5 147q146 0 242 -37t186 -123q176 -176 176 -563v-5q0 -243 -73.5 -425t-221 -285t-352.5 -103q-154 0 -269 45.5t-218 131.5
l166 239q85 -68 160.5 -99.5t166.5 -31.5zM711 774q124 0 194 65t70 167v4q0 106 -72.5 171.5t-197.5 65.5t-194 -65t-69 -172v-4q0 -105 72.5 -168.5t196.5 -63.5z" />
    <glyph glyph-name="colon" unicode=":" horiz-adv-x="638" 
d="M154 807v332h331v-332h-331zM154 0v332h331v-332h-331z" />
    <glyph glyph-name="semicolon" unicode=";" horiz-adv-x="638" 
d="M154 807v332h331v-332h-331zM104 -338l-26 129q218 24 203 209h-127v332h331v-281q0 -199 -95 -291.5t-286 -97.5z" />
    <glyph glyph-name="less" unicode="&#x3c;" horiz-adv-x="1376" 
d="M1182 154l-1030 454v283l1030 455v-289l-729 -305l729 -306v-292z" />
    <glyph glyph-name="equal" unicode="=" horiz-adv-x="1376" 
d="M166 883v282h1046v-282h-1046zM166 334v282h1046v-282h-1046z" />
    <glyph glyph-name="greater" unicode="&#x3e;" horiz-adv-x="1376" 
d="M197 154v288l727 306l-727 305v293l1028 -455v-283z" />
    <glyph glyph-name="question" unicode="?" horiz-adv-x="1173" 
d="M432 500l-47 346l10 10q197 7 287 58t90 145v4q0 76 -54 119t-151 43q-176 0 -325 -152l-189 205q204 231 520 231q233 0 372.5 -115.5t139.5 -322.5v-4q0 -351 -421 -428l-23 -139h-209zM365 0v332h331v-332h-331z" />
    <glyph glyph-name="at" unicode="@" horiz-adv-x="2103" 
d="M1071 -344q-201 0 -378.5 74t-302.5 199t-197 296t-72 359t73 360t197.5 297.5t298 200t365.5 74.5q190 0 363.5 -71t296 -187t195 -269.5t72.5 -314.5q0 -129 -33.5 -232.5t-91.5 -168.5t-133.5 -99.5t-162.5 -34.5q-213 0 -324 133q-137 -133 -317 -133
q-167 0 -278.5 112.5t-111.5 297.5q0 146 67.5 270t177.5 194t233 70q191 0 297 -147l22 115l244 -39l-101 -566q-6 -25 -6 -71q0 -61 42 -99t116 -38q119 0 195.5 114t76.5 322q0 146 -64 284t-174 242.5t-267.5 168t-333.5 63.5q-178 0 -335.5 -67t-269 -181.5
t-176.5 -270.5t-65 -329q0 -174 64.5 -329.5t177 -269t274 -179.5t346.5 -66q153 0 275 34.5t247 106.5l43 -65q-266 -160 -565 -160zM989 352q96 0 168 72q94 94 94 242q0 91 -56.5 147.5t-145.5 56.5q-96 0 -172 -73q-93 -93 -93 -234q0 -101 56 -156t149 -55z" />
    <glyph glyph-name="A" unicode="A" horiz-adv-x="1699" 
d="M61 0l644 1501h290l641 -1501h-329l-140 340h-645l-139 -340h-322zM635 618h420l-209 506z" />
    <glyph glyph-name="B" unicode="B" horiz-adv-x="1554" 
d="M190 0v1491h687q254 0 391 -131q100 -100 100 -254v-4q0 -209 -199 -324q138 -51 210.5 -136.5t72.5 -227.5v-4q0 -200 -149.5 -305t-407.5 -105h-705zM1055 1051v4q0 76 -58 117.5t-166 41.5h-335v-331h315q116 0 180 41.5t64 126.5zM1139 446v5q0 170 -256 170h-387
v-345h399q118 0 181 42.5t63 127.5z" />
    <glyph glyph-name="C" unicode="C" horiz-adv-x="1589" 
d="M887 -25q-161 0 -303.5 60t-243 162.5t-159 244t-58.5 299.5v4q0 158 57.5 300t158.5 245.5t246.5 164.5t313.5 61q198 0 334.5 -59t253.5 -171l-201 -231q-94 85 -186 128.5t-203 43.5q-191 0 -317.5 -139t-126.5 -338v-5q0 -131 55.5 -240.5t158 -175t230.5 -65.5
q122 0 211 43.5t188 134.5l201 -202q-123 -131 -265.5 -198t-344.5 -67z" />
    <glyph glyph-name="D" unicode="D" horiz-adv-x="1681" 
d="M190 0v1491h576q229 0 411 -97.5t282 -266.5t100 -377v-5q0 -208 -100 -378t-282 -268.5t-411 -98.5h-576zM766 1206h-262v-921h262q207 0 335 126.5t128 329.5v4q0 203 -128.5 332t-334.5 129z" />
    <glyph glyph-name="E" unicode="E" horiz-adv-x="1443" 
d="M190 0v1491h1121v-281h-809v-319h712v-281h-712v-329h819v-281h-1131z" />
    <glyph glyph-name="F" unicode="F" horiz-adv-x="1413" 
d="M190 0v1491h1129v-287h-815v-334h721v-286h-721v-584h-314z" />
    <glyph glyph-name="G" unicode="G" horiz-adv-x="1685" 
d="M905 -25q-172 0 -318 58t-247.5 159t-159 243t-57.5 306v4q0 209 99.5 385t279.5 281t401 105q192 0 325 -49.5t259 -153.5l-199 -240q-92 78 -182.5 116t-212.5 38q-183 0 -311.5 -140.5t-128.5 -336.5v-5q0 -210 129.5 -347.5t332.5 -137.5q189 0 320 94v228h-340v272
h645v-643q-281 -236 -635 -236z" />
    <glyph glyph-name="H" unicode="H" horiz-adv-x="1634" 
d="M190 0v1491h314v-596h626v596h316v-1491h-316v604h-626v-604h-314z" />
    <glyph glyph-name="I" unicode="I" horiz-adv-x="724" 
d="M205 0v1491h315v-1491h-315z" />
    <glyph glyph-name="J" unicode="J" horiz-adv-x="1216" 
d="M526 -20q-298 0 -485 225l201 221q67 -78 132.5 -117t143.5 -39q100 0 154.5 63t54.5 193v965h322v-977q0 -257 -140 -397q-134 -137 -383 -137z" />
    <glyph glyph-name="K" unicode="K" horiz-adv-x="1568" 
d="M190 0v1491h314v-672l622 672h387l-612 -635l639 -856h-379l-473 641l-184 -190v-451h-314z" />
    <glyph glyph-name="L" unicode="L" horiz-adv-x="1333" 
d="M190 0v1491h314v-1204h751v-287h-1065z" />
    <glyph glyph-name="M" unicode="M" horiz-adv-x="1865" 
d="M190 0v1491h338l404 -645l405 645h338v-1491h-313v993l-430 -651h-8l-426 645v-987h-308z" />
    <glyph glyph-name="N" unicode="N" horiz-adv-x="1699" 
d="M190 0v1491h289l719 -940v940h311v-1491h-268l-741 971v-971h-310z" />
    <glyph glyph-name="O" unicode="O" horiz-adv-x="1826" 
d="M911 -25q-169 0 -316.5 60.5t-250.5 163.5t-162 244t-59 298v4q0 156 60 297.5t163.5 246t252 166t316.5 61.5q169 0 316.5 -60.5t250.5 -163.5t162.5 -244t59.5 -298v-5q0 -156 -60 -297.5t-164 -245.5t-252.5 -165.5t-316.5 -61.5zM915 264q199 0 329 138.5t130 338.5
v4q0 199 -132.5 340.5t-330.5 141.5q-199 0 -328.5 -138.5t-129.5 -338.5v-5q0 -131 58 -240.5t164.5 -175t239.5 -65.5z" />
    <glyph glyph-name="P" unicode="P" horiz-adv-x="1439" 
d="M190 0v1491h605q262 0 415.5 -141.5t153.5 -370.5v-4q0 -126 -47 -226t-129 -163.5t-190 -97t-234 -33.5h-260v-455h-314zM504 735h270q126 0 199.5 66t73.5 168v4q0 114 -74 173.5t-205 59.5h-264v-471z" />
    <glyph glyph-name="Q" unicode="Q" horiz-adv-x="1826" 
d="M1724 178l-200 -223l-168 151q-200 -131 -445 -131q-169 0 -316.5 60.5t-250.5 163.5t-162 244t-59 298v4q0 156 60 297.5t163.5 246t252 166t316.5 61.5q169 0 316.5 -60.5t250.5 -163.5t162.5 -244t59.5 -298v-5q0 -242 -135 -434zM915 264q118 0 209 45l-245 211
l200 225l248 -225q47 103 47 221v4q0 199 -132.5 340.5t-330.5 141.5q-199 0 -328.5 -138.5t-129.5 -338.5v-5q0 -131 58 -240.5t164.5 -175t239.5 -65.5z" />
    <glyph glyph-name="R" unicode="R" horiz-adv-x="1556" 
d="M190 0v1491h678q283 0 435 -152q124 -124 124 -335v-5q0 -177 -86 -292t-239 -168l373 -539h-369l-330 485h-272v-485h-314zM504 764h344q122 0 192 60t70 159v4q0 107 -70.5 163t-197.5 56h-338v-442z" />
    <glyph glyph-name="S" unicode="S" horiz-adv-x="1380" 
d="M719 -20q-368 0 -631 237l186 223q108 -91 217 -137.5t234 -46.5q104 0 164.5 41.5t60.5 110.5v4q0 47 -24 77t-89 58t-194 61q-101 25 -169 48t-135 59.5t-106 82t-62.5 112t-23.5 153.5v4q0 199 146 321.5t375 122.5q316 0 551 -188l-166 -238q-205 150 -391 150
q-95 0 -148 -39.5t-53 -99.5v-4q0 -75 65 -115t262 -90q119 -30 203 -66t147.5 -88.5t94.5 -124.5t31 -166v-4q0 -215 -150 -336.5t-395 -121.5z" />
    <glyph glyph-name="T" unicode="T" horiz-adv-x="1394" 
d="M541 0v1200h-459v291h1231v-291h-457v-1200h-315z" />
    <glyph glyph-name="U" unicode="U" horiz-adv-x="1626" 
d="M809 -23q-303 0 -473 169.5t-170 490.5v854h315v-844q0 -186 87 -283.5t245 -97.5t246 94t88 275v856h313v-842q0 -331 -172.5 -501.5t-478.5 -170.5z" />
    <glyph glyph-name="V" unicode="V" horiz-adv-x="1613" 
d="M668 -10l-607 1501h349l401 -1069l401 1069h340l-606 -1501h-278z" />
    <glyph glyph-name="W" unicode="W" horiz-adv-x="2404" 
d="M586 -10l-512 1501h338l319 -1028l340 1032h270l340 -1032l318 1028h330l-510 -1501h-275l-342 993l-342 -993h-274z" />
    <glyph glyph-name="X" unicode="X" horiz-adv-x="1574" 
d="M1118 1491h359l-502 -727l522 -764h-369l-346 524l-348 -524h-358l524 758l-502 733h369l324 -496z" />
    <glyph glyph-name="Y" unicode="Y" horiz-adv-x="1542" 
d="M612 0v588l-575 903h369l366 -610l375 610h358l-577 -897v-594h-316z" />
    <glyph glyph-name="Z" unicode="Z" horiz-adv-x="1521" 
d="M143 0v238l832 976h-805v277h1210v-238l-831 -977h831v-276h-1237z" />
    <glyph glyph-name="bracketleft" unicode="[" horiz-adv-x="1001" 
d="M186 -276v1767h682v-244h-383v-1280h383v-243h-682z" />
    <glyph glyph-name="backslash" unicode="\" horiz-adv-x="1140" 
d="M928 -272l-948 1972h264l948 -1972h-264z" />
    <glyph glyph-name="bracketright" unicode="]" horiz-adv-x="1001" 
d="M133 -276v243h385v1280h-385v244h682v-1767h-682z" />
    <glyph glyph-name="asciicircum" unicode="^" horiz-adv-x="1081" 
d="M117 1051l317 440h213l318 -440h-228l-198 256l-199 -256h-223z" />
    <glyph glyph-name="underscore" unicode="_" horiz-adv-x="1294" 
d="M4 -340v238h1286v-238h-1286z" />
    <glyph glyph-name="grave" unicode="`" horiz-adv-x="1081" 
d="M522 1268l-274 254l270 116l234 -370h-230z" />
    <glyph glyph-name="a" unicode="a" horiz-adv-x="1275" 
d="M481 -23q-168 0 -281.5 94t-113.5 257v4q0 180 125 271t336 91q147 0 284 -45v21q0 105 -63.5 160t-187.5 55q-147 0 -318 -64l-78 238q104 46 206 69t235 23q253 0 383 -127q122 -122 122 -360v-664h-301v127q-136 -150 -348 -150zM573 195q117 0 190 58t73 150v62
q-98 43 -218 43q-109 0 -170 -43t-61 -121v-4q0 -68 51.5 -106.5t134.5 -38.5z" />
    <glyph glyph-name="b" unicode="b" horiz-adv-x="1452" 
d="M827 -23q-120 0 -205.5 47.5t-154.5 129.5v-154h-311v1554h311v-585q139 190 360 190q101 0 194 -39.5t166 -112t117 -186t44 -250.5v-4q0 -138 -43.5 -251.5t-116 -186.5t-166 -112.5t-195.5 -39.5zM750 244q121 0 203.5 89t82.5 234v4q0 143 -83 233.5t-203 90.5
t-203.5 -90.5t-83.5 -233.5v-4q0 -143 83.5 -233t203.5 -90z" />
    <glyph glyph-name="c" unicode="c" horiz-adv-x="1232" 
d="M692 -25q-168 0 -304.5 79t-212 213t-75.5 296v4q0 160 75 295t212.5 216t308.5 81q154 0 263 -48.5t192 -143.5l-193 -205q-60 65 -120.5 97t-143.5 32q-124 0 -205 -93.5t-81 -226.5v-4q0 -138 83 -231.5t216 -93.5q79 0 140.5 31t127.5 94l182 -183
q-90 -101 -199 -155t-266 -54z" />
    <glyph glyph-name="d" unicode="d" horiz-adv-x="1452" 
d="M625 -23q-101 0 -194 39.5t-166 112t-117 186.5t-44 252v4q0 137 43.5 250t116 186t166 112.5t195.5 39.5q121 0 206.5 -46.5t153.5 -127.5v569h311v-1554h-311v168q-140 -191 -360 -191zM702 244q120 0 203.5 90t83.5 233v4q0 143 -83.5 233.5t-203.5 90.5
q-121 0 -203.5 -89.5t-82.5 -234.5v-4q0 -143 83 -233t203 -90z" />
    <glyph glyph-name="e" unicode="e" horiz-adv-x="1318" 
d="M692 -25q-168 0 -302.5 73.5t-212 208.5t-77.5 306v4q0 162 71 297t200.5 215t290.5 80q137 0 244.5 -50.5t173.5 -137t100 -195.5t34 -233q0 -20 -4 -82h-800q23 -116 97.5 -176t188.5 -60q85 0 150 27.5t133 91.5l178 -158q-171 -211 -465 -211zM406 655h505
q-18 117 -81 185.5t-168 68.5q-103 0 -170 -68t-86 -186z" />
    <glyph glyph-name="f" unicode="f" horiz-adv-x="827" 
d="M213 0v872h-137v256h137v74q0 183 90 279q88 88 260 88q126 0 228 -31v-258q-83 27 -150 27q-123 0 -123 -131v-50h270v-254h-266v-872h-309z" />
    <glyph glyph-name="g" unicode="g" horiz-adv-x="1452" 
d="M666 -344q-285 0 -504 121l106 233q96 -54 187 -80t202 -26q332 0 332 317v62q-78 -95 -166 -143t-211 -48q-100 0 -191.5 36.5t-162 102.5t-112.5 168.5t-42 225.5v4q0 122 42 224t113 168t162 102t191 36q124 0 211 -45.5t162 -128.5v154h311v-887q0 -300 -145 -445
q-151 -151 -485 -151zM700 350q123 0 206 77.5t83 197.5v4q0 121 -82.5 196.5t-206.5 75.5q-123 0 -203.5 -75.5t-80.5 -196.5v-4q0 -122 80.5 -198.5t203.5 -76.5z" />
    <glyph glyph-name="h" unicode="h" horiz-adv-x="1341" 
d="M156 0v1554h311v-579q134 184 338 184q185 0 288 -112.5t103 -311.5v-735h-311v637q0 118 -53 180t-152 62q-100 0 -156.5 -62.5t-56.5 -179.5v-637h-311z" />
    <glyph glyph-name="i" unicode="i" horiz-adv-x="653" 
d="M162 1274v278h327v-278h-327zM172 0v1139h309v-1139h-309z" />
    <glyph glyph-name="j" unicode="j" horiz-adv-x="653" 
d="M162 1274v278h327v-278h-327zM123 -348q-71 0 -137 14v244q36 -8 69 -8q54 0 85.5 33t31.5 102v1102h309v-1127q0 -184 -89.5 -272t-268.5 -88z" />
    <glyph glyph-name="k" unicode="k" horiz-adv-x="1273" 
d="M156 0v1554h311v-847l397 432h373l-438 -453l452 -686h-360l-301 473l-123 -131v-342h-311z" />
    <glyph glyph-name="l" unicode="l" horiz-adv-x="653" 
d="M172 0v1554h309v-1554h-309z" />
    <glyph glyph-name="m" unicode="m" horiz-adv-x="2039" 
d="M156 0v1139h311v-164q134 184 338 184q230 0 323 -184q149 184 377 184q185 0 286 -107.5t101 -314.5v-737h-311v637q0 119 -50 180.5t-147 61.5q-95 0 -149.5 -62.5t-54.5 -179.5v-637h-312v637q0 118 -51 180t-145 62q-95 0 -150 -63.5t-55 -178.5v-637h-311z" />
    <glyph glyph-name="n" unicode="n" horiz-adv-x="1341" 
d="M156 0v1139h311v-164q134 184 338 184q185 0 288 -112.5t103 -311.5v-735h-311v637q0 118 -53 180t-152 62q-100 0 -156.5 -62.5t-56.5 -179.5v-637h-311z" />
    <glyph glyph-name="o" unicode="o" horiz-adv-x="1427" 
d="M711 -25q-129 0 -243 46t-194.5 124.5t-127 187.5t-46.5 230v4q0 121 47 230t128 188.5t196.5 126.5t245.5 47q129 0 242.5 -46.5t194 -125t127 -187t46.5 -229.5v-4q0 -162 -79.5 -297.5t-221 -215t-315.5 -79.5zM717 242q137 0 220 93t83 228v4q0 134 -87 229t-222 95
q-137 0 -220 -92.5t-83 -227.5v-4q0 -134 87 -229.5t222 -95.5z" />
    <glyph glyph-name="p" unicode="p" horiz-adv-x="1452" 
d="M156 -340v1479h311v-170q139 190 360 190q101 0 194 -39.5t166 -112t117 -186t44 -250.5v-4q0 -138 -43.5 -251.5t-116 -186.5t-166 -112.5t-195.5 -39.5q-120 0 -205.5 47.5t-154.5 129.5v-494h-311zM750 244q121 0 203.5 89t82.5 234v4q0 143 -83 233.5t-203 90.5
t-203.5 -90.5t-83.5 -233.5v-4q0 -143 83.5 -233t203.5 -90z" />
    <glyph glyph-name="q" unicode="q" horiz-adv-x="1452" 
d="M985 -340v508q-140 -191 -360 -191q-101 0 -194 39.5t-166 112t-117 186.5t-44 252v4q0 137 43.5 250t116 186t166 112.5t195.5 39.5q121 0 206.5 -46.5t153.5 -127.5v154h311v-1479h-311zM702 244q120 0 203.5 90t83.5 233v4q0 143 -83.5 233.5t-203.5 90.5
q-121 0 -203.5 -89.5t-82.5 -234.5v-4q0 -143 83 -233t203 -90z" />
    <glyph glyph-name="r" unicode="r" horiz-adv-x="905" 
d="M156 0v1139h311v-236q54 129 142.5 195.5t228.5 60.5v-325h-17q-168 0 -261 -102.5t-93 -307.5v-424h-311z" />
    <glyph glyph-name="s" unicode="s" horiz-adv-x="1085" 
d="M553 -20q-269 0 -487 170l135 206q91 -66 185 -101.5t175 -35.5q72 0 109 24.5t37 67.5v4q0 24 -15.5 42.5t-46.5 33.5t-64 26.5t-80 25.5q-23 7 -34 10q-59 18 -100 33.5t-91 44t-80.5 62t-51.5 85t-21 115.5v4q0 166 118.5 262t297.5 96q108 0 218.5 -34.5t203.5 -96.5
l-119 -215q-185 106 -312 106q-60 0 -93.5 -24t-33.5 -62v-4q0 -11 3.5 -21t12.5 -19.5t17.5 -16.5t25 -15.5t28 -14t34.5 -14t36 -13t40.5 -13.5t40.5 -14q55 -17 97.5 -34t92 -46t81.5 -62.5t53.5 -83.5t21.5 -110v-4q0 -122 -58.5 -205.5t-154 -121t-221.5 -37.5z" />
    <glyph glyph-name="t" unicode="t" horiz-adv-x="899" 
d="M541 -18q-77 0 -135.5 16.5t-104 54.5t-69 105.5t-23.5 163.5v550h-137v267h137v295h311v-295h275v-267h-275v-499q0 -117 111 -117q89 0 160 39v-250q-110 -63 -250 -63z" />
    <glyph glyph-name="u" unicode="u" horiz-adv-x="1341" 
d="M537 -23q-185 0 -287.5 113.5t-102.5 312.5v736h310v-637q0 -118 53 -180t152 -62q100 0 156 62.5t56 179.5v637h312v-1139h-312v164q-68 -88 -146 -137.5t-191 -49.5z" />
    <glyph glyph-name="v" unicode="v" horiz-adv-x="1292" 
d="M506 -8l-453 1147h330l264 -779l268 779h324l-453 -1147h-280z" />
    <glyph glyph-name="w" unicode="w" horiz-adv-x="1849" 
d="M416 -8l-353 1147h316l190 -709l224 713h266l223 -715l197 711h309l-358 -1147h-281l-225 715l-230 -715h-278z" />
    <glyph glyph-name="x" unicode="x" horiz-adv-x="1257" 
d="M410 1139l221 -342l225 342h326l-387 -555l403 -584h-334l-239 367l-240 -367h-326l404 580l-387 559h334z" />
    <glyph glyph-name="y" unicode="y" horiz-adv-x="1292" 
d="M653 350l258 789h324l-440 -1168q-67 -176 -149.5 -247.5t-225.5 -71.5q-147 0 -283 78l105 225q74 -43 141 -43q45 0 72 17.5t51 66.5l-453 1143h330z" />
    <glyph glyph-name="z" unicode="z" horiz-adv-x="1214" 
d="M115 0v217l602 670h-582v252h971v-219l-604 -668h604v-252h-991z" />
    <glyph glyph-name="braceleft" unicode="{" horiz-adv-x="1058" 
d="M948 -94l-53 -207q-144 27 -241 65.5t-153 92t-79 117t-23 149.5q0 15 3.5 71t3.5 76q0 124 -54 174t-182 50h-55v235h55q129 0 182.5 50t53.5 173q0 20 -3.5 77t-3.5 71q0 86 23 149.5t79 117t153 92t241 65.5l53 -207q-86 -25 -138 -49t-80 -56t-37 -67t-9 -90
q0 -20 3 -77t3 -81q0 -114 -55.5 -182.5t-167.5 -104.5q113 -37 168 -104t55 -182q0 -22 -3 -79t-3 -79q0 -54 9 -88t37 -66.5t80 -56.5t138 -49z" />
    <glyph glyph-name="bar" unicode="|" horiz-adv-x="753" 
d="M254 -272v1972h246v-1972h-246z" />
    <glyph glyph-name="braceright" unicode="}" horiz-adv-x="1058" 
d="M164 -301l-53 207q86 25 138 49t80 56.5t37 66.5t9 88q0 22 -3 79t-3 79q0 115 55 182t168 104q-112 36 -167.5 104.5t-55.5 182.5q0 24 3 81t3 77q0 55 -9 90t-37 67t-80 56t-138 49l53 207q144 -27 241 -65.5t152.5 -92t78.5 -117t23 -149.5q0 -14 -3 -70.5t-3 -77.5
q0 -123 53.5 -173t182.5 -50h55v-235h-55q-128 0 -182 -50t-54 -174q0 -20 3 -76t3 -71q0 -86 -23 -149.5t-78.5 -117t-152.5 -92t-241 -65.5z" />
    <glyph glyph-name="asciitilde" unicode="~" horiz-adv-x="1095" 
d="M721 500q-79 0 -191 47q-79 37 -127 37q-47 0 -71 -23t-49 -82l-166 51q40 144 99 216.5t159 72.5q80 0 192 -47q6 -2 22.5 -8.5t23.5 -9t20.5 -7.5t21.5 -7t18.5 -3.5t18.5 -1.5q47 0 71.5 23.5t49.5 81.5l166 -52q-38 -144 -96.5 -216t-161.5 -72z" />
    <glyph glyph-name="uni00A0" unicode="&#xa0;" horiz-adv-x="0" 
 />
    <glyph glyph-name="exclamdown" unicode="&#xa1;" horiz-adv-x="696" 
d="M182 1159v332h332v-332h-332zM166 0v49l96 942h172l96 -942v-49h-364z" />
    <glyph glyph-name="cent" unicode="&#xa2;" horiz-adv-x="1253" 
d="M963 1503l-37 -188q138 -47 235 -158l-184 -199q-65 62 -113 84l-121 -608h2q121 11 240 123l176 -178q-95 -103 -203 -158.5t-256 -56.5h-2l-34 -176h-213l41 211q-170 63 -276.5 213t-106.5 340v4q0 163 76 298.5t213 215.5t305 80h12l31 153h215zM412 760v-4
q0 -97 37 -170.5t106 -114.5l119 608h-2q-112 -7 -186 -99t-74 -220z" />
    <glyph glyph-name="sterling" unicode="&#xa3;" horiz-adv-x="1388" 
d="M137 0v205l164 53v315h-164v261h164v178q0 234 127 364q135 135 375 135q88 0 161.5 -18t130.5 -53t100 -75.5t85 -96.5l-240 -191q-58 76 -111 110t-122 34q-80 0 -129 -52q-60 -57 -60 -165v-170h496v-261h-496v-301h658v-272h-1139z" />
    <glyph glyph-name="yen" unicode="&#xa5;" horiz-adv-x="1476" 
d="M193 559v221h311l-463 711h362l338 -565l344 565h353l-465 -711h313v-221h-395v-137h395v-221h-395v-201h-303v201h-395v221h395v137h-395z" />
    <glyph glyph-name="section" unicode="&#xa7;" horiz-adv-x="1361" 
d="M1038 506q47 -35 72 -87t25 -110v-4q0 -151 -115 -238t-320 -87q-310 0 -495 200l170 170q77 -71 153.5 -107t165.5 -36q72 0 109 22.5t37 59.5v4q0 40 -50.5 67t-193.5 58q-252 54 -360.5 126.5t-108.5 188.5v4q0 179 197 248q-95 71 -95 197v4q0 152 114.5 238.5
t318.5 86.5q310 0 495 -200l-170 -170q-153 143 -317 143q-71 0 -109.5 -22t-38.5 -60v-4q0 -39 47 -64.5t197 -60.5q259 -60 364 -127.5t105 -187.5v-4q0 -178 -197 -248zM836 610q57 0 92 26.5t35 72.5v4q0 42 -51 70.5t-171 58.5q-142 39 -215 39q-56 0 -91.5 -26.5
t-35.5 -72.5v-4q0 -42 51.5 -70.5t172.5 -58.5q137 -39 213 -39z" />
    <glyph glyph-name="dieresis" unicode="&#xa8;" horiz-adv-x="1081" 
d="M608 1268v280h301v-280h-301zM172 1268v280h301v-280h-301z" />
    <glyph glyph-name="copyright" unicode="&#xa9;" horiz-adv-x="1783" 
d="M891 -25q-213 0 -390.5 103.5t-278.5 279.5t-101 383v4q0 155 60.5 297t163.5 246t247 166t303 62q212 0 389 -103.5t278 -279.5t101 -383v-5q0 -207 -101.5 -384t-279.5 -281.5t-391 -104.5zM891 57q190 0 347.5 93t247 251t89.5 344v5q0 187 -89 344t-245.5 248.5
t-345.5 91.5q-144 0 -272 -55t-218.5 -148t-143 -219.5t-52.5 -266.5v-4q0 -187 89 -344t246 -248.5t347 -91.5zM901 334q-179 0 -298.5 121t-119.5 297v4q0 177 119.5 300.5t304.5 123.5q110 0 185 -32.5t137 -94.5l-113 -131q-105 92 -209 92q-102 0 -169.5 -75
t-67.5 -181v-4q0 -105 67 -179.5t170 -74.5q64 0 110.5 23t102.5 73l115 -117q-68 -72 -145.5 -108.5t-188.5 -36.5z" />
    <glyph glyph-name="ordfeminine" unicode="&#xaa;" horiz-adv-x="847" 
d="M336 852q-94 0 -154.5 50.5t-60.5 139.5v5q0 101 68 150.5t186 49.5q74 0 155 -24v10q0 56 -36 86.5t-103 30.5q-87 0 -174 -35l-43 131q111 51 242 51q141 0 211 -70q67 -67 67 -198v-365h-166v70q-69 -82 -192 -82zM387 973q63 0 104 31.5t41 80.5v35q-58 23 -120 23
q-58 0 -90.5 -23t-32.5 -65v-4q0 -35 27 -56.5t71 -21.5zM115 592v137h587v-137h-587z" />
    <glyph glyph-name="guillemotleft" unicode="&#xab;" horiz-adv-x="1374" 
d="M1044 90l-376 471v17l376 471l218 -107l-258 -371l258 -370zM473 90l-377 471v17l377 471l217 -107l-258 -371l258 -370z" />
    <glyph glyph-name="registered" unicode="&#xae;" horiz-adv-x="806" 
d="M403 766q-154 0 -262 109t-108 262v2q0 153 108 262.5t262 109.5q155 0 263 -108.5t108 -261.5v-2q0 -153 -108.5 -263t-262.5 -110zM403 807q137 0 232.5 98t95.5 234v2q0 137 -94.5 234.5t-233.5 97.5t-233 -98t-94 -236v-2q0 -137 94 -233.5t233 -96.5zM244 950v391
h184q75 0 119.5 -33t44.5 -98v-2q0 -43 -22.5 -76t-59.5 -45l94 -137h-125l-80 119h-49v-119h-106zM350 1153h72q61 0 61 49v2q0 21 -16.5 33.5t-44.5 11.5h-72v-96z" />
    <glyph glyph-name="macron" unicode="&#xaf;" horiz-adv-x="1081" 
d="M162 1280v217h758v-217h-758z" />
    <glyph glyph-name="degree" unicode="&#xb0;" horiz-adv-x="1034" 
d="M518 788q-145 0 -255.5 107.5t-110.5 249.5v4q0 142 110.5 248t255.5 106t255 -106t110 -248v-4q0 -142 -110 -249.5t-255 -107.5zM518 946q83 0 140 59t57 140v4q0 81 -57 140t-140 59q-85 0 -142 -59t-57 -140v-4q0 -81 57 -140t142 -59z" />
    <glyph glyph-name="plusminus" unicode="&#xb1;" horiz-adv-x="1376" 
d="M1212 805l-387 2l2 -381h-278l2 381l-387 -2v270l387 -2l-2 381h278l-2 -381l387 2v-270zM1212 0h-1048v258h1048v-258z" />
    <glyph glyph-name="two.sup" unicode="&#xb2;" 
d="M117 895v154l284 233q80 66 112 107.5t32 89.5q0 46 -33 73t-82 27q-52 0 -95.5 -28.5t-88.5 -86.5l-129 105q66 91 139 134.5t184 43.5q133 0 213 -69.5t80 -182.5q0 -86 -39 -148t-137 -139l-197 -155h377v-158h-620z" />
    <glyph glyph-name="three.sup" unicode="&#xb3;" 
d="M422 874q-186 0 -330 130l105 133q112 -101 227 -101q52 0 90.5 30.5t38.5 76.5q0 53 -42 79.5t-116 26.5h-98l-29 113l226 203h-347v159h574v-139l-240 -205q114 -11 184 -68.5t70 -162.5q0 -124 -84 -199.5t-229 -75.5z" />
    <glyph glyph-name="acute" unicode="&#xb4;" horiz-adv-x="1081" 
d="M330 1268l233 370l271 -116l-275 -254h-229z" />
    <glyph glyph-name="mu" unicode="&#xb5;" horiz-adv-x="1441" 
d="M1384 250v-240q-68 -22 -167 -22q-207 0 -275 141q-92 -143 -254 -143q-83 0 -158.5 40t-105.5 115h-4q3 -13 11 -46t11.5 -51t9 -46.5t7.5 -55.5t2 -55v-227h-305v1479h311v-645q0 -118 55 -181t154 -63q101 0 159 63.5t58 180.5v645h311v-789q4 -59 31 -82.5t82 -23.5
q40 0 67 6z" />
    <glyph glyph-name="paragraph" unicode="&#xb6;" horiz-adv-x="1259" 
d="M756 0v496h-49q-134 0 -246.5 31.5t-196.5 91.5t-131 155t-47 215v4q0 231 161 364.5t425 133.5h399v-1491h-315z" />
    <glyph glyph-name="periodcentered" unicode="&#xb7;" horiz-adv-x="618" 
d="M143 494v329h332v-329h-332z" />
    <glyph glyph-name="cedilla" unicode="&#xb8;" horiz-adv-x="1081" 
d="M526 -365l-262 109l205 297h223z" />
    <glyph glyph-name="one.sup" unicode="&#xb9;" horiz-adv-x="700" 
d="M492 895h-179v651l-161 -59l-52 147l258 103h134v-842z" />
    <glyph glyph-name="ordmasculine" unicode="&#xba;" horiz-adv-x="847" 
d="M422 850q-139 0 -232.5 92.5t-93.5 228.5v5q0 136 95.5 230.5t234.5 94.5t231.5 -92.5t92.5 -228.5v-6q0 -136 -94 -230t-234 -94zM117 592v137h614v-137h-614zM426 999q70 0 112 50t42 122v5q0 74 -44 125t-114 51t-113 -50.5t-43 -121.5v-6q0 -71 45 -123t115 -52z" />
    <glyph glyph-name="guillemotright" unicode="&#xbb;" horiz-adv-x="1374" 
d="M899 90l-217 107l258 370l-258 371l217 111l377 -471v-17zM330 90l-217 107l258 370l-258 371l217 111l377 -471v-17z" />
    <glyph glyph-name="onequarter" unicode="&#xbc;" horiz-adv-x="1775" 
d="M496 662h-179v651l-161 -62l-52 150l258 100h134v-839zM268 0l541 780l471 711h172l-541 -780l-471 -711h-172zM1579 172v-176h-164v176h-401l-17 170l402 498h180v-527h113v-141h-113zM1417 311v332l-264 -332h264z" />
    <glyph glyph-name="onehalf" unicode="&#xbd;" horiz-adv-x="1775" 
d="M1047 0v154l284 233q80 66 112 107.5t32 89.5q0 46 -33 73t-82 27q-52 0 -95.5 -28.5t-88.5 -86.5l-129 105q66 91 139 134.5t184 43.5q133 0 213 -69.5t80 -182.5q0 -86 -39 -148t-137 -139l-197 -155h377v-158h-620zM248 0l540 780l472 711h172l-541 -780l-471 -711
h-172zM496 662h-179v651l-161 -62l-52 150l258 100h134v-839z" />
    <glyph glyph-name="threequarters" unicode="&#xbe;" horiz-adv-x="1935" 
d="M1739 172v-176h-164v176h-401l-17 170l402 498h180v-527h112v-141h-112zM1577 311v332l-264 -332h264zM418 0l540 780l472 711h172l-541 -780l-471 -711h-172zM426 639q-185 0 -330 131l105 133q111 -100 227 -100q53 0 91 29t38 77q0 53 -42 80t-116 27h-98l-29 112
l226 201h-346v162h573v-139l-240 -207q112 -8 183 -66.5t71 -163.5q0 -124 -84 -200t-229 -76z" />
    <glyph glyph-name="questiondown" unicode="&#xbf;" horiz-adv-x="1173" 
d="M477 1159v332h334v-332h-334zM602 -18q-232 0 -373 115.5t-141 322.5v4q0 351 422 428l25 139h206l50 -346l-13 -10q-197 -7 -287 -58t-90 -145v-4q0 -75 54.5 -118.5t152.5 -43.5q175 0 324 152l188 -205q-204 -231 -518 -231z" />
    <glyph glyph-name="Agrave" unicode="&#xc0;" horiz-adv-x="1699" 
d="M61 0l644 1501h290l641 -1501h-329l-140 340h-645l-139 -340h-322zM635 618h420l-209 506zM975 1630h-238l-286 211l270 119z" />
    <glyph glyph-name="Aacute" unicode="&#xc1;" horiz-adv-x="1699" 
d="M61 0l644 1501h290l641 -1501h-329l-140 340h-645l-139 -340h-322zM635 618h420l-209 506zM723 1630l254 330l270 -119l-286 -211h-238z" />
    <glyph glyph-name="Acircumflex" unicode="&#xc2;" horiz-adv-x="1699" 
d="M61 0l644 1501h290l641 -1501h-329l-140 340h-645l-139 -340h-322zM635 618h420l-209 506zM434 1622l268 307h295l269 -307h-250l-168 119l-168 -119h-246z" />
    <glyph glyph-name="Atilde" unicode="&#xc3;" horiz-adv-x="1699" 
d="M61 0l644 1501h290l641 -1501h-329l-140 340h-645l-139 -340h-322zM635 618h420l-209 506zM1038 1630q-79 0 -202 49q-94 33 -125 33q-47 0 -72.5 -23.5t-50.5 -80.5l-168 53q40 143 99 215t163 72q77 0 203 -50q96 -34 125 -34q46 0 71.5 24t51.5 80l165 -51
q-38 -143 -97.5 -215t-162.5 -72z" />
    <glyph glyph-name="Adieresis" unicode="&#xc4;" horiz-adv-x="1699" 
d="M61 0l644 1501h290l641 -1501h-329l-140 340h-645l-139 -340h-322zM635 618h420l-209 506zM928 1630v264h303v-264h-303zM469 1630v264h303v-264h-303z" />
    <glyph glyph-name="Aring" unicode="&#xc5;" horiz-adv-x="1699" 
d="M61 0l605 1413q-78 66 -78 168q0 101 77.5 167.5t184.5 66.5t184.5 -66.5t77.5 -167.5t-80 -168l604 -1413h-329l-140 340h-645l-139 -340h-322zM635 618h420l-209 506zM850 1462q59 0 97 34.5t38 84.5q0 52 -38 86.5t-97 34.5q-60 0 -97.5 -34.5t-37.5 -86.5
q0 -51 37.5 -85t97.5 -34z" />
    <glyph glyph-name="AE" unicode="&#xc6;" horiz-adv-x="2242" 
d="M29 0l809 1491h1271v-281h-755v-319h659v-281h-659v-329h766v-281h-1080v340h-508l-182 -340h-321zM680 618h360v601h-39z" />
    <glyph glyph-name="Ccedilla" unicode="&#xc7;" horiz-adv-x="1589" 
d="M801 -365l-262 109l172 250q-261 59 -424.5 264.5t-163.5 482.5v4q0 158 57.5 300t158.5 245.5t246.5 164.5t313.5 61q198 0 334.5 -59t253.5 -171l-201 -231q-94 85 -186 128.5t-203 43.5q-191 0 -317.5 -139t-126.5 -338v-5q0 -131 55.5 -240.5t158 -175t230.5 -65.5
q122 0 211 43.5t188 134.5l201 -202q-113 -122 -246 -189t-311 -74z" />
    <glyph glyph-name="Egrave" unicode="&#xc8;" horiz-adv-x="1443" 
d="M881 1610h-238l-287 211l271 118zM190 0v1491h1121v-281h-809v-319h712v-281h-712v-329h819v-281h-1131z" />
    <glyph glyph-name="Eacute" unicode="&#xc9;" horiz-adv-x="1443" 
d="M629 1610l254 329l270 -118l-287 -211h-237zM190 0v1491h1121v-281h-809v-319h712v-281h-712v-329h819v-281h-1131z" />
    <glyph glyph-name="Ecircumflex" unicode="&#xca;" horiz-adv-x="1443" 
d="M190 0v1491h1121v-281h-809v-319h712v-281h-712v-329h819v-281h-1131zM338 1610l268 307h295l268 -307h-249l-168 119l-168 -119h-246z" />
    <glyph glyph-name="Edieresis" unicode="&#xcb;" horiz-adv-x="1443" 
d="M831 1610v264h304v-264h-304zM373 1610v264h303v-264h-303zM190 0v1491h1121v-281h-809v-319h712v-281h-712v-329h819v-281h-1131z" />
    <glyph glyph-name="Igrave" unicode="&#xcc;" horiz-adv-x="724" 
d="M205 0v1491h315v-1491h-315zM489 1610h-237l-287 211l271 118z" />
    <glyph glyph-name="Iacute" unicode="&#xcd;" horiz-adv-x="724" 
d="M205 0v1491h315v-1491h-315zM238 1610l254 329l270 -118l-287 -211h-237z" />
    <glyph glyph-name="Icircumflex" unicode="&#xce;" horiz-adv-x="724" 
d="M205 0v1491h315v-1491h-315zM-51 1610l268 307h295l268 -307h-250l-168 119l-167 -119h-246z" />
    <glyph glyph-name="Idieresis" unicode="&#xcf;" horiz-adv-x="724" 
d="M205 0v1491h315v-1491h-315zM442 1610v264h303v-264h-303zM-16 1610v264h303v-264h-303z" />
    <glyph glyph-name="Eth" unicode="&#xd0;" horiz-adv-x="1744" 
d="M254 0v641h-160v217h160v633h575q229 0 411 -97.5t282 -266.5t100 -377v-5q0 -208 -100 -378t-282 -268.5t-411 -98.5h-575zM899 641h-330v-356h260q208 0 335.5 126.5t127.5 329.5v4q0 204 -127.5 332.5t-335.5 128.5h-260v-348h330v-217z" />
    <glyph glyph-name="Ntilde" unicode="&#xd1;" horiz-adv-x="1699" 
d="M1038 1610q-79 0 -202 49q-94 33 -125 33q-47 0 -72.5 -23.5t-50.5 -81.5l-168 53q40 143 99 215t163 72q80 0 203 -49q99 -35 125 -35q46 0 71.5 24.5t51.5 80.5l165 -52q-38 -143 -97.5 -214.5t-162.5 -71.5zM190 0v1491h289l719 -940v940h311v-1491h-268l-741 971
v-971h-310z" />
    <glyph glyph-name="Ograve" unicode="&#xd2;" horiz-adv-x="1826" 
d="M1040 1630h-237l-287 211l270 119zM911 -25q-169 0 -316.5 60.5t-250.5 163.5t-162 244t-59 298v4q0 156 60 297.5t163.5 246t252 166t316.5 61.5q169 0 316.5 -60.5t250.5 -163.5t162.5 -244t59.5 -298v-5q0 -156 -60 -297.5t-164 -245.5t-252.5 -165.5t-316.5 -61.5z
M915 264q199 0 329 138.5t130 338.5v4q0 199 -132.5 340.5t-330.5 141.5q-199 0 -328.5 -138.5t-129.5 -338.5v-5q0 -131 58 -240.5t164.5 -175t239.5 -65.5z" />
    <glyph glyph-name="Oacute" unicode="&#xd3;" horiz-adv-x="1826" 
d="M786 1630l254 330l271 -119l-287 -211h-238zM911 -25q-169 0 -316.5 60.5t-250.5 163.5t-162 244t-59 298v4q0 156 60 297.5t163.5 246t252 166t316.5 61.5q169 0 316.5 -60.5t250.5 -163.5t162.5 -244t59.5 -298v-5q0 -156 -60 -297.5t-164 -245.5t-252.5 -165.5
t-316.5 -61.5zM915 264q199 0 329 138.5t130 338.5v4q0 199 -132.5 340.5t-330.5 141.5q-199 0 -328.5 -138.5t-129.5 -338.5v-5q0 -131 58 -240.5t164.5 -175t239.5 -65.5z" />
    <glyph glyph-name="Ocircumflex" unicode="&#xd4;" horiz-adv-x="1826" 
d="M911 -25q-169 0 -316.5 60.5t-250.5 163.5t-162 244t-59 298v4q0 156 60 297.5t163.5 246t252 166t316.5 61.5q169 0 316.5 -60.5t250.5 -163.5t162.5 -244t59.5 -298v-5q0 -156 -60 -297.5t-164 -245.5t-252.5 -165.5t-316.5 -61.5zM915 264q199 0 329 138.5t130 338.5
v4q0 199 -132.5 340.5t-330.5 141.5q-199 0 -328.5 -138.5t-129.5 -338.5v-5q0 -131 58 -240.5t164.5 -175t239.5 -65.5zM498 1630l268 307h295l268 -307h-250l-168 119l-168 -119h-245z" />
    <glyph glyph-name="Otilde" unicode="&#xd5;" horiz-adv-x="1826" 
d="M1102 1630q-80 0 -203 49q-94 33 -125 33q-47 0 -72.5 -23.5t-50.5 -80.5l-168 53q40 143 99 215t163 72q77 0 203 -50q96 -34 125 -34q46 0 71.5 24t51.5 80l166 -51q-38 -143 -97.5 -215t-162.5 -72zM911 -25q-169 0 -316.5 60.5t-250.5 163.5t-162 244t-59 298v4
q0 156 60 297.5t163.5 246t252 166t316.5 61.5q169 0 316.5 -60.5t250.5 -163.5t162.5 -244t59.5 -298v-5q0 -156 -60 -297.5t-164 -245.5t-252.5 -165.5t-316.5 -61.5zM915 264q199 0 329 138.5t130 338.5v4q0 199 -132.5 340.5t-330.5 141.5q-199 0 -328.5 -138.5
t-129.5 -338.5v-5q0 -131 58 -240.5t164.5 -175t239.5 -65.5z" />
    <glyph glyph-name="Odieresis" unicode="&#xd6;" horiz-adv-x="1826" 
d="M991 1630v264h303v-264h-303zM532 1630v264h304v-264h-304zM911 -25q-169 0 -316.5 60.5t-250.5 163.5t-162 244t-59 298v4q0 156 60 297.5t163.5 246t252 166t316.5 61.5q169 0 316.5 -60.5t250.5 -163.5t162.5 -244t59.5 -298v-5q0 -156 -60 -297.5t-164 -245.5
t-252.5 -165.5t-316.5 -61.5zM915 264q199 0 329 138.5t130 338.5v4q0 199 -132.5 340.5t-330.5 141.5q-199 0 -328.5 -138.5t-129.5 -338.5v-5q0 -131 58 -240.5t164.5 -175t239.5 -65.5z" />
    <glyph glyph-name="multiply" unicode="&#xd7;" horiz-adv-x="1376" 
d="M1020 223l-334 342l-334 -342l-190 191l342 334l-342 333l194 195l334 -342l334 342l190 -191l-342 -333l342 -334z" />
    <glyph glyph-name="Oslash" unicode="&#xd8;" horiz-adv-x="1826" 
d="M1419 1501h301l-209 -241q193 -215 193 -510v-5q0 -156 -60 -297.5t-164 -245.5t-252.5 -165.5t-316.5 -61.5q-234 0 -417 109l-86 -94h-302l209 241q-192 214 -192 510v4q0 156 60 297.5t163.5 246t252 166t316.5 61.5q229 0 416 -111zM446 750v-5q0 -151 80 -276
l611 707q-99 57 -226 57q-132 0 -239.5 -65.5t-166.5 -176t-59 -241.5zM915 258q132 0 239.5 65.5t166.5 176t59 241.5v4q0 154 -80 275l-610 -705q99 -57 225 -57z" />
    <glyph glyph-name="Ugrave" unicode="&#xd9;" horiz-adv-x="1626" 
d="M940 1610h-238l-286 211l270 118zM809 -23q-303 0 -473 169.5t-170 490.5v854h315v-844q0 -186 87 -283.5t245 -97.5t246 94t88 275v856h313v-842q0 -331 -172.5 -501.5t-478.5 -170.5z" />
    <glyph glyph-name="Uacute" unicode="&#xda;" horiz-adv-x="1626" 
d="M688 1610l254 329l270 -118l-286 -211h-238zM809 -23q-303 0 -473 169.5t-170 490.5v854h315v-844q0 -186 87 -283.5t245 -97.5t246 94t88 275v856h313v-842q0 -331 -172.5 -501.5t-478.5 -170.5z" />
    <glyph glyph-name="Ucircumflex" unicode="&#xdb;" horiz-adv-x="1626" 
d="M809 -23q-303 0 -473 169.5t-170 490.5v854h315v-844q0 -186 87 -283.5t245 -97.5t246 94t88 275v856h313v-842q0 -331 -172.5 -501.5t-478.5 -170.5zM397 1610l269 307h295l268 -307h-250l-168 119l-168 -119h-246z" />
    <glyph glyph-name="Udieresis" unicode="&#xdc;" horiz-adv-x="1626" 
d="M891 1610v264h303v-264h-303zM432 1610v264h303v-264h-303zM809 -23q-303 0 -473 169.5t-170 490.5v854h315v-844q0 -186 87 -283.5t245 -97.5t246 94t88 275v856h313v-842q0 -331 -172.5 -501.5t-478.5 -170.5z" />
    <glyph glyph-name="Yacute" unicode="&#xdd;" horiz-adv-x="1542" 
d="M612 0v588l-575 903h369l366 -610l375 610h358l-577 -897v-594h-316zM645 1610l254 329l270 -118l-286 -211h-238z" />
    <glyph glyph-name="Thorn" unicode="&#xde;" horiz-adv-x="1449" 
d="M190 0v1491h314v-221h291q263 0 416 -140.5t153 -371.5v-4q0 -126 -47 -226t-129 -164t-190 -97.5t-234 -33.5h-260v-233h-314zM504 514h270q126 0 199.5 66t73.5 168v4q0 115 -73.5 174t-205.5 59h-264v-471z" />
    <glyph glyph-name="germandbls" unicode="&#xdf;" horiz-adv-x="1337" 
d="M643 -4v233q137 6 211 58t74 145v4q0 88 -77.5 142.5t-207.5 72.5v205q94 55 146.5 119.5t52.5 150.5v4q0 84 -47.5 130.5t-132.5 46.5q-88 0 -142.5 -60.5t-54.5 -163.5v-1083h-309v1071q0 233 140 365.5t380 132.5q221 0 347 -116t126 -294v-4q0 -127 -53.5 -207.5
t-149.5 -142.5q59 -24 108 -56t91 -77.5t66 -108t24 -137.5v-4q0 -209 -160.5 -323.5t-431.5 -102.5z" />
    <glyph glyph-name="agrave" unicode="&#xe0;" horiz-adv-x="1275" 
d="M481 -23q-168 0 -281.5 94t-113.5 257v4q0 180 125 271t336 91q147 0 284 -45v21q0 105 -63.5 160t-187.5 55q-147 0 -318 -64l-78 238q104 46 206 69t235 23q253 0 383 -127q122 -122 122 -360v-664h-301v127q-136 -150 -348 -150zM573 195q117 0 190 58t73 150v62
q-98 43 -218 43q-109 0 -170 -43t-61 -121v-4q0 -68 51.5 -106.5t134.5 -38.5zM535 1268l-275 254l270 116l234 -370h-229z" />
    <glyph glyph-name="aacute" unicode="&#xe1;" horiz-adv-x="1275" 
d="M481 -23q-168 0 -281.5 94t-113.5 257v4q0 180 125 271t336 91q147 0 284 -45v21q0 105 -63.5 160t-187.5 55q-147 0 -318 -64l-78 238q104 46 206 69t235 23q253 0 383 -127q122 -122 122 -360v-664h-301v127q-136 -150 -348 -150zM573 195q117 0 190 58t73 150v62
q-98 43 -218 43q-109 0 -170 -43t-61 -121v-4q0 -68 51.5 -106.5t134.5 -38.5zM518 1268l234 370l270 -116l-274 -254h-230z" />
    <glyph glyph-name="acircumflex" unicode="&#xe2;" horiz-adv-x="1275" 
d="M481 -23q-168 0 -281.5 94t-113.5 257v4q0 180 125 271t336 91q147 0 284 -45v21q0 105 -63.5 160t-187.5 55q-147 0 -318 -64l-78 238q104 46 206 69t235 23q253 0 383 -127q122 -122 122 -360v-664h-301v127q-136 -150 -348 -150zM573 195q117 0 190 58t73 150v62
q-98 43 -218 43q-109 0 -170 -43t-61 -121v-4q0 -68 51.5 -106.5t134.5 -38.5zM236 1268l258 329h294l259 -329h-240l-168 141l-168 -141h-235z" />
    <glyph glyph-name="atilde" unicode="&#xe3;" horiz-adv-x="1275" 
d="M481 -23q-168 0 -281.5 94t-113.5 257v4q0 180 125 271t336 91q147 0 284 -45v21q0 105 -63.5 160t-187.5 55q-147 0 -318 -64l-78 238q104 46 206 69t235 23q253 0 383 -127q122 -122 122 -360v-664h-301v127q-136 -150 -348 -150zM573 195q117 0 190 58t73 150v62
q-98 43 -218 43q-109 0 -170 -43t-61 -121v-4q0 -68 51.5 -106.5t134.5 -38.5zM823 1268q-78 0 -190 47q-95 35 -125 35q-47 0 -71.5 -23.5t-49.5 -81.5l-168 51q40 145 98.5 217t161.5 72q79 0 191 -47q8 -3 27.5 -10.5t29 -10.5t23.5 -7.5t25 -6.5t20 -2q46 0 70 24t50 83
l168 -52q-40 -145 -98.5 -216.5t-161.5 -71.5z" />
    <glyph glyph-name="adieresis" unicode="&#xe4;" horiz-adv-x="1275" 
d="M481 -23q-168 0 -281.5 94t-113.5 257v4q0 180 125 271t336 91q147 0 284 -45v21q0 105 -63.5 160t-187.5 55q-147 0 -318 -64l-78 238q104 46 206 69t235 23q253 0 383 -127q122 -122 122 -360v-664h-301v127q-136 -150 -348 -150zM573 195q117 0 190 58t73 150v62
q-98 43 -218 43q-109 0 -170 -43t-61 -121v-4q0 -68 51.5 -106.5t134.5 -38.5zM709 1268v280h301v-280h-301zM272 1268v280h301v-280h-301z" />
    <glyph glyph-name="aring" unicode="&#xe5;" horiz-adv-x="1275" 
d="M481 -23q-168 0 -281.5 94t-113.5 257v4q0 180 125 271t336 91q147 0 284 -45v21q0 105 -63.5 160t-187.5 55q-147 0 -318 -64l-78 238q104 46 206 69t235 23q253 0 383 -127q122 -122 122 -360v-664h-301v127q-136 -150 -348 -150zM573 195q117 0 190 58t73 150v62
q-98 43 -218 43q-109 0 -170 -43t-61 -121v-4q0 -68 51.5 -106.5t134.5 -38.5zM641 1264q-105 0 -180.5 71.5t-75.5 173.5t75.5 175t180.5 73t180.5 -73t75.5 -175t-75.5 -173.5t-180.5 -71.5zM641 1368q59 0 100 41.5t41 99.5q0 60 -40.5 101t-100.5 41t-100.5 -41
t-40.5 -101q0 -58 41 -99.5t100 -41.5z" />
    <glyph glyph-name="ae" unicode="&#xe6;" horiz-adv-x="2041" 
d="M516 -23q-188 0 -309 94.5t-121 256.5v4q0 180 125 271t336 91q145 0 282 -45v21q0 105 -63.5 160t-185.5 55q-87 0 -159 -15.5t-159 -48.5l-78 238q101 46 202.5 69t236.5 23q274 0 389 -152q154 160 381 160q107 0 197 -33t153.5 -91t107.5 -136t65 -168t21 -188
q0 -20 -4 -82h-800q23 -115 98.5 -175.5t189.5 -60.5q84 0 149.5 28t133.5 91l178 -158q-171 -211 -465 -211q-273 0 -436 177q-234 -175 -465 -175zM1128 655h506q-14 116 -79 185t-171 69q-103 0 -170 -68t-86 -186zM571 199q164 0 301 114q-31 66 -41 154
q-102 41 -213 41q-109 0 -170 -43t-61 -121v-4q0 -64 53 -102.5t131 -38.5z" />
    <glyph glyph-name="ccedilla" unicode="&#xe7;" horiz-adv-x="1232" 
d="M604 -365l-262 109l176 256q-189 54 -303.5 207.5t-114.5 355.5v4q0 160 75 295t212.5 216t308.5 81q154 0 263 -48.5t192 -143.5l-193 -205q-60 65 -120.5 97t-143.5 32q-124 0 -205 -93.5t-81 -226.5v-4q0 -138 83 -231.5t216 -93.5q79 0 140.5 31t127.5 94l182 -183
q-85 -95 -180 -146t-234 -61z" />
    <glyph glyph-name="egrave" unicode="&#xe8;" horiz-adv-x="1318" 
d="M692 -25q-168 0 -302.5 73.5t-212 208.5t-77.5 306v4q0 162 71 297t200.5 215t290.5 80q137 0 244.5 -50.5t173.5 -137t100 -195.5t34 -233q0 -20 -4 -82h-800q23 -116 97.5 -176t188.5 -60q85 0 150 27.5t133 91.5l178 -158q-171 -211 -465 -211zM406 655h505
q-18 117 -81 185.5t-168 68.5q-103 0 -170 -68t-86 -186zM551 1268l-275 254l271 116l233 -370h-229z" />
    <glyph glyph-name="eacute" unicode="&#xe9;" horiz-adv-x="1318" 
d="M535 1268l233 370l270 -116l-274 -254h-229zM692 -25q-168 0 -302.5 73.5t-212 208.5t-77.5 306v4q0 162 71 297t200.5 215t290.5 80q137 0 244.5 -50.5t173.5 -137t100 -195.5t34 -233q0 -20 -4 -82h-800q23 -116 97.5 -176t188.5 -60q85 0 150 27.5t133 91.5l178 -158
q-171 -211 -465 -211zM406 655h505q-18 117 -81 185.5t-168 68.5q-103 0 -170 -68t-86 -186z" />
    <glyph glyph-name="ecircumflex" unicode="&#xea;" horiz-adv-x="1318" 
d="M252 1268l258 329h295l258 -329h-240l-168 141l-168 -141h-235zM692 -25q-168 0 -302.5 73.5t-212 208.5t-77.5 306v4q0 162 71 297t200.5 215t290.5 80q137 0 244.5 -50.5t173.5 -137t100 -195.5t34 -233q0 -20 -4 -82h-800q23 -116 97.5 -176t188.5 -60q85 0 150 27.5
t133 91.5l178 -158q-171 -211 -465 -211zM406 655h505q-18 117 -81 185.5t-168 68.5q-103 0 -170 -68t-86 -186z" />
    <glyph glyph-name="edieresis" unicode="&#xeb;" horiz-adv-x="1318" 
d="M725 1268v280h301v-280h-301zM289 1268v280h301v-280h-301zM692 -25q-168 0 -302.5 73.5t-212 208.5t-77.5 306v4q0 162 71 297t200.5 215t290.5 80q137 0 244.5 -50.5t173.5 -137t100 -195.5t34 -233q0 -20 -4 -82h-800q23 -116 97.5 -176t188.5 -60q85 0 150 27.5
t133 91.5l178 -158q-171 -211 -465 -211zM406 655h505q-18 117 -81 185.5t-168 68.5q-103 0 -170 -68t-86 -186z" />
    <glyph glyph-name="igrave" unicode="&#xec;" horiz-adv-x="653" 
d="M172 0v1139h309v-1139h-309zM221 1268l-274 254l270 116l234 -370h-230z" />
    <glyph glyph-name="iacute" unicode="&#xed;" horiz-adv-x="653" 
d="M207 1268l233 370l271 -116l-275 -254h-229zM172 0v1139h309v-1139h-309z" />
    <glyph glyph-name="icircumflex" unicode="&#xee;" horiz-adv-x="653" 
d="M-78 1268l258 329h295l258 -329h-239l-168 141l-168 -141h-236zM172 0v1139h309v-1139h-309z" />
    <glyph glyph-name="idieresis" unicode="&#xef;" horiz-adv-x="653" 
d="M395 1268v280h301v-280h-301zM-41 1268v280h301v-280h-301zM172 0v1139h309v-1139h-309z" />
    <glyph glyph-name="eth" unicode="&#xf0;" horiz-adv-x="1429" 
d="M1147 1397l-160 -43q338 -356 338 -731v-5q0 -177 -72 -321.5t-213.5 -233t-328.5 -88.5q-129 0 -242.5 46.5t-194.5 126.5t-127.5 192.5t-46.5 239.5v4q0 152 67.5 279t184.5 199.5t256 72.5q82 0 143.5 -19.5t127.5 -62.5q-68 104 -187 223l-264 -70l-55 166l166 43
q-119 93 -187 139h414l74 -61l254 66zM717 242q137 0 220 92t83 225v4q0 133 -87 226.5t-222 93.5q-139 0 -221 -90.5t-82 -225.5v-4q0 -134 87 -227.5t222 -93.5z" />
    <glyph glyph-name="ntilde" unicode="&#xf1;" horiz-adv-x="1341" 
d="M156 0v1139h311v-164q134 184 338 184q185 0 288 -112.5t103 -311.5v-735h-311v637q0 118 -53 180t-152 62q-100 0 -156.5 -62.5t-56.5 -179.5v-637h-311zM856 1268q-78 0 -190 47q-95 35 -125 35q-47 0 -71.5 -23.5t-49.5 -81.5l-168 51q40 145 98.5 217t161.5 72
q78 0 190 -47q8 -3 27.5 -10.5t29 -10.5t23.5 -7.5t25 -6.5t20 -2q47 0 71.5 24t49.5 83l168 -52q-40 -145 -98.5 -216.5t-161.5 -71.5z" />
    <glyph glyph-name="ograve" unicode="&#xf2;" horiz-adv-x="1427" 
d="M711 -25q-129 0 -243 46t-194.5 124.5t-127 187.5t-46.5 230v4q0 121 47 230t128 188.5t196.5 126.5t245.5 47q129 0 242.5 -46.5t194 -125t127 -187t46.5 -229.5v-4q0 -162 -79.5 -297.5t-221 -215t-315.5 -79.5zM717 242q137 0 220 93t83 228v4q0 134 -87 229t-222 95
q-137 0 -220 -92.5t-83 -227.5v-4q0 -134 87 -229.5t222 -95.5zM606 1268l-274 254l270 116l234 -370h-230z" />
    <glyph glyph-name="oacute" unicode="&#xf3;" horiz-adv-x="1427" 
d="M592 1268l233 370l271 -116l-275 -254h-229zM711 -25q-129 0 -243 46t-194.5 124.5t-127 187.5t-46.5 230v4q0 121 47 230t128 188.5t196.5 126.5t245.5 47q129 0 242.5 -46.5t194 -125t127 -187t46.5 -229.5v-4q0 -162 -79.5 -297.5t-221 -215t-315.5 -79.5zM717 242
q137 0 220 93t83 228v4q0 134 -87 229t-222 95q-137 0 -220 -92.5t-83 -227.5v-4q0 -134 87 -229.5t222 -95.5z" />
    <glyph glyph-name="ocircumflex" unicode="&#xf4;" horiz-adv-x="1427" 
d="M309 1268l258 329h295l258 -329h-239l-168 141l-168 -141h-236zM711 -25q-129 0 -243 46t-194.5 124.5t-127 187.5t-46.5 230v4q0 121 47 230t128 188.5t196.5 126.5t245.5 47q129 0 242.5 -46.5t194 -125t127 -187t46.5 -229.5v-4q0 -162 -79.5 -297.5t-221 -215
t-315.5 -79.5zM717 242q137 0 220 93t83 228v4q0 134 -87 229t-222 95q-137 0 -220 -92.5t-83 -227.5v-4q0 -134 87 -229.5t222 -95.5z" />
    <glyph glyph-name="otilde" unicode="&#xf5;" horiz-adv-x="1427" 
d="M711 -25q-129 0 -243 46t-194.5 124.5t-127 187.5t-46.5 230v4q0 121 47 230t128 188.5t196.5 126.5t245.5 47q129 0 242.5 -46.5t194 -125t127 -187t46.5 -229.5v-4q0 -162 -79.5 -297.5t-221 -215t-315.5 -79.5zM717 242q137 0 220 93t83 228v4q0 134 -87 229t-222 95
q-137 0 -220 -92.5t-83 -227.5v-4q0 -134 87 -229.5t222 -95.5zM897 1268q-78 0 -190 47q-95 35 -125 35q-47 0 -71.5 -23.5t-49.5 -81.5l-168 51q40 145 98.5 217t161.5 72q78 0 190 -47q8 -3 27.5 -10.5t29 -10.5t23.5 -7.5t25 -6.5t20 -2q47 0 71.5 24t49.5 83l168 -52
q-40 -145 -98.5 -216.5t-161.5 -71.5z" />
    <glyph glyph-name="odieresis" unicode="&#xf6;" horiz-adv-x="1427" 
d="M782 1268v280h301v-280h-301zM346 1268v280h301v-280h-301zM711 -25q-129 0 -243 46t-194.5 124.5t-127 187.5t-46.5 230v4q0 121 47 230t128 188.5t196.5 126.5t245.5 47q129 0 242.5 -46.5t194 -125t127 -187t46.5 -229.5v-4q0 -162 -79.5 -297.5t-221 -215
t-315.5 -79.5zM717 242q137 0 220 93t83 228v4q0 134 -87 229t-222 95q-137 0 -220 -92.5t-83 -227.5v-4q0 -134 87 -229.5t222 -95.5z" />
    <glyph glyph-name="divide" unicode="&#xf7;" horiz-adv-x="1376" 
d="M526 1055v299h324v-299h-324zM1225 618h-1071v263h1071v-263zM526 145v299h324v-299h-324z" />
    <glyph glyph-name="oslash" unicode="&#xf8;" horiz-adv-x="1427" 
d="M1085 1149h275l-174 -199q141 -167 141 -379v-4q0 -162 -79.5 -297.5t-221 -215t-315.5 -79.5q-176 0 -310 76l-59 -61h-274l170 194q-138 157 -138 379v4q0 121 47 230t128 188.5t196.5 126.5t245.5 47q173 0 307 -76zM717 233q142 0 226.5 95.5t84.5 234.5v4
q0 88 -39 162l-405 -467q66 -29 133 -29zM399 571v-4q0 -88 37 -161l408 464q-69 29 -133 29q-142 0 -227 -95t-85 -233z" />
    <glyph glyph-name="ugrave" unicode="&#xf9;" horiz-adv-x="1341" 
d="M537 -23q-185 0 -287.5 113.5t-102.5 312.5v736h310v-637q0 -118 53 -180t152 -62q100 0 156 62.5t56 179.5v637h312v-1139h-312v164q-68 -88 -146 -137.5t-191 -49.5zM559 1268l-274 254l270 116l233 -370h-229z" />
    <glyph glyph-name="uacute" unicode="&#xfa;" horiz-adv-x="1341" 
d="M543 1268l233 370l271 -116l-275 -254h-229zM537 -23q-185 0 -287.5 113.5t-102.5 312.5v736h310v-637q0 -118 53 -180t152 -62q100 0 156 62.5t56 179.5v637h312v-1139h-312v164q-68 -88 -146 -137.5t-191 -49.5z" />
    <glyph glyph-name="ucircumflex" unicode="&#xfb;" horiz-adv-x="1341" 
d="M260 1268l258 329h295l258 -329h-240l-167 141l-168 -141h-236zM537 -23q-185 0 -287.5 113.5t-102.5 312.5v736h310v-637q0 -118 53 -180t152 -62q100 0 156 62.5t56 179.5v637h312v-1139h-312v164q-68 -88 -146 -137.5t-191 -49.5z" />
    <glyph glyph-name="udieresis" unicode="&#xfc;" horiz-adv-x="1341" 
d="M733 1268v280h301v-280h-301zM297 1268v280h301v-280h-301zM537 -23q-185 0 -287.5 113.5t-102.5 312.5v736h310v-637q0 -118 53 -180t152 -62q100 0 156 62.5t56 179.5v637h312v-1139h-312v164q-68 -88 -146 -137.5t-191 -49.5z" />
    <glyph glyph-name="yacute" unicode="&#xfd;" horiz-adv-x="1292" 
d="M653 350l258 789h324l-440 -1168q-67 -176 -149.5 -247.5t-225.5 -71.5q-147 0 -283 78l105 225q74 -43 141 -43q45 0 72 17.5t51 66.5l-453 1143h330zM522 1268l234 370l270 -116l-274 -254h-230z" />
    <glyph glyph-name="thorn" unicode="&#xfe;" horiz-adv-x="1452" 
d="M156 -340v1894h311v-585q139 190 360 190q101 0 194 -39.5t166 -112t117 -186t44 -250.5v-4q0 -138 -43.5 -251.5t-116 -186.5t-166 -112.5t-195.5 -39.5q-120 0 -205.5 47.5t-154.5 129.5v-494h-311zM750 244q121 0 203.5 89t82.5 234v4q0 143 -83 233.5t-203 90.5
t-203.5 -90.5t-83.5 -233.5v-4q0 -143 83.5 -233t203.5 -90z" />
    <glyph glyph-name="ydieresis" unicode="&#xff;" horiz-adv-x="1292" 
d="M653 350l258 789h324l-440 -1168q-67 -176 -149.5 -247.5t-225.5 -71.5q-147 0 -283 78l105 225q74 -43 141 -43q45 0 72 17.5t51 66.5l-453 1143h330zM713 1268v280h301v-280h-301zM276 1268v280h302v-280h-302z" />
    <glyph glyph-name="Amacron" unicode="&#x100;" horiz-adv-x="1699" 
d="M61 0l644 1501h290l641 -1501h-329l-140 340h-645l-139 -340h-322zM635 618h420l-209 506zM451 1642v222h798v-222h-798z" />
    <glyph glyph-name="amacron" unicode="&#x101;" horiz-adv-x="1275" 
d="M481 -23q-168 0 -281.5 94t-113.5 257v4q0 180 125 271t336 91q147 0 284 -45v21q0 105 -63.5 160t-187.5 55q-147 0 -318 -64l-78 238q104 46 206 69t235 23q253 0 383 -127q122 -122 122 -360v-664h-301v127q-136 -150 -348 -150zM573 195q117 0 190 58t73 150v62
q-98 43 -218 43q-109 0 -170 -43t-61 -121v-4q0 -68 51.5 -106.5t134.5 -38.5zM262 1280v217h758v-217h-758z" />
    <glyph glyph-name="Abreve" unicode="&#x102;" horiz-adv-x="1699" 
d="M61 0l644 1501h290l641 -1501h-329l-140 340h-645l-139 -340h-322zM635 618h420l-209 506zM850 1626q-169 0 -276.5 81t-120.5 230h213q21 -53 64 -79.5t120 -26.5t120 26.5t64 79.5h213q-13 -149 -120.5 -230t-276.5 -81z" />
    <glyph glyph-name="abreve" unicode="&#x103;" horiz-adv-x="1275" 
d="M481 -23q-168 0 -281.5 94t-113.5 257v4q0 180 125 271t336 91q147 0 284 -45v21q0 105 -63.5 160t-187.5 55q-147 0 -318 -64l-78 238q104 46 206 69t235 23q253 0 383 -127q122 -122 122 -360v-664h-301v127q-136 -150 -348 -150zM573 195q117 0 190 58t73 150v62
q-98 43 -218 43q-109 0 -170 -43t-61 -121v-4q0 -68 51.5 -106.5t134.5 -38.5zM641 1264q-168 0 -274 87t-119 244h209q46 -129 184 -129t184 129h209q-13 -157 -119 -244t-274 -87z" />
    <glyph glyph-name="Aogonek" unicode="&#x104;" horiz-adv-x="1699" 
d="M1653 -211v-139q-22 -4 -90 -4q-135 0 -210 50.5t-75 131.5q0 85 74 172h-45l-140 340h-645l-139 -340h-322l644 1501h290l641 -1501h-77q-56 -64 -56 -123q0 -91 150 -88zM635 618h420l-209 506z" />
    <glyph glyph-name="aogonek" unicode="&#x105;" horiz-adv-x="1275" 
d="M1139 -211v-139q-22 -4 -90 -4q-135 0 -210 50.5t-75 131.5q0 85 74 172h-9v127q-136 -150 -348 -150q-168 0 -281.5 94t-113.5 257v4q0 180 125 271t336 91q147 0 284 -45v21q0 105 -63.5 160t-187.5 55q-147 0 -318 -64l-78 238q104 46 206 69t235 23q253 0 383 -127
q122 -122 122 -360v-664h-86q-55 -63 -55 -123q0 -91 150 -88zM573 195q117 0 190 58t73 150v62q-98 43 -218 43q-109 0 -170 -43t-61 -121v-4q0 -68 51.5 -106.5t134.5 -38.5z" />
    <glyph glyph-name="Cacute" unicode="&#x106;" horiz-adv-x="1589" 
d="M887 -25q-161 0 -303.5 60t-243 162.5t-159 244t-58.5 299.5v4q0 158 57.5 300t158.5 245.5t246.5 164.5t313.5 61q198 0 334.5 -59t253.5 -171l-201 -231q-94 85 -186 128.5t-203 43.5q-191 0 -317.5 -139t-126.5 -338v-5q0 -131 55.5 -240.5t158 -175t230.5 -65.5
q122 0 211 43.5t188 134.5l201 -202q-123 -131 -265.5 -198t-344.5 -67zM745 1630l254 330l271 -119l-287 -211h-238z" />
    <glyph glyph-name="cacute" unicode="&#x107;" horiz-adv-x="1232" 
d="M561 1268l234 370l270 -116l-274 -254h-230zM692 -25q-168 0 -304.5 79t-212 213t-75.5 296v4q0 160 75 295t212.5 216t308.5 81q154 0 263 -48.5t192 -143.5l-193 -205q-60 65 -120.5 97t-143.5 32q-124 0 -205 -93.5t-81 -226.5v-4q0 -138 83 -231.5t216 -93.5
q79 0 140.5 31t127.5 94l182 -183q-90 -101 -199 -155t-266 -54z" />
    <glyph glyph-name="Cdotaccent" unicode="&#x10a;" horiz-adv-x="1589" 
d="M717 1630v264h311v-264h-311zM887 -25q-161 0 -303.5 60t-243 162.5t-159 244t-58.5 299.5v4q0 158 57.5 300t158.5 245.5t246.5 164.5t313.5 61q198 0 334.5 -59t253.5 -171l-201 -231q-94 85 -186 128.5t-203 43.5q-191 0 -317.5 -139t-126.5 -338v-5
q0 -131 55.5 -240.5t158 -175t230.5 -65.5q122 0 211 43.5t188 134.5l201 -202q-123 -131 -265.5 -198t-344.5 -67z" />
    <glyph glyph-name="cdotaccent" unicode="&#x10b;" horiz-adv-x="1232" 
d="M692 -25q-168 0 -304.5 79t-212 213t-75.5 296v4q0 160 75 295t212.5 216t308.5 81q154 0 263 -48.5t192 -143.5l-193 -205q-60 65 -120.5 97t-143.5 32q-124 0 -205 -93.5t-81 -226.5v-4q0 -138 83 -231.5t216 -93.5q79 0 140.5 31t127.5 94l182 -183
q-90 -101 -199 -155t-266 -54zM526 1268v280h312v-280h-312z" />
    <glyph glyph-name="Ccaron" unicode="&#x10c;" horiz-adv-x="1589" 
d="M887 -25q-161 0 -303.5 60t-243 162.5t-159 244t-58.5 299.5v4q0 158 57.5 300t158.5 245.5t246.5 164.5t313.5 61q198 0 334.5 -59t253.5 -171l-201 -231q-94 85 -186 128.5t-203 43.5q-191 0 -317.5 -139t-126.5 -338v-5q0 -131 55.5 -240.5t158 -175t230.5 -65.5
q122 0 211 43.5t188 134.5l201 -202q-123 -131 -265.5 -198t-344.5 -67zM1288 1937l-268 -307h-295l-268 307h250l167 -118l168 118h246z" />
    <glyph glyph-name="ccaron" unicode="&#x10d;" horiz-adv-x="1232" 
d="M1087 1597l-258 -329h-294l-259 329h240l168 -141l168 141h235zM692 -25q-168 0 -304.5 79t-212 213t-75.5 296v4q0 160 75 295t212.5 216t308.5 81q154 0 263 -48.5t192 -143.5l-193 -205q-60 65 -120.5 97t-143.5 32q-124 0 -205 -93.5t-81 -226.5v-4q0 -138 83 -231.5
t216 -93.5q79 0 140.5 31t127.5 94l182 -183q-90 -101 -199 -155t-266 -54z" />
    <glyph glyph-name="Dcaron" unicode="&#x10e;" horiz-adv-x="1681" 
d="M1229 1917l-268 -307h-295l-269 307h250l168 -119l168 119h246zM190 0v1491h576q229 0 411 -97.5t282 -266.5t100 -377v-5q0 -208 -100 -378t-282 -268.5t-411 -98.5h-576zM766 1206h-262v-921h262q207 0 335 126.5t128 329.5v4q0 203 -128.5 332t-334.5 129z" />
    <glyph glyph-name="dcaron" unicode="&#x10f;" horiz-adv-x="1452" 
d="M1405 1122l22 437h226v-7l-125 -430h-123zM625 -23q-101 0 -194 39.5t-166 112t-117 186.5t-44 252v4q0 137 43.5 250t116 186t166 112.5t195.5 39.5q121 0 206.5 -46.5t153.5 -127.5v569h311v-1554h-311v168q-140 -191 -360 -191zM702 244q120 0 203.5 90t83.5 233v4
q0 143 -83.5 233.5t-203.5 90.5q-121 0 -203.5 -89.5t-82.5 -234.5v-4q0 -143 83 -233t203 -90z" />
    <glyph glyph-name="Dcroat" unicode="&#x110;" horiz-adv-x="1744" 
d="M254 0v641h-160v217h160v633h575q229 0 411 -97.5t282 -266.5t100 -377v-5q0 -208 -100 -378t-282 -268.5t-411 -98.5h-575zM899 641h-330v-356h260q208 0 335.5 126.5t127.5 329.5v4q0 204 -127.5 332.5t-335.5 128.5h-260v-348h330v-217z" />
    <glyph glyph-name="dcroat" unicode="&#x111;" horiz-adv-x="1452" 
d="M651 1266v176h334v112h311v-112h146v-176h-146v-1266h-311v168q-140 -191 -360 -191q-101 0 -194 39.5t-166 112t-117 186.5t-44 252v4q0 137 43.5 250t116 186t166 112.5t195.5 39.5q121 0 206.5 -46.5t153.5 -127.5v281h-334zM702 244q120 0 203.5 90t83.5 233v4
q0 143 -83.5 233.5t-203.5 90.5q-121 0 -203.5 -89.5t-82.5 -234.5v-4q0 -143 83 -233t203 -90z" />
    <glyph glyph-name="Emacron" unicode="&#x112;" horiz-adv-x="1443" 
d="M354 1622v221h799v-221h-799zM190 0v1491h1121v-281h-809v-319h712v-281h-712v-329h819v-281h-1131z" />
    <glyph glyph-name="emacron" unicode="&#x113;" horiz-adv-x="1318" 
d="M692 -25q-168 0 -302.5 73.5t-212 208.5t-77.5 306v4q0 162 71 297t200.5 215t290.5 80q137 0 244.5 -50.5t173.5 -137t100 -195.5t34 -233q0 -20 -4 -82h-800q23 -116 97.5 -176t188.5 -60q85 0 150 27.5t133 91.5l178 -158q-171 -211 -465 -211zM406 655h505
q-18 117 -81 185.5t-168 68.5q-103 0 -170 -68t-86 -186zM279 1280v217h757v-217h-757z" />
    <glyph glyph-name="Ebreve" unicode="&#x114;" horiz-adv-x="1443" 
d="M754 1606q-170 0 -277.5 81t-120.5 230h213q42 -107 185 -107q77 0 120 27t64 80h213q-13 -149 -120.5 -230t-276.5 -81zM190 0v1491h1121v-281h-809v-319h712v-281h-712v-329h819v-281h-1131z" />
    <glyph glyph-name="ebreve" unicode="&#x115;" horiz-adv-x="1318" 
d="M692 -25q-168 0 -302.5 73.5t-212 208.5t-77.5 306v4q0 162 71 297t200.5 215t290.5 80q137 0 244.5 -50.5t173.5 -137t100 -195.5t34 -233q0 -20 -4 -82h-800q23 -116 97.5 -176t188.5 -60q85 0 150 27.5t133 91.5l178 -158q-171 -211 -465 -211zM406 655h505
q-18 117 -81 185.5t-168 68.5q-103 0 -170 -68t-86 -186zM657 1264q-168 0 -274 87t-119 244h209q46 -129 184 -129q139 0 185 129h209q-13 -157 -119.5 -244t-274.5 -87z" />
    <glyph glyph-name="Edotaccent" unicode="&#x116;" horiz-adv-x="1443" 
d="M598 1610v264h311v-264h-311zM190 0v1491h1121v-281h-809v-319h712v-281h-712v-329h819v-281h-1131z" />
    <glyph glyph-name="edotaccent" unicode="&#x117;" horiz-adv-x="1318" 
d="M692 -25q-168 0 -302.5 73.5t-212 208.5t-77.5 306v4q0 162 71 297t200.5 215t290.5 80q137 0 244.5 -50.5t173.5 -137t100 -195.5t34 -233q0 -20 -4 -82h-800q23 -116 97.5 -176t188.5 -60q85 0 150 27.5t133 91.5l178 -158q-171 -211 -465 -211zM406 655h505
q-18 117 -81 185.5t-168 68.5q-103 0 -170 -68t-86 -186zM502 1268v280h311v-280h-311z" />
    <glyph glyph-name="Eogonek" unicode="&#x118;" horiz-adv-x="1443" 
d="M190 0v1491h1121v-281h-809v-319h712v-281h-712v-329h819v-281h-94q-56 -64 -56 -123q0 -91 150 -88v-139q-22 -4 -90 -4q-135 0 -210 50.5t-75 131.5q0 85 74 172h-830z" />
    <glyph glyph-name="eogonek" unicode="&#x119;" horiz-adv-x="1318" 
d="M406 655h505q-18 117 -81 185.5t-168 68.5q-103 0 -170 -68t-86 -186zM979 344l178 -158q-76 -83 -129 -129q-100 -92 -100 -168q0 -103 149 -100v-139q-22 -4 -92 -4q-134 0 -208.5 49.5t-74.5 124.5q0 70 70 160q-58 -5 -80 -5q-168 0 -302.5 73.5t-212 208.5
t-77.5 306v4q0 162 71 297t200.5 215t290.5 80q137 0 244.5 -50.5t173.5 -137t100 -195.5t34 -233q0 -20 -4 -82h-800q23 -116 97.5 -176t188.5 -60q85 0 150 27.5t133 91.5z" />
    <glyph glyph-name="Ecaron" unicode="&#x11a;" horiz-adv-x="1443" 
d="M1169 1917l-268 -307h-295l-268 307h250l168 -119l168 119h245zM190 0v1491h1121v-281h-809v-319h712v-281h-712v-329h819v-281h-1131z" />
    <glyph glyph-name="ecaron" unicode="&#x11b;" horiz-adv-x="1318" 
d="M1063 1597l-258 -329h-295l-258 329h240l167 -141l168 141h236zM692 -25q-168 0 -302.5 73.5t-212 208.5t-77.5 306v4q0 162 71 297t200.5 215t290.5 80q137 0 244.5 -50.5t173.5 -137t100 -195.5t34 -233q0 -20 -4 -82h-800q23 -116 97.5 -176t188.5 -60q85 0 150 27.5
t133 91.5l178 -158q-171 -211 -465 -211zM406 655h505q-18 117 -81 185.5t-168 68.5q-103 0 -170 -68t-86 -186z" />
    <glyph glyph-name="Gbreve" unicode="&#x11e;" horiz-adv-x="1685" 
d="M885 1626q-170 0 -277.5 81t-120.5 230h213q21 -53 64.5 -79.5t120.5 -26.5t120 26.5t64 79.5h213q-13 -149 -120.5 -230t-276.5 -81zM905 -25q-172 0 -318 58t-247.5 159t-159 243t-57.5 306v4q0 209 99.5 385t279.5 281t401 105q192 0 325 -49.5t259 -153.5l-199 -240
q-92 78 -182.5 116t-212.5 38q-183 0 -311.5 -140.5t-128.5 -336.5v-5q0 -210 129.5 -347.5t332.5 -137.5q189 0 320 94v228h-340v272h645v-643q-281 -236 -635 -236z" />
    <glyph glyph-name="gbreve" unicode="&#x11f;" horiz-adv-x="1452" 
d="M666 -344q-285 0 -504 121l106 233q96 -54 187 -80t202 -26q332 0 332 317v62q-78 -95 -166 -143t-211 -48q-100 0 -191.5 36.5t-162 102.5t-112.5 168.5t-42 225.5v4q0 122 42 224t113 168t162 102t191 36q124 0 211 -45.5t162 -128.5v154h311v-887q0 -300 -145 -445
q-151 -151 -485 -151zM700 350q123 0 206 77.5t83 197.5v4q0 121 -82.5 196.5t-206.5 75.5q-123 0 -203.5 -75.5t-80.5 -196.5v-4q0 -122 80.5 -198.5t203.5 -76.5zM741 1264q-168 0 -274 87t-119 244h209q46 -129 184 -129q139 0 185 129h209q-13 -157 -119.5 -244
t-274.5 -87z" />
    <glyph glyph-name="Gdotaccent" unicode="&#x120;" horiz-adv-x="1685" 
d="M729 1630v264h311v-264h-311zM905 -25q-172 0 -318 58t-247.5 159t-159 243t-57.5 306v4q0 209 99.5 385t279.5 281t401 105q192 0 325 -49.5t259 -153.5l-199 -240q-92 78 -182.5 116t-212.5 38q-183 0 -311.5 -140.5t-128.5 -336.5v-5q0 -210 129.5 -347.5
t332.5 -137.5q189 0 320 94v228h-340v272h645v-643q-281 -236 -635 -236z" />
    <glyph glyph-name="gdotaccent" unicode="&#x121;" horiz-adv-x="1452" 
d="M666 -344q-285 0 -504 121l106 233q96 -54 187 -80t202 -26q332 0 332 317v62q-78 -95 -166 -143t-211 -48q-100 0 -191.5 36.5t-162 102.5t-112.5 168.5t-42 225.5v4q0 122 42 224t113 168t162 102t191 36q124 0 211 -45.5t162 -128.5v154h311v-887q0 -300 -145 -445
q-151 -151 -485 -151zM700 350q123 0 206 77.5t83 197.5v4q0 121 -82.5 196.5t-206.5 75.5q-123 0 -203.5 -75.5t-80.5 -196.5v-4q0 -122 80.5 -198.5t203.5 -76.5zM586 1268v280h311v-280h-311z" />
    <glyph glyph-name="Gcommaaccent" unicode="&#x122;" horiz-adv-x="1685" 
d="M905 -25q-172 0 -318 58t-247.5 159t-159 243t-57.5 306v4q0 209 99.5 385t279.5 281t401 105q192 0 325 -49.5t259 -153.5l-199 -240q-92 78 -182.5 116t-212.5 38q-183 0 -311.5 -140.5t-128.5 -336.5v-5q0 -210 129.5 -347.5t332.5 -137.5q189 0 320 94v228h-340v272
h645v-643q-281 -236 -635 -236zM731 -621l-16 95q84 7 124 45t35 106h-133v240h287v-203q0 -146 -73.5 -212t-223.5 -71z" />
    <glyph glyph-name="gcommaaccent" unicode="&#x123;" horiz-adv-x="1452" 
d="M666 -344q-285 0 -504 121l106 233q96 -54 187 -80t202 -26q332 0 332 317v62q-78 -95 -166 -143t-211 -48q-100 0 -191.5 36.5t-162 102.5t-112.5 168.5t-42 225.5v4q0 122 42 224t113 168t162 102t191 36q124 0 211 -45.5t162 -128.5v154h311v-887q0 -300 -145 -445
q-151 -151 -485 -151zM700 350q123 0 206 77.5t83 197.5v4q0 121 -82.5 196.5t-206.5 75.5q-123 0 -203.5 -75.5t-80.5 -196.5v-4q0 -122 80.5 -198.5t203.5 -76.5zM889 1753l16 -94q-84 -9 -124.5 -47.5t-35.5 -104.5h134v-239h-287v200q0 146 73.5 213t223.5 72z" />
    <glyph glyph-name="Hbar" unicode="&#x126;" horiz-adv-x="1642" 
d="M43 1090v217h150v184h315v-184h627v184h315v-184h149v-217h-149v-1090h-315v604h-627v-604h-315v1090h-150zM508 895h627v199h-627v-199z" />
    <glyph glyph-name="hbar" unicode="&#x127;" horiz-adv-x="1341" 
d="M801 1266h-334v-291q134 184 338 184q185 0 288 -112.5t103 -311.5v-735h-311v637q0 118 -53 180t-152 62q-100 0 -156.5 -62.5t-56.5 -179.5v-637h-311v1266h-146v176h146v112h311v-112h334v-176z" />
    <glyph glyph-name="Imacron" unicode="&#x12a;" horiz-adv-x="724" 
d="M205 0v1491h315v-1491h-315zM-35 1622v221h799v-221h-799z" />
    <glyph glyph-name="imacron" unicode="&#x12b;" horiz-adv-x="653" 
d="M172 0v1139h309v-1139h-309zM-51 1280v217h758v-217h-758z" />
    <glyph glyph-name="Ibreve" unicode="&#x12c;" horiz-adv-x="724" 
d="M205 0v1491h315v-1491h-315zM365 1606q-170 0 -277.5 81t-120.5 230h213q42 -107 185 -107q77 0 120 27t64 80h213q-13 -149 -120.5 -230t-276.5 -81z" />
    <glyph glyph-name="ibreve" unicode="&#x12d;" horiz-adv-x="653" 
d="M172 0v1139h309v-1139h-309zM328 1264q-168 0 -274.5 87t-119.5 244h209q46 -129 185 -129q138 0 184 129h209q-13 -157 -119 -244t-274 -87z" />
    <glyph glyph-name="Iogonek" unicode="&#x12e;" horiz-adv-x="724" 
d="M205 0v1491h315v-1491h-61q-56 -64 -56 -123q0 -91 150 -88v-139q-22 -4 -90 -4q-135 0 -210 50.5t-75 131.5q0 85 74 172h-47z" />
    <glyph glyph-name="iogonek" unicode="&#x12f;" horiz-adv-x="653" 
d="M172 0v1139h309v-1139h-57q-55 -63 -55 -123q0 -91 149 -88v-139q-22 -4 -90 -4q-135 0 -210 50.5t-75 131.5q0 85 74 172h-45zM162 1274v278h327v-278h-327z" />
    <glyph glyph-name="Idotaccent" unicode="&#x130;" horiz-adv-x="724" 
d="M205 0v1491h315v-1491h-315zM209 1610v264h311v-264h-311z" />
    <glyph glyph-name="dotlessi" unicode="&#x131;" horiz-adv-x="653" 
d="M172 0v1139h309v-1139h-309z" />
    <glyph glyph-name="Kcommaaccent" unicode="&#x136;" horiz-adv-x="1568" 
d="M190 0v1491h314v-672l622 672h387l-612 -635l639 -856h-379l-473 641l-184 -190v-451h-314zM633 -602l-17 94q84 7 124.5 45.5t35.5 106.5h-133v239h287v-202q0 -146 -73.5 -212t-223.5 -71z" />
    <glyph glyph-name="kcommaaccent" unicode="&#x137;" horiz-adv-x="1273" 
d="M508 -612l-16 94q84 7 124 45t35 106h-133v240h287v-203q0 -146 -73 -211.5t-224 -70.5zM156 0v1554h311v-847l397 432h373l-438 -453l452 -686h-360l-301 473l-123 -131v-342h-311z" />
    <glyph glyph-name="Lacute" unicode="&#x139;" horiz-adv-x="1333" 
d="M264 1610l254 329l270 -118l-286 -211h-238zM190 0v1491h314v-1204h751v-287h-1065z" />
    <glyph glyph-name="lacute" unicode="&#x13a;" horiz-adv-x="653" 
d="M211 1642l254 330l270 -119l-286 -211h-238zM172 0v1554h309v-1554h-309z" />
    <glyph glyph-name="Lcommaaccent" unicode="&#x13b;" horiz-adv-x="1333" 
d="M190 0v1491h314v-1204h751v-287h-1065zM567 -612l-16 94q85 7 125 45t35 106h-133v240h286v-203q0 -146 -73 -211.5t-224 -70.5z" />
    <glyph glyph-name="lcommaaccent" unicode="&#x13c;" horiz-adv-x="653" 
d="M174 -612l-16 94q84 7 124 45t35 106h-133v240h287v-203q0 -146 -73 -211.5t-224 -70.5zM172 0v1554h309v-1554h-309z" />
    <glyph glyph-name="Lcaron" unicode="&#x13d;" horiz-adv-x="1333" 
d="M190 0v1491h314v-1204h751v-287h-1065zM655 1057l23 436h225v-6l-125 -430h-123z" />
    <glyph glyph-name="lcaron" unicode="&#x13e;" horiz-adv-x="653" 
d="M592 1122l22 437h226v-7l-125 -430h-123zM172 0v1554h309v-1554h-309z" />
    <glyph glyph-name="Ldot" unicode="&#x13f;" horiz-adv-x="1333" 
d="M885 672v280h297v-280h-297zM190 0v1491h314v-1204h751v-287h-1065z" />
    <glyph glyph-name="ldot" unicode="&#x140;" horiz-adv-x="841" 
d="M614 674v260h250v-260h-250zM172 0v1554h309v-1554h-309z" />
    <glyph glyph-name="Lslash" unicode="&#x141;" horiz-adv-x="1398" 
d="M887 805l-322 -143v-375h754v-287h-1065v524l-160 -69v295l160 69v672h311v-535l322 144v-295z" />
    <glyph glyph-name="lslash" unicode="&#x142;" horiz-adv-x="780" 
d="M705 805l-162 -80v-725h-305v571l-162 -79v292l162 80v690h305v-536l162 80v-293z" />
    <glyph glyph-name="Nacute" unicode="&#x143;" horiz-adv-x="1699" 
d="M723 1610l254 329l270 -118l-286 -211h-238zM190 0v1491h289l719 -940v940h311v-1491h-268l-741 971v-971h-310z" />
    <glyph glyph-name="nacute" unicode="&#x144;" horiz-adv-x="1341" 
d="M553 1268l233 370l271 -116l-275 -254h-229zM156 0v1139h311v-164q134 184 338 184q185 0 288 -112.5t103 -311.5v-735h-311v637q0 118 -53 180t-152 62q-100 0 -156.5 -62.5t-56.5 -179.5v-637h-311z" />
    <glyph glyph-name="Ncommaaccent" unicode="&#x145;" horiz-adv-x="1699" 
d="M696 -602l-16 94q84 7 124.5 45.5t35.5 106.5h-133v239h286v-202q0 -146 -73.5 -212t-223.5 -71zM190 0v1491h289l719 -940v940h311v-1491h-268l-741 971v-971h-310z" />
    <glyph glyph-name="ncommaaccent" unicode="&#x146;" horiz-adv-x="1341" 
d="M520 -612l-16 94q85 7 125 45t35 106h-134v240h287v-203q0 -146 -73 -211.5t-224 -70.5zM156 0v1139h311v-164q134 184 338 184q185 0 288 -112.5t103 -311.5v-735h-311v637q0 118 -53 180t-152 62q-100 0 -156.5 -62.5t-56.5 -179.5v-637h-311z" />
    <glyph glyph-name="Ncaron" unicode="&#x147;" horiz-adv-x="1699" 
d="M1266 1917l-269 -307h-295l-268 307h250l168 -119l168 119h246zM190 0v1491h289l719 -940v940h311v-1491h-268l-741 971v-971h-310z" />
    <glyph glyph-name="ncaron" unicode="&#x148;" horiz-adv-x="1341" 
d="M1079 1597l-258 -329h-295l-258 329h240l168 -141l168 141h235zM156 0v1139h311v-164q134 184 338 184q185 0 288 -112.5t103 -311.5v-735h-311v637q0 118 -53 180t-152 62q-100 0 -156.5 -62.5t-56.5 -179.5v-637h-311z" />
    <glyph glyph-name="Omacron" unicode="&#x14c;" horiz-adv-x="1826" 
d="M514 1642v222h799v-222h-799zM911 -25q-169 0 -316.5 60.5t-250.5 163.5t-162 244t-59 298v4q0 156 60 297.5t163.5 246t252 166t316.5 61.5q169 0 316.5 -60.5t250.5 -163.5t162.5 -244t59.5 -298v-5q0 -156 -60 -297.5t-164 -245.5t-252.5 -165.5t-316.5 -61.5z
M915 264q199 0 329 138.5t130 338.5v4q0 199 -132.5 340.5t-330.5 141.5q-199 0 -328.5 -138.5t-129.5 -338.5v-5q0 -131 58 -240.5t164.5 -175t239.5 -65.5z" />
    <glyph glyph-name="omacron" unicode="&#x14d;" horiz-adv-x="1427" 
d="M336 1280v217h758v-217h-758zM711 -25q-129 0 -243 46t-194.5 124.5t-127 187.5t-46.5 230v4q0 121 47 230t128 188.5t196.5 126.5t245.5 47q129 0 242.5 -46.5t194 -125t127 -187t46.5 -229.5v-4q0 -162 -79.5 -297.5t-221 -215t-315.5 -79.5zM717 242q137 0 220 93
t83 228v4q0 134 -87 229t-222 95q-137 0 -220 -92.5t-83 -227.5v-4q0 -134 87 -229.5t222 -95.5z" />
    <glyph glyph-name="Obreve" unicode="&#x14e;" horiz-adv-x="1826" 
d="M913 1626q-169 0 -276.5 81t-120.5 230h213q21 -53 64 -79.5t120 -26.5t120.5 26.5t64.5 79.5h213q-13 -149 -120.5 -230t-277.5 -81zM911 -25q-169 0 -316.5 60.5t-250.5 163.5t-162 244t-59 298v4q0 156 60 297.5t163.5 246t252 166t316.5 61.5q169 0 316.5 -60.5
t250.5 -163.5t162.5 -244t59.5 -298v-5q0 -156 -60 -297.5t-164 -245.5t-252.5 -165.5t-316.5 -61.5zM915 264q199 0 329 138.5t130 338.5v4q0 199 -132.5 340.5t-330.5 141.5q-199 0 -328.5 -138.5t-129.5 -338.5v-5q0 -131 58 -240.5t164.5 -175t239.5 -65.5z" />
    <glyph glyph-name="obreve" unicode="&#x14f;" horiz-adv-x="1427" 
d="M711 -25q-129 0 -243 46t-194.5 124.5t-127 187.5t-46.5 230v4q0 121 47 230t128 188.5t196.5 126.5t245.5 47q129 0 242.5 -46.5t194 -125t127 -187t46.5 -229.5v-4q0 -162 -79.5 -297.5t-221 -215t-315.5 -79.5zM717 242q137 0 220 93t83 228v4q0 134 -87 229t-222 95
q-137 0 -220 -92.5t-83 -227.5v-4q0 -134 87 -229.5t222 -95.5zM715 1264q-168 0 -274 87t-119 244h208q46 -129 185 -129q138 0 184 129h209q-13 -157 -119 -244t-274 -87z" />
    <glyph glyph-name="Ohungarumlaut" unicode="&#x150;" horiz-adv-x="1826" 
d="M911 -25q-169 0 -316.5 60.5t-250.5 163.5t-162 244t-59 298v4q0 156 60 297.5t163.5 246t252 166t316.5 61.5q169 0 316.5 -60.5t250.5 -163.5t162.5 -244t59.5 -298v-5q0 -156 -60 -297.5t-164 -245.5t-252.5 -165.5t-316.5 -61.5zM915 264q199 0 329 138.5t130 338.5
v4q0 199 -132.5 340.5t-330.5 141.5q-199 0 -328.5 -138.5t-129.5 -338.5v-5q0 -131 58 -240.5t164.5 -175t239.5 -65.5zM573 1630l254 330l260 -119l-286 -211h-228zM971 1630l254 330l260 -119l-285 -211h-229z" />
    <glyph glyph-name="ohungarumlaut" unicode="&#x151;" horiz-adv-x="1427" 
d="M772 1268l234 370l264 -116l-277 -254h-221zM385 1268l229 370l265 -116l-275 -254h-219zM711 -25q-129 0 -243 46t-194.5 124.5t-127 187.5t-46.5 230v4q0 121 47 230t128 188.5t196.5 126.5t245.5 47q129 0 242.5 -46.5t194 -125t127 -187t46.5 -229.5v-4
q0 -162 -79.5 -297.5t-221 -215t-315.5 -79.5zM717 242q137 0 220 93t83 228v4q0 134 -87 229t-222 95q-137 0 -220 -92.5t-83 -227.5v-4q0 -134 87 -229.5t222 -95.5z" />
    <glyph glyph-name="OE" unicode="&#x152;" horiz-adv-x="2316" 
d="M2193 0h-1278q-172 0 -320 57t-251.5 155.5t-162 235.5t-58.5 293v4q0 156 58.5 293.5t161.5 237t251.5 157.5t320.5 58h1268v-281h-756v-319h660v-281h-660v-329h766v-281zM915 285h199v921h-199q-207 0 -334.5 -126.5t-127.5 -329.5v-5q0 -203 128 -331.5t334 -128.5z
" />
    <glyph glyph-name="oe" unicode="&#x153;" horiz-adv-x="2220" 
d="M694 -25q-161 0 -297.5 78t-216.5 213.5t-80 296.5v4q0 120 47.5 229.5t128.5 189t194 126.5t237 47q133 0 244 -51t190 -145q75 94 183 145t239 51q110 0 202 -33t156 -91t108.5 -136.5t65.5 -168t21 -187.5q0 -5 -5 -82h-800q23 -116 97.5 -176t188.5 -60
q85 0 150 27.5t133 91.5l178 -158q-171 -211 -465 -211q-139 0 -257 53t-199 148q-80 -94 -194.5 -147.5t-248.5 -53.5zM1307 655h505q-18 117 -81 185.5t-168 68.5q-103 0 -170 -68t-86 -186zM707 242q133 0 213.5 93t80.5 228v4q0 133 -85 228.5t-214 95.5
q-134 0 -214 -93t-80 -227v-4q0 -134 84.5 -229.5t214.5 -95.5z" />
    <glyph glyph-name="Racute" unicode="&#x154;" horiz-adv-x="1556" 
d="M190 0v1491h678q283 0 435 -152q124 -124 124 -335v-5q0 -177 -86 -292t-239 -168l373 -539h-369l-330 485h-272v-485h-314zM504 764h344q122 0 192 60t70 159v4q0 107 -70.5 163t-197.5 56h-338v-442zM633 1610l254 329l270 -118l-287 -211h-237z" />
    <glyph glyph-name="racute" unicode="&#x155;" horiz-adv-x="905" 
d="M371 1268l233 370l270 -116l-274 -254h-229zM156 0v1139h311v-236q54 129 142.5 195.5t228.5 60.5v-325h-17q-168 0 -261 -102.5t-93 -307.5v-424h-311z" />
    <glyph glyph-name="Rcommaaccent" unicode="&#x156;" horiz-adv-x="1556" 
d="M190 0v1491h678q283 0 435 -152q124 -124 124 -335v-5q0 -177 -86 -292t-239 -168l373 -539h-369l-330 485h-272v-485h-314zM504 764h344q122 0 192 60t70 159v4q0 107 -70.5 163t-197.5 56h-338v-442zM606 -602l-16 94q84 7 124.5 45.5t35.5 106.5h-134v239h287v-202
q0 -146 -73.5 -212t-223.5 -71z" />
    <glyph glyph-name="rcommaaccent" unicode="&#x157;" horiz-adv-x="905" 
d="M172 -612l-16 94q84 7 124 45t35 106h-133v240h287v-203q0 -146 -73 -211.5t-224 -70.5zM156 0v1139h311v-236q54 129 142.5 195.5t228.5 60.5v-325h-17q-168 0 -261 -102.5t-93 -307.5v-424h-311z" />
    <glyph glyph-name="Rcaron" unicode="&#x158;" horiz-adv-x="1556" 
d="M1176 1917l-269 -307h-295l-268 307h250l168 -119l168 119h246zM190 0v1491h678q283 0 435 -152q124 -124 124 -335v-5q0 -177 -86 -292t-239 -168l373 -539h-369l-330 485h-272v-485h-314zM504 764h344q122 0 192 60t70 159v4q0 107 -70.5 163t-197.5 56h-338v-442z" />
    <glyph glyph-name="rcaron" unicode="&#x159;" horiz-adv-x="905" 
d="M901 1597l-258 -329h-295l-258 329h240l168 -141l168 141h235zM156 0v1139h311v-236q54 129 142.5 195.5t228.5 60.5v-325h-17q-168 0 -261 -102.5t-93 -307.5v-424h-311z" />
    <glyph glyph-name="Sacute" unicode="&#x15a;" horiz-adv-x="1380" 
d="M719 -20q-368 0 -631 237l186 223q108 -91 217 -137.5t234 -46.5q104 0 164.5 41.5t60.5 110.5v4q0 47 -24 77t-89 58t-194 61q-101 25 -169 48t-135 59.5t-106 82t-62.5 112t-23.5 153.5v4q0 199 146 321.5t375 122.5q316 0 551 -188l-166 -238q-205 150 -391 150
q-95 0 -148 -39.5t-53 -99.5v-4q0 -75 65 -115t262 -90q119 -30 203 -66t147.5 -88.5t94.5 -124.5t31 -166v-4q0 -215 -150 -336.5t-395 -121.5zM573 1630l254 330l271 -119l-287 -211h-238z" />
    <glyph glyph-name="sacute" unicode="&#x15b;" horiz-adv-x="1085" 
d="M426 1268l233 370l271 -116l-275 -254h-229zM553 -20q-269 0 -487 170l135 206q91 -66 185 -101.5t175 -35.5q72 0 109 24.5t37 67.5v4q0 24 -15.5 42.5t-46.5 33.5t-64 26.5t-80 25.5q-23 7 -34 10q-59 18 -100 33.5t-91 44t-80.5 62t-51.5 85t-21 115.5v4
q0 166 118.5 262t297.5 96q108 0 218.5 -34.5t203.5 -96.5l-119 -215q-185 106 -312 106q-60 0 -93.5 -24t-33.5 -62v-4q0 -11 3.5 -21t12.5 -19.5t17.5 -16.5t25 -15.5t28 -14t34.5 -14t36 -13t40.5 -13.5t40.5 -14q55 -17 97.5 -34t92 -46t81.5 -62.5t53.5 -83.5
t21.5 -110v-4q0 -122 -58.5 -205.5t-154 -121t-221.5 -37.5z" />
    <glyph glyph-name="Scedilla" unicode="&#x15e;" horiz-adv-x="1380" 
d="M676 -365l-262 109l168 246q-289 37 -494 227l186 223q108 -91 217 -137.5t234 -46.5q104 0 164.5 41.5t60.5 110.5v4q0 47 -24 77t-89 58t-194 61q-101 25 -169 48t-135 59.5t-106 82t-62.5 112t-23.5 153.5v4q0 199 146 321.5t375 122.5q316 0 551 -188l-166 -238
q-205 150 -391 150q-95 0 -148 -39.5t-53 -99.5v-4q0 -75 65 -115t262 -90q119 -30 203 -66t147.5 -88.5t94.5 -124.5t31 -166v-4q0 -193 -121 -309.5t-324 -142.5z" />
    <glyph glyph-name="scedilla" unicode="&#x15f;" horiz-adv-x="1085" 
d="M506 -365l-262 109l170 248q-196 37 -348 158l135 206q91 -66 185 -101.5t175 -35.5q72 0 109 24.5t37 67.5v4q0 24 -15.5 42.5t-46.5 33.5t-64 26.5t-80 25.5q-23 7 -34 10q-59 18 -100 33.5t-91 44t-80.5 62t-51.5 85t-21 115.5v4q0 166 118.5 262t297.5 96
q108 0 218.5 -34.5t203.5 -96.5l-119 -215q-185 106 -312 106q-60 0 -93.5 -24t-33.5 -62v-4q0 -11 3.5 -21t12.5 -19.5t17.5 -16.5t25 -15.5t28 -14t34.5 -14t36 -13t40.5 -13.5t40.5 -14q55 -17 97.5 -34t92 -46t81.5 -62.5t53.5 -83.5t21.5 -110v-4q0 -158 -91 -247.5
t-247 -110.5z" />
    <glyph glyph-name="Scaron" unicode="&#x160;" horiz-adv-x="1380" 
d="M719 -20q-368 0 -631 237l186 223q108 -91 217 -137.5t234 -46.5q104 0 164.5 41.5t60.5 110.5v4q0 47 -24 77t-89 58t-194 61q-101 25 -169 48t-135 59.5t-106 82t-62.5 112t-23.5 153.5v4q0 199 146 321.5t375 122.5q316 0 551 -188l-166 -238q-205 150 -391 150
q-95 0 -148 -39.5t-53 -99.5v-4q0 -75 65 -115t262 -90q119 -30 203 -66t147.5 -88.5t94.5 -124.5t31 -166v-4q0 -215 -150 -336.5t-395 -121.5zM1114 1937l-268 -307h-295l-268 307h249l168 -118l168 118h246z" />
    <glyph glyph-name="scaron" unicode="&#x161;" horiz-adv-x="1085" 
d="M954 1597l-258 -329h-295l-258 329h240l168 -141l168 141h235zM553 -20q-269 0 -487 170l135 206q91 -66 185 -101.5t175 -35.5q72 0 109 24.5t37 67.5v4q0 24 -15.5 42.5t-46.5 33.5t-64 26.5t-80 25.5q-23 7 -34 10q-59 18 -100 33.5t-91 44t-80.5 62t-51.5 85
t-21 115.5v4q0 166 118.5 262t297.5 96q108 0 218.5 -34.5t203.5 -96.5l-119 -215q-185 106 -312 106q-60 0 -93.5 -24t-33.5 -62v-4q0 -11 3.5 -21t12.5 -19.5t17.5 -16.5t25 -15.5t28 -14t34.5 -14t36 -13t40.5 -13.5t40.5 -14q55 -17 97.5 -34t92 -46t81.5 -62.5
t53.5 -83.5t21.5 -110v-4q0 -122 -58.5 -205.5t-154 -121t-221.5 -37.5z" />
    <glyph glyph-name="Tcommaaccent" unicode="&#x162;" horiz-adv-x="1394" 
d="M541 0v1200h-459v291h1231v-291h-457v-1200h-315zM545 -612l-17 94q85 7 125 45t35 106h-133v240h287v-203q0 -146 -73 -211.5t-224 -70.5z" />
    <glyph glyph-name="Tcommaaccent" unicode="&#x21a;" horiz-adv-x="1394" 
d="M541 0v1200h-459v291h1231v-291h-457v-1200h-315zM545 -612l-17 94q85 7 125 45t35 106h-133v240h287v-203q0 -146 -73 -211.5t-224 -70.5z" />
    <glyph glyph-name="tcommaaccent" unicode="&#x163;" horiz-adv-x="899" 
d="M330 -612l-17 94q85 7 125 45t35 106h-133v240h287v-203q0 -146 -73 -211.5t-224 -70.5zM541 -18q-77 0 -135.5 16.5t-104 54.5t-69 105.5t-23.5 163.5v550h-137v267h137v295h311v-295h275v-267h-275v-499q0 -117 111 -117q89 0 160 39v-250q-110 -63 -250 -63z" />
    <glyph glyph-name="tcommaaccent" unicode="&#x21b;" horiz-adv-x="899" 
d="M330 -612l-17 94q85 7 125 45t35 106h-133v240h287v-203q0 -146 -73 -211.5t-224 -70.5zM541 -18q-77 0 -135.5 16.5t-104 54.5t-69 105.5t-23.5 163.5v550h-137v267h137v295h311v-295h275v-267h-275v-499q0 -117 111 -117q89 0 160 39v-250q-110 -63 -250 -63z" />
    <glyph glyph-name="Tcaron" unicode="&#x164;" horiz-adv-x="1394" 
d="M1114 1917l-268 -307h-295l-268 307h249l168 -119l168 119h246zM541 0v1200h-459v291h1231v-291h-457v-1200h-315z" />
    <glyph glyph-name="tcaron" unicode="&#x165;" horiz-adv-x="899" 
d="M662 1260l22 436h225v-6l-125 -430h-122zM541 -18q-77 0 -135.5 16.5t-104 54.5t-69 105.5t-23.5 163.5v550h-137v267h137v295h311v-295h275v-267h-275v-499q0 -117 111 -117q89 0 160 39v-250q-110 -63 -250 -63z" />
    <glyph glyph-name="Umacron" unicode="&#x16a;" horiz-adv-x="1626" 
d="M414 1622v221h798v-221h-798zM809 -23q-303 0 -473 169.5t-170 490.5v854h315v-844q0 -186 87 -283.5t245 -97.5t246 94t88 275v856h313v-842q0 -331 -172.5 -501.5t-478.5 -170.5z" />
    <glyph glyph-name="umacron" unicode="&#x16b;" horiz-adv-x="1341" 
d="M537 -23q-185 0 -287.5 113.5t-102.5 312.5v736h310v-637q0 -118 53 -180t152 -62q100 0 156 62.5t56 179.5v637h312v-1139h-312v164q-68 -88 -146 -137.5t-191 -49.5zM287 1280v217h757v-217h-757z" />
    <glyph glyph-name="Ubreve" unicode="&#x16c;" horiz-adv-x="1626" 
d="M813 1587q-169 0 -276.5 81t-120.5 230h213q21 -53 64 -79.5t120 -26.5t120 26.5t64 79.5h213q-13 -149 -120.5 -230t-276.5 -81zM809 -23q-303 0 -473 169.5t-170 490.5v854h315v-844q0 -186 87 -283.5t245 -97.5t246 94t88 275v856h313v-842q0 -331 -172.5 -501.5
t-478.5 -170.5z" />
    <glyph glyph-name="ubreve" unicode="&#x16d;" horiz-adv-x="1341" 
d="M537 -23q-185 0 -287.5 113.5t-102.5 312.5v736h310v-637q0 -118 53 -180t152 -62q100 0 156 62.5t56 179.5v637h312v-1139h-312v164q-68 -88 -146 -137.5t-191 -49.5zM666 1264q-168 0 -274.5 87t-119.5 244h209q46 -129 185 -129q138 0 184 129h209q-13 -157 -119 -244
t-274 -87z" />
    <glyph glyph-name="Uring" unicode="&#x16e;" horiz-adv-x="1626" 
d="M809 -23q-303 0 -473 169.5t-170 490.5v854h315v-844q0 -186 87 -283.5t245 -97.5t246 94t88 275v856h313v-842q0 -331 -172.5 -501.5t-478.5 -170.5zM813 1556q-107 0 -184.5 65t-77.5 167q0 100 77.5 166.5t184.5 66.5t184.5 -66.5t77.5 -166.5q0 -102 -77.5 -167
t-184.5 -65zM813 1669q60 0 97.5 34t37.5 85q0 52 -37.5 86.5t-97.5 34.5t-97.5 -34.5t-37.5 -86.5q0 -51 37.5 -85t97.5 -34z" />
    <glyph glyph-name="uring" unicode="&#x16f;" horiz-adv-x="1341" 
d="M666 1235q-105 0 -180.5 72t-75.5 174t75.5 175t180.5 73t180.5 -73t75.5 -175t-75.5 -174t-180.5 -72zM666 1339q59 0 100 42t41 100q0 60 -40.5 100.5t-100.5 40.5t-101 -40.5t-41 -100.5q0 -58 41.5 -100t100.5 -42zM537 -23q-185 0 -287.5 113.5t-102.5 312.5v736
h310v-637q0 -118 53 -180t152 -62q100 0 156 62.5t56 179.5v637h312v-1139h-312v164q-68 -88 -146 -137.5t-191 -49.5z" />
    <glyph glyph-name="Uhungarumlaut" unicode="&#x170;" horiz-adv-x="1626" 
d="M809 -23q-303 0 -473 169.5t-170 490.5v854h315v-844q0 -186 87 -283.5t245 -97.5t246 94t88 275v856h313v-842q0 -331 -172.5 -501.5t-478.5 -170.5zM475 1610l254 329l260 -118l-287 -211h-227zM872 1610l254 329l260 -118l-284 -211h-230z" />
    <glyph glyph-name="uhungarumlaut" unicode="&#x171;" horiz-adv-x="1341" 
d="M537 -23q-185 0 -287.5 113.5t-102.5 312.5v736h310v-637q0 -118 53 -180t152 -62q100 0 156 62.5t56 179.5v637h312v-1139h-312v164q-68 -88 -146 -137.5t-191 -49.5zM723 1268l233 370l265 -116l-277 -254h-221zM336 1268l229 370l264 -116l-274 -254h-219z" />
    <glyph glyph-name="Uogonek" unicode="&#x172;" horiz-adv-x="1626" 
d="M999 -211v-139q-22 -4 -90 -4q-135 0 -209.5 50.5t-74.5 131.5q0 80 63 158q-250 31 -386 196t-136 455v854h315v-844q0 -186 87 -283.5t245 -97.5t246 94t88 275v856h313v-842q0 -309 -149.5 -477.5t-419.5 -189.5q-41 -56 -41 -105q0 -91 149 -88z" />
    <glyph glyph-name="uogonek" unicode="&#x173;" horiz-adv-x="1341" 
d="M537 -23q-185 0 -287.5 113.5t-102.5 312.5v736h310v-637q0 -118 53 -180t152 -62q100 0 156 62.5t56 179.5v637h312v-1139h-72q-55 -63 -55 -123q0 -91 149 -88v-139q-22 -4 -90 -4q-135 0 -209.5 50.5t-74.5 131.5q0 87 73 172h-33v164q-68 -88 -146 -137.5t-191 -49.5
z" />
    <glyph glyph-name="Wcircumflex" unicode="&#x174;" horiz-adv-x="2404" 
d="M586 -10l-512 1501h338l319 -1028l340 1032h270l340 -1032l318 1028h330l-510 -1501h-275l-342 993l-342 -993h-274zM786 1610l269 307h295l268 -307h-250l-168 119l-168 -119h-246z" />
    <glyph glyph-name="wcircumflex" unicode="&#x175;" horiz-adv-x="1849" 
d="M518 1268l258 329h295l258 -329h-239l-168 141l-168 -141h-236zM416 -8l-353 1147h316l190 -709l224 713h266l223 -715l197 711h309l-358 -1147h-281l-225 715l-230 -715h-278z" />
    <glyph glyph-name="Ycircumflex" unicode="&#x176;" horiz-adv-x="1542" 
d="M612 0v588l-575 903h369l366 -610l375 610h358l-577 -897v-594h-316zM354 1610l269 307h295l268 -307h-250l-168 119l-168 -119h-246z" />
    <glyph glyph-name="ycircumflex" unicode="&#x177;" horiz-adv-x="1292" 
d="M653 350l258 789h324l-440 -1168q-67 -176 -149.5 -247.5t-225.5 -71.5q-147 0 -283 78l105 225q74 -43 141 -43q45 0 72 17.5t51 66.5l-453 1143h330zM240 1268l258 329h295l258 -329h-240l-168 141l-168 -141h-235z" />
    <glyph glyph-name="Ydieresis" unicode="&#x178;" horiz-adv-x="1542" 
d="M612 0v588l-575 903h369l366 -610l375 610h358l-577 -897v-594h-316zM848 1610v264h303v-264h-303zM389 1610v264h303v-264h-303z" />
    <glyph glyph-name="Zacute" unicode="&#x179;" horiz-adv-x="1521" 
d="M143 0v238l832 976h-805v277h1210v-238l-831 -977h831v-276h-1237zM647 1610l254 329l270 -118l-286 -211h-238z" />
    <glyph glyph-name="zacute" unicode="&#x17a;" horiz-adv-x="1214" 
d="M489 1268l234 370l270 -116l-274 -254h-230zM115 0v217l602 670h-582v252h971v-219l-604 -668h604v-252h-991z" />
    <glyph glyph-name="Zdotaccent" unicode="&#x17b;" horiz-adv-x="1521" 
d="M618 1610v264h312v-264h-312zM143 0v238l832 976h-805v277h1210v-238l-831 -977h831v-276h-1237z" />
    <glyph glyph-name="zdotaccent" unicode="&#x17c;" horiz-adv-x="1214" 
d="M115 0v217l602 670h-582v252h971v-219l-604 -668h604v-252h-991zM455 1268v280h311v-280h-311z" />
    <glyph glyph-name="Zcaron" unicode="&#x17d;" horiz-adv-x="1521" 
d="M1190 1917l-268 -307h-295l-269 307h250l168 -119l168 119h246zM143 0v238l832 976h-805v277h1210v-238l-831 -977h831v-276h-1237z" />
    <glyph glyph-name="zcaron" unicode="&#x17e;" horiz-adv-x="1214" 
d="M1016 1597l-258 -329h-295l-258 329h239l168 -141l168 141h236zM115 0v217l602 670h-582v252h971v-219l-604 -668h604v-252h-991z" />
    <glyph glyph-name="uni018F" unicode="&#x18f;" horiz-adv-x="1714" 
d="M397 1036l-200 203q235 277 632 277q160 0 301 -56.5t242.5 -156t160 -242.5t58.5 -309v-7q0 -211 -94 -387t-265 -279.5t-382 -103.5q-144 0 -264 42.5t-204.5 117.5t-143.5 176.5t-87 219.5t-28 247v4q0 23 4 101h1120q-35 164 -148 254t-270 90q-133 0 -234.5 -46
t-197.5 -145zM850 258q156 0 262.5 98t136.5 260h-788q21 -160 123.5 -259t265.5 -99z" />
    <glyph glyph-name="florin" unicode="&#x192;" horiz-adv-x="1155" 
d="M219 -10q-74 0 -123 10v252q41 -6 80 -6q67 0 102.5 30t47.5 101l63 360h-149v256h194l31 166q31 172 123 257t274 85q127 0 207 -24v-258q-73 20 -145 20t-110.5 -34.5t-51.5 -112.5l-17 -99h250v-256h-295l-73 -407q-32 -183 -128.5 -261.5t-279.5 -78.5z" />
    <glyph glyph-name="Aringacute" unicode="&#x1fa;" horiz-adv-x="1699" 
d="M61 0l605 1413q-78 66 -78 168q0 101 77.5 167.5t184.5 66.5t184.5 -66.5t77.5 -167.5t-80 -168l604 -1413h-329l-140 340h-645l-139 -340h-322zM635 618h420l-209 506zM850 1462q59 0 97 34.5t38 84.5q0 52 -38 86.5t-97 34.5q-60 0 -97.5 -34.5t-37.5 -86.5
q0 -51 37.5 -85t97.5 -34zM711 1874l266 289l268 -119l-297 -170h-237z" />
    <glyph glyph-name="aringacute" unicode="&#x1fb;" horiz-adv-x="1275" 
d="M481 -23q-168 0 -281.5 94t-113.5 257v4q0 180 125 271t336 91q147 0 284 -45v21q0 105 -63.5 160t-187.5 55q-147 0 -318 -64l-78 238q104 46 206 69t235 23q253 0 383 -127q122 -122 122 -360v-664h-301v127q-136 -150 -348 -150zM573 195q117 0 190 58t73 150v62
q-98 43 -218 43q-109 0 -170 -43t-61 -121v-4q0 -68 51.5 -106.5t134.5 -38.5zM641 1264q-105 0 -180.5 71.5t-75.5 173.5t75.5 175t180.5 73t180.5 -73t75.5 -175t-75.5 -173.5t-180.5 -71.5zM641 1368q59 0 100 41.5t41 99.5q0 60 -40.5 101t-100.5 41t-100.5 -41
t-40.5 -101q0 -58 41 -99.5t100 -41.5zM516 1829l250 309l266 -119l-287 -190h-229z" />
    <glyph glyph-name="AEacute" unicode="&#x1fc;" horiz-adv-x="2242" 
d="M1196 1610l254 329l270 -118l-286 -211h-238zM29 0l809 1491h1271v-281h-755v-319h659v-281h-659v-329h766v-281h-1080v340h-508l-182 -340h-321zM680 618h360v601h-39z" />
    <glyph glyph-name="aeacute" unicode="&#x1fd;" horiz-adv-x="2041" 
d="M889 1268l233 370l271 -116l-275 -254h-229zM516 -23q-188 0 -309 94.5t-121 256.5v4q0 180 125 271t336 91q145 0 282 -45v21q0 105 -63.5 160t-185.5 55q-87 0 -159 -15.5t-159 -48.5l-78 238q101 46 202.5 69t236.5 23q274 0 389 -152q154 160 381 160q107 0 197 -33
t153.5 -91t107.5 -136t65 -168t21 -188q0 -20 -4 -82h-800q23 -115 98.5 -175.5t189.5 -60.5q84 0 149.5 28t133.5 91l178 -158q-171 -211 -465 -211q-273 0 -436 177q-234 -175 -465 -175zM1128 655h506q-14 116 -79 185t-171 69q-103 0 -170 -68t-86 -186zM571 199
q164 0 301 114q-31 66 -41 154q-102 41 -213 41q-109 0 -170 -43t-61 -121v-4q0 -64 53 -102.5t131 -38.5z" />
    <glyph glyph-name="Oslashacute" unicode="&#x1fe;" horiz-adv-x="1826" 
d="M1419 1501h301l-209 -241q193 -215 193 -510v-5q0 -156 -60 -297.5t-164 -245.5t-252.5 -165.5t-316.5 -61.5q-234 0 -417 109l-86 -94h-302l209 241q-192 214 -192 510v4q0 156 60 297.5t163.5 246t252 166t316.5 61.5q229 0 416 -111zM446 750v-5q0 -151 80 -276
l611 707q-99 57 -226 57q-132 0 -239.5 -65.5t-166.5 -176t-59 -241.5zM915 258q132 0 239.5 65.5t166.5 176t59 241.5v4q0 154 -80 275l-610 -705q99 -57 225 -57zM786 1630l254 330l271 -119l-287 -211h-238z" />
    <glyph glyph-name="oslashacute" unicode="&#x1ff;" horiz-adv-x="1427" 
d="M1085 1149h275l-174 -199q141 -167 141 -379v-4q0 -162 -79.5 -297.5t-221 -215t-315.5 -79.5q-176 0 -310 76l-59 -61h-274l170 194q-138 157 -138 379v4q0 121 47 230t128 188.5t196.5 126.5t245.5 47q173 0 307 -76zM717 233q142 0 226.5 95.5t84.5 234.5v4
q0 88 -39 162l-405 -467q66 -29 133 -29zM399 571v-4q0 -88 37 -161l408 464q-69 29 -133 29q-142 0 -227 -95t-85 -233zM592 1268l233 370l271 -116l-275 -254h-229z" />
    <glyph glyph-name="Scommaaccent" unicode="&#x218;" horiz-adv-x="1380" 
d="M719 -20q-368 0 -631 237l186 223q108 -91 217 -137.5t234 -46.5q104 0 164.5 41.5t60.5 110.5v4q0 47 -24 77t-89 58t-194 61q-101 25 -169 48t-135 59.5t-106 82t-62.5 112t-23.5 153.5v4q0 199 146 321.5t375 122.5q316 0 551 -188l-166 -238q-205 150 -391 150
q-95 0 -148 -39.5t-53 -99.5v-4q0 -75 65 -115t262 -90q119 -30 203 -66t147.5 -88.5t94.5 -124.5t31 -166v-4q0 -215 -150 -336.5t-395 -121.5zM545 -621l-17 95q85 7 125 45t35 106h-133v240h287v-203q0 -146 -73.5 -212t-223.5 -71z" />
    <glyph glyph-name="scommaaccent" unicode="&#x219;" horiz-adv-x="1085" 
d="M395 -612l-16 94q85 7 125 45t35 106h-133v240h286v-203q0 -146 -73 -211.5t-224 -70.5zM553 -20q-269 0 -487 170l135 206q91 -66 185 -101.5t175 -35.5q72 0 109 24.5t37 67.5v4q0 24 -15.5 42.5t-46.5 33.5t-64 26.5t-80 25.5q-23 7 -34 10q-59 18 -100 33.5t-91 44
t-80.5 62t-51.5 85t-21 115.5v4q0 166 118.5 262t297.5 96q108 0 218.5 -34.5t203.5 -96.5l-119 -215q-185 106 -312 106q-60 0 -93.5 -24t-33.5 -62v-4q0 -11 3.5 -21t12.5 -19.5t17.5 -16.5t25 -15.5t28 -14t34.5 -14t36 -13t40.5 -13.5t40.5 -14q55 -17 97.5 -34t92 -46
t81.5 -62.5t53.5 -83.5t21.5 -110v-4q0 -122 -58.5 -205.5t-154 -121t-221.5 -37.5z" />
    <glyph glyph-name="schwa" unicode="&#x259;" horiz-adv-x="1318" 
d="M627 1163q168 0 302.5 -73.5t212 -208.5t77.5 -306v-4q0 -162 -71 -297.5t-200.5 -216t-290.5 -80.5q-110 0 -202 33.5t-156 91.5t-108.5 137t-65.5 169t-21 188q0 4 5 82h800q-23 115 -98.5 175t-187.5 60q-85 0 -150.5 -28t-132.5 -92l-180 159q176 211 467 211z
M913 481h-505q14 -116 78.5 -184t170.5 -68q103 0 170 67.5t86 184.5z" />
    <glyph glyph-name="circumflex" unicode="&#x2c6;" horiz-adv-x="1081" 
d="M135 1268l258 329h295l258 -329h-239l-168 141l-168 -141h-236z" />
    <glyph glyph-name="caron" unicode="&#x2c7;" horiz-adv-x="1081" 
d="M946 1597l-258 -329h-295l-258 329h240l168 -141l168 141h235z" />
    <glyph glyph-name="breve" unicode="&#x2d8;" horiz-adv-x="1081" 
d="M541 1264q-168 0 -274.5 87t-119.5 244h209q46 -129 185 -129q138 0 184 129h209q-13 -157 -119 -244t-274 -87z" />
    <glyph glyph-name="dotaccent" unicode="&#x2d9;" horiz-adv-x="1081" 
d="M385 1268v280h311v-280h-311z" />
    <glyph glyph-name="ring" unicode="&#x2da;" horiz-adv-x="1081" 
d="M541 1264q-105 0 -180.5 71.5t-75.5 173.5t75.5 175t180.5 73t180.5 -73t75.5 -175t-75.5 -173.5t-180.5 -71.5zM541 1368q59 0 100 41.5t41 99.5q0 60 -40.5 101t-100.5 41t-101 -41t-41 -101q0 -58 41.5 -99.5t100.5 -41.5z" />
    <glyph glyph-name="ogonek" unicode="&#x2db;" horiz-adv-x="1081" 
d="M762 -211v-139q-22 -4 -90 -4q-135 0 -210 50.5t-75 131.5q0 50 23.5 95t70.5 100l207 -3q-76 -79 -76 -143q0 -91 150 -88z" />
    <glyph glyph-name="tilde" unicode="&#x2dc;" horiz-adv-x="1081" 
d="M713 1268q-79 0 -191 47q-95 35 -125 35q-47 0 -71.5 -23.5t-49.5 -81.5l-167 51q40 145 98.5 217t161.5 72q78 0 190 -47q8 -3 27.5 -10.5t29 -10.5t23.5 -7.5t25 -6.5t20 -2q47 0 71.5 24t49.5 83l168 -52q-40 -145 -98.5 -216.5t-161.5 -71.5z" />
    <glyph glyph-name="hungarumlaut" unicode="&#x2dd;" horiz-adv-x="1081" 
d="M496 1268l233 370l264 -116l-276 -254h-221zM109 1268l229 370l264 -116l-274 -254h-219z" />
    <glyph glyph-name="commaaccent" unicode="&#x326;" horiz-adv-x="1081" 
d="M387 -612l-16 94q84 7 124 45t35 106h-133v240h287v-203q0 -146 -73 -211.5t-224 -70.5z" />
    <glyph glyph-name="uni0384" unicode="&#x384;" horiz-adv-x="1081" 
d="M358 1268l152 383l262 -117l-213 -266h-201z" />
    <glyph glyph-name="uni0385" unicode="&#x385;" horiz-adv-x="1081" 
d="M739 1268v276h265v-276h-265zM78 1268v276h264v-276h-264zM397 1268l99 436l249 -55l-178 -381h-170z" />
    <glyph glyph-name="uni0386" unicode="&#x386;" horiz-adv-x="1699" 
d="M61 0l644 1501h290l641 -1501h-329l-140 340h-645l-139 -340h-322zM635 618h420l-209 506zM96 1049l23 442h299l-162 -442h-160z" />
    <glyph glyph-name="uni0387" unicode="&#x387;" horiz-adv-x="638" 
d="M154 807v332h331v-332h-331z" />
    <glyph glyph-name="uni0388" unicode="&#x388;" horiz-adv-x="1443" 
d="M-209 1049l23 442h299l-162 -442h-160zM190 0v1491h1121v-281h-809v-319h712v-281h-712v-329h819v-281h-1131z" />
    <glyph glyph-name="uni0389" unicode="&#x389;" horiz-adv-x="1634" 
d="M190 0v1491h314v-596h626v596h316v-1491h-316v604h-626v-604h-314zM-209 1049l23 442h299l-162 -442h-160z" />
    <glyph glyph-name="uni038A" unicode="&#x38a;" horiz-adv-x="724" 
d="M205 0v1491h315v-1491h-315zM-201 1049l23 442h299l-162 -442h-160z" />
    <glyph glyph-name="uni038C" unicode="&#x38c;" horiz-adv-x="1826" 
d="M-154 1049l23 442h299l-162 -442h-160zM911 -25q-169 0 -316.5 60.5t-250.5 163.5t-162 244t-59 298v4q0 156 60 297.5t163.5 246t252 166t316.5 61.5q169 0 316.5 -60.5t250.5 -163.5t162.5 -244t59.5 -298v-5q0 -156 -60 -297.5t-164 -245.5t-252.5 -165.5
t-316.5 -61.5zM915 264q199 0 329 138.5t130 338.5v4q0 199 -132.5 340.5t-330.5 141.5q-199 0 -328.5 -138.5t-129.5 -338.5v-5q0 -131 58 -240.5t164.5 -175t239.5 -65.5z" />
    <glyph glyph-name="uni038E" unicode="&#x38e;" horiz-adv-x="1542" 
d="M612 0v588l-575 903h369l366 -610l375 610h358l-577 -897v-594h-316zM-311 1049l22 442h299l-162 -442h-159z" />
    <glyph glyph-name="uni038F" unicode="&#x38f;" horiz-adv-x="1869" 
d="M936 1516q177 0 322.5 -52.5t242.5 -145t150 -218t53 -271.5v-2q0 -330 -311 -559h346v-268h-660v264q67 47 115.5 93.5t91.5 109t65.5 143t22.5 176.5v2q0 197 -118 318t-324 121q-201 0 -318.5 -119t-117.5 -311v-2q0 -176 75.5 -302.5t216.5 -228.5v-264h-657v268h344
q-144 108 -226.5 243t-82.5 318v2q0 138 53 262t149.5 218t243.5 149.5t324 55.5zM-147 1049l22 442h299l-162 -442h-159z" />
    <glyph glyph-name="uni0390" unicode="&#x390;" horiz-adv-x="702" 
d="M516 1268v276h264v-276h-264zM-145 1268v276h264v-276h-264zM174 1268l98 436l250 -55l-178 -381h-170zM152 350v789h311v-774q0 -65 28 -93t84 -28q44 0 68 6v-240q-64 -22 -172 -22q-163 0 -241 85t-78 277z" />
    <glyph glyph-name="uni0391" unicode="&#x391;" horiz-adv-x="1699" 
d="M61 0l644 1501h290l641 -1501h-329l-140 340h-645l-139 -340h-322zM635 618h420l-209 506z" />
    <glyph glyph-name="uni0392" unicode="&#x392;" horiz-adv-x="1554" 
d="M190 0v1491h687q254 0 391 -131q100 -100 100 -254v-4q0 -209 -199 -324q138 -51 210.5 -136.5t72.5 -227.5v-4q0 -200 -149.5 -305t-407.5 -105h-705zM1055 1051v4q0 76 -58 117.5t-166 41.5h-335v-331h315q116 0 180 41.5t64 126.5zM1139 446v5q0 170 -256 170h-387
v-345h399q118 0 181 42.5t63 127.5z" />
    <glyph glyph-name="uni0393" unicode="&#x393;" horiz-adv-x="1333" 
d="M190 0v1491h1065v-287h-751v-1204h-314z" />
    <glyph glyph-name="uni0394" unicode="&#x394;" horiz-adv-x="1691" 
d="M127 0l-25 227l580 1274h328l579 -1274l-24 -227h-1438zM842 1155l-381 -876h762z" />
    <glyph glyph-name="uni0395" unicode="&#x395;" horiz-adv-x="1443" 
d="M190 0v1491h1121v-281h-809v-319h712v-281h-712v-329h819v-281h-1131z" />
    <glyph glyph-name="uni0396" unicode="&#x396;" horiz-adv-x="1521" 
d="M143 0v238l832 976h-805v277h1210v-238l-831 -977h831v-276h-1237z" />
    <glyph glyph-name="uni0397" unicode="&#x397;" horiz-adv-x="1634" 
d="M190 0v1491h314v-596h626v596h316v-1491h-316v604h-626v-604h-314z" />
    <glyph glyph-name="uni0398" unicode="&#x398;" horiz-adv-x="1826" 
d="M911 -25q-169 0 -316.5 60.5t-250.5 163.5t-162 244t-59 298v4q0 156 60 297.5t163.5 246t252 166t316.5 61.5q169 0 316.5 -60.5t250.5 -163.5t162.5 -244t59.5 -298v-5q0 -156 -60 -297.5t-164 -245.5t-252.5 -165.5t-316.5 -61.5zM915 260q213 0 341 134.5t128 346.5
v4q0 210 -131 348t-342 138q-213 0 -341 -134.5t-128 -346.5v-5q0 -210 131 -347.5t342 -137.5zM1208 895v-289h-590v289h590z" />
    <glyph glyph-name="uni0399" unicode="&#x399;" horiz-adv-x="724" 
d="M205 0v1491h315v-1491h-315z" />
    <glyph glyph-name="uni039A" unicode="&#x39a;" horiz-adv-x="1568" 
d="M190 0v1491h314v-672l622 672h387l-612 -635l639 -856h-379l-473 641l-184 -190v-451h-314z" />
    <glyph glyph-name="uni039B" unicode="&#x39b;" horiz-adv-x="1656" 
d="M967 1501l628 -1501h-348l-426 1061l-420 -1061h-340l627 1501h279z" />
    <glyph glyph-name="uni039C" unicode="&#x39c;" horiz-adv-x="1865" 
d="M190 0v1491h338l404 -645l405 645h338v-1491h-313v993l-430 -651h-8l-426 645v-987h-308z" />
    <glyph glyph-name="uni039D" unicode="&#x39d;" horiz-adv-x="1699" 
d="M190 0v1491h289l719 -940v940h311v-1491h-268l-741 971v-971h-310z" />
    <glyph glyph-name="uni039E" unicode="&#x39e;" horiz-adv-x="1421" 
d="M1288 1206h-1155v285h1155v-285zM1235 608h-1049v285h1049v-285zM1298 0h-1175v285h1175v-285z" />
    <glyph glyph-name="uni039F" unicode="&#x39f;" horiz-adv-x="1826" 
d="M911 -25q-169 0 -316.5 60.5t-250.5 163.5t-162 244t-59 298v4q0 156 60 297.5t163.5 246t252 166t316.5 61.5q169 0 316.5 -60.5t250.5 -163.5t162.5 -244t59.5 -298v-5q0 -156 -60 -297.5t-164 -245.5t-252.5 -165.5t-316.5 -61.5zM915 264q199 0 329 138.5t130 338.5
v4q0 199 -132.5 340.5t-330.5 141.5q-199 0 -328.5 -138.5t-129.5 -338.5v-5q0 -131 58 -240.5t164.5 -175t239.5 -65.5z" />
    <glyph glyph-name="uni03A0" unicode="&#x3a0;" horiz-adv-x="1626" 
d="M190 0v1491h1246v-1491h-316v1204h-616v-1204h-314z" />
    <glyph glyph-name="uni03A1" unicode="&#x3a1;" horiz-adv-x="1439" 
d="M190 0v1491h605q262 0 415.5 -141.5t153.5 -370.5v-4q0 -126 -47 -226t-129 -163.5t-190 -97t-234 -33.5h-260v-455h-314zM504 735h270q126 0 199.5 66t73.5 168v4q0 114 -74 173.5t-205 59.5h-264v-471z" />
    <glyph glyph-name="uni03A3" unicode="&#x3a3;" horiz-adv-x="1495" 
d="M1067 745l-477 -469h782v-276h-1222v233l514 512l-510 512v234h1206v-277h-766z" />
    <glyph glyph-name="uni03A4" unicode="&#x3a4;" horiz-adv-x="1394" 
d="M541 0v1200h-459v291h1231v-291h-457v-1200h-315z" />
    <glyph glyph-name="uni03A5" unicode="&#x3a5;" horiz-adv-x="1542" 
d="M612 0v588l-575 903h369l366 -610l375 610h358l-577 -897v-594h-316z" />
    <glyph glyph-name="uni03A6" unicode="&#x3a6;" horiz-adv-x="2084" 
d="M885 -18v151q-181 2 -327.5 49t-243.5 129t-149 193.5t-52 243.5v2q0 132 51.5 243.5t148.5 193t243.5 128.5t328.5 51v143h315v-143q182 -4 328 -50.5t243 -127.5t149 -192t52 -244v-2q0 -131 -52 -242.5t-149 -194t-243.5 -130.5t-327.5 -50v-151h-315zM438 750v-2
q0 -150 116.5 -245t336.5 -95v684q-222 -1 -337.5 -94t-115.5 -248zM1645 750v2q0 150 -115.5 245t-335.5 95v-684q220 1 335.5 94.5t115.5 247.5z" />
    <glyph glyph-name="uni03A7" unicode="&#x3a7;" horiz-adv-x="1574" 
d="M1118 1491h359l-502 -727l522 -764h-369l-346 524l-348 -524h-358l524 758l-502 733h369l324 -496z" />
    <glyph glyph-name="uni03A8" unicode="&#x3a8;" horiz-adv-x="1835" 
d="M1688 1491v-530q0 -317 -159.5 -477.5t-455.5 -172.5v-311h-311v311q-295 8 -453.5 167.5t-158.5 471.5v541h309v-533q0 -186 73 -268t234 -88v889h303v-889q159 6 233 86.5t74 259.5v543h312z" />
    <glyph glyph-name="uni03A9" unicode="&#x3a9;" horiz-adv-x="1869" 
d="M936 1516q177 0 322.5 -52.5t242.5 -145t150 -218t53 -271.5v-2q0 -330 -311 -559h346v-268h-660v264q67 47 115.5 93.5t91.5 109t65.5 143t22.5 176.5v2q0 197 -118 318t-324 121q-201 0 -318.5 -119t-117.5 -311v-2q0 -176 75.5 -302.5t216.5 -228.5v-264h-657v268h344
q-144 108 -226.5 243t-82.5 318v2q0 138 53 262t149.5 218t243.5 149.5t324 55.5z" />
    <glyph glyph-name="uni03AA" unicode="&#x3aa;" horiz-adv-x="724" 
d="M205 0v1491h315v-1491h-315zM442 1610v264h303v-264h-303zM-16 1610v264h303v-264h-303z" />
    <glyph glyph-name="uni03AB" unicode="&#x3ab;" horiz-adv-x="1542" 
d="M612 0v588l-575 903h369l366 -610l375 610h358l-577 -897v-594h-316zM848 1610v264h303v-264h-303zM389 1610v264h303v-264h-303z" />
    <glyph glyph-name="uni03AC" unicode="&#x3ac;" horiz-adv-x="1536" 
d="M690 1268l152 383l262 -117l-213 -266h-201zM1477 250v-240q-64 -22 -170 -22q-117 0 -186 40t-99 130q-146 -181 -381 -181q-108 0 -204.5 39.5t-171 112t-118 186t-43.5 252.5v4q0 137 43.5 250t116 186t166 112.5t195.5 39.5q121 0 206.5 -46.5t153.5 -127.5v154h311
v-774q0 -65 28.5 -93t84.5 -28q41 0 68 6zM702 244q120 0 203.5 90t83.5 233v4q0 143 -83.5 233.5t-203.5 90.5q-121 0 -203.5 -89.5t-82.5 -234.5v-4q0 -143 83 -233t203 -90z" />
    <glyph glyph-name="uni03AD" unicode="&#x3ad;" horiz-adv-x="1226" 
d="M530 1268l152 383l262 -117l-213 -266h-201zM854 459h-246q-196 0 -196 -111v-2q0 -121 221 -121q199 0 385 121l129 -203q-238 -166 -526 -166q-247 0 -378.5 90t-131.5 246v2q0 176 198 258q-81 41 -125.5 100t-44.5 146v2q0 148 130 241t364 93q154 0 275.5 -40
t228.5 -120l-156 -207q-157 121 -336 121q-100 0 -152.5 -32t-52.5 -82v-2q0 -56 39.5 -83.5t128.5 -27.5h246v-223z" />
    <glyph glyph-name="uni03AE" unicode="&#x3ae;" horiz-adv-x="1341" 
d="M580 1268l151 383l262 -117l-213 -266h-200zM1196 -340h-311v977q0 118 -53 180t-152 62q-100 0 -156.5 -62.5t-56.5 -179.5v-637h-311v1139h311v-164q134 184 338 184q185 0 288 -112.5t103 -311.5v-1075z" />
    <glyph glyph-name="uni03AF" unicode="&#x3af;" horiz-adv-x="702" 
d="M219 1268l152 383l262 -117l-213 -266h-201zM152 350v789h311v-774q0 -65 28 -93t84 -28q44 0 68 6v-240q-64 -22 -172 -22q-163 0 -241 85t-78 277z" />
    <glyph glyph-name="uni03B0" unicode="&#x3b0;" horiz-adv-x="1345" 
d="M870 1268v276h265v-276h-265zM209 1268v276h264v-276h-264zM528 1268l99 436l250 -55l-179 -381h-170zM670 -25q-247 0 -387 129t-140 375v660h312v-650q0 -247 219 -247q114 0 166.5 61t52.5 180v656h311v-652q0 -252 -143 -382t-391 -130z" />
    <glyph glyph-name="uni03B1" unicode="&#x3b1;" horiz-adv-x="1536" 
d="M1477 250v-240q-64 -22 -170 -22q-117 0 -186 40t-99 130q-146 -181 -381 -181q-108 0 -204.5 39.5t-171 112t-118 186t-43.5 252.5v4q0 137 43.5 250t116 186t166 112.5t195.5 39.5q121 0 206.5 -46.5t153.5 -127.5v154h311v-774q0 -65 28.5 -93t84.5 -28q41 0 68 6z
M702 244q120 0 203.5 90t83.5 233v4q0 143 -83.5 233.5t-203.5 90.5q-121 0 -203.5 -89.5t-82.5 -234.5v-4q0 -143 83 -233t203 -90z" />
    <glyph glyph-name="uni03B2" unicode="&#x3b2;" horiz-adv-x="1423" 
d="M467 -340h-311v1348q0 265 150.5 413t424.5 148q255 0 393 -119t138 -307v-2q0 -137 -71 -232.5t-206 -136.5q167 -44 250.5 -129t83.5 -242v-2q0 -188 -121.5 -305t-331.5 -117q-135 0 -237 49t-162 128v-494zM637 655h-174v-45q0 -189 84.5 -279.5t232.5 -90.5
q112 0 172 53t60 137q0 114 -90.5 169.5t-284.5 55.5zM463 1010v-136h172q153 0 238 62.5t85 173.5q0 90 -60.5 146.5t-164.5 56.5q-128 0 -199 -81t-71 -222z" />
    <glyph glyph-name="uni03B3" unicode="&#x3b3;" horiz-adv-x="1292" 
d="M1239 1139l-438 -1092v-387h-309v387l-439 1092h332l262 -756l266 756h326z" />
    <glyph glyph-name="uni03B4" unicode="&#x3b4;" horiz-adv-x="1394" 
d="M1155 1300l-483 9l237 -170q204 -144 292.5 -277t88.5 -315q0 -119 -42 -223t-118.5 -181.5t-191.5 -122.5t-252 -45q-129 0 -239.5 44t-186 119t-118 176.5t-42.5 215.5q0 139 47 242.5t136 180t239 153.5l-256 217v231h889v-254zM731 930h-2q-182 -97 -255 -189
t-73 -209q0 -123 81.5 -209.5t209.5 -86.5q127 0 211 87t84 205q0 104 -52.5 188.5t-203.5 213.5z" />
    <glyph glyph-name="uni03B5" unicode="&#x3b5;" horiz-adv-x="1226" 
d="M854 459h-246q-196 0 -196 -111v-2q0 -121 221 -121q199 0 385 121l129 -203q-238 -166 -526 -166q-247 0 -378.5 90t-131.5 246v2q0 176 198 258q-81 41 -125.5 100t-44.5 146v2q0 148 130 241t364 93q154 0 275.5 -40t228.5 -120l-156 -207q-157 121 -336 121
q-100 0 -152.5 -32t-52.5 -82v-2q0 -56 39.5 -83.5t128.5 -27.5h246v-223z" />
    <glyph glyph-name="uni03B6" unicode="&#x3b6;" horiz-adv-x="1198" 
d="M811 -272v245l-211 27q-261 35 -382.5 139.5t-121.5 288.5q0 128 51 230.5t175 230.5l391 409h-533v256h924v-239l-576 -617q-71 -76 -98 -126t-27 -109q0 -84 61.5 -129.5t188.5 -63.5l447 -61v-481h-289z" />
    <glyph glyph-name="uni03B7" unicode="&#x3b7;" horiz-adv-x="1341" 
d="M1196 -340h-311v977q0 118 -53 180t-152 62q-100 0 -156.5 -62.5t-56.5 -179.5v-637h-311v1139h311v-164q134 184 338 184q185 0 288 -112.5t103 -311.5v-1075z" />
    <glyph glyph-name="uni03B8" unicode="&#x3b8;" horiz-adv-x="1452" 
d="M723 -25q-268 0 -435 210.5t-167 559.5v54q0 348 170 559t438 211t435 -210.5t167 -559.5v-54q0 -348 -170 -559t-438 -211zM727 236q135 0 216 109.5t87 301.5h-610q11 -193 92 -302t215 -109zM725 1309q-135 0 -216 -109.5t-89 -300.5h610q-8 191 -89 300.5t-216 109.5
z" />
    <glyph glyph-name="uni03B9" unicode="&#x3b9;" horiz-adv-x="702" 
d="M152 350v789h311v-774q0 -65 28 -93t84 -28q44 0 68 6v-240q-64 -22 -172 -22q-163 0 -241 85t-78 277z" />
    <glyph glyph-name="uni03BA" unicode="&#x3ba;" horiz-adv-x="1273" 
d="M467 1139v-473l397 473h379l-434 -477l442 -662h-362l-285 442l-137 -151v-291h-311v1139h311z" />
    <glyph glyph-name="uni03BB" unicode="&#x3bb;" horiz-adv-x="1325" 
d="M215 1280v256q79 33 197 33q149 0 226 -63.5t140 -225.5l498 -1280h-330l-280 780l-285 -780h-324l467 1128l-26 66q-24 57 -59 84t-91 27q-65 0 -133 -25z" />
    <glyph glyph-name="uni03BC" unicode="&#x3bc;" horiz-adv-x="1441" 
d="M1384 250v-240q-68 -22 -167 -22q-207 0 -275 141q-92 -143 -254 -143q-83 0 -158.5 40t-105.5 115h-4q3 -13 11 -46t11.5 -51t9 -46.5t7.5 -55.5t2 -55v-227h-305v1479h311v-645q0 -118 55 -181t154 -63q101 0 159 63.5t58 180.5v645h311v-789q4 -59 31 -82.5t82 -23.5
q40 0 67 6z" />
    <glyph glyph-name="uni03BD" unicode="&#x3bd;" horiz-adv-x="1292" 
d="M506 -8l-453 1147h330l264 -779l268 779h324l-453 -1147h-280z" />
    <glyph glyph-name="uni03BE" unicode="&#x3be;" horiz-adv-x="1200" 
d="M1169 1411l-151 -237q-153 126 -313 126q-103 0 -165.5 -55t-62.5 -143q0 -98 79.5 -153.5t215.5 -55.5h180v-254h-241q-146 0 -223.5 -49t-77.5 -137q0 -86 61 -129.5t186 -61.5l433 -57v-477h-289v245l-215 27q-116 15 -201.5 43t-151 75.5t-98.5 120.5t-33 171
q0 272 306 368q-109 47 -173.5 129t-64.5 221q0 189 145.5 315t391.5 126q150 0 260 -42t202 -116z" />
    <glyph glyph-name="uni03BF" unicode="&#x3bf;" horiz-adv-x="1427" 
d="M711 -25q-129 0 -243 46t-194.5 124.5t-127 187.5t-46.5 230v4q0 121 47 230t128 188.5t196.5 126.5t245.5 47q129 0 242.5 -46.5t194 -125t127 -187t46.5 -229.5v-4q0 -162 -79.5 -297.5t-221 -215t-315.5 -79.5zM717 242q137 0 220 93t83 228v4q0 134 -87 229t-222 95
q-137 0 -220 -92.5t-83 -227.5v-4q0 -134 87 -229.5t222 -95.5z" />
    <glyph glyph-name="uni03C0" unicode="&#x3c0;" horiz-adv-x="1521" 
d="M63 1139h1358v-277h-180v-497q0 -65 28.5 -93t84.5 -28q43 0 67 6v-240q-64 -22 -172 -22q-163 0 -241 85t-78 277v512h-375v-862h-311v862h-181v277z" />
    <glyph glyph-name="uni03C1" unicode="&#x3c1;" horiz-adv-x="1431" 
d="M137 -340v875q0 284 159.5 454t434.5 170q173 0 310 -78t212.5 -212t75.5 -298v-4q0 -134 -44 -247t-116 -187t-163 -115t-187 -41q-131 0 -219 46.5t-154 132.5v-496h-309zM729 244q122 0 205.5 89t83.5 234v4q0 143 -84 233.5t-205 90.5q-120 0 -202.5 -90.5
t-82.5 -233.5v-4q0 -143 82.5 -233t202.5 -90z" />
    <glyph glyph-name="uni03C2" unicode="&#x3c2;" horiz-adv-x="1239" 
d="M813 -272v249l-121 15q-291 42 -441.5 189.5t-150.5 402.5v2q0 114 42 217.5t116.5 182.5t187 126t244.5 47q158 0 266 -50t195 -148l-195 -211q-62 70 -124 105.5t-148 35.5q-121 0 -198.5 -89t-77.5 -210v-2q0 -148 90 -229.5t276 -104.5l328 -45v-483h-289z" />
    <glyph glyph-name="uni03C3" unicode="&#x3c3;" horiz-adv-x="1495" 
d="M1430 872l-297 5q90 -68 134 -152t44 -199v-2q0 -152 -77 -277.5t-216 -198.5t-313 -73q-129 0 -242 44.5t-192.5 121t-125 183t-45.5 227.5v2q0 120 46 227t128 186.5t203.5 126t265.5 46.5h687v-267zM711 242q137 0 217 87t80 220v2q0 135 -81 227t-222 92
q-136 0 -216.5 -91.5t-80.5 -225.5v-2q0 -131 84 -220t219 -89z" />
    <glyph glyph-name="uni03C4" unicode="&#x3c4;" horiz-adv-x="1239" 
d="M1151 862h-393v-465q0 -84 36.5 -119.5t112.5 -35.5q74 0 140 18v-244q-105 -30 -218 -30q-205 0 -294 89.5t-89 303.5v483h-370v277h1075v-277z" />
    <glyph glyph-name="uni03C5" unicode="&#x3c5;" horiz-adv-x="1345" 
d="M670 -25q-247 0 -387 129t-140 375v660h312v-650q0 -247 219 -247q114 0 166.5 61t52.5 180v656h311v-652q0 -252 -143 -382t-391 -130z" />
    <glyph glyph-name="uni03C6" unicode="&#x3c6;" horiz-adv-x="1826" 
d="M1067 -340h-307v338q-309 12 -484.5 168.5t-175.5 400.5v2q0 240 176.5 400t483.5 172v413h307v-413q309 -12 484 -169.5t175 -400.5v-2q0 -240 -176 -399.5t-483 -171.5v-338zM1425 567v2q0 137 -96.5 222.5t-267.5 89.5v-623q178 4 271 87t93 222zM403 571v-2
q0 -137 96 -222t267 -89v623q-178 -6 -270.5 -89t-92.5 -221z" />
    <glyph glyph-name="uni03C7" unicode="&#x3c7;" horiz-adv-x="1316" 
d="M395 1139l267 -473l266 473h334l-433 -705l482 -774h-344l-312 545l-313 -545h-334l477 770l-432 709h342z" />
    <glyph glyph-name="uni03C8" unicode="&#x3c8;" horiz-adv-x="1783" 
d="M1044 -340h-305v336q-278 0 -437 144.5t-159 420.5v578h308v-572q0 -140 79 -220.5t211 -82.5v1290h301v-1290q133 2 212 81t79 218v576h307v-570q0 -142 -43 -251t-122.5 -178.5t-188 -105.5t-242.5 -38v-336z" />
    <glyph glyph-name="uni03C9" unicode="&#x3c9;" horiz-adv-x="1890" 
d="M795 918h303v-388q0 -133 50 -206.5t136 -73.5q191 0 191 303q0 149 -61 282.5t-195 303.5h329q230 -263 230 -596q0 -260 -116.5 -414t-334.5 -154q-150 0 -245 76t-138 203q-106 -279 -385 -279q-217 0 -331.5 153.5t-114.5 414.5q0 334 229 596h326
q-133 -161 -192.5 -297.5t-59.5 -288.5q0 -303 190 -303q86 0 137.5 73.5t51.5 206.5v388z" />
    <glyph glyph-name="uni03CA" unicode="&#x3ca;" horiz-adv-x="702" 
d="M383 1268v280h301v-280h-301zM-53 1268v280h301v-280h-301zM152 350v789h311v-774q0 -65 28 -93t84 -28q44 0 68 6v-240q-64 -22 -172 -22q-163 0 -241 85t-78 277z" />
    <glyph glyph-name="uni03CB" unicode="&#x3cb;" horiz-adv-x="1345" 
d="M739 1268v280h301v-280h-301zM303 1268v280h301v-280h-301zM670 -25q-247 0 -387 129t-140 375v660h312v-650q0 -247 219 -247q114 0 166.5 61t52.5 180v656h311v-652q0 -252 -143 -382t-391 -130z" />
    <glyph glyph-name="uni03CC" unicode="&#x3cc;" horiz-adv-x="1427" 
d="M618 1268l152 383l262 -117l-213 -266h-201zM711 -25q-129 0 -243 46t-194.5 124.5t-127 187.5t-46.5 230v4q0 121 47 230t128 188.5t196.5 126.5t245.5 47q129 0 242.5 -46.5t194 -125t127 -187t46.5 -229.5v-4q0 -162 -79.5 -297.5t-221 -215t-315.5 -79.5zM717 242
q137 0 220 93t83 228v4q0 134 -87 229t-222 95q-137 0 -220 -92.5t-83 -227.5v-4q0 -134 87 -229.5t222 -95.5z" />
    <glyph glyph-name="uni03CD" unicode="&#x3cd;" horiz-adv-x="1345" 
d="M575 1268l152 383l262 -117l-213 -266h-201zM670 -25q-247 0 -387 129t-140 375v660h312v-650q0 -247 219 -247q114 0 166.5 61t52.5 180v656h311v-652q0 -252 -143 -382t-391 -130z" />
    <glyph glyph-name="uni03CE" unicode="&#x3ce;" horiz-adv-x="1890" 
d="M850 1268l151 383l263 -117l-213 -266h-201zM795 918h303v-388q0 -133 50 -206.5t136 -73.5q191 0 191 303q0 149 -61 282.5t-195 303.5h329q230 -263 230 -596q0 -260 -116.5 -414t-334.5 -154q-150 0 -245 76t-138 203q-106 -279 -385 -279q-217 0 -331.5 153.5
t-114.5 414.5q0 334 229 596h326q-133 -161 -192.5 -297.5t-59.5 -288.5q0 -303 190 -303q86 0 137.5 73.5t51.5 206.5v388z" />
    <glyph glyph-name="uni0400" unicode="&#x400;" horiz-adv-x="1443" 
d="M881 1610h-238l-287 211l271 118zM190 0v1491h1121v-281h-809v-319h712v-281h-712v-329h819v-281h-1131z" />
    <glyph glyph-name="uni0401" unicode="&#x401;" horiz-adv-x="1443" 
d="M831 1610v264h304v-264h-304zM373 1610v264h303v-264h-303zM190 0v1491h1121v-281h-809v-319h712v-281h-712v-329h819v-281h-1131z" />
    <glyph glyph-name="uni0402" unicode="&#x402;" horiz-adv-x="1777" 
d="M1303 1491v-291h-469v-299q176 29 305 29q264 0 407.5 -117.5t143.5 -339.5q0 -216 -144.5 -346.5t-404.5 -130.5h-45v276h4q140 0 207 50.5t67 136.5q0 95 -65.5 143.5t-208.5 48.5q-110 0 -266 -24v-627h-316v1200h-436v291h1221z" />
    <glyph glyph-name="uni0403" unicode="&#x403;" horiz-adv-x="1333" 
d="M592 1610l254 329l270 -118l-287 -211h-237zM190 0v1491h1065v-287h-751v-1204h-314z" />
    <glyph glyph-name="uni0404" unicode="&#x404;" horiz-adv-x="1581" 
d="M879 -25q-161 0 -302.5 60t-240.5 162.5t-156 243.5t-57 300v4q0 159 56 300t155 245.5t244 165t313 60.5q198 0 334.5 -59t253.5 -171l-199 -229q-94 87 -185 130.5t-202 43.5q-165 0 -282.5 -95t-151.5 -251h667v-267h-669q29 -159 148.5 -258.5t287.5 -99.5
q86 0 157 23.5t121.5 58.5t118.5 98l199 -200q-123 -131 -265.5 -198t-344.5 -67z" />
    <glyph glyph-name="uni0405" unicode="&#x405;" horiz-adv-x="1380" 
d="M719 -20q-368 0 -631 237l186 223q108 -91 217 -137.5t234 -46.5q104 0 164.5 41.5t60.5 110.5v4q0 47 -24 77t-89 58t-194 61q-101 25 -169 48t-135 59.5t-106 82t-62.5 112t-23.5 153.5v4q0 199 146 321.5t375 122.5q316 0 551 -188l-166 -238q-205 150 -391 150
q-95 0 -148 -39.5t-53 -99.5v-4q0 -75 65 -115t262 -90q119 -30 203 -66t147.5 -88.5t94.5 -124.5t31 -166v-4q0 -215 -150 -336.5t-395 -121.5z" />
    <glyph glyph-name="uni0406" unicode="&#x406;" horiz-adv-x="724" 
d="M205 0v1491h315v-1491h-315z" />
    <glyph glyph-name="uni0407" unicode="&#x407;" horiz-adv-x="724" 
d="M205 0v1491h315v-1491h-315zM442 1610v264h303v-264h-303zM-16 1610v264h303v-264h-303z" />
    <glyph glyph-name="uni0408" unicode="&#x408;" horiz-adv-x="1216" 
d="M526 -20q-298 0 -485 225l201 221q67 -78 132.5 -117t143.5 -39q100 0 154.5 63t54.5 193v965h322v-977q0 -257 -140 -397q-134 -137 -383 -137z" />
    <glyph glyph-name="uni0409" unicode="&#x409;" horiz-adv-x="2252" 
d="M1016 0v1229h-10l-656 -1229h-321l807 1491h493v-475h254q271 0 428.5 -129t157.5 -373v-2q0 -237 -158 -374.5t-442 -137.5h-553zM1329 285h246q130 0 202 58t72 169v2q0 105 -71 163.5t-201 57.5h-248v-450z" />
    <glyph glyph-name="uni040A" unicode="&#x40a;" horiz-adv-x="2344" 
d="M1110 0v604h-606v-604h-314v1491h314v-596h606v596h311v-475h254q273 0 429.5 -129t156.5 -373v-2q0 -237 -158 -374.5t-442 -137.5h-551zM1421 285h246q131 0 203 58t72 169v2q0 105 -71 163.5t-200 57.5h-250v-450z" />
    <glyph glyph-name="uni040B" unicode="&#x40b;" horiz-adv-x="1837" 
d="M1303 1491v-291h-469v-299q174 29 292 29q268 0 416 -127.5t148 -386.5v-416h-316v379q0 138 -69 203t-211 65q-119 0 -260 -24v-623h-316v1200h-436v291h1221z" />
    <glyph glyph-name="uni040C" unicode="&#x40c;" horiz-adv-x="1589" 
d="M686 1610l254 329l270 -118l-286 -211h-238zM190 0v1491h314l-4 -602h118l529 602h391l-668 -721l707 -770h-401l-551 614h-125l4 -614h-314z" />
    <glyph glyph-name="uni040D" unicode="&#x40d;" horiz-adv-x="1699" 
d="M975 1610h-238l-286 211l270 118zM1509 0h-315v995l-727 -995h-277v1491h314v-965l704 965h301v-1491z" />
    <glyph glyph-name="uni040E" unicode="&#x40e;" horiz-adv-x="1556" 
d="M797 1606q-170 0 -277.5 81t-120.5 230h213q42 -107 185 -107q77 0 120 27t64 80h213q-13 -149 -120.5 -230t-276.5 -81zM690 0h-350l295 512l-580 979h357l397 -694l362 694h351z" />
    <glyph glyph-name="uni040F" unicode="&#x40f;" horiz-adv-x="1626" 
d="M666 -303v303h-476v1491h314v-1204h616v1204h316v-1491h-475v-303h-295z" />
    <glyph glyph-name="uni0410" unicode="&#x410;" horiz-adv-x="1699" 
d="M61 0l644 1501h290l641 -1501h-329l-140 340h-645l-139 -340h-322zM635 618h420l-209 506z" />
    <glyph glyph-name="uni0411" unicode="&#x411;" horiz-adv-x="1523" 
d="M190 0v1491h1098v-279h-792v-305h383q259 0 399.5 -112.5t140.5 -327.5v-2q0 -218 -144.5 -341.5t-408.5 -123.5h-676zM496 279h376q105 0 168.5 47t63.5 133v2q0 84 -60 129t-170 45h-378v-356z" />
    <glyph glyph-name="uni0412" unicode="&#x412;" horiz-adv-x="1554" 
d="M190 0v1491h687q254 0 391 -131q100 -100 100 -254v-4q0 -209 -199 -324q138 -51 210.5 -136.5t72.5 -227.5v-4q0 -200 -149.5 -305t-407.5 -105h-705zM1055 1051v4q0 76 -58 117.5t-166 41.5h-335v-331h315q116 0 180 41.5t64 126.5zM1139 446v5q0 170 -256 170h-387
v-345h399q118 0 181 42.5t63 127.5z" />
    <glyph glyph-name="uni0413" unicode="&#x413;" horiz-adv-x="1333" 
d="M190 0v1491h1065v-287h-751v-1204h-314z" />
    <glyph glyph-name="uni0414" unicode="&#x414;" horiz-adv-x="1810" 
d="M74 287h147l518 1214h332l514 -1214h152v-590h-295v303h-1073v-303h-295v590zM901 1155l-356 -881h712z" />
    <glyph glyph-name="uni0415" unicode="&#x415;" horiz-adv-x="1443" 
d="M190 0v1491h1121v-281h-809v-319h712v-281h-712v-329h819v-281h-1131z" />
    <glyph glyph-name="uni0416" unicode="&#x416;" horiz-adv-x="2340" 
d="M72 1491h374l490 -606h82l-2 606h309l-4 -606h82l495 606h371l-608 -727l657 -764h-374l-527 618h-96l4 -618h-309l2 618h-105l-522 -618h-368l657 764z" />
    <glyph glyph-name="uni0417" unicode="&#x417;" horiz-adv-x="1437" 
d="M305 1059l-190 213q131 118 279 181t335 63q263 0 410 -108t147 -294v-2q0 -136 -64.5 -216t-193.5 -130q143 -37 221 -118.5t78 -229.5v-2q0 -195 -166 -318t-454 -123q-363 0 -619 228l186 225q107 -83 213 -127.5t228 -44.5q132 0 212.5 48t80.5 138v2
q0 86 -78.5 132.5t-216.5 44.5h-275v262h283q115 0 180.5 49.5t65.5 132.5v2q0 80 -64.5 124t-179.5 44q-210 0 -418 -176z" />
    <glyph glyph-name="uni0418" unicode="&#x418;" horiz-adv-x="1699" 
d="M1509 0h-315v995l-727 -995h-277v1491h314v-965l704 965h301v-1491z" />
    <glyph glyph-name="uni0419" unicode="&#x419;" horiz-adv-x="1699" 
d="M850 1606q-169 0 -276.5 81t-120.5 230h213q21 -53 64 -80t120 -27t120 27t64 80h213q-13 -149 -120.5 -230t-276.5 -81zM1509 0h-315v995l-727 -995h-277v1491h314v-965l704 965h301v-1491z" />
    <glyph glyph-name="uni041A" unicode="&#x41a;" horiz-adv-x="1589" 
d="M190 0v1491h314l-4 -602h118l529 602h391l-668 -721l707 -770h-401l-551 614h-125l4 -614h-314z" />
    <glyph glyph-name="uni041B" unicode="&#x41b;" horiz-adv-x="1656" 
d="M967 1501l628 -1501h-348l-426 1061l-420 -1061h-340l627 1501h279z" />
    <glyph glyph-name="uni041C" unicode="&#x41c;" horiz-adv-x="1865" 
d="M190 0v1491h338l404 -645l405 645h338v-1491h-313v993l-430 -651h-8l-426 645v-987h-308z" />
    <glyph glyph-name="uni041D" unicode="&#x41d;" horiz-adv-x="1634" 
d="M190 0v1491h314v-596h626v596h316v-1491h-316v604h-626v-604h-314z" />
    <glyph glyph-name="uni041E" unicode="&#x41e;" horiz-adv-x="1826" 
d="M911 -25q-169 0 -316.5 60.5t-250.5 163.5t-162 244t-59 298v4q0 156 60 297.5t163.5 246t252 166t316.5 61.5q169 0 316.5 -60.5t250.5 -163.5t162.5 -244t59.5 -298v-5q0 -156 -60 -297.5t-164 -245.5t-252.5 -165.5t-316.5 -61.5zM915 264q199 0 329 138.5t130 338.5
v4q0 199 -132.5 340.5t-330.5 141.5q-199 0 -328.5 -138.5t-129.5 -338.5v-5q0 -131 58 -240.5t164.5 -175t239.5 -65.5z" />
    <glyph glyph-name="uni041F" unicode="&#x41f;" horiz-adv-x="1626" 
d="M190 0v1491h1246v-1491h-316v1204h-616v-1204h-314z" />
    <glyph glyph-name="uni0420" unicode="&#x420;" horiz-adv-x="1439" 
d="M190 0v1491h605q262 0 415.5 -141.5t153.5 -370.5v-4q0 -126 -47 -226t-129 -163.5t-190 -97t-234 -33.5h-260v-455h-314zM504 735h270q126 0 199.5 66t73.5 168v4q0 114 -74 173.5t-205 59.5h-264v-471z" />
    <glyph glyph-name="uni0421" unicode="&#x421;" horiz-adv-x="1589" 
d="M887 -25q-161 0 -303.5 60t-243 162.5t-159 244t-58.5 299.5v4q0 158 57.5 300t158.5 245.5t246.5 164.5t313.5 61q198 0 334.5 -59t253.5 -171l-201 -231q-94 85 -186 128.5t-203 43.5q-191 0 -317.5 -139t-126.5 -338v-5q0 -131 55.5 -240.5t158 -175t230.5 -65.5
q122 0 211 43.5t188 134.5l201 -202q-123 -131 -265.5 -198t-344.5 -67z" />
    <glyph glyph-name="uni0422" unicode="&#x422;" horiz-adv-x="1394" 
d="M541 0v1200h-459v291h1231v-291h-457v-1200h-315z" />
    <glyph glyph-name="uni0423" unicode="&#x423;" horiz-adv-x="1556" 
d="M690 0h-350l295 512l-580 979h357l397 -694l362 694h351z" />
    <glyph glyph-name="uni0424" unicode="&#x424;" horiz-adv-x="2084" 
d="M885 -18v151q-181 2 -327.5 49t-243.5 129t-149 193.5t-52 243.5v2q0 132 51.5 243.5t148.5 193t243.5 128.5t328.5 51v143h315v-143q182 -4 328 -50.5t243 -127.5t149 -192t52 -244v-2q0 -131 -52 -242.5t-149 -194t-243.5 -130.5t-327.5 -50v-151h-315zM438 750v-2
q0 -150 116.5 -245t336.5 -95v684q-222 -1 -337.5 -94t-115.5 -248zM1645 750v2q0 150 -115.5 245t-335.5 95v-684q220 1 335.5 94.5t115.5 247.5z" />
    <glyph glyph-name="uni0425" unicode="&#x425;" horiz-adv-x="1574" 
d="M1118 1491h359l-502 -727l522 -764h-369l-346 524l-348 -524h-358l524 758l-502 733h369l324 -496z" />
    <glyph glyph-name="uni0426" unicode="&#x426;" horiz-adv-x="1693" 
d="M1331 -303v303h-1141v1491h314v-1204h616v1204h316v-1204h190v-590h-295z" />
    <glyph glyph-name="uni0427" unicode="&#x427;" horiz-adv-x="1536" 
d="M1032 0v489q-145 -34 -317 -34q-265 0 -414 128t-149 388v520h315v-485q0 -138 69.5 -202.5t211.5 -64.5q147 0 284 35v717h316v-1491h-316z" />
    <glyph glyph-name="uni0428" unicode="&#x428;" horiz-adv-x="2414" 
d="M190 0v1491h314v-1204h545v1204h315v-1204h545v1204h315v-1491h-2034z" />
    <glyph glyph-name="uni0429" unicode="&#x429;" horiz-adv-x="2482" 
d="M190 0v1491h314v-1204h545v1204h315v-1204h545v1204h315v-1204h191v-590h-295v303h-1930z" />
    <glyph glyph-name="uni042A" unicode="&#x42a;" horiz-adv-x="1789" 
d="M532 0v1210h-450v281h764v-475h274q273 0 429.5 -128.5t156.5 -371.5v-2q0 -240 -156 -377t-442 -137h-576zM846 285h268q127 0 201 58.5t74 166.5v2q0 108 -71 165.5t-202 57.5h-270v-450z" />
    <glyph glyph-name="uni042B" unicode="&#x42b;" horiz-adv-x="2093" 
d="M190 0v1491h314v-475h274q273 0 429.5 -129t156.5 -373v-2q0 -237 -157 -374.5t-441 -137.5h-576zM504 285h268q130 0 202.5 58t72.5 169v2q0 105 -71.5 163.5t-201.5 57.5h-270v-450zM1587 0v1491h316v-1491h-316z" />
    <glyph glyph-name="uni042C" unicode="&#x42c;" horiz-adv-x="1449" 
d="M190 0v1491h314v-475h274q273 0 429.5 -128.5t156.5 -371.5v-2q0 -240 -156 -377t-442 -137h-576zM504 285h268q127 0 201 58.5t74 166.5v2q0 108 -71 165.5t-202 57.5h-270v-450z" />
    <glyph glyph-name="uni042D" unicode="&#x42d;" horiz-adv-x="1581" 
d="M293 1061l-187 215q126 116 270 178t347 62q210 0 377.5 -98t262.5 -273t95 -395v-5q0 -216 -95 -391t-269 -277t-394 -102q-193 0 -339 62t-269 180l199 221q105 -92 198.5 -136t208.5 -44q161 0 277.5 99t148.5 261h-669v267h667q-32 155 -146.5 251.5t-268.5 96.5
q-124 0 -221 -44t-193 -128z" />
    <glyph glyph-name="uni042E" unicode="&#x42e;" horiz-adv-x="2394" 
d="M190 0v1491h314v-596h256q25 130 91 243.5t162 197.5t225.5 132t272.5 48q163 0 305.5 -61.5t241.5 -165.5t156 -244t57 -295v-5q0 -155 -58 -296.5t-158 -245.5t-243 -166t-305 -62q-144 0 -274 48.5t-226.5 133t-161.5 200t-87 247.5h-254v-604h-314zM1511 264
q127 0 226 64.5t152 173t53 239.5v4q0 202 -122 342t-313 140q-127 0 -226 -64.5t-151.5 -173t-52.5 -239.5v-5q0 -202 121.5 -341.5t312.5 -139.5z" />
    <glyph glyph-name="uni042F" unicode="&#x42f;" horiz-adv-x="1556" 
d="M127 979v2q0 254 164.5 382t456.5 128h618v-1491h-313v485h-256l-342 -485h-373l383 532q-154 52 -246 166.5t-92 280.5zM1053 764v442h-338q-125 2 -197 -56t-72 -163v-2q0 -104 70 -162.5t195 -58.5h342z" />
    <glyph glyph-name="uni0430" unicode="&#x430;" horiz-adv-x="1275" 
d="M481 -23q-168 0 -281.5 94t-113.5 257v4q0 180 125 271t336 91q147 0 284 -45v21q0 105 -63.5 160t-187.5 55q-147 0 -318 -64l-78 238q104 46 206 69t235 23q253 0 383 -127q122 -122 122 -360v-664h-301v127q-136 -150 -348 -150zM573 195q117 0 190 58t73 150v62
q-98 43 -218 43q-109 0 -170 -43t-61 -121v-4q0 -68 51.5 -106.5t134.5 -38.5z" />
    <glyph glyph-name="uni0431" unicode="&#x431;" horiz-adv-x="1413" 
d="M705 -25q-129 0 -234.5 43t-175.5 113q-93 93 -138.5 222t-45.5 317v2q0 370 148.5 574.5t459.5 258.5l426 72l49 -285l-420 -65q-172 -29 -261 -103t-112 -204q153 133 390 133q247 0 384.5 -138t137.5 -368v-2q0 -246 -169 -408t-439 -162zM709 236q133 0 216 86
t83 219v2q0 126 -76.5 204t-208.5 78q-141 0 -223 -85.5t-82 -213.5q0 -125 81 -207.5t210 -82.5z" />
    <glyph glyph-name="uni0432" unicode="&#x432;" horiz-adv-x="1284" 
d="M156 0v1139h583q181 0 289.5 -78.5t108.5 -216.5q0 -96 -42.5 -153.5t-123.5 -96.5q105 -38 160 -101t55 -169q0 -160 -120.5 -242t-326.5 -82h-583zM836 801q0 55 -39.5 86t-116.5 31h-221v-240h217q160 0 160 123zM885 346q0 123 -172 123h-254v-250h260q80 0 123 32.5
t43 94.5z" />
    <glyph glyph-name="uni0433" unicode="&#x433;" horiz-adv-x="1099" 
d="M156 0v1139h868v-281h-557v-858h-311z" />
    <glyph glyph-name="uni0434" unicode="&#x434;" horiz-adv-x="1460" 
d="M567 1147h326l383 -866h129v-555h-281v276h-788v-276h-281v555h129zM727 831l-233 -563h467z" />
    <glyph glyph-name="uni0435" unicode="&#x435;" horiz-adv-x="1318" 
d="M692 -25q-168 0 -302.5 73.5t-212 208.5t-77.5 306v4q0 162 71 297t200.5 215t290.5 80q137 0 244.5 -50.5t173.5 -137t100 -195.5t34 -233q0 -20 -4 -82h-800q23 -116 97.5 -176t188.5 -60q85 0 150 27.5t133 91.5l178 -158q-171 -211 -465 -211zM406 655h505
q-18 117 -81 185.5t-168 68.5q-103 0 -170 -68t-86 -186z" />
    <glyph glyph-name="uni0436" unicode="&#x436;" horiz-adv-x="1943" 
d="M1122 1139l-4 -432h94l332 432h361l-459 -555l477 -584h-362l-347 442h-96l4 -442h-301l2 442h-96l-344 -442h-363l478 567l-459 572h364l332 -432h88l-2 432h301z" />
    <glyph glyph-name="uni0437" unicode="&#x437;" horiz-adv-x="1212" 
d="M80 143l153 205q173 -123 365 -123q215 0 215 123v2q0 52 -51.5 81t-147.5 28h-243v223h241q170 0 170 113v2q0 52 -49 82.5t-139 29.5q-178 0 -338 -123l-164 193q212 180 522 180q211 0 340 -90t129 -233v-2q0 -178 -186 -254q217 -66 217 -265v-2q0 -145 -138 -241.5
t-376 -96.5q-161 0 -284 40.5t-236 127.5z" />
    <glyph glyph-name="uni0438" unicode="&#x438;" horiz-adv-x="1376" 
d="M156 0v1139h309v-647l463 647h293v-1139h-310v668l-479 -668h-276z" />
    <glyph glyph-name="uni0439" unicode="&#x439;" horiz-adv-x="1376" 
d="M156 0v1139h309v-647l463 647h293v-1139h-310v668l-479 -668h-276zM688 1264q-168 0 -274 87t-119 244h209q46 -129 184 -129t184 129h209q-13 -157 -119 -244t-274 -87z" />
    <glyph glyph-name="uni043A" unicode="&#x43a;" horiz-adv-x="1298" 
d="M467 1139v-430h88l330 430h379l-467 -557l483 -582h-371l-352 440h-90v-440h-311v1139h311z" />
    <glyph glyph-name="uni043B" unicode="&#x43b;" horiz-adv-x="1353" 
d="M823 1147l482 -1147h-334l-295 766l-299 -766h-328l481 1147h293z" />
    <glyph glyph-name="uni043C" unicode="&#x43c;" horiz-adv-x="1568" 
d="M156 0v1139h323l305 -473l308 473h321v-1139h-301v690l-328 -493h-6l-321 487v-684h-301z" />
    <glyph glyph-name="uni043D" unicode="&#x43d;" horiz-adv-x="1376" 
d="M156 0v1139h311v-424h442v424h312v-1139h-312v430h-442v-430h-311z" />
    <glyph glyph-name="uni043E" unicode="&#x43e;" horiz-adv-x="1427" 
d="M711 -25q-129 0 -243 46t-194.5 124.5t-127 187.5t-46.5 230v4q0 121 47 230t128 188.5t196.5 126.5t245.5 47q129 0 242.5 -46.5t194 -125t127 -187t46.5 -229.5v-4q0 -162 -79.5 -297.5t-221 -215t-315.5 -79.5zM717 242q137 0 220 93t83 228v4q0 134 -87 229t-222 95
q-137 0 -220 -92.5t-83 -227.5v-4q0 -134 87 -229.5t222 -95.5z" />
    <glyph glyph-name="uni043F" unicode="&#x43f;" horiz-adv-x="1376" 
d="M156 0v1139h1065v-1139h-312v858h-442v-858h-311z" />
    <glyph glyph-name="uni0440" unicode="&#x440;" horiz-adv-x="1452" 
d="M156 -340v1479h311v-170q139 190 360 190q101 0 194 -39.5t166 -112t117 -186t44 -250.5v-4q0 -138 -43.5 -251.5t-116 -186.5t-166 -112.5t-195.5 -39.5q-120 0 -205.5 47.5t-154.5 129.5v-494h-311zM750 244q121 0 203.5 89t82.5 234v4q0 143 -83 233.5t-203 90.5
t-203.5 -90.5t-83.5 -233.5v-4q0 -143 83.5 -233t203.5 -90z" />
    <glyph glyph-name="uni0441" unicode="&#x441;" horiz-adv-x="1232" 
d="M692 -25q-168 0 -304.5 79t-212 213t-75.5 296v4q0 160 75 295t212.5 216t308.5 81q154 0 263 -48.5t192 -143.5l-193 -205q-60 65 -120.5 97t-143.5 32q-124 0 -205 -93.5t-81 -226.5v-4q0 -138 83 -231.5t216 -93.5q79 0 140.5 31t127.5 94l182 -183
q-90 -101 -199 -155t-266 -54z" />
    <glyph glyph-name="uni0442" unicode="&#x442;" horiz-adv-x="1230" 
d="M461 0v862h-377v277h1063v-277h-377v-862h-309z" />
    <glyph glyph-name="uni0443" unicode="&#x443;" horiz-adv-x="1292" 
d="M653 350l258 789h324l-440 -1168q-67 -176 -149.5 -247.5t-225.5 -71.5q-147 0 -283 78l105 225q74 -43 141 -43q45 0 72 17.5t51 66.5l-453 1143h330z" />
    <glyph glyph-name="uni0444" unicode="&#x444;" horiz-adv-x="1826" 
d="M1067 -340h-307v338q-309 12 -484.5 168.5t-175.5 400.5v2q0 240 176.5 400t483.5 172v413h307v-413q309 -12 484 -169.5t175 -400.5v-2q0 -240 -176 -399.5t-483 -171.5v-338zM1425 567v2q0 137 -96.5 222.5t-267.5 89.5v-623q178 4 271 87t93 222zM403 571v-2
q0 -137 96 -222t267 -89v623q-178 -6 -270.5 -89t-92.5 -221z" />
    <glyph glyph-name="uni0445" unicode="&#x445;" horiz-adv-x="1257" 
d="M410 1139l221 -342l225 342h326l-387 -555l403 -584h-334l-239 367l-240 -367h-326l404 580l-387 559h334z" />
    <glyph glyph-name="uni0446" unicode="&#x446;" horiz-adv-x="1429" 
d="M1087 -274v274h-931v1139h311v-858h442v858h312v-858h147v-555h-281z" />
    <glyph glyph-name="uni0447" unicode="&#x447;" horiz-adv-x="1286" 
d="M819 0v348q-130 -33 -235 -33q-225 0 -344 104.5t-119 319.5v400h309v-371q0 -94 49 -134t152 -40q90 0 188 31v514h311v-1139h-311z" />
    <glyph glyph-name="uni0448" unicode="&#x448;" horiz-adv-x="2031" 
d="M156 0v1139h311v-858h393v858h311v-858h394v858h311v-1139h-1720z" />
    <glyph glyph-name="uni0449" unicode="&#x449;" horiz-adv-x="2084" 
d="M156 0v1139h311v-858h393v858h311v-858h394v858h311v-858h147v-555h-280v274h-1587z" />
    <glyph glyph-name="uni044A" unicode="&#x44a;" horiz-adv-x="1454" 
d="M72 1139h630v-330h220q209 0 333.5 -105t124.5 -294v-2q0 -188 -126.5 -298t-354.5 -110h-504v868h-323v271zM700 559v-307h191q89 0 136.5 39.5t47.5 116.5v2q0 66 -47.5 108t-132.5 41h-195z" />
    <glyph glyph-name="uni044B" unicode="&#x44b;" horiz-adv-x="1773" 
d="M465 1139v-330h219q209 0 334 -105t125 -294v-2q0 -189 -127 -298.5t-357 -109.5h-503v1139h309zM463 559v-307h188q89 0 138 39.5t49 116.5v2q0 65 -49 107.5t-134 41.5h-192zM1307 0v1139h311v-1139h-311z" />
    <glyph glyph-name="uni044C" unicode="&#x44c;" horiz-adv-x="1216" 
d="M465 1139v-330h219q209 0 334 -105t125 -294v-2q0 -189 -127 -298.5t-357 -109.5h-503v1139h309zM463 559v-307h188q89 0 138 39.5t49 116.5v2q0 65 -49 107.5t-134 41.5h-192z" />
    <glyph glyph-name="uni044D" unicode="&#x44d;" horiz-adv-x="1239" 
d="M78 145l158 207q77 -65 148 -93t167 -28q109 0 181.5 57.5t96.5 157.5l-471 -2v248l471 -4q-25 100 -99 157.5t-183 57.5q-93 0 -160.5 -28.5t-144.5 -88.5l-154 199q100 85 213 129.5t262 44.5q168 0 300 -76.5t204 -210.5t72 -303v-2q0 -167 -72 -301.5t-206 -212.5
t-306 -78q-273 0 -477 170z" />
    <glyph glyph-name="uni044E" unicode="&#x44e;" horiz-adv-x="1935" 
d="M467 430v-430h-311v1139h311v-422h188q50 194 210.5 318t373.5 124q167 0 304 -78.5t214.5 -213.5t77.5 -296v-4q0 -121 -46 -230.5t-125.5 -189t-191 -126t-237.5 -46.5q-218 0 -378.5 127.5t-205.5 327.5h-184zM1239 242q130 0 209.5 93t79.5 228v4q0 133 -83.5 228.5
t-209.5 95.5q-130 0 -210.5 -93t-80.5 -227v-4q0 -133 84 -229t211 -96z" />
    <glyph glyph-name="uni044F" unicode="&#x44f;" horiz-adv-x="1298" 
d="M836 371h-142l-258 -371h-350l291 408q-116 40 -184 126t-68 214v2q0 192 126.5 291.5t348.5 97.5h541v-1139h-305v371zM836 901h-224q-88 0 -136 -39.5t-48 -116.5v-2q0 -68 48 -108t134 -39h226v305z" />
    <glyph glyph-name="uni0450" unicode="&#x450;" horiz-adv-x="1318" 
d="M692 -25q-168 0 -302.5 73.5t-212 208.5t-77.5 306v4q0 162 71 297t200.5 215t290.5 80q137 0 244.5 -50.5t173.5 -137t100 -195.5t34 -233q0 -20 -4 -82h-800q23 -116 97.5 -176t188.5 -60q85 0 150 27.5t133 91.5l178 -158q-171 -211 -465 -211zM406 655h505
q-18 117 -81 185.5t-168 68.5q-103 0 -170 -68t-86 -186zM551 1268l-275 254l271 116l233 -370h-229z" />
    <glyph glyph-name="uni0451" unicode="&#x451;" horiz-adv-x="1318" 
d="M725 1268v280h301v-280h-301zM289 1268v280h301v-280h-301zM692 -25q-168 0 -302.5 73.5t-212 208.5t-77.5 306v4q0 162 71 297t200.5 215t290.5 80q137 0 244.5 -50.5t173.5 -137t100 -195.5t34 -233q0 -20 -4 -82h-800q23 -116 97.5 -176t188.5 -60q85 0 150 27.5
t133 91.5l178 -158q-171 -211 -465 -211zM406 655h505q-18 117 -81 185.5t-168 68.5q-103 0 -170 -68t-86 -186z" />
    <glyph glyph-name="uni0452" unicode="&#x452;" horiz-adv-x="1304" 
d="M809 1176h-336v-250q126 32 236 32q462 0 465 -423v-472q0 -411 -406 -411q-81 0 -156 16v244q44 -8 93 -8q149 0 157 153v449q0 94 -48.5 134t-151.5 40q-87 0 -189 -31v-649h-311v1176h-211v241h211v137h311v-137h336v-241z" />
    <glyph glyph-name="uni0453" unicode="&#x453;" horiz-adv-x="1099" 
d="M465 1268l233 370l271 -116l-275 -254h-229zM156 0v1139h868v-281h-557v-858h-311z" />
    <glyph glyph-name="uni0454" unicode="&#x454;" horiz-adv-x="1243" 
d="M1155 993l-162 -211q-69 61 -134.5 91t-151.5 30q-110 0 -190.5 -58.5t-106.5 -156.5l469 4v-248l-469 2q25 -101 103.5 -158t199.5 -57q150 0 293 117l159 -192q-97 -90 -209.5 -135.5t-261.5 -45.5q-173 0 -310 79t-210.5 213t-73.5 296v4q0 163 74 297.5t212 214.5
t314 80q148 0 255 -41.5t200 -124.5z" />
    <glyph glyph-name="uni0455" unicode="&#x455;" horiz-adv-x="1085" 
d="M553 -20q-269 0 -487 170l135 206q91 -66 185 -101.5t175 -35.5q72 0 109 24.5t37 67.5v4q0 24 -15.5 42.5t-46.5 33.5t-64 26.5t-80 25.5q-23 7 -34 10q-59 18 -100 33.5t-91 44t-80.5 62t-51.5 85t-21 115.5v4q0 166 118.5 262t297.5 96q108 0 218.5 -34.5t203.5 -96.5
l-119 -215q-185 106 -312 106q-60 0 -93.5 -24t-33.5 -62v-4q0 -11 3.5 -21t12.5 -19.5t17.5 -16.5t25 -15.5t28 -14t34.5 -14t36 -13t40.5 -13.5t40.5 -14q55 -17 97.5 -34t92 -46t81.5 -62.5t53.5 -83.5t21.5 -110v-4q0 -122 -58.5 -205.5t-154 -121t-221.5 -37.5z" />
    <glyph glyph-name="uni0456" unicode="&#x456;" horiz-adv-x="653" 
d="M162 1274v278h327v-278h-327zM172 0v1139h309v-1139h-309z" />
    <glyph glyph-name="uni0457" unicode="&#x457;" horiz-adv-x="653" 
d="M395 1268v280h301v-280h-301zM-41 1268v280h301v-280h-301zM172 0v1139h309v-1139h-309z" />
    <glyph glyph-name="uni0458" unicode="&#x458;" horiz-adv-x="653" 
d="M162 1274v278h327v-278h-327zM123 -348q-71 0 -137 14v244q36 -8 69 -8q54 0 85.5 33t31.5 102v1102h309v-1127q0 -184 -89.5 -272t-268.5 -88z" />
    <glyph glyph-name="uni0459" unicode="&#x459;" horiz-adv-x="1826" 
d="M788 0v897h-6l-440 -897h-322l562 1139h514v-330h198q209 0 334 -105t125 -294v-2q0 -189 -126.5 -298.5t-356.5 -109.5h-482zM1094 252h168q186 0 186 156v2q0 66 -48.5 108t-133.5 41h-172v-307z" />
    <glyph glyph-name="uni045A" unicode="&#x45a;" horiz-adv-x="1927" 
d="M1198 1139v-330h197q209 0 333.5 -105t124.5 -294v-2q0 -188 -126.5 -298t-354.5 -110h-483v430h-422v-430h-311v1139h311v-422h422v422h309zM1196 559v-307h168q89 0 136.5 39.5t47.5 116.5v2q0 66 -47.5 108t-132.5 41h-172z" />
    <glyph glyph-name="uni045B" unicode="&#x45b;" horiz-adv-x="1304" 
d="M473 1554v-137h336v-241h-336v-250q126 32 236 32q225 0 345 -104t120 -319v-535h-312v506q0 94 -48.5 134t-151.5 40q-87 0 -189 -31v-649h-311v1176h-211v241h211v137h311z" />
    <glyph glyph-name="uni045C" unicode="&#x45c;" horiz-adv-x="1298" 
d="M553 1268l233 370l271 -116l-275 -254h-229zM467 1139v-430h88l330 430h379l-467 -557l483 -582h-371l-352 440h-90v-440h-311v1139h311z" />
    <glyph glyph-name="uni045D" unicode="&#x45d;" horiz-adv-x="1376" 
d="M580 1268l-275 254l270 116l234 -370h-229zM156 0v1139h309v-647l463 647h293v-1139h-310v668l-479 -668h-276z" />
    <glyph glyph-name="uni045E" unicode="&#x45e;" horiz-adv-x="1292" 
d="M653 350l258 789h324l-440 -1168q-67 -176 -149.5 -247.5t-225.5 -71.5q-147 0 -283 78l105 225q74 -43 141 -43q45 0 72 17.5t51 66.5l-453 1143h330zM645 1264q-168 0 -274 87t-119 244h209q46 -129 184 -129t184 129h209q-13 -157 -119 -244t-274 -87z" />
    <glyph glyph-name="uni045F" unicode="&#x45f;" horiz-adv-x="1376" 
d="M156 0v1139h311v-858h442v858h312v-1139h-392v-274h-280v274h-393z" />
    <glyph glyph-name="uni0462" unicode="&#x462;" horiz-adv-x="1779" 
d="M834 868h350q236 0 374 -108.5t138 -315.5v-2q0 -201 -139.5 -321.5t-387.5 -120.5h-647v1083h-440v256h440v170h312v-170h489v-252h-489v-219zM1182 596h-351v-320h349q95 0 148.5 42.5t53.5 119.5v2q0 74 -51 115.5t-149 40.5z" />
    <glyph glyph-name="uni0463" unicode="&#x463;" horiz-adv-x="1454" 
d="M705 723h249q197 0 311.5 -91t114.5 -265v-2q0 -168 -119 -266.5t-331 -98.5h-535v877h-323v262h323v415h310v-415h419v-258h-419v-158zM700 487v-247h222q72 0 112.5 32.5t40.5 92.5v2q0 56 -39 88.5t-110 31.5h-226z" />
    <glyph glyph-name="uni0472" unicode="&#x472;" horiz-adv-x="1814" 
d="M905 -25q-167 0 -313 60.5t-248.5 163.5t-161.5 244t-59 298v4q0 208 101 384.5t282.5 281.5t402.5 105q167 0 313 -60.5t249 -163.5t162 -244t59 -298v-5q0 -156 -60 -297.5t-163 -245.5t-250.5 -165.5t-313.5 -61.5zM909 248q178 0 299.5 99t157.5 265h-917
q37 -164 160 -264t300 -100zM905 1243q-175 0 -295.5 -97t-158.5 -257h911q-37 159 -160.5 256.5t-296.5 97.5z" />
    <glyph glyph-name="uni0473" unicode="&#x473;" horiz-adv-x="1415" 
d="M707 -25q-170 0 -309.5 78t-218.5 213t-79 297v4q0 121 46.5 230t127 188.5t194.5 126.5t243 47q127 0 239.5 -46.5t193 -125t127 -187.5t46.5 -229v-4q0 -121 -47.5 -230.5t-128.5 -189t-194 -126t-240 -46.5zM711 223q116 0 196.5 62t110.5 168h-619
q29 -105 113 -167.5t199 -62.5zM707 911q-117 0 -198.5 -61t-111.5 -166h617q-31 105 -113 166t-194 61z" />
    <glyph glyph-name="uni0474" unicode="&#x474;" horiz-adv-x="1701" 
d="M655 -10l-594 1501h349l393 -1069l248 655q87 230 210.5 324t340.5 94h47v-285h-15q-105 0 -169.5 -45t-112.5 -161l-418 -1014h-279z" />
    <glyph glyph-name="uni0475" unicode="&#x475;" horiz-adv-x="1337" 
d="M494 -8l-441 1147h330l258 -779l141 404q70 210 168.5 294.5t286.5 84.5h47v-256h-4q-82 0 -130 -41t-89 -146l-285 -708h-282z" />
    <glyph glyph-name="uni0490" unicode="&#x490;" horiz-adv-x="1333" 
d="M190 1491h771v289h294v-576h-751v-1204h-314v1491z" />
    <glyph glyph-name="uni0491" unicode="&#x491;" horiz-adv-x="1099" 
d="M156 0v1139h577v266h291v-547h-557v-858h-311z" />
    <glyph glyph-name="uni0492" unicode="&#x492;" horiz-adv-x="1398" 
d="M254 0v600h-160v217h160v674h1065v-287h-752v-387h367v-217h-367v-600h-313z" />
    <glyph glyph-name="uni0493" unicode="&#x493;" horiz-adv-x="1142" 
d="M199 0v434h-146v176h146v529h868v-281h-557v-248h264v-176h-264v-434h-311z" />
    <glyph glyph-name="uni0496" unicode="&#x496;" horiz-adv-x="2355" 
d="M2269 1491l-608 -727l410 -477h256v-590h-295v303h-88l-527 618h-96l4 -618h-309l2 618h-105l-522 -618h-368l657 764l-608 727h374l490 -606h82l-2 606h309l-4 -606h82l495 606h371z" />
    <glyph glyph-name="uni0497" unicode="&#x497;" horiz-adv-x="1964" 
d="M1905 1139l-459 -555l248 -303h254v-555h-281v274h-106l-347 442h-96l4 -442h-301l2 442h-96l-344 -442h-363l478 567l-459 572h364l332 -432h88l-2 432h301l-4 -432h94l332 432h361z" />
    <glyph glyph-name="uni0498" unicode="&#x498;" horiz-adv-x="1437" 
d="M305 1059l-190 213q131 118 279 181t335 63q263 0 410 -108t147 -294v-2q0 -136 -64.5 -216t-193.5 -130q143 -37 221 -118.5t78 -229.5v-2q0 -166 -126 -283.5t-349 -146.5l12 -289h-307l12 287q-275 36 -481 219l186 225q107 -83 213 -127.5t228 -44.5q132 0 212.5 48
t80.5 138v2q0 86 -78.5 132.5t-216.5 44.5h-275v262h283q115 0 180.5 49.5t65.5 132.5v2q0 80 -64.5 124t-179.5 44q-210 0 -418 -176z" />
    <glyph glyph-name="uni0499" unicode="&#x499;" horiz-adv-x="1212" 
d="M80 143l153 205q173 -123 365 -123q215 0 215 123v2q0 52 -51.5 81t-147.5 28h-243v223h241q170 0 170 113v2q0 52 -49 82.5t-139 29.5q-178 0 -338 -123l-164 193q212 180 522 180q211 0 340 -90t129 -233v-2q0 -178 -186 -254q217 -66 217 -265v-2q0 -125 -101.5 -215
t-283.5 -114l12 -258h-290l10 258q-206 25 -381 159z" />
    <glyph glyph-name="uni049A" unicode="&#x49a;" horiz-adv-x="1603" 
d="M190 0v1491h314l-4 -602h118l529 602h391l-668 -721l443 -483h270v-590h-295v303h-112l-551 614h-125l4 -614h-314z" />
    <glyph glyph-name="uni049B" unicode="&#x49b;" horiz-adv-x="1306" 
d="M467 1139v-430h88l330 430h379l-467 -557l250 -301h239v-555h-280v274h-97l-352 440h-90v-440h-311v1139h311z" />
    <glyph glyph-name="uni049C" unicode="&#x49c;" horiz-adv-x="1671" 
d="M1591 1491l-528 -707l553 -784h-371l-403 590h-2l4 -367h-191l4 400h-153v-623h-314v1491h314v-598h153l-4 405h191l-4 -366h2l389 559h360z" />
    <glyph glyph-name="uni049D" unicode="&#x49d;" horiz-adv-x="1402" 
d="M1348 1139l-402 -541l404 -598h-346l-289 465h-2l2 -313h-148l2 319h-102v-471h-311v1139h311v-432h102l-2 305h148l-2 -305h2l291 432h342z" />
    <glyph glyph-name="uni04A0" unicode="&#x4a0;" horiz-adv-x="1931" 
d="M82 1210v281h764l-4 -602h119l528 602h391l-668 -721l707 -770h-401l-551 614h-125l4 -614h-314v1210h-450z" />
    <glyph glyph-name="uni04A1" unicode="&#x4a1;" horiz-adv-x="1538" 
d="M705 1139v-430h88l329 430h379l-467 -557l484 -582h-371l-352 440h-90v-440h-312v868h-321v271h633z" />
    <glyph glyph-name="uni04A2" unicode="&#x4a2;" horiz-adv-x="1703" 
d="M190 0v1491h314v-596h626v596h316v-1204h190v-590h-295v303h-211v604h-626v-604h-314z" />
    <glyph glyph-name="uni04A3" unicode="&#x4a3;" horiz-adv-x="1429" 
d="M156 0v1139h311v-424h442v424h312v-858h147v-555h-281v274h-178v430h-442v-430h-311z" />
    <glyph glyph-name="uni04A4" unicode="&#x4a4;" horiz-adv-x="2183" 
d="M1104 0v604h-604v-604h-316v1491h316v-596h604v596h1001v-287h-686v-1204h-315z" />
    <glyph glyph-name="uni04A5" unicode="&#x4a5;" horiz-adv-x="1810" 
d="M889 0v430h-422v-430h-311v1139h311v-422h422v422h846v-281h-537v-858h-309z" />
    <glyph glyph-name="uni04AA" unicode="&#x4aa;" horiz-adv-x="1589" 
d="M727 -303l12 293q-272 50 -444 258t-172 493v4q0 158 57.5 300t158.5 245.5t246.5 164.5t313.5 61q198 0 334.5 -59t253.5 -171l-201 -231q-94 85 -186 128.5t-203 43.5q-191 0 -317.5 -139t-126.5 -338v-5q0 -131 55.5 -240.5t158 -175t230.5 -65.5q122 0 211 43.5
t188 134.5l201 -202q-106 -110 -217 -173.5t-258 -82.5l12 -287h-307z" />
    <glyph glyph-name="uni04AB" unicode="&#x4ab;" horiz-adv-x="1232" 
d="M535 -274l12 268q-199 44 -323 202.5t-124 366.5v4q0 160 75 295t212.5 216t308.5 81q154 0 263 -48.5t192 -143.5l-193 -205q-60 65 -120.5 97t-143.5 32q-124 0 -205 -93.5t-81 -226.5v-4q0 -138 83 -231.5t216 -93.5q79 0 140.5 31t127.5 94l182 -183
q-75 -82 -155 -131.5t-189 -66.5l12 -260h-290z" />
    <glyph glyph-name="uni04AE" unicode="&#x4ae;" horiz-adv-x="1542" 
d="M612 0v588l-575 903h369l366 -610l375 610h358l-577 -897v-594h-316z" />
    <glyph glyph-name="uni04AF" unicode="&#x4af;" horiz-adv-x="1292" 
d="M1239 1139l-438 -1092v-387h-309v387l-439 1092h332l262 -756l266 756h326z" />
    <glyph glyph-name="uni04B0" unicode="&#x4b0;" horiz-adv-x="1542" 
d="M612 0v389h-348v217h336l-563 885h369l366 -610l375 610h358l-569 -885h340v-217h-348v-389h-316z" />
    <glyph glyph-name="uni04B1" unicode="&#x4b1;" horiz-adv-x="1292" 
d="M1116 176v-176h-315v-340h-309v340h-316v176h264l-387 963h332l262 -756l266 756h326l-387 -963h264z" />
    <glyph glyph-name="uni04B2" unicode="&#x4b2;" horiz-adv-x="1626" 
d="M1118 1491h359l-502 -727l325 -477h273v-590h-295v303h-150l-346 524l-348 -524h-358l524 758l-502 733h369l324 -496z" />
    <glyph glyph-name="uni04B3" unicode="&#x4b3;" horiz-adv-x="1288" 
d="M410 1139l221 -342l225 342h326l-387 -555l209 -303h249v-555h-280v274h-109l-239 367l-240 -367h-326l404 580l-387 559h334z" />
    <glyph glyph-name="uni04B6" unicode="&#x4b6;" horiz-adv-x="1605" 
d="M1032 0v489q-145 -34 -317 -34q-265 0 -414 128t-149 388v520h315v-485q0 -138 69.5 -202.5t211.5 -64.5q147 0 284 35v717h316v-1204h190v-590h-295v303h-211z" />
    <glyph glyph-name="uni04B7" unicode="&#x4b7;" horiz-adv-x="1339" 
d="M819 0v348q-130 -33 -235 -33q-225 0 -344 104.5t-119 319.5v400h309v-371q0 -94 49 -134t152 -40q90 0 188 31v514h311v-858h148v-555h-281v274h-178z" />
    <glyph glyph-name="uni04B8" unicode="&#x4b8;" horiz-adv-x="1536" 
d="M1030 0v489q-73 -17 -190 -28l4 -320h-189l2 316q-240 12 -372.5 140t-132.5 374v520h313v-485q0 -116 46.5 -179t145.5 -82l-2 406h189l-4 -408q94 8 190 31v717h316v-1491h-316z" />
    <glyph glyph-name="uni04B9" unicode="&#x4b9;" horiz-adv-x="1286" 
d="M819 0v348q-53 -15 -123 -24l2 -226h-149l2 217q-430 16 -430 424v400h309v-369q0 -143 121 -170l-2 283h149l-2 -287q66 8 123 29v514h311v-1139h-311z" />
    <glyph glyph-name="uni04BA" unicode="&#x4ba;" horiz-adv-x="1536" 
d="M504 1491v-490q149 35 315 35q130 0 232.5 -30.5t177 -92.5t114 -161.5t39.5 -231.5v-520h-313v485q0 138 -70 202.5t-213 64.5q-140 0 -282 -37v-715h-316v1491h316z" />
    <glyph glyph-name="uni04BB" unicode="&#x4bb;" horiz-adv-x="1341" 
d="M156 0v1554h311v-579q134 184 338 184q185 0 288 -112.5t103 -311.5v-735h-311v637q0 118 -53 180t-152 62q-100 0 -156.5 -62.5t-56.5 -179.5v-637h-311z" />
    <glyph glyph-name="uni04C0" unicode="&#x4c0;" horiz-adv-x="724" 
d="M205 0v1491h315v-1491h-315z" />
    <glyph glyph-name="uni04C1" unicode="&#x4c1;" horiz-adv-x="2340" 
d="M1169 1606q-169 0 -276.5 81t-120.5 230h213q21 -53 64 -80t120 -27q143 0 185 107h213q-13 -149 -120.5 -230t-277.5 -81zM72 1491h374l490 -606h82l-2 606h309l-4 -606h82l495 606h371l-608 -727l657 -764h-374l-527 618h-96l4 -618h-309l2 618h-105l-522 -618h-368
l657 764z" />
    <glyph glyph-name="uni04C2" unicode="&#x4c2;" horiz-adv-x="1943" 
d="M1122 1139l-4 -432h94l332 432h361l-459 -555l477 -584h-362l-347 442h-96l4 -442h-301l2 442h-96l-344 -442h-363l478 567l-459 572h364l332 -432h88l-2 432h301zM971 1264q-168 0 -274 87t-119 244h208q46 -129 185 -129q138 0 184 129h209q-13 -157 -119 -244
t-274 -87z" />
    <glyph glyph-name="uni04CF" unicode="&#x4cf;" horiz-adv-x="653" 
d="M172 0v1554h309v-1554h-309z" />
    <glyph glyph-name="uni04D0" unicode="&#x4d0;" horiz-adv-x="1699" 
d="M61 0l644 1501h290l641 -1501h-329l-140 340h-645l-139 -340h-322zM635 618h420l-209 506zM850 1626q-169 0 -276.5 81t-120.5 230h213q21 -53 64 -79.5t120 -26.5t120 26.5t64 79.5h213q-13 -149 -120.5 -230t-276.5 -81z" />
    <glyph glyph-name="uni04D1" unicode="&#x4d1;" horiz-adv-x="1275" 
d="M481 -23q-168 0 -281.5 94t-113.5 257v4q0 180 125 271t336 91q147 0 284 -45v21q0 105 -63.5 160t-187.5 55q-147 0 -318 -64l-78 238q104 46 206 69t235 23q253 0 383 -127q122 -122 122 -360v-664h-301v127q-136 -150 -348 -150zM573 195q117 0 190 58t73 150v62
q-98 43 -218 43q-109 0 -170 -43t-61 -121v-4q0 -68 51.5 -106.5t134.5 -38.5zM641 1264q-168 0 -274 87t-119 244h209q46 -129 184 -129t184 129h209q-13 -157 -119 -244t-274 -87z" />
    <glyph glyph-name="uni04D2" unicode="&#x4d2;" horiz-adv-x="1699" 
d="M61 0l644 1501h290l641 -1501h-329l-140 340h-645l-139 -340h-322zM635 618h420l-209 506zM928 1630v264h303v-264h-303zM469 1630v264h303v-264h-303z" />
    <glyph glyph-name="uni04D3" unicode="&#x4d3;" horiz-adv-x="1275" 
d="M481 -23q-168 0 -281.5 94t-113.5 257v4q0 180 125 271t336 91q147 0 284 -45v21q0 105 -63.5 160t-187.5 55q-147 0 -318 -64l-78 238q104 46 206 69t235 23q253 0 383 -127q122 -122 122 -360v-664h-301v127q-136 -150 -348 -150zM573 195q117 0 190 58t73 150v62
q-98 43 -218 43q-109 0 -170 -43t-61 -121v-4q0 -68 51.5 -106.5t134.5 -38.5zM709 1268v280h301v-280h-301zM272 1268v280h301v-280h-301z" />
    <glyph glyph-name="uni04D4" unicode="&#x4d4;" horiz-adv-x="2242" 
d="M29 0l809 1491h1271v-281h-755v-319h659v-281h-659v-329h766v-281h-1080v340h-508l-182 -340h-321zM680 618h360v601h-39z" />
    <glyph glyph-name="uni04D5" unicode="&#x4d5;" horiz-adv-x="2041" 
d="M516 -23q-188 0 -309 94.5t-121 256.5v4q0 180 125 271t336 91q145 0 282 -45v21q0 105 -63.5 160t-185.5 55q-87 0 -159 -15.5t-159 -48.5l-78 238q101 46 202.5 69t236.5 23q274 0 389 -152q154 160 381 160q107 0 197 -33t153.5 -91t107.5 -136t65 -168t21 -188
q0 -20 -4 -82h-800q23 -115 98.5 -175.5t189.5 -60.5q84 0 149.5 28t133.5 91l178 -158q-171 -211 -465 -211q-273 0 -436 177q-234 -175 -465 -175zM1128 655h506q-14 116 -79 185t-171 69q-103 0 -170 -68t-86 -186zM571 199q164 0 301 114q-31 66 -41 154
q-102 41 -213 41q-109 0 -170 -43t-61 -121v-4q0 -64 53 -102.5t131 -38.5z" />
    <glyph glyph-name="uni04D6" unicode="&#x4d6;" horiz-adv-x="1443" 
d="M754 1606q-170 0 -277.5 81t-120.5 230h213q42 -107 185 -107q77 0 120 27t64 80h213q-13 -149 -120.5 -230t-276.5 -81zM190 0v1491h1121v-281h-809v-319h712v-281h-712v-329h819v-281h-1131z" />
    <glyph glyph-name="uni04D7" unicode="&#x4d7;" horiz-adv-x="1318" 
d="M692 -25q-168 0 -302.5 73.5t-212 208.5t-77.5 306v4q0 162 71 297t200.5 215t290.5 80q137 0 244.5 -50.5t173.5 -137t100 -195.5t34 -233q0 -20 -4 -82h-800q23 -116 97.5 -176t188.5 -60q85 0 150 27.5t133 91.5l178 -158q-171 -211 -465 -211zM406 655h505
q-18 117 -81 185.5t-168 68.5q-103 0 -170 -68t-86 -186zM657 1264q-168 0 -274 87t-119 244h209q46 -129 184 -129q139 0 185 129h209q-13 -157 -119.5 -244t-274.5 -87z" />
    <glyph glyph-name="uni04D8" unicode="&#x4d8;" horiz-adv-x="1714" 
d="M397 1036l-200 203q235 277 632 277q160 0 301 -56.5t242.5 -156t160 -242.5t58.5 -309v-7q0 -211 -94 -387t-265 -279.5t-382 -103.5q-144 0 -264 42.5t-204.5 117.5t-143.5 176.5t-87 219.5t-28 247v4q0 23 4 101h1120q-35 164 -148 254t-270 90q-133 0 -234.5 -46
t-197.5 -145zM850 258q156 0 262.5 98t136.5 260h-788q21 -160 123.5 -259t265.5 -99z" />
    <glyph glyph-name="uni04D9" unicode="&#x4d9;" horiz-adv-x="1318" 
d="M627 1163q168 0 302.5 -73.5t212 -208.5t77.5 -306v-4q0 -162 -71 -297.5t-200.5 -216t-290.5 -80.5q-110 0 -202 33.5t-156 91.5t-108.5 137t-65.5 169t-21 188q0 4 5 82h800q-23 115 -98.5 175t-187.5 60q-85 0 -150.5 -28t-132.5 -92l-180 159q176 211 467 211z
M913 481h-505q14 -116 78.5 -184t170.5 -68q103 0 170 67.5t86 184.5z" />
    <glyph glyph-name="uni04DC" unicode="&#x4dc;" horiz-adv-x="2340" 
d="M1249 1610v264h303v-264h-303zM791 1610v264h303v-264h-303zM72 1491h374l490 -606h82l-2 606h309l-4 -606h82l495 606h371l-608 -727l657 -764h-374l-527 618h-96l4 -618h-309l2 618h-105l-522 -618h-368l657 764z" />
    <glyph glyph-name="uni04DD" unicode="&#x4dd;" horiz-adv-x="1943" 
d="M1038 1268v280h301v-280h-301zM602 1268v280h301v-280h-301zM1122 1139l-4 -432h94l332 432h361l-459 -555l477 -584h-362l-347 442h-96l4 -442h-301l2 442h-96l-344 -442h-363l478 567l-459 572h364l332 -432h88l-2 432h301z" />
    <glyph glyph-name="uni04DE" unicode="&#x4de;" horiz-adv-x="1437" 
d="M786 1612v264h304v-264h-304zM328 1612v264h303v-264h-303zM305 1059l-190 213q131 118 279 181t335 63q263 0 410 -108t147 -294v-2q0 -136 -64.5 -216t-193.5 -130q143 -37 221 -118.5t78 -229.5v-2q0 -195 -166 -318t-454 -123q-363 0 -619 228l186 225
q107 -83 213 -127.5t228 -44.5q132 0 212.5 48t80.5 138v2q0 86 -78.5 132.5t-216.5 44.5h-275v262h283q115 0 180.5 49.5t65.5 132.5v2q0 80 -64.5 124t-179.5 44q-210 0 -418 -176z" />
    <glyph glyph-name="uni04DF" unicode="&#x4df;" horiz-adv-x="1212" 
d="M676 1268v280h301v-280h-301zM240 1268v280h301v-280h-301zM80 143l153 205q173 -123 365 -123q215 0 215 123v2q0 52 -51.5 81t-147.5 28h-243v223h241q170 0 170 113v2q0 52 -49 82.5t-139 29.5q-178 0 -338 -123l-164 193q212 180 522 180q211 0 340 -90t129 -233v-2
q0 -178 -186 -254q217 -66 217 -265v-2q0 -145 -138 -241.5t-376 -96.5q-161 0 -284 40.5t-236 127.5z" />
    <glyph glyph-name="uni04E2" unicode="&#x4e2;" horiz-adv-x="1699" 
d="M451 1622v221h798v-221h-798zM1509 0h-315v995l-727 -995h-277v1491h314v-965l704 965h301v-1491z" />
    <glyph glyph-name="uni04E3" unicode="&#x4e3;" horiz-adv-x="1376" 
d="M309 1280v217h758v-217h-758zM156 0v1139h309v-647l463 647h293v-1139h-310v668l-479 -668h-276z" />
    <glyph glyph-name="uni04E4" unicode="&#x4e4;" horiz-adv-x="1699" 
d="M928 1610v264h303v-264h-303zM469 1610v264h303v-264h-303zM1509 0h-315v995l-727 -995h-277v1491h314v-965l704 965h301v-1491z" />
    <glyph glyph-name="uni04E5" unicode="&#x4e5;" horiz-adv-x="1376" 
d="M756 1268v280h301v-280h-301zM319 1268v280h302v-280h-302zM156 0v1139h309v-647l463 647h293v-1139h-310v668l-479 -668h-276z" />
    <glyph glyph-name="uni04E6" unicode="&#x4e6;" horiz-adv-x="1826" 
d="M991 1630v264h303v-264h-303zM532 1630v264h304v-264h-304zM911 -25q-169 0 -316.5 60.5t-250.5 163.5t-162 244t-59 298v4q0 156 60 297.5t163.5 246t252 166t316.5 61.5q169 0 316.5 -60.5t250.5 -163.5t162.5 -244t59.5 -298v-5q0 -156 -60 -297.5t-164 -245.5
t-252.5 -165.5t-316.5 -61.5zM915 264q199 0 329 138.5t130 338.5v4q0 199 -132.5 340.5t-330.5 141.5q-199 0 -328.5 -138.5t-129.5 -338.5v-5q0 -131 58 -240.5t164.5 -175t239.5 -65.5z" />
    <glyph glyph-name="uni04E7" unicode="&#x4e7;" horiz-adv-x="1427" 
d="M782 1268v280h301v-280h-301zM346 1268v280h301v-280h-301zM711 -25q-129 0 -243 46t-194.5 124.5t-127 187.5t-46.5 230v4q0 121 47 230t128 188.5t196.5 126.5t245.5 47q129 0 242.5 -46.5t194 -125t127 -187t46.5 -229.5v-4q0 -162 -79.5 -297.5t-221 -215
t-315.5 -79.5zM717 242q137 0 220 93t83 228v4q0 134 -87 229t-222 95q-137 0 -220 -92.5t-83 -227.5v-4q0 -134 87 -229.5t222 -95.5z" />
    <glyph glyph-name="uni04E8" unicode="&#x4e8;" horiz-adv-x="1814" 
d="M905 -25q-167 0 -313 60.5t-248.5 163.5t-161.5 244t-59 298v4q0 208 101 384.5t282.5 281.5t402.5 105q167 0 313 -60.5t249 -163.5t162 -244t59 -298v-5q0 -156 -60 -297.5t-163 -245.5t-250.5 -165.5t-313.5 -61.5zM909 248q178 0 299.5 99t157.5 265h-917
q37 -164 160 -264t300 -100zM905 1243q-175 0 -295.5 -97t-158.5 -257h911q-37 159 -160.5 256.5t-296.5 97.5z" />
    <glyph glyph-name="uni04E9" unicode="&#x4e9;" horiz-adv-x="1415" 
d="M707 -25q-170 0 -309.5 78t-218.5 213t-79 297v4q0 121 46.5 230t127 188.5t194.5 126.5t243 47q127 0 239.5 -46.5t193 -125t127 -187.5t46.5 -229v-4q0 -121 -47.5 -230.5t-128.5 -189t-194 -126t-240 -46.5zM711 223q116 0 196.5 62t110.5 168h-619
q29 -105 113 -167.5t199 -62.5zM707 911q-117 0 -198.5 -61t-111.5 -166h617q-31 105 -113 166t-194 61z" />
    <glyph glyph-name="uni04EE" unicode="&#x4ee;" horiz-adv-x="1556" 
d="M397 1622v221h799v-221h-799zM690 0h-350l295 512l-580 979h357l397 -694l362 694h351z" />
    <glyph glyph-name="uni04EF" unicode="&#x4ef;" horiz-adv-x="1292" 
d="M653 350l258 789h324l-440 -1168q-67 -176 -149.5 -247.5t-225.5 -71.5q-147 0 -283 78l105 225q74 -43 141 -43q45 0 72 17.5t51 66.5l-453 1143h330zM266 1280v217h758v-217h-758z" />
    <glyph glyph-name="uni04F0" unicode="&#x4f0;" horiz-adv-x="1556" 
d="M877 1610v264h303v-264h-303zM418 1610v264h303v-264h-303zM690 0h-350l295 512l-580 979h357l397 -694l362 694h351z" />
    <glyph glyph-name="uni04F1" unicode="&#x4f1;" horiz-adv-x="1292" 
d="M653 350l258 789h324l-440 -1168q-67 -176 -149.5 -247.5t-225.5 -71.5q-147 0 -283 78l105 225q74 -43 141 -43q45 0 72 17.5t51 66.5l-453 1143h330zM713 1268v280h301v-280h-301zM276 1268v280h302v-280h-302z" />
    <glyph glyph-name="uni04F2" unicode="&#x4f2;" horiz-adv-x="1556" 
d="M690 0h-350l295 512l-580 979h357l397 -694l362 694h351zM459 1610l254 329l260 -118l-287 -211h-227zM856 1610l254 329l260 -118l-285 -211h-229z" />
    <glyph glyph-name="uni04F3" unicode="&#x4f3;" horiz-adv-x="1292" 
d="M653 350l258 789h324l-440 -1168q-67 -176 -149.5 -247.5t-225.5 -71.5q-147 0 -283 78l105 225q74 -43 141 -43q45 0 72 17.5t51 66.5l-453 1143h330zM702 1268l234 370l264 -116l-276 -254h-222zM315 1268l230 370l264 -116l-274 -254h-220z" />
    <glyph glyph-name="uni04F4" unicode="&#x4f4;" horiz-adv-x="1536" 
d="M1032 0v489q-145 -34 -317 -34q-265 0 -414 128t-149 388v520h315v-485q0 -138 69.5 -202.5t211.5 -64.5q147 0 284 35v717h316v-1491h-316zM827 1610v264h303v-264h-303zM369 1610v264h303v-264h-303z" />
    <glyph glyph-name="uni04F5" unicode="&#x4f5;" horiz-adv-x="1286" 
d="M692 1268v280h301v-280h-301zM256 1268v280h301v-280h-301zM819 0v348q-130 -33 -235 -33q-225 0 -344 104.5t-119 319.5v400h309v-371q0 -94 49 -134t152 -40q90 0 188 31v514h311v-1139h-311z" />
    <glyph glyph-name="uni04F8" unicode="&#x4f8;" horiz-adv-x="2093" 
d="M190 0v1491h314v-475h274q273 0 429.5 -129t156.5 -373v-2q0 -237 -157 -374.5t-441 -137.5h-576zM504 285h268q130 0 202.5 58t72.5 169v2q0 105 -71.5 163.5t-201.5 57.5h-270v-450zM1587 0v1491h316v-1491h-316zM1124 1610v264h303v-264h-303zM666 1610v264h303v-264
h-303z" />
    <glyph glyph-name="uni04F9" unicode="&#x4f9;" horiz-adv-x="1773" 
d="M954 1268v280h301v-280h-301zM518 1268v280h301v-280h-301zM465 1139v-330h219q209 0 334 -105t125 -294v-2q0 -189 -127 -298.5t-357 -109.5h-503v1139h309zM463 559v-307h188q89 0 138 39.5t49 116.5v2q0 65 -49 107.5t-134 41.5h-192zM1307 0v1139h311v-1139h-311z
" />
    <glyph glyph-name="baht" unicode="&#xe3f;" horiz-adv-x="1398" 
d="M676 1661h198l-18 -174q190 -18 304 -117t114 -264v-2q0 -228 -225 -330q62 -26 107 -56.5t81 -73t54 -99.5t18 -129v-2q0 -201 -145.5 -307.5t-391.5 -106.5h-59l-21 -252h-198l20 252h-364v1491h505h2zM772 639h-14l-33 -381h55q117 0 179.5 48.5t62.5 144.5v2
q0 89 -63 138t-187 48zM430 864h182l33 369h-2h-213v-369zM989 1051v2q0 75 -45 121.5t-131 56.5l-33 -367q209 13 209 187zM430 258h125l37 381h-162v-381z" />
    <glyph glyph-name="Wgrave" unicode="&#x1e80;" horiz-adv-x="2404" 
d="M1327 1610h-237l-287 211l270 118zM586 -10l-512 1501h338l319 -1028l340 1032h270l340 -1032l318 1028h330l-510 -1501h-275l-342 993l-342 -993h-274z" />
    <glyph glyph-name="wgrave" unicode="&#x1e81;" horiz-adv-x="1849" 
d="M416 -8l-353 1147h316l190 -709l224 713h266l223 -715l197 711h309l-358 -1147h-281l-225 715l-230 -715h-278zM817 1268l-274 254l270 116l234 -370h-230z" />
    <glyph glyph-name="Wacute" unicode="&#x1e82;" horiz-adv-x="2404" 
d="M1075 1610l254 329l270 -118l-286 -211h-238zM586 -10l-512 1501h338l319 -1028l340 1032h270l340 -1032l318 1028h330l-510 -1501h-275l-342 993l-342 -993h-274z" />
    <glyph glyph-name="wacute" unicode="&#x1e83;" horiz-adv-x="1849" 
d="M801 1268l233 370l271 -116l-275 -254h-229zM416 -8l-353 1147h316l190 -709l224 713h266l223 -715l197 711h309l-358 -1147h-281l-225 715l-230 -715h-278z" />
    <glyph glyph-name="Wdieresis" unicode="&#x1e84;" horiz-adv-x="2404" 
d="M1280 1610v264h303v-264h-303zM821 1610v264h303v-264h-303zM586 -10l-512 1501h338l319 -1028l340 1032h270l340 -1032l318 1028h330l-510 -1501h-275l-342 993l-342 -993h-274z" />
    <glyph glyph-name="wdieresis" unicode="&#x1e85;" horiz-adv-x="1849" 
d="M991 1268v280h301v-280h-301zM555 1268v280h301v-280h-301zM416 -8l-353 1147h316l190 -709l224 713h266l223 -715l197 711h309l-358 -1147h-281l-225 715l-230 -715h-278z" />
    <glyph glyph-name="Ygrave" unicode="&#x1ef2;" horiz-adv-x="1542" 
d="M612 0v588l-575 903h369l366 -610l375 610h358l-577 -897v-594h-316zM897 1610h-238l-286 211l270 118z" />
    <glyph glyph-name="ygrave" unicode="&#x1ef3;" horiz-adv-x="1292" 
d="M653 350l258 789h324l-440 -1168q-67 -176 -149.5 -247.5t-225.5 -71.5q-147 0 -283 78l105 225q74 -43 141 -43q45 0 72 17.5t51 66.5l-453 1143h330zM539 1268l-275 254l271 116l233 -370h-229z" />
    <glyph glyph-name="enspace" unicode="&#x2002;" horiz-adv-x="1024" 
 />
    <glyph glyph-name="emspace" unicode="&#x2003;" horiz-adv-x="2048" 
 />
    <glyph glyph-name="threeperemspace" unicode="&#x2004;" horiz-adv-x="681" 
 />
    <glyph glyph-name="fourperemspace" unicode="&#x2005;" horiz-adv-x="512" 
 />
    <glyph glyph-name="figurespace" unicode="&#x2007;" horiz-adv-x="1290" 
 />
    <glyph glyph-name="thinspace" unicode="&#x2009;" horiz-adv-x="272" 
 />
    <glyph glyph-name="hairspace" unicode="&#x200a;" horiz-adv-x="153" 
 />
    <glyph glyph-name="endash" unicode="&#x2013;" horiz-adv-x="1140" 
d="M117 514v291h907v-291h-907z" />
    <glyph glyph-name="emdash" unicode="&#x2014;" horiz-adv-x="1929" 
d="M117 514v291h1695v-291h-1695z" />
    <glyph glyph-name="quoteleft" unicode="&#x2018;" horiz-adv-x="618" 
d="M133 831v281q0 199 95 291.5t286 97.5l27 -129q-218 -24 -203 -209h127v-332h-332z" />
    <glyph glyph-name="quoteright" unicode="&#x2019;" horiz-adv-x="618" 
d="M104 821l-26 129q218 27 203 209h-127v332h331v-281q0 -199 -95 -291t-286 -98z" />
    <glyph glyph-name="quotesinglbase" unicode="&#x201a;" horiz-adv-x="618" 
d="M94 -338l-26 129q217 24 202 209h-127v332h332v-281q0 -199 -95 -291.5t-286 -97.5z" />
    <glyph glyph-name="quotedblleft" unicode="&#x201c;" horiz-adv-x="1148" 
d="M664 831v281q0 200 94.5 292t285.5 97l29 -129q-220 -24 -205 -209h129v-332h-333zM133 831v281q0 199 95 291.5t286 97.5l27 -129q-218 -24 -203 -209h127v-332h-332z" />
    <glyph glyph-name="quotedblright" unicode="&#x201d;" horiz-adv-x="1148" 
d="M637 821l-29 129q220 27 205 209h-129v332h334v-281q0 -199 -95 -291t-286 -98zM104 821l-26 129q218 27 203 209h-127v332h331v-281q0 -199 -95 -291t-286 -98z" />
    <glyph glyph-name="quotedblbase" unicode="&#x201e;" horiz-adv-x="1148" 
d="M627 -338l-29 129q109 12 161 65t44 144h-129v332h334v-281q0 -199 -95 -291.5t-286 -97.5zM94 -338l-26 129q217 24 202 209h-127v332h332v-281q0 -199 -95 -291.5t-286 -97.5z" />
    <glyph glyph-name="dagger" unicode="&#x2020;" horiz-adv-x="888" 
d="M358 508l21 575l-256 -20v172l254 -21l-27 277h191l-27 -277l254 21v-172l-256 20l20 -575h-174z" />
    <glyph glyph-name="daggerdbl" unicode="&#x2021;" horiz-adv-x="931" 
d="M371 0l26 276l-254 -20v172l254 -20l-18 337l18 338l-254 -20v172l254 -21l-26 277h190l-26 -277l253 21v-172l-253 20l18 -338l-18 -337l253 20v-172l-253 20l26 -276h-190z" />
    <glyph glyph-name="bullet" unicode="&#x2022;" horiz-adv-x="1077" 
d="M539 436q-129 0 -221.5 91.5t-92.5 220.5v4q0 129 92.5 220t221.5 91t221 -91t92 -220v-4q0 -129 -92 -220.5t-221 -91.5z" />
    <glyph glyph-name="ellipsis" unicode="&#x2026;" horiz-adv-x="1785" 
d="M1317 0v324h325v-324h-325zM731 0v324h324v-324h-324zM143 0v324h324v-324h-324z" />
    <glyph glyph-name="perthousand" unicode="&#x2030;" horiz-adv-x="2652" 
d="M467 934q66 0 103.5 54.5t37.5 133.5v4q0 81 -40.5 138t-104.5 57q-66 0 -103.5 -54.5t-37.5 -136.5v-4q0 -80 40.5 -136t104.5 -56zM463 745q-157 0 -258 109.5t-101 267.5v4q0 161 102 271t261 110q158 0 258 -109t100 -268v-4q0 -160 -101 -270.5t-261 -110.5z
M1589 1491l-596 -801l-493 -690h-246l596 801l493 690h246zM1380 170q66 0 104 55.5t38 134.5v5q0 79 -42 135.5t-104 56.5q-66 0 -103.5 -54.5t-37.5 -133.5v-4q0 -81 40.5 -138t104.5 -57zM1376 -16q-158 0 -258 108.5t-100 267.5v5q0 160 100.5 270t261.5 110
q157 0 258 -109t101 -267v-4q0 -160 -102 -270.5t-261 -110.5zM2189 170q66 0 104 55.5t38 134.5v5q0 79 -42 135.5t-104 56.5q-66 0 -103.5 -54.5t-37.5 -133.5v-4q0 -81 40.5 -138t104.5 -57zM2185 -16q-158 0 -258 108.5t-100 267.5v5q0 160 100.5 270t261.5 110
q157 0 258 -109t101 -267v-4q0 -160 -102 -270.5t-261 -110.5z" />
    <glyph glyph-name="guilsinglleft" unicode="&#x2039;" horiz-adv-x="802" 
d="M473 90l-377 471v17l377 471l217 -107l-258 -371l258 -370z" />
    <glyph glyph-name="guilsinglright" unicode="&#x203a;" horiz-adv-x="802" 
d="M330 90l-217 107l258 370l-258 371l217 111l377 -471v-17z" />
    <glyph glyph-name="fraction" unicode="&#x2044;" horiz-adv-x="229" 
d="M-477 0l540 780l472 711h172l-541 -780l-471 -711h-172z" />
    <glyph glyph-name="zero.sup" unicode="&#x2070;" 
d="M428 874q-150 0 -248 117t-98 314v10q0 197 98.5 314.5t249.5 117.5q147 0 247.5 -118.5t100.5 -311.5v-10q0 -195 -101.5 -314t-248.5 -119zM428 1577q-70 0 -115 -65.5t-45 -192.5v-16q0 -125 45.5 -193t116.5 -68q70 0 116 67t46 194v16q0 124 -47 191t-117 67z" />
    <glyph glyph-name="four.sup" unicode="&#x2074;" 
d="M670 1067v-176h-164v176h-402l-16 170l401 498h181v-527h112v-141h-112zM508 1206v332l-264 -332h264z" />
    <glyph glyph-name="five.sup" unicode="&#x2075;" 
d="M420 874q-175 0 -326 121l105 138q120 -93 225 -93q64 0 104.5 32t40.5 85q0 54 -41 84.5t-110 30.5q-89 0 -156 -31l-112 70l32 413h527v-161h-377l-15 -158q42 18 140 18q129 0 211 -67t82 -191q0 -134 -89 -212.5t-241 -78.5z" />
    <glyph glyph-name="six.sup" unicode="&#x2076;" 
d="M434 874q-141 0 -225 84q-109 109 -109 326v4q0 214 94 336.5t273 122.5q81 0 135.5 -20t114.5 -62l-86 -145q-75 63 -168 63q-72 0 -119.5 -53t-54.5 -144q76 50 178 50q119 0 198.5 -69.5t79.5 -197.5q0 -132 -87.5 -213.5t-223.5 -81.5zM430 1026q61 0 101 37t40 96
q0 62 -37.5 97.5t-103.5 35.5q-67 0 -106 -34t-39 -99v-2q0 -57 42.5 -95t102.5 -36z" />
    <glyph glyph-name="seven.sup" unicode="&#x2077;" 
d="M375 891h-203l356 668h-389v165h596v-139z" />
    <glyph glyph-name="eight.sup" unicode="&#x2078;" 
d="M430 874q-143 0 -231 66.5t-88 181.5q0 143 133 205q-113 67 -113 189q0 99 83 165t216 66t215 -66t82 -165q0 -122 -113 -189q136 -71 136 -203q0 -116 -89 -183t-231 -67zM430 1604q-59 0 -95 -29.5t-36 -77.5q0 -51 36.5 -82t94.5 -31q57 0 93 30t36 83q0 47 -36 77
t-93 30zM430 1249q-68 0 -109.5 -31t-41.5 -85q0 -55 40 -87t111 -32q67 0 107.5 32.5t40.5 86.5t-41.5 85t-106.5 31z" />
    <glyph glyph-name="nine.sup" unicode="&#x2079;" 
d="M426 1747q139 0 225 -86q52 -52 80.5 -128t28.5 -198v-4q0 -214 -94 -335.5t-273 -121.5q-147 0 -264 89l86 143q88 -70 182 -70q72 0 118 52t54 139q-39 -25 -76.5 -37t-95.5 -12q-118 0 -200 70t-82 200q0 129 88 214t223 85zM430 1319q67 0 106 36.5t39 102.5v2
q0 57 -42.5 96t-102.5 37q-61 0 -101 -38t-40 -97q0 -66 37.5 -102.5t103.5 -36.5z" />
    <glyph glyph-name="zero.inf" unicode="&#x2080;" 
d="M428 -299q-150 0 -248 116.5t-98 313.5v10q0 197 98.5 314.5t249.5 117.5q147 0 247.5 -118.5t100.5 -311.5v-10q0 -195 -101.5 -313.5t-248.5 -118.5zM428 403q-70 0 -115 -65.5t-45 -192.5v-16q0 -125 45.5 -192.5t116.5 -67.5q70 0 116 66.5t46 193.5v16
q0 124 -47 191t-117 67z" />
    <glyph glyph-name="one.inf" unicode="&#x2081;" horiz-adv-x="700" 
d="M492 -279h-179v652l-161 -60l-52 148l258 102h134v-842z" />
    <glyph glyph-name="two.inf" unicode="&#x2082;" 
d="M117 -279v154l284 234q81 66 112.5 107t31.5 89q0 46 -33 73.5t-82 27.5q-52 0 -95.5 -28.5t-88.5 -86.5l-129 104q66 91 139 134.5t184 43.5q133 0 213 -69t80 -182q0 -86 -39 -148t-137 -139l-197 -156h377v-158h-620z" />
    <glyph glyph-name="three.inf" unicode="&#x2083;" 
d="M422 -299q-187 0 -330 129l105 133q111 -100 227 -100q53 0 91 30t38 76q0 53 -42 80t-116 27h-98l-29 112l226 203h-347v160h574v-139l-240 -205q113 -11 183.5 -69t70.5 -163q0 -124 -84 -199t-229 -75z" />
    <glyph glyph-name="four.inf" unicode="&#x2084;" 
d="M670 -106v-177h-164v177h-402l-16 169l401 498h181v-526h112v-141h-112zM508 33v332l-264 -332h264z" />
    <glyph glyph-name="five.inf" unicode="&#x2085;" 
d="M420 -299q-175 0 -326 121l105 137q119 -92 225 -92q64 0 104.5 32t40.5 85q0 54 -40.5 84t-110.5 30q-91 0 -156 -30l-112 69l32 414h527v-162h-377l-15 -158q45 19 140 19q129 0 211 -67t82 -191q0 -134 -89 -212.5t-241 -78.5z" />
    <glyph glyph-name="six.inf" unicode="&#x2086;" 
d="M434 -299q-141 0 -225 84q-109 109 -109 326v4q0 214 94 336t273 122q81 0 136 -19.5t114 -61.5l-86 -146q-76 64 -168 64q-72 0 -119.5 -53t-54.5 -144q74 49 178 49q119 0 198.5 -69t79.5 -197q0 -132 -87.5 -213.5t-223.5 -81.5zM430 -147q61 0 101 37t40 96
q0 62 -37.5 97.5t-103.5 35.5q-67 0 -106 -34t-39 -99v-2q0 -57 42.5 -95t102.5 -36z" />
    <glyph glyph-name="seven.inf" unicode="&#x2087;" 
d="M375 -283h-203l356 668h-389v166h596v-139z" />
    <glyph glyph-name="eight.inf" unicode="&#x2088;" 
d="M430 -299q-143 0 -231 66.5t-88 181.5q0 143 133 205q-113 67 -113 188q0 99 83 165t216 66t215 -66t82 -165q0 -68 -29.5 -112t-83.5 -76q136 -71 136 -203q0 -116 -89 -183t-231 -67zM430 430q-60 0 -95.5 -29t-35.5 -77q0 -51 36.5 -82t94.5 -31q57 0 93 30t36 83
q0 47 -36 76.5t-93 29.5zM430 76q-67 0 -109 -31.5t-42 -85.5q0 -55 40 -87t111 -32q67 0 107.5 32.5t40.5 86.5t-41.5 85.5t-106.5 31.5z" />
    <glyph glyph-name="nine.inf" unicode="&#x2089;" 
d="M426 573q139 0 225 -86q52 -52 80.5 -127.5t28.5 -197.5v-4q0 -214 -94 -335.5t-273 -121.5q-149 0 -264 88l86 143q87 -69 182 -69q72 0 118 51.5t54 138.5q-39 -25 -76.5 -37t-95.5 -12q-118 0 -200 70t-82 200q0 129 88 214t223 85zM430 145q67 0 106 36.5t39 103.5v2
q0 57 -42.5 96t-102.5 37q-61 0 -101 -38t-40 -97q0 -66 37.5 -103t103.5 -37z" />
    <glyph glyph-name="colonmonetary" unicode="&#x20a1;" horiz-adv-x="1335" 
d="M967 1661h143l-29 -223q87 -35 168 -99l-110 -268q-56 46 -101 78l-112 -868q81 30 180 122l154 -204q-87 -80 -171.5 -126.5t-189.5 -64.5l-33 -260h-143l31 252q-78 3 -148 18l-35 -270h-143l41 320q-173 84 -273 256.5t-100 410.5v19q0 290 153 485t398 240l25 182
h143l-22 -170q67 0 149 -14zM754 1231l-121 -948q77 -25 160 -25l122 952q-71 23 -129 23q-26 0 -32 -2zM381 745v-18q0 -250 131 -371l106 842q-111 -51 -174 -167t-63 -286z" />
    <glyph glyph-name="naira" unicode="&#x20a6;" horiz-adv-x="1802" 
d="M1737 426h-219v-426h-312l-262 426h-362v-426h-297v426h-217v190h217v267h-217v190h217v418h333l256 -418h347v418h297v-418h219v-190h-219v-267h219v-190zM575 1030v-422h267l-256 422h-11zM1217 494h10v397h-252z" />
    <glyph glyph-name="rupee" unicode="&#x20a8;" horiz-adv-x="2375" 
d="M170 0v1491h551q248 0 390 -126.5t142 -358.5v-9q0 -164 -75 -273.5t-209 -166.5l323 -557h-338l-282 498h-209v-498h-293zM463 758h246q116 0 180.5 59.5t64.5 167.5v8q0 228 -252 228h-239v-463zM1866 -20q-261 0 -477 153l122 205q187 -127 361 -127q66 0 105.5 26.5
t39.5 69.5v4q0 45 -42.5 74t-180.5 72q-181 56 -267.5 133t-86.5 209v6q0 161 116.5 254.5t294.5 93.5q213 0 402 -117l-109 -213q-163 99 -299 99q-64 0 -101.5 -26t-37.5 -65v-4q0 -44 44.5 -75t178.5 -74q187 -63 269.5 -136.5t82.5 -205.5v-4q0 -113 -57 -194
t-149.5 -119.5t-208.5 -38.5z" />
    <glyph glyph-name="won" unicode="&#x20a9;" horiz-adv-x="2400" 
d="M2241 1491l-115 -438h198v-199h-251l-58 -217h309v-201h-362l-115 -440h-356l-117 440h-348l-117 -440h-356l-117 440h-360v201h309l-57 217h-252v199h198l-114 438h338l94 -438h319l117 442h352l113 -442h324l94 438h330zM733 348h12l125 514h-245zM1192 1124l-125 -497
h264l-123 497h-16zM1663 348h12l109 514h-250z" />
    <glyph glyph-name="sheqel" unicode="&#x20aa;" horiz-adv-x="1357" 
d="M502 297l-58 393h156l43 -276q12 -85 59 -123.5t134 -38.5h159v887h232v-1139h-393q-152 0 -232 71.5t-100 225.5zM731 451v272q0 164 -166 164h-203v-887h-231v1139h483q129 0 201 -72t72 -201v-415h-156z" />
    <glyph glyph-name="Euro" unicode="&#x20ac;" horiz-adv-x="1550" 
d="M1454 1243l-237 -180q-64 90 -131 132t-162 42q-196 0 -283 -203h408v-209h-455q-2 -27 -2 -77v-3q0 -48 2 -71h455v-209h-410q42 -102 118.5 -157t180.5 -54q91 0 153.5 41.5t141.5 138.5l225 -164q-101 -144 -224 -219.5t-296 -75.5q-235 0 -400.5 132.5t-228.5 357.5
h-194v209h159q-2 23 -2 69v2q0 53 2 80h-159v209h198q68 219 229.5 350.5t389.5 131.5q127 0 227.5 -37t166 -93.5t128.5 -142.5z" />
    <glyph glyph-name="peso" unicode="&#x20b1;" horiz-adv-x="1634" 
d="M285 0v866h-219v181h219v444h536q232 0 382.5 -122.5t180.5 -321.5h205v-181h-205q-21 -142 -106 -246t-211 -156t-279 -52h-190v-412h-313zM590 676h201q114 0 185 53.5t95 147.5h-481v-201zM590 1223v-187h479q-23 92 -96.5 139.5t-186.5 47.5h-196z" />
    <glyph glyph-name="hryvnia" unicode="&#x20b4;" horiz-adv-x="1390" 
d="M106 905l17 131l600 -73q65 57 91 93.5t26 78.5q0 50 -36 81t-108 31q-77 0 -149 -31t-162 -100l-162 209q117 97 234 144t268 47q205 0 330 -104.5t125 -256.5q0 -120 -97 -237l240 -29l-16 -131l-349 43l-151 -135l477 -58l-16 -133l-596 72q-79 -67 -108 -108.5
t-29 -82.5q0 -54 41 -84t118 -30q151 0 338 139l162 -209q-237 -197 -526 -197q-219 0 -346 103.5t-127 255.5q0 140 112 258l-239 31l16 131l352 -43l152 135z" />
    <glyph glyph-name="numero" unicode="&#x2116;" horiz-adv-x="2426" 
d="M160 0v1491h272l588 -893v893h291v-1491h-254l-606 926v-926h-291zM1898 590q-177 0 -288 126t-111 322v13q0 194 112 321t290 127q177 0 289 -127t112 -321v-13q0 -196 -113 -322t-291 -126zM1901 782q81 0 130.5 71t49.5 181v15q0 112 -50 185t-133 73
q-79 0 -128.5 -71t-49.5 -181v-15q0 -111 51 -184.5t130 -73.5zM1518 272v172h761v-172h-761z" />
    <glyph glyph-name="published" unicode="&#x2117;" horiz-adv-x="1783" 
d="M891 -25q-213 0 -390.5 103.5t-278.5 279.5t-101 383v4q0 155 60.5 297t163.5 246t247 166t303 62q212 0 389 -103.5t278 -279.5t101 -383v-5q0 -207 -101.5 -384t-279.5 -281.5t-391 -104.5zM891 57q190 0 347.5 93t247 251t89.5 344v5q0 187 -89 344t-245.5 248.5
t-345.5 91.5q-144 0 -272 -55t-218.5 -148t-143 -219.5t-52.5 -266.5v-4q0 -187 89 -344t246 -248.5t347 -91.5zM610 350v817h334q147 0 231.5 -76t84.5 -204v-4q0 -134 -95 -208.5t-237 -74.5h-140v-250h-178zM788 756h144q68 0 107.5 35t39.5 90v4q0 61 -40.5 94
t-110.5 33h-140v-256z" />
    <glyph glyph-name="servicemark" unicode="&#x2120;" horiz-adv-x="1513" 
d="M770 836v655h154l176 -285l178 285h149v-655h-137v446l-186 -293h-12l-185 293v-446h-137zM369 823q-79 0 -160 28.5t-141 78.5l77 96q116 -90 232 -90q57 0 88 19.5t31 54.5q0 32 -30.5 50t-119.5 42q-60 14 -98.5 27.5t-75 35.5t-53.5 55t-17 78q0 93 66 149t182 56
q161 0 262 -88l-73 -100q-96 69 -193 69q-52 0 -79 -19t-27 -50q0 -34 31.5 -52.5t119.5 -39.5q117 -26 178.5 -70.5t61.5 -126.5q0 -96 -71 -149.5t-191 -53.5z" />
    <glyph glyph-name="trademark" unicode="&#x2122;" horiz-adv-x="1486" 
d="M741 836v655h154l176 -285l178 285h150v-655h-137v446l-187 -293h-12l-184 293v-446h-138zM260 836v526h-197v129h539v-129h-196v-526h-146z" />
    <glyph glyph-name="Omega" unicode="&#x2126;" horiz-adv-x="1869" 
d="M936 1516q177 0 322.5 -52.5t242.5 -145t150 -218t53 -271.5v-2q0 -330 -311 -559h346v-268h-660v264q67 47 115.5 93.5t91.5 109t65.5 143t22.5 176.5v2q0 197 -118 318t-324 121q-201 0 -318.5 -119t-117.5 -311v-2q0 -176 75.5 -302.5t216.5 -228.5v-264h-657v268h344
q-144 108 -226.5 243t-82.5 318v2q0 138 53 262t149.5 218t243.5 149.5t324 55.5z" />
    <glyph glyph-name="onethird" unicode="&#x2153;" horiz-adv-x="1775" 
d="M1352 -20q-187 0 -330 129l104 133q112 -101 228 -101q52 0 90.5 30.5t38.5 76.5q0 53 -42 79.5t-116 26.5h-98l-29 113l225 203h-346v159h574v-139l-240 -205q114 -11 184 -68.5t70 -162.5q0 -124 -84 -199t-229 -75zM496 662h-179v651l-161 -62l-52 150l258 100h134
v-839zM225 0l541 780l471 711h172l-541 -780l-471 -711h-172z" />
    <glyph glyph-name="twothirds" unicode="&#x2154;" horiz-adv-x="1935" 
d="M1511 -20q-104 0 -182 33.5t-147 95.5l104 133q112 -101 227 -101q52 0 90.5 30.5t38.5 76.5q0 53 -41.5 79.5t-115.5 26.5h-99l-28 113l225 203h-346v159h573v-139l-239 -205q114 -11 184 -68.5t70 -162.5q0 -124 -84.5 -199t-229.5 -75zM102 662v153l285 234
q80 66 111.5 106.5t31.5 87.5q0 46 -33 74.5t-81 28.5q-96 0 -185 -115l-129 104q66 90 139.5 133t184.5 43q133 0 213 -69t80 -182q0 -85 -38.5 -145.5t-137.5 -141.5l-197 -156h377v-155h-621zM375 0l540 780l471 711h173l-541 -780l-471 -711h-172z" />
    <glyph glyph-name="onefifth" unicode="&#x2155;" horiz-adv-x="1775" 
d="M1350 -20q-176 0 -326 120l104 138q120 -93 226 -93q64 0 104.5 32t40.5 85q0 54 -41 84.5t-110 30.5q-89 0 -156 -31l-113 70l33 413h526v-161h-376l-15 -158q42 18 139 18q129 0 211 -67t82 -191q0 -134 -88.5 -212t-240.5 -78zM496 662h-179v651l-161 -62l-52 150
l258 100h134v-839zM236 0l540 780l471 711h172l-540 -780l-471 -711h-172z" />
    <glyph glyph-name="twofifths" unicode="&#x2156;" horiz-adv-x="1935" 
d="M1509 -20q-175 0 -325 120l104 138q120 -93 225 -93q64 0 105 32t41 85q0 54 -41 84.5t-111 30.5q-88 0 -155 -31l-113 70l33 413h526v-161h-377l-14 -158q42 18 139 18q129 0 211 -67t82 -191q0 -134 -89 -212t-241 -78zM395 0l541 780l471 711h172l-541 -780l-471 -711
h-172zM102 662v153l285 234q80 66 111.5 106.5t31.5 87.5q0 46 -33 74.5t-81 28.5q-96 0 -185 -115l-129 104q66 90 139.5 133t184.5 43q133 0 213 -69t80 -182q0 -85 -38.5 -145.5t-137.5 -141.5l-197 -156h377v-155h-621z" />
    <glyph glyph-name="threefifths" unicode="&#x2157;" horiz-adv-x="1935" 
d="M1509 -20q-175 0 -325 120l104 138q120 -93 225 -93q64 0 105 32t41 85q0 54 -41 84.5t-111 30.5q-88 0 -155 -31l-113 70l33 413h526v-161h-377l-14 -158q42 18 139 18q129 0 211 -67t82 -191q0 -134 -89 -212t-241 -78zM365 0l540 780l471 711h172l-540 -780l-471 -711
h-172zM408 639q-185 0 -330 131l104 133q111 -100 228 -100q53 0 91 29t38 77q0 53 -42 80t-116 27h-98l-29 112l225 201h-346v162h574v-139l-240 -207q112 -8 183 -66.5t71 -163.5q0 -124 -84 -200t-229 -76z" />
    <glyph glyph-name="fourfifths" unicode="&#x2158;" horiz-adv-x="1935" 
d="M655 831v-174h-163v174h-402l-16 173l401 495h180v-524h113v-144h-113zM494 973v330l-265 -330h265zM1509 -20q-175 0 -325 120l104 138q120 -93 225 -93q64 0 105 32t41 85q0 54 -41 84.5t-111 30.5q-88 0 -155 -31l-113 70l33 413h526v-161h-377l-14 -158q42 18 139 18
q129 0 211 -67t82 -191q0 -134 -89 -212t-241 -78zM395 0l541 780l471 711h172l-541 -780l-471 -711h-172z" />
    <glyph glyph-name="onesixth" unicode="&#x2159;" horiz-adv-x="1775" 
d="M1364 -20q-142 0 -225 83q-109 109 -109 326v4q0 214 94 336.5t273 122.5q81 0 135.5 -20t114.5 -62l-86 -145q-75 63 -168 63q-72 0 -119.5 -53t-54.5 -143q74 49 178 49q119 0 198.5 -69.5t79.5 -197.5q0 -132 -87.5 -213t-223.5 -81zM1360 131q61 0 101 37t40 96
q0 62 -37.5 97.5t-103.5 35.5q-68 0 -107 -34t-39 -99v-2q0 -57 43 -95t103 -36zM496 662h-179v651l-161 -62l-52 150l258 100h134v-839zM248 0l540 780l472 711h172l-541 -780l-471 -711h-172z" />
    <glyph glyph-name="fivesixths" unicode="&#x215a;" horiz-adv-x="1935" 
d="M1524 -20q-143 0 -226 83q-108 108 -108 326v4q0 214 93.5 336.5t272.5 122.5q81 0 135.5 -20t114.5 -62l-86 -145q-75 63 -168 63q-72 0 -119.5 -53t-54.5 -143q74 49 178 49q119 0 199 -69.5t80 -197.5q0 -132 -87.5 -213t-223.5 -81zM1520 131q61 0 101 37t40 96
q0 62 -37.5 97.5t-103.5 35.5q-68 0 -107 -34t-39 -99v-2q0 -57 43 -95t103 -36zM375 0l540 780l471 711h173l-541 -780l-471 -711h-172zM406 639q-175 0 -326 121l104 137q120 -90 226 -90q64 0 104.5 32t40.5 85t-41 83.5t-111 30.5q-90 0 -155 -30l-113 67l33 416h526
v-164h-377l-14 -156q63 19 139 19q129 0 211 -67t82 -191q0 -135 -88.5 -214t-240.5 -79z" />
    <glyph glyph-name="oneeighth" unicode="&#x215b;" horiz-adv-x="1775" 
d="M1360 -20q-144 0 -232 66t-88 181q0 143 134 205q-113 67 -113 189q0 99 83 165t216 66t215 -66t82 -165q0 -122 -113 -189q135 -71 135 -203q0 -116 -88 -182.5t-231 -66.5zM1360 709q-59 0 -95 -29.5t-36 -77.5q0 -51 36.5 -82t94.5 -31q57 0 93 30t36 83q0 47 -36 77
t-93 30zM1360 354q-68 0 -110 -31t-42 -85q0 -55 40.5 -87t111.5 -32q67 0 107 32.5t40 86.5t-41 85t-106 31zM496 662h-179v651l-161 -62l-52 150l258 100h134v-839zM238 0l540 780l471 711h172l-540 -780l-471 -711h-172z" />
    <glyph glyph-name="threeeighths" unicode="&#x215c;" horiz-adv-x="1935" 
d="M1520 -20q-144 0 -232 66t-88 181q0 143 133 205q-112 66 -112 189q0 99 83 165t216 66t215 -66t82 -165q0 -122 -113 -189q135 -71 135 -203q0 -116 -88 -182.5t-231 -66.5zM1520 709q-59 0 -95 -29.5t-36 -77.5q0 -51 36.5 -82t94.5 -31q57 0 93 30t36 83q0 47 -36 77
t-93 30zM1520 354q-68 0 -110 -31t-42 -85q0 -55 40.5 -87t111.5 -32q67 0 107 32.5t40 86.5t-41 85t-106 31zM375 0l540 780l471 711h173l-541 -780l-471 -711h-172zM408 639q-185 0 -330 131l104 133q111 -100 228 -100q53 0 91 29t38 77q0 53 -42 80t-116 27h-98l-29 112
l225 201h-346v162h574v-139l-240 -207q112 -8 183 -66.5t71 -163.5q0 -124 -84 -200t-229 -76z" />
    <glyph glyph-name="fiveeighths" unicode="&#x215d;" horiz-adv-x="1935" 
d="M1520 -20q-144 0 -232 66t-88 181q0 143 133 205q-112 66 -112 189q0 99 83 165t216 66t215 -66t82 -165q0 -122 -113 -189q135 -71 135 -203q0 -116 -88 -182.5t-231 -66.5zM1520 709q-59 0 -95 -29.5t-36 -77.5q0 -51 36.5 -82t94.5 -31q57 0 93 30t36 83q0 47 -36 77
t-93 30zM1520 354q-68 0 -110 -31t-42 -85q0 -55 40.5 -87t111.5 -32q67 0 107 32.5t40 86.5t-41 85t-106 31zM375 0l540 780l471 711h173l-541 -780l-471 -711h-172zM406 639q-175 0 -326 121l104 137q120 -90 226 -90q64 0 104.5 32t40.5 85t-41 83.5t-111 30.5
q-90 0 -155 -30l-113 67l33 416h526v-164h-377l-14 -156q63 19 139 19q129 0 211 -67t82 -191q0 -135 -88.5 -214t-240.5 -79z" />
    <glyph glyph-name="seveneighths" unicode="&#x215e;" horiz-adv-x="1935" 
d="M1520 -20q-144 0 -232 66t-88 181q0 143 133 205q-112 66 -112 189q0 99 83 165t216 66t215 -66t82 -165q0 -122 -113 -189q135 -71 135 -203q0 -116 -88 -182.5t-231 -66.5zM1520 709q-59 0 -95 -29.5t-36 -77.5q0 -51 36.5 -82t94.5 -31q57 0 93 30t36 83q0 47 -36 77
t-93 30zM1520 354q-68 0 -110 -31t-42 -85q0 -55 40.5 -87t111.5 -32q67 0 107 32.5t40 86.5t-41 85t-106 31zM379 657h-203l356 666h-389v168h596v-139zM311 0l541 780l471 711h172l-541 -780l-471 -711h-172z" />
    <glyph glyph-name="Delta" unicode="&#x2206;" horiz-adv-x="1691" 
d="M127 0l-25 227l580 1274h328l579 -1274l-24 -227h-1438zM842 1155l-381 -876h762z" />
    <glyph glyph-name="minus" unicode="&#x2212;" horiz-adv-x="1376" 
d="M1225 606h-1071v287h1071v-287z" />
    <glyph glyph-name="NUL" horiz-adv-x="0" 
 />
    <glyph glyph-name="CR" horiz-adv-x="655" 
 />
    <glyph glyph-name="Q.alt" horiz-adv-x="1826" 
d="M1374 -215l-229 223q-106 -33 -234 -33q-169 0 -316.5 60.5t-250.5 163.5t-162 244t-59 298v4q0 156 60 297.5t163.5 246t252 166t316.5 61.5q169 0 316.5 -60.5t250.5 -163.5t162.5 -244t59.5 -298v-5q0 -165 -64 -311t-182 -252l387 -387v-10h-471zM915 264
q199 0 329 138.5t130 338.5v4q0 199 -132.5 340.5t-330.5 141.5q-199 0 -328.5 -138.5t-129.5 -338.5v-5q0 -131 58 -240.5t164.5 -175t239.5 -65.5z" />
    <glyph glyph-name="a.alt" horiz-adv-x="1452" 
d="M625 -23q-101 0 -194 39.5t-166 112t-117 186.5t-44 252v4q0 137 43.5 250t116 186t166 112.5t195.5 39.5q121 0 206.5 -46.5t153.5 -127.5v154h311v-1139h-311v168q-140 -191 -360 -191zM702 244q120 0 203.5 90t83.5 233v4q0 143 -83.5 233.5t-203.5 90.5
q-121 0 -203.5 -89.5t-82.5 -234.5v-4q0 -143 83 -233t203 -90z" />
    <glyph glyph-name="uni039E.alt" horiz-adv-x="1591" 
d="M1468 279v-279h-1345v279h522v333h-459v277h459v323h-512v279h1325v-279h-512v-323h459v-277h-459v-333h522z" />
    <glyph glyph-name="uni0424.bgr" horiz-adv-x="2115" 
d="M899 -213v211q-176 10 -321.5 69.5t-245 157t-154.5 230.5t-55 286v4q0 309 213 516t563 232v211h315v-211q234 -13 411 -112t271.5 -262.5t94.5 -368.5v-5q0 -152 -56 -285.5t-156.5 -232t-246 -159t-318.5 -70.5v-211h-315zM449 750v-5q0 -193 123 -321.5t337 -140.5
v923q-216 -12 -338 -136.5t-122 -319.5zM1665 741v4q0 194 -123.5 321.5t-337.5 139.5v-923q217 12 339 136.5t122 321.5z" />
    <glyph glyph-name="uni0432.bgr" horiz-adv-x="1404" 
d="M137 563v445q0 265 151 413t425 148q243 0 385.5 -118t142.5 -314v-2q0 -143 -74.5 -232t-199.5 -129q163 -40 247 -129t84 -244v-2q0 -189 -155.5 -306.5t-403.5 -117.5q-288 0 -445 144.5t-157 443.5zM618 655h-172v-90q0 -165 70.5 -249.5t222.5 -84.5q116 0 185 56.5
t69 144.5q0 112 -90.5 167.5t-284.5 55.5zM446 1010v-136h170q153 0 237.5 62.5t84.5 173.5q0 90 -59.5 146.5t-163.5 56.5q-128 0 -198.5 -81t-70.5 -222z" />
    <glyph glyph-name="uni0433.bgr" horiz-adv-x="1128" 
d="M494 -20q-184 0 -295 87t-111 244v4q0 139 91 223.5t286 143.5q164 52 213 78t49 69v2q0 38 -31.5 61.5t-91.5 22.5q-147 0 -356 -118l-119 213q232 145 479 145q194 0 297 -89t103 -245v-4q0 -59 -17 -106.5t-46.5 -82.5t-79 -65.5t-104 -52.5t-132.5 -47
q-112 -37 -166 -60.5t-74 -44.5t-20 -51v-2q0 -86 131 -86q169 0 415 152l129 -207q-270 -184 -550 -184z" />
    <glyph glyph-name="uni0434.bgr" horiz-adv-x="1452" 
d="M666 -344q-285 0 -504 121l106 233q96 -54 187 -80t202 -26q332 0 332 317v62q-78 -95 -166 -143t-211 -48q-100 0 -191.5 36.5t-162 102.5t-112.5 168.5t-42 225.5v4q0 122 42 224t113 168t162 102t191 36q124 0 211 -45.5t162 -128.5v154h311v-887q0 -300 -145 -445
q-151 -151 -485 -151zM700 350q123 0 206 77.5t83 197.5v4q0 121 -82.5 196.5t-206.5 75.5q-123 0 -203.5 -75.5t-80.5 -196.5v-4q0 -122 80.5 -198.5t203.5 -76.5z" />
    <glyph glyph-name="uni0436.bgr" horiz-adv-x="1943" 
d="M1122 1554l-4 -847h94l332 432h361l-459 -555l477 -584h-362l-347 442h-96l4 -442h-301l2 442h-96l-344 -442h-363l478 567l-459 572h364l332 -432h88l-2 847h301z" />
    <glyph glyph-name="uni0438.bgr" horiz-adv-x="1341" 
d="M537 -23q-185 0 -287.5 113.5t-102.5 312.5v736h310v-637q0 -118 53 -180t152 -62q100 0 156 62.5t56 179.5v637h312v-1139h-312v164q-68 -88 -146 -137.5t-191 -49.5z" />
    <glyph glyph-name="uni0439.bgr" horiz-adv-x="1341" 
d="M537 -23q-185 0 -287.5 113.5t-102.5 312.5v736h310v-637q0 -118 53 -180t152 -62q100 0 156 62.5t56 179.5v637h312v-1139h-312v164q-68 -88 -146 -137.5t-191 -49.5zM666 1264q-168 0 -274.5 87t-119.5 244h209q46 -129 185 -129q138 0 184 129h209q-13 -157 -119 -244
t-274 -87z" />
    <glyph glyph-name="uni043A.bgr" horiz-adv-x="1298" 
d="M467 1554v-845h88l330 430h379l-467 -557l483 -582h-371l-352 440h-90v-440h-311v1554h311z" />
    <glyph glyph-name="uni043F.bgr" horiz-adv-x="1341" 
d="M156 0v1139h311v-164q134 184 338 184q185 0 288 -112.5t103 -311.5v-735h-311v637q0 118 -53 180t-152 62q-100 0 -156.5 -62.5t-56.5 -179.5v-637h-311z" />
    <glyph glyph-name="uni0442.bgr" horiz-adv-x="2039" 
d="M156 0v1139h311v-164q134 184 338 184q230 0 323 -184q149 184 377 184q185 0 286 -107.5t101 -314.5v-737h-311v637q0 119 -50 180.5t-147 61.5q-95 0 -149.5 -62.5t-54.5 -179.5v-637h-312v637q0 118 -51 180t-145 62q-95 0 -150 -63.5t-55 -178.5v-637h-311z" />
    <glyph glyph-name="uni0446.bgr" horiz-adv-x="1394" 
d="M537 -23q-185 0 -287.5 113.5t-102.5 312.5v736h310v-637q0 -118 53 -180t152 -62q100 0 156 62.5t56 179.5v637h312v-858h149v-555h-280v274h-181v164q-68 -88 -146 -137.5t-191 -49.5z" />
    <glyph glyph-name="uni0448.bgr" horiz-adv-x="2039" 
d="M1884 1139v-1139h-311v164q-31 -40 -62 -70.5t-72.5 -58.5t-93 -43t-110.5 -15q-113 0 -196 48.5t-128 136.5q-155 -185 -376 -185q-185 0 -286.5 108.5t-101.5 313.5v740h312v-637q0 -242 196 -242q96 0 150.5 61.5t54.5 180.5v637h311v-639q0 -117 51 -178.5t146 -61.5
t150 62.5t55 179.5v637h311z" />
    <glyph glyph-name="uni0449.bgr" horiz-adv-x="2093" 
d="M1751 -274v274h-178v164q-31 -40 -62 -70.5t-72.5 -58.5t-93 -43t-110.5 -15q-113 0 -196 48.5t-128 136.5q-155 -185 -376 -185q-185 0 -286.5 108.5t-101.5 313.5v740h312v-637q0 -242 196 -242q96 0 150.5 61.5t54.5 180.5v637h311v-639q0 -117 51 -178.5t146 -61.5
t150 62.5t55 179.5v637h311v-858h148v-555h-281z" />
    <glyph glyph-name="uni044E.bgr" horiz-adv-x="1935" 
d="M1235 -25q-218 0 -378.5 127.5t-205.5 327.5h-184v-430h-311v1554h311v-837h188q50 194 210.5 318t373.5 124q167 0 304 -78.5t214.5 -213.5t77.5 -296v-4q0 -121 -46 -230.5t-125.5 -189t-191 -126t-237.5 -46.5zM1239 242q130 0 209.5 93t79.5 228v4q0 133 -83.5 228.5
t-209.5 95.5q-130 0 -210.5 -93t-80.5 -227v-4q0 -133 84 -229t211 -96z" />
    <glyph glyph-name="aacute.alt" horiz-adv-x="1452" 
d="M618 1268l234 370l270 -116l-274 -254h-230zM625 -23q-101 0 -194 39.5t-166 112t-117 186.5t-44 252v4q0 137 43.5 250t116 186t166 112.5t195.5 39.5q121 0 206.5 -46.5t153.5 -127.5v154h311v-1139h-311v168q-140 -191 -360 -191zM702 244q120 0 203.5 90t83.5 233v4
q0 143 -83.5 233.5t-203.5 90.5q-121 0 -203.5 -89.5t-82.5 -234.5v-4q0 -143 83 -233t203 -90z" />
    <glyph glyph-name="abreve.alt" horiz-adv-x="1452" 
d="M625 -23q-101 0 -194 39.5t-166 112t-117 186.5t-44 252v4q0 137 43.5 250t116 186t166 112.5t195.5 39.5q121 0 206.5 -46.5t153.5 -127.5v154h311v-1139h-311v168q-140 -191 -360 -191zM702 244q120 0 203.5 90t83.5 233v4q0 143 -83.5 233.5t-203.5 90.5
q-121 0 -203.5 -89.5t-82.5 -234.5v-4q0 -143 83 -233t203 -90zM741 1264q-168 0 -274 87t-119 244h209q46 -129 184 -129q139 0 185 129h209q-13 -157 -119.5 -244t-274.5 -87z" />
    <glyph glyph-name="acircumflex.alt" horiz-adv-x="1452" 
d="M336 1268l258 329h295l258 -329h-240l-168 141l-168 -141h-235zM625 -23q-101 0 -194 39.5t-166 112t-117 186.5t-44 252v4q0 137 43.5 250t116 186t166 112.5t195.5 39.5q121 0 206.5 -46.5t153.5 -127.5v154h311v-1139h-311v168q-140 -191 -360 -191zM702 244
q120 0 203.5 90t83.5 233v4q0 143 -83.5 233.5t-203.5 90.5q-121 0 -203.5 -89.5t-82.5 -234.5v-4q0 -143 83 -233t203 -90z" />
    <glyph glyph-name="adieresis.alt" horiz-adv-x="1452" 
d="M809 1268v280h301v-280h-301zM373 1268v280h301v-280h-301zM625 -23q-101 0 -194 39.5t-166 112t-117 186.5t-44 252v4q0 137 43.5 250t116 186t166 112.5t195.5 39.5q121 0 206.5 -46.5t153.5 -127.5v154h311v-1139h-311v168q-140 -191 -360 -191zM702 244
q120 0 203.5 90t83.5 233v4q0 143 -83.5 233.5t-203.5 90.5q-121 0 -203.5 -89.5t-82.5 -234.5v-4q0 -143 83 -233t203 -90z" />
    <glyph glyph-name="agrave.alt" horiz-adv-x="1452" 
d="M625 -23q-101 0 -194 39.5t-166 112t-117 186.5t-44 252v4q0 137 43.5 250t116 186t166 112.5t195.5 39.5q121 0 206.5 -46.5t153.5 -127.5v154h311v-1139h-311v168q-140 -191 -360 -191zM702 244q120 0 203.5 90t83.5 233v4q0 143 -83.5 233.5t-203.5 90.5
q-121 0 -203.5 -89.5t-82.5 -234.5v-4q0 -143 83 -233t203 -90zM635 1268l-275 254l271 116l233 -370h-229z" />
    <glyph glyph-name="amacron.alt" horiz-adv-x="1452" 
d="M625 -23q-101 0 -194 39.5t-166 112t-117 186.5t-44 252v4q0 137 43.5 250t116 186t166 112.5t195.5 39.5q121 0 206.5 -46.5t153.5 -127.5v154h311v-1139h-311v168q-140 -191 -360 -191zM702 244q120 0 203.5 90t83.5 233v4q0 143 -83.5 233.5t-203.5 90.5
q-121 0 -203.5 -89.5t-82.5 -234.5v-4q0 -143 83 -233t203 -90zM362 1280v217h758v-217h-758z" />
    <glyph glyph-name="aogonek.alt" horiz-adv-x="1452" 
d="M1319 -211v-139q-22 -4 -90 -4q-135 0 -210 50.5t-75 131.5q0 85 74 172h-33v168q-140 -191 -360 -191q-101 0 -194 39.5t-166 112t-117 186.5t-44 252v4q0 137 43.5 250t116 186t166 112.5t195.5 39.5q121 0 206.5 -46.5t153.5 -127.5v154h311v-1139h-71
q-56 -64 -56 -123q0 -91 150 -88zM702 244q120 0 203.5 90t83.5 233v4q0 143 -83.5 233.5t-203.5 90.5q-121 0 -203.5 -89.5t-82.5 -234.5v-4q0 -143 83 -233t203 -90z" />
    <glyph glyph-name="aring.alt" horiz-adv-x="1452" 
d="M741 1264q-105 0 -180.5 71.5t-75.5 173.5t75.5 175t180.5 73t180.5 -73t75.5 -175t-75.5 -173.5t-180.5 -71.5zM741 1368q59 0 100.5 41.5t41.5 99.5q0 60 -41 101t-101 41t-100.5 -41t-40.5 -101q0 -58 41 -99.5t100 -41.5zM625 -23q-101 0 -194 39.5t-166 112
t-117 186.5t-44 252v4q0 137 43.5 250t116 186t166 112.5t195.5 39.5q121 0 206.5 -46.5t153.5 -127.5v154h311v-1139h-311v168q-140 -191 -360 -191zM702 244q120 0 203.5 90t83.5 233v4q0 143 -83.5 233.5t-203.5 90.5q-121 0 -203.5 -89.5t-82.5 -234.5v-4
q0 -143 83 -233t203 -90z" />
    <glyph glyph-name="aring.alt2" horiz-adv-x="1275" 
d="M481 -23q-168 0 -281.5 94t-113.5 257v4q0 180 125 271t336 91q147 0 284 -45v21q0 105 -63.5 160t-187.5 55q-147 0 -318 -64l-78 238q129 61 262 80q-61 67 -61 155q0 102 75.5 175t180.5 73t180.5 -73t75.5 -175q0 -98 -76 -168q119 -34 187 -102q122 -122 122 -360
v-664h-301v127q-136 -150 -348 -150zM573 195q117 0 190 58t73 150v62q-98 43 -218 43q-109 0 -170 -43t-61 -121v-4q0 -68 51.5 -106.5t134.5 -38.5zM500 1294q0 -59 41.5 -100t99.5 -41q60 0 100.5 40.5t40.5 100.5t-40.5 101t-100.5 41q-58 0 -99.5 -41.5t-41.5 -100.5z
" />
    <glyph glyph-name="aringacute.alt" horiz-adv-x="1452" 
d="M741 1264q-105 0 -180.5 71.5t-75.5 173.5t75.5 175t180.5 73t180.5 -73t75.5 -175t-75.5 -173.5t-180.5 -71.5zM741 1368q59 0 100.5 41.5t41.5 99.5q0 60 -41 101t-101 41t-100.5 -41t-40.5 -101q0 -58 41 -99.5t100 -41.5zM625 -23q-101 0 -194 39.5t-166 112
t-117 186.5t-44 252v4q0 137 43.5 250t116 186t166 112.5t195.5 39.5q121 0 206.5 -46.5t153.5 -127.5v154h311v-1139h-311v168q-140 -191 -360 -191zM702 244q120 0 203.5 90t83.5 233v4q0 143 -83.5 233.5t-203.5 90.5q-121 0 -203.5 -89.5t-82.5 -234.5v-4
q0 -143 83 -233t203 -90zM616 1829l250 309l267 -119l-287 -190h-230z" />
    <glyph glyph-name="aringacute.alt2" horiz-adv-x="1275" 
d="M481 -23q-168 0 -281.5 94t-113.5 257v4q0 180 125 271t336 91q147 0 284 -45v21q0 105 -63.5 160t-187.5 55q-147 0 -318 -64l-78 238q129 61 262 80q-61 67 -61 155q0 102 75.5 175t180.5 73t180.5 -73t75.5 -175q0 -98 -76 -168q119 -34 187 -102q122 -122 122 -360
v-664h-301v127q-136 -150 -348 -150zM573 195q117 0 190 58t73 150v62q-98 43 -218 43q-109 0 -170 -43t-61 -121v-4q0 -68 51.5 -106.5t134.5 -38.5zM500 1294q0 -59 41.5 -100t99.5 -41q60 0 100.5 40.5t40.5 100.5t-40.5 101t-100.5 41q-58 0 -99.5 -41.5t-41.5 -100.5z
M516 1618l250 309l266 -119l-287 -190h-229z" />
    <glyph glyph-name="atilde.alt" horiz-adv-x="1452" 
d="M625 -23q-101 0 -194 39.5t-166 112t-117 186.5t-44 252v4q0 137 43.5 250t116 186t166 112.5t195.5 39.5q121 0 206.5 -46.5t153.5 -127.5v154h311v-1139h-311v168q-140 -191 -360 -191zM702 244q120 0 203.5 90t83.5 233v4q0 143 -83.5 233.5t-203.5 90.5
q-121 0 -203.5 -89.5t-82.5 -234.5v-4q0 -143 83 -233t203 -90zM924 1268q-79 0 -191 47q-95 35 -125 35q-47 0 -71.5 -23.5t-49.5 -81.5l-168 51q40 145 99 217t162 72q78 0 190 -47q8 -3 27.5 -10.5t29 -10.5t23.5 -7.5t25 -6.5t20 -2q47 0 71.5 24t49.5 83l168 -52
q-40 -145 -98.5 -216.5t-161.5 -71.5z" />
    <glyph glyph-name="i.dot" horiz-adv-x="653" 
d="M162 1274v278h327v-278h-327zM172 0v1139h309v-1139h-309z" />
    <glyph glyph-name="uni0386.calt" horiz-adv-x="1699" 
d="M61 0l644 1501h290l641 -1501h-329l-140 340h-645l-139 -340h-322zM635 618h420l-209 506z" />
    <glyph glyph-name="uni0388.calt" horiz-adv-x="1443" 
d="M190 0v1491h1121v-281h-809v-319h712v-281h-712v-329h819v-281h-1131z" />
    <glyph glyph-name="uni0389.calt" horiz-adv-x="1634" 
d="M190 0v1491h314v-596h626v596h316v-1491h-316v604h-626v-604h-314z" />
    <glyph glyph-name="uni038A.calt" horiz-adv-x="724" 
d="M205 0v1491h315v-1491h-315z" />
    <glyph glyph-name="uni038C.calt" horiz-adv-x="1826" 
d="M911 -25q-169 0 -316.5 60.5t-250.5 163.5t-162 244t-59 298v4q0 156 60 297.5t163.5 246t252 166t316.5 61.5q169 0 316.5 -60.5t250.5 -163.5t162.5 -244t59.5 -298v-5q0 -156 -60 -297.5t-164 -245.5t-252.5 -165.5t-316.5 -61.5zM915 264q199 0 329 138.5t130 338.5
v4q0 199 -132.5 340.5t-330.5 141.5q-199 0 -328.5 -138.5t-129.5 -338.5v-5q0 -131 58 -240.5t164.5 -175t239.5 -65.5z" />
    <glyph glyph-name="uni038E.calt" horiz-adv-x="1542" 
d="M612 0v588l-575 903h369l366 -610l375 610h358l-577 -897v-594h-316z" />
    <glyph glyph-name="uni038F.calt" horiz-adv-x="1869" 
d="M936 1516q177 0 322.5 -52.5t242.5 -145t150 -218t53 -271.5v-2q0 -330 -311 -559h346v-268h-660v264q67 47 115.5 93.5t91.5 109t65.5 143t22.5 176.5v2q0 197 -118 318t-324 121q-201 0 -318.5 -119t-117.5 -311v-2q0 -176 75.5 -302.5t216.5 -228.5v-264h-657v268h344
q-144 108 -226.5 243t-82.5 318v2q0 138 53 262t149.5 218t243.5 149.5t324 55.5z" />
    <glyph glyph-name="uni0399.calt" horiz-adv-x="724" 
d="M205 0v1491h315v-1491h-315zM442 1610v264h303v-264h-303zM-16 1610v264h303v-264h-303z" />
    <glyph glyph-name="uni03A5.calt" horiz-adv-x="1542" 
d="M612 0v588l-575 903h369l366 -610l375 610h358l-577 -897v-594h-316zM848 1610v264h303v-264h-303zM389 1610v264h303v-264h-303z" />
    <glyph glyph-name="uni0431.srb" horiz-adv-x="1396" 
d="M1161 1554v-264l-573 4q-68 0 -68 -43q0 -12 8.5 -22t17 -16t34.5 -21l297 -145q102 -49 175 -99.5t130 -114t85.5 -141t28.5 -170.5v-2q0 -112 -43.5 -212t-121 -173.5t-192 -116.5t-249.5 -43q-256 0 -423 154.5t-167 386.5v2q0 188 107 314.5t303 162.5l-47 25
q-60 32 -98 58t-73 61t-51 77t-16 95q0 106 90.5 174.5t272.5 68.5h573zM700 238q134 0 214.5 77.5t80.5 206.5v2q0 126 -86.5 206.5t-210.5 80.5q-132 0 -213.5 -84.5t-81.5 -204.5v-2q0 -124 83.5 -203t213.5 -79z" />
    <glyph glyph-name="three.alt" horiz-adv-x="1323" 
d="M676 -25q-358 0 -588 254l211 205q163 -178 381 -178q110 0 169.5 48.5t59.5 135.5v4q0 85 -76.5 131t-214.5 46h-163v262h172q114 0 177.5 50t63.5 130v4q0 75 -59.5 121.5t-163.5 46.5q-91 0 -162 -44t-149 -132l-217 182q106 136 229.5 205.5t302.5 69.5
q237 0 383 -112t146 -288v-4q0 -238 -201 -346q116 -51 179 -126.5t63 -199.5v-4q0 -202 -145 -331.5t-398 -129.5z" />
    <glyph glyph-name="registered.alt" horiz-adv-x="1783" 
d="M891 -25q-213 0 -390.5 103.5t-278.5 279.5t-101 383v4q0 155 60.5 297t163.5 246t247 166t303 62q212 0 389 -103.5t278 -279.5t101 -383v-5q0 -207 -101.5 -384t-279.5 -281.5t-391 -104.5zM891 57q190 0 347.5 93t247 251t89.5 344v5q0 187 -89 344t-245.5 248.5
t-345.5 91.5q-144 0 -272 -55t-218.5 -148t-143 -219.5t-52.5 -266.5v-4q0 -187 89 -344t246 -248.5t347 -91.5zM575 358v818h365q163 0 252 -89q68 -68 68 -176v-4q0 -185 -181 -252l205 -297h-205l-180 269h-147v-269h-177zM752 778h184q71 0 108 32t37 87v4q0 59 -39 90
t-108 31h-182v-244z" />
    <glyph glyph-name="one.sup_alt" 
d="M758 895h-606v156h225v495l-193 -71l-51 147l289 115h133v-686h203v-156z" />
    <glyph glyph-name="one.inf_alt" 
d="M758 -279h-606v156h225v496l-193 -72l-51 148l289 114h133v-686h203v-156z" />
    <glyph glyph-name="zero.num" 
d="M428 639q-149 0 -247.5 118t-98.5 312v10q0 197 98.5 314.5t249.5 117.5q147 0 247.5 -117.5t100.5 -312.5v-10q0 -195 -101.5 -313.5t-248.5 -118.5zM428 1343q-70 0 -115 -66.5t-45 -193.5v-16q0 -125 45.5 -191.5t116.5 -66.5t116.5 65.5t45.5 192.5v16
q0 125 -47 192.5t-117 67.5z" />
    <glyph glyph-name="one.num" horiz-adv-x="700" 
d="M492 662h-179v651l-161 -62l-52 150l258 100h134v-839z" />
    <glyph glyph-name="one.num_alt" 
d="M758 662h-606v155h225v496l-193 -74l-51 150l289 112h133v-684h203v-155z" />
    <glyph glyph-name="two.num" 
d="M117 662v153l284 234q81 66 112.5 106.5t31.5 87.5q0 46 -33 74.5t-82 28.5q-52 0 -95.5 -28.5t-88.5 -86.5l-129 104q66 90 139 133t184 43q133 0 213 -69t80 -182q0 -85 -38.5 -145.5t-137.5 -141.5l-197 -156h377v-155h-620z" />
    <glyph glyph-name="three.num" 
d="M422 639q-185 0 -330 131l105 133q111 -100 227 -100q53 0 91 29t38 77q0 53 -42 80t-116 27h-98l-29 112l226 201h-347v162h574v-139l-240 -207q112 -8 183 -66.5t71 -163.5q0 -124 -84 -200t-229 -76z" />
    <glyph glyph-name="four.num" 
d="M670 831v-174h-164v174h-402l-16 173l401 495h181v-524h112v-144h-112zM508 973v330l-264 -330h264z" />
    <glyph glyph-name="five.num" 
d="M420 639q-175 0 -326 121l105 137q120 -90 225 -90q64 0 104.5 32t40.5 85q0 54 -40.5 84t-110.5 30q-91 0 -156 -30l-112 67l32 416h527v-164h-377l-15 -156q63 19 140 19q129 0 211 -67t82 -191q0 -135 -89 -214t-241 -79z" />
    <glyph glyph-name="six.num" 
d="M434 639q-139 0 -225 86q-52 52 -80.5 128t-28.5 198v4q0 214 94 335t273 121q83 0 138 -19t112 -62l-86 -144q-80 64 -168 64q-72 0 -119 -54t-55 -145q74 49 178 49q119 0 198.5 -69t79.5 -197q0 -130 -87.5 -212.5t-223.5 -82.5zM430 793q61 0 101 36t40 95
q0 63 -37.5 99t-103.5 36q-67 0 -106 -35t-39 -100v-2q0 -55 42.5 -93t102.5 -36z" />
    <glyph glyph-name="seven.num" 
d="M375 657h-203l356 666h-389v168h596v-139z" />
    <glyph glyph-name="eight.num" 
d="M430 639q-143 0 -231 67.5t-88 182.5q0 143 133 205q-113 67 -113 186q0 100 82.5 165.5t216.5 65.5q133 0 215 -65.5t82 -165.5q0 -67 -29 -110.5t-84 -75.5q136 -71 136 -203q0 -116 -89 -184t-231 -68zM430 1370q-59 0 -95 -30t-36 -78q0 -50 36.5 -80.5t94.5 -30.5
q57 0 93 29t36 82q0 47 -36 77.5t-93 30.5zM430 1014q-68 0 -109.5 -30.5t-41.5 -84.5q0 -55 40 -87t111 -32q68 0 108 32t40 87q0 54 -41.5 84.5t-106.5 30.5z" />
    <glyph glyph-name="nine.num" 
d="M426 1511q141 0 225 -84q109 -109 109 -325v-4q0 -214 -94 -336.5t-273 -122.5q-140 0 -264 88l86 145q82 -69 182 -69q72 0 118 51t54 137q-39 -25 -76.5 -37t-95.5 -12q-118 0 -200 70t-82 200q0 131 87.5 215t223.5 84zM430 1085q67 0 106 36.5t39 101.5v2
q0 59 -42 98t-103 37q-61 0 -101 -38t-40 -99q0 -63 37.5 -100.5t103.5 -37.5z" />
    <glyph glyph-name="zero.den" 
d="M428 -20q-150 0 -248 116.5t-98 313.5v10q0 197 98.5 314.5t249.5 117.5q147 0 247.5 -118.5t100.5 -311.5v-10q0 -195 -101.5 -313.5t-248.5 -118.5zM428 682q-70 0 -115 -65.5t-45 -192.5v-16q0 -125 45.5 -193t116.5 -68q70 0 116 67t46 194v16q0 124 -47 191t-117 67
z" />
    <glyph glyph-name="one.den" horiz-adv-x="700" 
d="M492 0h-179v651l-161 -59l-52 147l258 103h134v-842z" />
    <glyph glyph-name="one.den_alt" 
d="M758 0h-606v156h225v495l-193 -71l-51 147l289 115h133v-686h203v-156z" />
    <glyph glyph-name="two.den" 
d="M117 0v154l284 233q80 66 112 107.5t32 89.5q0 46 -33 73t-82 27q-52 0 -95.5 -28.5t-88.5 -86.5l-129 105q66 91 139 134.5t184 43.5q133 0 213 -69.5t80 -182.5q0 -86 -39 -148t-137 -139l-197 -155h377v-158h-620z" />
    <glyph glyph-name="three.den" 
d="M422 -20q-187 0 -330 129l105 133q112 -101 227 -101q52 0 90.5 30.5t38.5 76.5q0 53 -42 79.5t-116 26.5h-98l-29 113l226 203h-347v159h574v-139l-240 -205q114 -11 184 -68.5t70 -162.5q0 -124 -84 -199t-229 -75z" />
    </font>
</defs>
</svg>
