<?xml version="1.0" standalone="no"?>
<!DOCTYPE svg PUBLIC "-//W3C//DTD SVG 1.1//EN" "http://www.w3.org/Graphics/SVG/1.1/DTD/svg11.dtd" >
<svg xmlns="http://www.w3.org/2000/svg" xmlns:xlink="http://www.w3.org/1999/xlink" version="1.1">
<metadata>
Created by FontForge 20201107 at Mon Apr  7 19:28:48 2025
 By 
Copyright (C) 2001, 2010 Hoefler &#38; Co. http://www.typography.com |DCNT
</metadata>
<defs>
<font id="GothamSSm-BoldItalic" horiz-adv-x="1085" >
  <font-face 
    font-family="GothamSSm"
    font-weight="700"
    font-style="italic"
    font-stretch="normal"
    units-per-em="2048"
    panose-1="0 0 0 0 0 0 0 0 0 0"
    ascent="1638"
    descent="-410"
    x-height="1139"
    cap-height="1491"
    bbox="-680 -621 2656 2163"
    underline-thickness="102"
    underline-position="-204"
    slope="-15"
    unicode-range="U+0020-FB04"
  />
<missing-glyph horiz-adv-x="1024" 
d="M0 -410v2048h1024v-2048h-1024zM102 -156l353 770l-353 770v-1540zM145 -307h734l-367 799zM512 737l367 799h-734zM922 -156v1540l-353 -770z" />
    <glyph glyph-name="f_f" unicode="ff" horiz-adv-x="1759" 
d="M63 0l234 872h-135l71 267h136l12 51q43 172 133 262q117 117 328 117q136 0 221 -33l-68 -258q-76 29 -145 29q-127 0 -164 -131l-10 -37h282l-71 -267h-279l-233 -872h-312zM932 0l233 872h-135l72 267h135l12 51q43 172 133 262q117 117 328 117q136 0 221 -33
l-67 -258q-76 29 -146 29q-127 0 -164 -131l-10 -37h283l-72 -267h-278l-234 -872h-311z" />
    <glyph glyph-name="fi" unicode="fi" horiz-adv-x="1525" 
d="M889 0l305 1139h311l-305 -1139h-311zM1223 1274l75 278h328l-76 -278h-327zM63 0l234 872h-135l71 267h136l12 51q43 172 133 262q117 117 328 117q136 0 221 -33l-68 -258q-76 29 -145 29q-127 0 -164 -131l-10 -37h282l-71 -267h-279l-233 -872h-312z" />
    <glyph glyph-name="fl" unicode="fl" horiz-adv-x="1525" 
d="M889 0l418 1554h309l-416 -1554h-311zM63 0l234 872h-135l71 267h136l12 51q43 172 133 262q117 117 328 117q136 0 221 -33l-68 -258q-76 29 -145 29q-127 0 -164 -131l-10 -37h282l-71 -267h-279l-233 -872h-312z" />
    <glyph glyph-name="f_f_i" unicode="ffi" horiz-adv-x="2396" 
d="M1759 0l305 1139h312l-305 -1139h-312zM2093 1274l76 278h328l-76 -278h-328zM63 0l234 872h-135l71 267h136l12 51q43 172 133 262q117 117 328 117q136 0 221 -33l-68 -258q-76 29 -145 29q-127 0 -164 -131l-10 -37h282l-71 -267h-279l-233 -872h-312zM932 0l233 872
h-135l72 267h135l12 51q43 172 133 262q117 117 328 117q136 0 221 -33l-67 -258q-76 29 -146 29q-127 0 -164 -131l-10 -37h283l-72 -267h-278l-234 -872h-311z" />
    <glyph glyph-name="f_f_l" unicode="ffl" horiz-adv-x="2396" 
d="M1759 0l418 1554h309l-415 -1554h-312zM63 0l234 872h-135l71 267h136l12 51q43 172 133 262q117 117 328 117q136 0 221 -33l-68 -258q-76 29 -145 29q-127 0 -164 -131l-10 -37h282l-71 -267h-279l-233 -872h-312zM932 0l233 872h-135l72 267h135l12 51q43 172 133 262
q117 117 328 117q136 0 221 -33l-67 -258q-76 29 -146 29q-127 0 -164 -131l-10 -37h283l-72 -267h-278l-234 -872h-311z" />
    <glyph glyph-name=".notdef" horiz-adv-x="1024" 
d="M0 -410v2048h1024v-2048h-1024zM102 -156l353 770l-353 770v-1540zM145 -307h734l-367 799zM512 737l367 799h-734zM922 -156v1540l-353 -770z" />
    <glyph glyph-name=".null" horiz-adv-x="0" 
 />
    <glyph glyph-name="nonmarkingreturn" horiz-adv-x="682" 
 />
    <glyph glyph-name="space" unicode=" " horiz-adv-x="651" 
 />
    <glyph glyph-name="exclam" unicode="!" horiz-adv-x="702" 
d="M246 500l155 942l15 49h364l-14 -49l-348 -942h-172zM31 0l90 332h332l-88 -332h-334z" />
    <glyph glyph-name="quotedbl" unicode="&#x22;" horiz-adv-x="1130" 
d="M221 819l180 672h349l-5 -10l-362 -662h-162zM729 819l180 672h348l-4 -10l-362 -662h-162z" />
    <glyph glyph-name="numbersign" unicode="#" horiz-adv-x="1490" 
d="M102 0l113 324h-178l69 262h201l113 327h-205l70 263h227l111 315h270l-111 -315h316l110 315h271l-111 -315h180l-69 -263h-203l-113 -327h207l-70 -262h-229l-110 -324h-273l113 324h-316l-112 -324h-271zM578 586h315l113 327h-316z" />
    <glyph glyph-name="dollar" unicode="$" horiz-adv-x="1372" 
d="M905 1614h215l-45 -152q190 -48 330 -192l-211 -209q-100 92 -205 133l-100 -334q83 -30 142.5 -63.5t107.5 -80t72 -109.5t24 -142q0 -136 -79.5 -243t-214.5 -164.5t-302 -57.5h-4l-64 -209h-215l70 229q-274 53 -426 254l229 193q121 -139 283 -182l106 348
q-87 33 -143.5 63t-108.5 75.5t-77 108.5t-25 146q0 132 76.5 238.5t210 166.5t295.5 60h20zM586 1059q0 -42 27 -71.5t98 -59.5l86 293h-2q-102 -4 -158 -51t-51 -111zM911 432q0 43 -26 73.5t-88 59.5l-90 -295h2q95 8 150.5 50t51.5 112z" />
    <glyph glyph-name="percent" unicode="%" horiz-adv-x="1888" 
d="M516 737q-147 0 -236.5 90.5t-89.5 235.5q0 192 136 328q116 116 276 116q147 0 237.5 -90t90.5 -235q0 -91 -35.5 -176t-99.5 -152q-117 -117 -279 -117zM528 918q68 0 117 49q38 38 60 94.5t22 112.5q0 72 -37 113.5t-100 41.5t-117 -51q-36 -38 -58 -94.5t-22 -110.5
q0 -72 36 -113.5t99 -41.5zM139 0l715 743l719 748h268l-717 -743l-716 -748h-269zM1376 -16q-147 0 -236 90t-89 235q0 193 135 328q117 117 278 117q147 0 236.5 -90.5t89.5 -235.5q0 -193 -135 -328q-116 -116 -279 -116zM1389 162q65 0 116 51q38 38 60 94t22 111
q0 72 -36.5 113.5t-98.5 41.5q-68 0 -117 -49q-38 -38 -60 -94.5t-22 -112.5q0 -72 37 -113.5t99 -41.5z" />
    <glyph glyph-name="ampersand" unicode="&#x26;" horiz-adv-x="1501" 
d="M1239 758l191 -133q-125 -189 -234 -306l150 -202l-232 -148l-123 168q-221 -157 -461 -157q-210 0 -340.5 106t-130.5 291q0 149 105 273t323 194q-79 130 -79 260q0 170 130.5 291t340.5 121q179 0 293 -100t114 -255q0 -58 -20 -112t-65 -109t-127.5 -104.5
t-196.5 -87.5l176 -238q107 123 186 248zM565 238q139 0 285 98l-238 328q-129 -49 -192.5 -119.5t-63.5 -149.5q0 -70 54.5 -113.5t154.5 -43.5zM684 1100q0 -77 64 -174q147 52 201.5 101t54.5 116q0 51 -37.5 89t-102.5 38q-82 0 -131 -49.5t-49 -120.5z" />
    <glyph glyph-name="quotesingle" unicode="'" horiz-adv-x="622" 
d="M221 819l180 672h349l-5 -10l-362 -662h-162z" />
    <glyph glyph-name="parenleft" unicode="(" horiz-adv-x="966" 
d="M721 -106l-193 -199q-389 312 -389 751q0 421 316 740q206 206 526 334l115 -232q-223 -99 -387 -260q-254 -254 -254 -571q0 -283 266 -563z" />
    <glyph glyph-name="parenright" unicode=")" horiz-adv-x="966" 
d="M268 1329l193 199q389 -312 389 -752q0 -422 -315 -737q-197 -200 -527 -336l-114 231q225 100 385 263q256 256 256 569q0 285 -267 563z" />
    <glyph glyph-name="asterisk" unicode="*" horiz-adv-x="935" 
d="M602 786l-164 43l97 240l-242 -96l-45 164l258 37l-205 159l123 123l160 -207l34 256l164 -43l-98 -239l242 96l45 -164l-258 -37l205 -160l-123 -122l-158 206z" />
    <glyph glyph-name="plus" unicode="+" horiz-adv-x="1380" 
d="M453 221l102 387h-389l76 283h389l104 387h291l-104 -387h391l-76 -283h-391l-103 -387h-290z" />
    <glyph glyph-name="comma" unicode="," horiz-adv-x="688" 
d="M-96 -338l-21 129q125 12 189 63.5t82 145.5h-127l88 332h334l-76 -281q-53 -200 -166 -291.5t-303 -97.5z" />
    <glyph glyph-name="hyphen" unicode="-" horiz-adv-x="897" 
d="M109 508l79 301h652l-82 -301h-649z" />
    <glyph glyph-name="period" unicode="." horiz-adv-x="688" 
d="M27 0l88 332h334l-91 -332h-331z" />
    <glyph glyph-name="slash" unicode="/" horiz-adv-x="1144" 
d="M-276 -272l1456 1972h293l-1455 -1972h-294z" />
    <glyph glyph-name="zero" unicode="0" horiz-adv-x="1572" 
d="M942 1516q261 0 418.5 -168.5t157.5 -446.5q0 -196 -74 -386t-209 -325q-215 -215 -514 -215q-262 0 -419 168t-157 447q0 196 74 385.5t209 324.5q216 216 514 216zM745 258q133 0 246 113q95 95 150 242t55 290q0 158 -74 244t-204 86q-133 0 -246 -113
q-94 -94 -148.5 -241t-54.5 -291q0 -158 73 -244t203 -86z" />
    <glyph glyph-name="one" unicode="1" horiz-adv-x="931" 
d="M213 0l311 1167l-272 -63l-4 268l463 129h215l-402 -1501h-311z" />
    <glyph glyph-name="two" unicode="2" horiz-adv-x="1325" 
d="M-53 0l69 258l762 528q114 81 166.5 147.5t52.5 137.5q0 75 -51 117.5t-143 42.5q-94 0 -180 -48t-181 -141l-192 201q237 268 567 268q227 0 365.5 -113t138.5 -294q0 -140 -77 -252t-271 -248l-477 -332h639l-74 -272h-1114z" />
    <glyph glyph-name="three" unicode="3" horiz-adv-x="1306" 
d="M526 -25q-199 0 -336.5 75t-212.5 208l234 172q63 -89 139.5 -131.5t190.5 -42.5q122 0 207.5 65.5t85.5 153.5q0 91 -78.5 137.5t-220.5 46.5h-91l-14 195l453 367h-580l76 270h1003l-65 -238l-492 -379q326 -74 326 -370q0 -205 -147 -346q-88 -88 -210 -135.5
t-268 -47.5z" />
    <glyph glyph-name="four" unicode="4" horiz-adv-x="1421" 
d="M688 0l86 324h-696l-33 233l1036 944h305l-245 -921h202l-69 -256h-203l-86 -324h-297zM444 580h400l133 501z" />
    <glyph glyph-name="five" unicode="5" horiz-adv-x="1318" 
d="M543 -25q-162 0 -316 76.5t-233 190.5l221 186q149 -168 354 -168q135 0 224.5 72t89.5 172q0 90 -72.5 144t-210.5 54q-102 0 -209 -49l-160 129l234 709h897l-76 -277h-614l-90 -270q93 19 159 19q205 0 335 -116.5t130 -307.5q0 -212 -157 -369q-195 -195 -506 -195z
" />
    <glyph glyph-name="six" unicode="6" horiz-adv-x="1390" 
d="M678 -25q-119 0 -219.5 35t-167.5 101q-152 155 -152 419q0 218 76.5 421t216.5 343q104 104 240.5 163t296.5 59q268 0 458 -175l-184 -225q-126 119 -301 119q-174 0 -295 -121q-112 -112 -160 -280q55 55 151 94t200 39q195 0 324.5 -112.5t129.5 -303.5
q0 -108 -45 -209.5t-125 -181.5q-185 -185 -444 -185zM678 240q127 0 219 88q78 78 78 180q0 92 -64 148.5t-168 56.5q-71 0 -130.5 -23.5t-98.5 -62.5q-76 -76 -76 -178q0 -85 60 -142q64 -67 180 -67z" />
    <glyph glyph-name="seven" unicode="7" horiz-adv-x="1312" 
d="M39 0l930 1219h-695l74 272h1067l-65 -238l-942 -1253h-369z" />
    <glyph glyph-name="eight" unicode="8" horiz-adv-x="1427" 
d="M649 -20q-156 0 -285 51t-206.5 147.5t-77.5 220.5q0 84 29 152.5t82 117.5t121 83t153 55q-87 42 -135.5 119t-48.5 170q0 76 36.5 148.5t104 132.5t176.5 97t242 37q231 0 378.5 -112t147.5 -287q0 -140 -87.5 -238t-242.5 -135q105 -40 167.5 -121.5t62.5 -197.5
q0 -85 -43 -164t-120.5 -140.5t-195.5 -98.5t-258 -37zM666 233q126 0 208.5 56t83.5 147q2 85 -74 138t-204 53t-209.5 -57t-83.5 -144q-2 -85 75 -139t204 -54zM815 881q110 0 183 56t73 138q2 77 -63.5 127.5t-182.5 50.5q-106 0 -178.5 -54t-73.5 -136
q-2 -79 64.5 -130.5t177.5 -51.5z" />
    <glyph glyph-name="nine" unicode="9" horiz-adv-x="1390" 
d="M528 -25q-280 0 -487 191l184 225q79 -67 153.5 -101t166.5 -34q172 0 297 125q101 101 151 260q-53 -55 -147 -93t-199 -38q-129 0 -230 46.5t-162.5 143.5t-61.5 232q0 236 165 401q183 183 449 183q112 0 217.5 -35t169.5 -99q78 -78 116 -183.5t38 -264.5
q0 -205 -78.5 -401t-220.5 -338q-220 -220 -521 -220zM745 764q138 0 224 86q75 78 75 186q0 99 -55 148q-67 67 -180 67q-133 0 -219 -86q-80 -80 -80 -192q0 -98 64.5 -153.5t170.5 -55.5z" />
    <glyph glyph-name="colon" unicode=":" horiz-adv-x="690" 
d="M27 0l90 332h332l-89 -332h-333zM244 807l88 332h334l-91 -332h-331z" />
    <glyph glyph-name="semicolon" unicode=";" horiz-adv-x="690" 
d="M-96 -338l-21 129q125 12 189 63.5t82 145.5h-127l90 332h332l-74 -281q-55 -201 -168.5 -292t-302.5 -97zM244 807l88 332h334l-91 -332h-331z" />
    <glyph glyph-name="less" unicode="&#x3c;" horiz-adv-x="1380" 
d="M1071 154l-905 454l74 283l1151 455l-84 -304l-809 -305l647 -305z" />
    <glyph glyph-name="equal" unicode="=" horiz-adv-x="1380" 
d="M127 334l76 282h1007l-75 -282h-1008zM274 883l76 282h1008l-76 -282h-1008z" />
    <glyph glyph-name="greater" unicode="&#x3e;" horiz-adv-x="1380" 
d="M80 154l84 303l811 305l-647 305l73 279l906 -455l-76 -283z" />
    <glyph glyph-name="question" unicode="?" horiz-adv-x="1177" 
d="M389 500l45 346l12 10q209 14 321 72t112 155q0 67 -47.5 104.5t-139.5 37.5q-160 0 -311 -131l-164 206q101 102 236.5 155.5t281.5 53.5q110 0 200.5 -31.5t149.5 -85t91 -122.5t32 -146q0 -190 -138.5 -309t-407.5 -160l-64 -155h-209zM199 0l90 332h332l-89 -332
h-333z" />
    <glyph glyph-name="at" unicode="@" horiz-adv-x="2107" 
d="M1016 -332q-194 0 -359.5 62t-281 170.5t-181 262.5t-65.5 333q0 203 81 391.5t219 328t331.5 223t406.5 83.5q194 0 358 -60t273 -161t169.5 -234t60.5 -279q0 -161 -42.5 -288.5t-114.5 -204.5t-160 -116.5t-185 -39.5q-108 0 -184 44.5t-109 123.5
q-76 -79 -158 -124.5t-186 -45.5q-147 0 -244.5 96.5t-97.5 264.5q0 123 46.5 233.5t121.5 186.5t170.5 120.5t193.5 44.5q104 0 171 -40t112 -113l41 135l229 -64l-159 -501q-25 -74 -25 -127q0 -65 38.5 -100t102.5 -35q59 0 119.5 36.5t112.5 102.5t85 174t33 237
q0 131 -54 249t-151.5 207t-244.5 141.5t-322 52.5q-196 0 -373.5 -77t-303.5 -205.5t-200.5 -301t-74.5 -358.5q0 -162 59 -300.5t163.5 -236t254 -152.5t324.5 -55q220 0 436 94l35 -73q-227 -105 -471 -105zM989 346q114 0 208.5 102.5t94.5 241.5q0 84 -51.5 133
t-138.5 49q-113 0 -204 -101t-91 -239q0 -86 48.5 -136t133.5 -50z" />
    <glyph glyph-name="A" unicode="A" horiz-adv-x="1648" 
d="M-109 0l1045 1501h303l240 -1501h-324l-47 340h-645l-232 -340h-340zM651 618h418l-74 515z" />
    <glyph glyph-name="B" unicode="B" horiz-adv-x="1548" 
d="M39 0l399 1491h580q247 0 373.5 -102t126.5 -263q0 -146 -86.5 -241.5t-237.5 -128.5q213 -97 213 -303q0 -205 -168 -329t-471 -124h-729zM420 276h395q129 0 204 52.5t75 144.5q0 70 -56 109t-159 39h-367zM584 883h338q136 0 208 47.5t72 142.5q0 64 -53.5 102.5
t-159.5 38.5h-319z" />
    <glyph glyph-name="C" unicode="C" horiz-adv-x="1568" 
d="M854 -27q-201 0 -359 78t-248.5 226t-90.5 344q0 177 70 339.5t196 288.5t291 196.5t350 70.5q399 0 594 -318l-260 -180q-70 101 -158.5 155t-214.5 54q-98 0 -190.5 -41.5t-167.5 -116.5q-183 -183 -183 -436q0 -165 104 -267t269 -102q104 0 183 37t175 115l205 -211
q-246 -232 -565 -232z" />
    <glyph glyph-name="D" unicode="D" horiz-adv-x="1675" 
d="M39 0l399 1491h430q391 0 584 -193q162 -162 162 -436q0 -168 -62.5 -318t-183.5 -268q-276 -276 -780 -276h-549zM1196 1094q-112 112 -352 112h-166l-248 -921h195q156 0 287.5 46.5t222.5 137.5q72 74 111.5 172.5t39.5 208.5q0 154 -90 244z" />
    <glyph glyph-name="E" unicode="E" horiz-adv-x="1435" 
d="M39 0l399 1491h1112l-75 -281h-799l-84 -321h700l-75 -277h-701l-90 -331h809l-76 -281h-1120z" />
    <glyph glyph-name="F" unicode="F" horiz-adv-x="1431" 
d="M39 0l399 1491h1131l-78 -287h-815l-90 -334h721l-76 -286h-721l-156 -584h-315z" />
    <glyph glyph-name="G" unicode="G" horiz-adv-x="1683" 
d="M852 -27q-105 0 -204 24.5t-189 77t-157.5 127t-107.5 183t-40 236.5q0 176 69 336t197 288q129 127 298.5 199t364.5 72q220 0 369.5 -72t237.5 -187l-234 -204q-161 176 -397 176q-115 0 -217.5 -44t-182.5 -124q-83 -83 -130.5 -195.5t-47.5 -234.5q0 -173 111 -271
t280 -98q142 0 277 62l74 258h-340l73 272h646l-209 -737q-245 -144 -541 -144z" />
    <glyph glyph-name="H" unicode="H" horiz-adv-x="1630" 
d="M39 0l399 1491h316l-158 -596h616l160 596h314l-400 -1491h-315l164 604h-617l-164 -604h-315z" />
    <glyph glyph-name="I" unicode="I" horiz-adv-x="729" 
d="M53 0l402 1491h315l-401 -1491h-316z" />
    <glyph glyph-name="J" unicode="J" horiz-adv-x="1241" 
d="M412 -20q-151 0 -277.5 64.5t-202.5 188.5l224 193q62 -82 126 -119t146 -37q119 0 205 86q36 36 63.5 99t67.5 207l221 829h324l-242 -905q-45 -173 -92.5 -272.5t-124.5 -176.5q-157 -157 -438 -157z" />
    <glyph glyph-name="K" unicode="K" horiz-adv-x="1566" 
d="M39 0l399 1491h316l-181 -678l764 678h426l-733 -627l359 -864h-347l-262 676l-317 -270l-109 -406h-315z" />
    <glyph glyph-name="L" unicode="L" horiz-adv-x="1349" 
d="M39 0l399 1491h316l-322 -1204h752l-78 -287h-1067z" />
    <glyph glyph-name="M" unicode="M" horiz-adv-x="1857" 
d="M39 0l399 1491h322l223 -645l573 645h357l-400 -1491h-313l264 993l-598 -651h-8l-246 645l-264 -987h-309z" />
    <glyph glyph-name="N" unicode="N" horiz-adv-x="1693" 
d="M39 0l399 1491h291l449 -969l262 969h311l-401 -1491h-267l-467 999l-266 -999h-311z" />
    <glyph glyph-name="O" unicode="O" horiz-adv-x="1794" 
d="M1051 1516q150 0 278 -50.5t215.5 -138.5t137 -209t49.5 -260q0 -173 -69 -336.5t-194 -288.5q-260 -260 -632 -260q-151 0 -279.5 51t-215.5 139t-136 209.5t-49 260.5q0 172 69.5 335.5t194.5 288.5q259 259 631 259zM872 264q203 0 355 152q83 83 129.5 196.5
t46.5 225.5q0 173 -102.5 281t-284.5 108q-202 0 -354 -152q-85 -83 -132 -196.5t-47 -225.5q0 -175 102 -282t287 -107z" />
    <glyph glyph-name="P" unicode="P" horiz-adv-x="1464" 
d="M39 0l399 1491h473q162 0 274 -35.5t191 -114.5q115 -115 115 -305q0 -227 -150 -377q-99 -98 -246.5 -149t-328.5 -51h-289l-123 -459h-315zM1114 1141q-68 65 -215 65h-223l-125 -471h231q209 0 310 101q69 69 69 174q0 84 -47 131z" />
    <glyph glyph-name="Q" unicode="Q" horiz-adv-x="1794" 
d="M1051 1516q150 0 278 -50.5t215.5 -138.5t137 -209t49.5 -260q0 -172 -66.5 -333.5t-189.5 -284.5l120 -158l-260 -174l-98 158q-191 -93 -401 -93q-151 0 -279.5 51t-215.5 139t-136 209.5t-49 260.5q0 172 69.5 335.5t194.5 288.5q259 259 631 259zM872 264
q101 0 201 43l-196 262l260 174l155 -247q111 160 111 342q0 173 -102.5 281t-284.5 108q-202 0 -354 -152q-85 -83 -132 -196.5t-47 -225.5q0 -175 102 -282t287 -107z" />
    <glyph glyph-name="R" unicode="R" horiz-adv-x="1566" 
d="M977 0l-236 485h-2h-256l-129 -485h-315l399 1491h543q321 0 469 -148q115 -115 115 -296q0 -215 -138 -353q-130 -130 -350 -178l258 -516h-358zM559 764h301q213 0 311 98q64 67 64 158q0 76 -47 123q-66 63 -223 63h-287z" />
    <glyph glyph-name="S" unicode="S" horiz-adv-x="1376" 
d="M639 -20q-432 0 -647 274l237 201q93 -101 194.5 -150t229.5 -49q105 0 172.5 45.5t67.5 118.5q0 57 -53 99.5t-203 103.5q-85 34 -145 67.5t-115 81.5t-83 111.5t-28 142.5q0 186 131 317q79 79 199.5 123.5t257.5 44.5q355 0 557 -221l-217 -217q-91 84 -175 123
t-190 39q-104 0 -165.5 -47.5t-61.5 -112.5q0 -59 54 -100t212 -103q84 -33 145.5 -68t112.5 -82.5t77 -110.5t26 -140q0 -188 -133 -321q-170 -170 -457 -170z" />
    <glyph glyph-name="T" unicode="T" horiz-adv-x="1339" 
d="M354 0l324 1200h-457l78 291h1229l-78 -291h-457l-323 -1200h-316z" />
    <glyph glyph-name="U" unicode="U" horiz-adv-x="1646" 
d="M741 -23q-260 0 -408.5 133t-148.5 367q0 117 37 238l207 776h315l-217 -807q-22 -80 -22 -162q0 -118 69.5 -187t200.5 -69q151 0 250 99q104 104 150 284l225 842h315l-239 -889q-78 -290 -230 -442q-183 -183 -504 -183z" />
    <glyph glyph-name="V" unicode="V" horiz-adv-x="1560" 
d="M475 -10l-196 1501h337l109 -1059l678 1059h354l-1003 -1501h-279z" />
    <glyph glyph-name="W" unicode="W" horiz-adv-x="2375" 
d="M397 -10l-108 1501h327l43 -1028l613 1032h270l68 -1032l594 1028h356l-913 -1501h-291l-74 977l-596 -977h-289z" />
    <glyph glyph-name="X" unicode="X" horiz-adv-x="1511" 
d="M-94 0l723 772l-324 719h352l199 -490l432 490h404l-705 -754l334 -737h-352l-211 512l-451 -512h-401z" />
    <glyph glyph-name="Y" unicode="Y" horiz-adv-x="1406" 
d="M379 0l158 590l-314 901h348l187 -629l526 629h381l-819 -932l-152 -559h-315z" />
    <glyph glyph-name="Z" unicode="Z" horiz-adv-x="1484" 
d="M-31 0l64 238l1067 976h-778l75 277h1205l-66 -238l-1065 -977h811l-74 -276h-1239z" />
    <glyph glyph-name="bracketleft" unicode="[" horiz-adv-x="1005" 
d="M-8 -276l475 1767h682l-66 -244h-383l-344 -1280h383l-65 -243h-682z" />
    <glyph glyph-name="backslash" unicode="\" horiz-adv-x="1144" 
d="M711 -272l-445 1972h256l447 -1972h-258z" />
    <glyph glyph-name="bracketright" unicode="]" horiz-adv-x="1005" 
d="M1034 1491l-475 -1767h-682l66 243h383l344 1280h-383l65 244h682z" />
    <glyph glyph-name="asciicircum" unicode="^" 
d="M195 1051l436 440h213l198 -440h-204l-131 256l-267 -256h-245z" />
    <glyph glyph-name="underscore" unicode="_" horiz-adv-x="1298" 
d="M-236 -340l66 238h1286l-63 -238h-1289z" />
    <glyph glyph-name="grave" unicode="`" 
d="M750 1268l-201 254l276 116l138 -370h-213z" />
    <glyph glyph-name="a" unicode="a" horiz-adv-x="1269" 
d="M360 -23q-147 0 -240 86.5t-93 221.5q0 166 108 274q138 135 383 135q170 0 328 -51l6 16q12 54 12 86q0 142 -223 142q-149 0 -305 -62l-49 246q191 80 420 80q226 0 342 -90.5t116 -259.5q0 -76 -24 -170l-168 -631h-301l35 135q-148 -158 -347 -158zM492 193
q101 0 187 69t114 168l8 35q-102 41 -226 41q-125 0 -190 -68q-49 -49 -49 -119q0 -56 42.5 -91t113.5 -35z" />
    <glyph glyph-name="b" unicode="b" horiz-adv-x="1454" 
d="M725 -23q-238 0 -363 195l-47 -172h-309l416 1554h311l-147 -544q76 75 155 112t174 37q192 0 315.5 -131t123.5 -356q0 -154 -54 -283.5t-151 -224.5q-89 -89 -198.5 -138t-225.5 -49zM684 240q125 0 225 100q123 123 123 311q0 116 -66 181t-178 65q-129 0 -229 -100
q-127 -127 -127 -305q0 -112 70.5 -182t181.5 -70z" />
    <glyph glyph-name="c" unicode="c" horiz-adv-x="1214" 
d="M629 -25q-231 0 -380 141t-149 371q0 137 51.5 258.5t145.5 215.5t217 146t258 52q325 0 465 -252l-238 -166q-32 49 -61.5 79.5t-78 51.5t-111.5 21q-117 0 -213 -96q-58 -58 -92.5 -139.5t-34.5 -170.5q0 -114 66 -180.5t167 -66.5q74 0 132.5 27t129.5 87l160 -202
q-97 -89 -197 -133t-237 -44z" />
    <glyph glyph-name="d" unicode="d" horiz-adv-x="1454" 
d="M831 0l35 129q-78 -76 -155.5 -114t-171.5 -38q-192 0 -316.5 132.5t-124.5 357.5q0 151 55 282t150 226q88 88 198.5 136t227.5 48q130 0 217 -50t146 -144l157 589h312l-418 -1554h-312zM666 240q127 0 229 102q127 127 127 305q0 110 -71 180t-183 70q-125 0 -223 -98
q-125 -125 -125 -312q0 -116 66.5 -181.5t179.5 -65.5z" />
    <glyph glyph-name="e" unicode="e" horiz-adv-x="1310" 
d="M1180 461h-791v-2q8 -109 75 -172t193 -62q68 0 129 21.5t132 72.5l145 -192q-180 -152 -440 -152q-242 0 -383.5 135t-141.5 369q0 133 54.5 261.5t152.5 226.5q90 90 210 141t257 51q216 0 340.5 -124t124.5 -318q0 -127 -57 -256zM514 811q-61 -61 -96 -154h516
q10 38 10 74q0 80 -48 129t-146 49q-138 0 -236 -98z" />
    <glyph glyph-name="f" unicode="f" horiz-adv-x="888" 
d="M63 0l234 872h-135l71 267h136l12 51q43 172 133 262q117 117 328 117q136 0 221 -33l-68 -258q-76 29 -145 29q-127 0 -164 -131l-10 -37h282l-71 -267h-279l-233 -872h-312z" />
    <glyph glyph-name="g" unicode="g" horiz-adv-x="1447" 
d="M541 -344q-172 0 -327.5 42t-270.5 120l166 213q190 -129 411 -129q162 0 254 92q65 68 107 211l12 43q-95 -83 -176.5 -119.5t-186.5 -36.5q-84 0 -160 27t-135.5 76t-95 127t-35.5 172q0 282 201 483q87 87 196.5 134.5t225.5 47.5q73 0 131 -16t99 -46.5t68.5 -63
t53.5 -77.5l49 183h310l-246 -920q-44 -164 -86.5 -249t-110.5 -158q-156 -156 -454 -156zM651 342q68 0 132 27t112 75q104 104 104 238q0 99 -64.5 158t-170.5 59q-134 0 -232 -98q-106 -106 -106 -250q0 -101 61.5 -155t163.5 -54z" />
    <glyph glyph-name="h" unicode="h" horiz-adv-x="1341" 
d="M6 0l416 1554h311l-145 -540q156 145 315 145q155 0 246.5 -89t91.5 -243q0 -65 -37 -213l-164 -614h-311l168 627q16 62 16 102q0 72 -43.5 111t-121.5 39q-96 0 -163.5 -64t-97.5 -176l-172 -639h-309z" />
    <glyph glyph-name="i" unicode="i" horiz-adv-x="657" 
d="M20 0l306 1139h311l-305 -1139h-312zM354 1274l76 278h328l-76 -278h-328z" />
    <glyph glyph-name="j" unicode="j" horiz-adv-x="655" 
d="M-88 -348q-86 0 -174 18l65 244q42 -10 80 -10q54 0 94 39.5t60 113.5l289 1082h311l-299 -1121q-56 -196 -163.5 -281t-262.5 -85zM354 1274l74 278h328l-74 -278h-328z" />
    <glyph glyph-name="k" unicode="k" horiz-adv-x="1275" 
d="M6 0l416 1554h311l-223 -825l485 410h406l-555 -449l254 -690h-348l-168 487l-176 -141l-93 -346h-309z" />
    <glyph glyph-name="l" unicode="l" horiz-adv-x="657" 
d="M20 0l418 1554h310l-416 -1554h-312z" />
    <glyph glyph-name="m" unicode="m" horiz-adv-x="2039" 
d="M6 0l305 1139h312l-35 -125q76 69 147 107t160 38q115 0 192.5 -56t110.5 -153q170 209 412 209q153 0 241 -89t88 -243q0 -69 -36 -213l-164 -614h-312l168 627q17 66 17 102q0 150 -158 150q-95 0 -159.5 -63.5t-94.5 -176.5l-172 -639h-311l168 627q14 54 14 102
q0 150 -158 150q-95 0 -159.5 -63.5t-94.5 -176.5l-172 -639h-309z" />
    <glyph glyph-name="n" unicode="n" horiz-adv-x="1341" 
d="M6 0l305 1139h312l-35 -125q156 145 315 145q155 0 246.5 -89t91.5 -243q0 -65 -37 -213l-164 -614h-311l168 627q16 62 16 102q0 72 -43.5 111t-121.5 39q-96 0 -163.5 -64t-97.5 -176l-172 -639h-309z" />
    <glyph glyph-name="o" unicode="o" horiz-adv-x="1406" 
d="M760 1159q165 0 290 -68t191 -186.5t66 -269.5q0 -129 -52.5 -250t-146.5 -215q-93 -93 -211 -144t-250 -51q-248 0 -397.5 147t-149.5 378q0 127 52.5 248.5t146.5 216.5q194 194 461 194zM662 240q121 0 215 94q58 58 91 138.5t33 154.5q0 127 -69 196.5t-187 69.5
q-123 0 -215 -92q-58 -58 -91 -138.5t-33 -154.5q0 -127 69.5 -197.5t186.5 -70.5z" />
    <glyph glyph-name="p" unicode="p" horiz-adv-x="1454" 
d="M725 -23q-238 0 -363 195l-137 -512h-311l397 1479h312l-37 -129q76 75 155 112t174 37q192 0 315.5 -131t123.5 -356q0 -154 -54 -283.5t-151 -224.5q-89 -89 -198.5 -138t-225.5 -49zM684 240q125 0 225 100q123 123 123 311q0 116 -66 181t-178 65q-129 0 -229 -100
q-127 -127 -127 -305q0 -112 70.5 -182t181.5 -70z" />
    <glyph glyph-name="q" unicode="q" horiz-adv-x="1454" 
d="M539 -23q-192 0 -316.5 132.5t-124.5 357.5q0 151 55 282t150 226q88 88 198.5 136t227.5 48q130 0 217 -50t146 -144l45 174h311l-397 -1479h-312l127 469q-78 -76 -155.5 -114t-171.5 -38zM666 240q127 0 229 102q127 127 127 305q0 110 -71 180t-183 70
q-125 0 -223 -98q-125 -125 -125 -312q0 -116 66.5 -181.5t179.5 -65.5z" />
    <glyph glyph-name="r" unicode="r" horiz-adv-x="909" 
d="M6 0l305 1139h312l-64 -236q92 136 198.5 201t243.5 55l-88 -325h-16q-170 0 -290.5 -104.5t-178.5 -321.5l-113 -408h-309z" />
    <glyph glyph-name="s" unicode="s" 
d="M473 -25q-137 0 -277 52.5t-233 152.5l180 187q154 -154 353 -154q67 0 106 28t39 78q0 33 -34 59t-105 54q-79 34 -129.5 60.5t-101 66t-75 90.5t-24.5 115q0 173 123.5 284t331.5 111q128 0 248 -47.5t196 -114.5l-168 -196q-150 121 -299 121q-65 0 -100 -27.5
t-35 -75.5q0 -33 35.5 -60t120.5 -65q55 -24 93 -42.5t83 -48.5t72 -61t46 -75t19 -94q0 -182 -130 -290t-335 -108z" />
    <glyph glyph-name="t" unicode="t" horiz-adv-x="901" 
d="M422 -18q-143 0 -217 61t-74 162q0 65 21 139l141 528h-137l71 267h138l79 295h312l-80 -295h274l-71 -267h-275l-131 -491q-10 -30 -10 -53q0 -74 94 -74q78 0 166 37l-72 -264q-99 -45 -229 -45z" />
    <glyph glyph-name="u" unicode="u" horiz-adv-x="1341" 
d="M438 -23q-155 0 -246.5 90t-91.5 244q0 65 37 213l164 615h311l-168 -627q-14 -58 -14 -104q0 -72 43 -110t121 -38q96 0 163 64t97 176l172 639h309l-305 -1139h-309l33 125q-160 -148 -316 -148z" />
    <glyph glyph-name="v" unicode="v" horiz-adv-x="1275" 
d="M334 -8l-141 1147h317l57 -774l467 774h334l-754 -1147h-280z" />
    <glyph glyph-name="w" unicode="w" horiz-adv-x="1845" 
d="M248 -8l-47 1147h315l2 -709l412 713h268l31 -715l389 711h309l-667 -1147h-279l-35 715l-422 -715h-276z" />
    <glyph glyph-name="x" unicode="x" horiz-adv-x="1249" 
d="M547 1139l135 -328l281 328h370l-536 -576l254 -563h-332l-139 348l-304 -348h-370l561 594l-252 545h332z" />
    <glyph glyph-name="y" unicode="y" horiz-adv-x="1277" 
d="M352 -8l-145 1147h317l62 -787l442 787h336l-713 -1168q-113 -174 -219 -246.5t-250 -72.5q-146 0 -264 80l166 225q61 -47 129 -47q43 0 73 17t66 65z" />
    <glyph glyph-name="z" unicode="z" horiz-adv-x="1206" 
d="M-45 0l57 217l764 670h-563l68 252h962l-59 -219l-766 -668h594l-68 -252h-989z" />
    <glyph glyph-name="braceleft" unicode="{" horiz-adv-x="1062" 
d="M768 -111l-100 -190q-210 40 -302 120t-92 208q0 74 43 188q33 79 33 150q0 32 -5.5 52.5t-23 39.5t-54 28t-93.5 9h-68l64 235h68q78 0 127.5 14t83.5 48q62 62 92 253q31 221 137 334q73 71 185.5 106t279.5 40l18 -209q-100 -10 -162.5 -32t-103.5 -60
q-28 -28 -45.5 -70.5t-23.5 -75.5t-15 -100q-24 -209 -106 -291q-46 -46 -102.5 -68t-137.5 -30q86 -13 133 -64.5t47 -126.5q0 -62 -37 -159q-37 -101 -37 -156q0 -70 40.5 -111.5t156.5 -81.5z" />
    <glyph glyph-name="bar" unicode="|" horiz-adv-x="757" 
d="M31 -272l528 1972h246l-531 -1972h-243z" />
    <glyph glyph-name="braceright" unicode="}" horiz-adv-x="1062" 
d="M315 1333l103 191q209 -40 301 -120t92 -208q0 -74 -43 -188q-33 -79 -33 -150q0 -33 5.5 -53.5t23 -39.5t53.5 -27.5t94 -8.5h68l-64 -235h-67q-151 0 -213 -62q-63 -65 -92 -254q-15 -105 -44 -187t-91 -147q-73 -71 -185.5 -105.5t-279.5 -39.5l-21 209
q105 11 166.5 31.5t101.5 60.5q28 28 45.5 70.5t23.5 75.5t15 100q23 202 105 291q82 82 239 98q-85 13 -131.5 64t-46.5 126q0 63 37 160q37 101 37 156q0 69 -40 109t-159 83z" />
    <glyph glyph-name="asciitilde" unicode="~" horiz-adv-x="1099" 
d="M297 471l-166 82q57 129 140 203.5t180 74.5q53 0 90 -14.5t77 -46.5q44 -32 65.5 -43.5t45.5 -11.5q46 0 81 32t69 93l163 -82q-58 -128 -140.5 -203.5t-178.5 -75.5q-50 0 -84.5 14.5t-81.5 47.5q-46 34 -67 45.5t-46 11.5q-46 0 -79 -32t-68 -95z" />
    <glyph glyph-name="uni00A0" unicode="&#xa0;" horiz-adv-x="0" 
 />
    <glyph glyph-name="exclamdown" unicode="&#xa1;" horiz-adv-x="702" 
d="M549 991l-156 -942l-14 -49h-363l15 49l348 942h170zM764 1491l-88 -332h-334l90 332h332z" />
    <glyph glyph-name="cent" unicode="&#xa2;" horiz-adv-x="1265" 
d="M942 1503h215l-78 -200q156 -64 242 -211l-236 -164q-53 80 -118 116l-242 -614h2q148 0 277 107l165 -211q-187 -162 -436 -162q-51 0 -98 6l-72 -182h-215l90 235q-136 62 -211 183.5t-75 285.5q0 134 49.5 253t138.5 208q197 197 485 197q9 0 28 -1t28 -1zM457 696
q0 -135 96 -211l233 596h-2q-121 -12 -211 -102q-54 -54 -85 -129.5t-31 -153.5z" />
    <glyph glyph-name="sterling" unicode="&#xa3;" horiz-adv-x="1390" 
d="M-16 0l55 205l178 53l84 315h-162l70 261h162l55 204q55 203 170 324q152 149 395 149q163 0 276 -68.5t177 -185.5l-252 -172q-30 48 -57.5 75.5t-68.5 44t-97 16.5q-90 0 -152 -62q-55 -58 -90 -174l-43 -151h502l-70 -261h-500l-79 -301h659l-74 -272h-1138z" />
    <glyph glyph-name="yen" unicode="&#xa5;" horiz-adv-x="1533" 
d="M461 0l53 201h-395l61 221h395l35 137h-395l59 221h312l-273 711h340l189 -567l497 567h375l-659 -711h313l-59 -221h-396l-34 -137h395l-60 -221h-397l-53 -201h-303z" />
    <glyph glyph-name="section" unicode="&#xa7;" horiz-adv-x="1366" 
d="M1298 770q0 -65 -28 -117.5t-74.5 -85t-94.5 -51.5t-100 -29q82 -70 82 -176q0 -142 -133.5 -235.5t-335.5 -93.5q-162 0 -291 51.5t-208 144.5l194 172q135 -135 322 -135q73 0 114 22.5t41 63.5q0 36 -46 60.5t-175 60.5q-75 20 -127.5 37.5t-108 44t-89 56.5t-55 72.5
t-21.5 94.5t19 96t48.5 74t70 53.5t79 37t78.5 20.5q-80 72 -80 178q0 142 134 236t337 94q160 0 289.5 -52t208.5 -145l-195 -172q-60 60 -144.5 97.5t-177.5 37.5q-73 0 -114 -22.5t-41 -63.5q0 -36 46 -60.5t177 -60.5q74 -20 126.5 -37.5t107.5 -44t88.5 -56.5t55 -72.5
t21.5 -94.5zM455 780q0 -42 43 -68.5t145 -58.5q142 -45 217 -45q61 0 104.5 31t43.5 78q0 42 -43 69t-146 58q-142 45 -215 45q-61 0 -105 -31.5t-44 -77.5z" />
    <glyph glyph-name="dieresis" unicode="&#xa8;" 
d="M352 1268l76 280h301l-76 -280h-301zM801 1268l78 280h301l-78 -280h-301z" />
    <glyph glyph-name="copyright" unicode="&#xa9;" horiz-adv-x="1787" 
d="M893 334q-166 0 -270.5 96t-104.5 256q0 98 38.5 187.5t107.5 158.5q145 148 348 148q219 0 327 -174l-147 -107q-39 56 -85 85.5t-114 29.5q-112 0 -196 -84q-42 -43 -67 -106.5t-25 -129.5q0 -94 51.5 -144t140.5 -50q58 0 103 20.5t96 61.5l114 -123
q-128 -125 -317 -125zM1704 842q0 -174 -66 -336.5t-188 -284.5q-246 -246 -594 -246q-154 0 -283 52t-216.5 142.5t-136 214.5t-48.5 265q0 174 66 336.5t188 284.5q246 246 594 246q154 0 283 -52t216.5 -142.5t136 -214.5t48.5 -265zM260 655q0 -124 40.5 -232.5
t115.5 -190t189 -128.5t253 -47q309 0 524 215q234 240 234 568q0 123 -40.5 230.5t-115.5 188.5t-189 128t-253 47q-307 0 -522 -215q-236 -236 -236 -564z" />
    <glyph glyph-name="ordfeminine" unicode="&#xaa;" horiz-adv-x="851" 
d="M412 854q-82 0 -133.5 47t-51.5 121q0 106 77.5 166.5t195.5 60.5q84 0 180 -30l4 14q6 21 6 39q0 80 -123 80q-82 0 -168 -33l-28 137q105 43 233 43q124 0 188 -49.5t64 -142.5q0 -49 -12 -95l-94 -346h-168l20 74q-80 -86 -190 -86zM485 971q56 0 103 39t59 94l6 16
q-54 23 -123 23q-60 0 -95.5 -27t-35.5 -74q0 -32 23 -51.5t63 -19.5zM119 592l39 137h563l-37 -137h-565z" />
    <glyph glyph-name="guillemotleft" unicode="&#xab;" horiz-adv-x="1374" 
d="M358 72l-249 471l4 16l522 490l158 -156l-357 -371l152 -348zM924 72l-250 471l6 16l520 490l160 -156l-356 -371l149 -348z" />
    <glyph glyph-name="registered" unicode="&#xae;" horiz-adv-x="811" 
d="M598 1511q146 0 238 -93.5t92 -231.5q0 -176 -121 -297q-123 -123 -289 -123q-148 0 -239 94t-91 234q0 176 121 297q120 120 289 120zM522 807q146 0 250 104q113 116 113 271q0 125 -78 208t-213 83q-145 0 -250 -105q-113 -116 -113 -270q0 -125 78 -208t213 -83z
M485 1069l-30 -119h-107l105 391h153q84 0 120 -34.5t36 -85.5q0 -103 -115 -140l55 -131h-110l-49 119h-58zM508 1153h63q47 0 70 23q12 12 12 32q0 23 -14 32t-43 9h-61z" />
    <glyph glyph-name="macron" unicode="&#xaf;" 
d="M354 1280l58 217h759l-57 -217h-760z" />
    <glyph glyph-name="degree" unicode="&#xb0;" horiz-adv-x="958" 
d="M602 1503q151 0 240.5 -89t89.5 -228q0 -78 -32.5 -152.5t-88.5 -130.5q-115 -115 -274 -115q-153 0 -242.5 89t-89.5 231q0 78 32 151t89 130q114 114 276 114zM545 944q89 0 145 62q74 74 74 174q0 78 -47 123t-125 45q-86 0 -146 -60q-73 -73 -73 -174q0 -78 47 -124
t125 -46z" />
    <glyph glyph-name="plusminus" unicode="&#xb1;" horiz-adv-x="1380" 
d="M516 436l100 371l-387 -2l72 270l387 -2l98 371h279l-102 -371l387 2l-72 -270l-387 2l-96 -371h-279zM16 0l68 258h1049l-72 -258h-1045z" />
    <glyph glyph-name="two.sup" unicode="&#xb2;" horiz-adv-x="860" 
d="M205 895l41 154l428 303q59 40 85.5 72t26.5 69q0 39 -29.5 62.5t-78.5 23.5q-102 0 -211 -106l-109 118q143 156 326 156q133 0 211 -66t78 -172q0 -78 -43 -140t-168 -144l-266 -172h372l-41 -158h-622z" />
    <glyph glyph-name="three.sup" unicode="&#xb3;" horiz-adv-x="860" 
d="M545 874q-210 0 -318 136l117 120q47 -47 93.5 -70.5t109.5 -23.5q70 0 118 36.5t48 84.5q0 49 -44.5 74.5t-125.5 25.5h-58l-10 109l273 199h-334l43 159h573l-37 -135l-301 -213q205 -37 205 -205q0 -128 -100 -212.5t-252 -84.5z" />
    <glyph glyph-name="acute" unicode="&#xb4;" 
d="M459 1268l338 370l264 -116l-340 -254h-262z" />
    <glyph glyph-name="mu" unicode="&#xb5;" horiz-adv-x="1447" 
d="M221 -340h-305l395 1479h312l-162 -602q-21 -92 -21 -127q0 -76 45 -118t129 -42q98 0 159 53.5t91 169.5l178 666h312l-201 -752q-12 -54 -12 -78q0 -65 100 -65q28 0 64 4l-66 -240q-67 -20 -152 -20q-91 0 -151 39.5t-84 107.5q-112 -149 -274 -149q-91 0 -159 44.5
t-102 137.5h-4q0 -162 -39 -307z" />
    <glyph glyph-name="paragraph" unicode="&#xb6;" horiz-adv-x="1282" 
d="M625 0l120 459q-299 6 -436 143q-112 112 -112 303q0 236 155 391q195 195 594 195h391l-399 -1491h-313z" />
    <glyph glyph-name="periodcentered" unicode="&#xb7;" horiz-adv-x="688" 
d="M150 494l88 329h333l-90 -329h-331z" />
    <glyph glyph-name="cedilla" unicode="&#xb8;" 
d="M340 -365l-234 109l265 276h231z" />
    <glyph glyph-name="one.sup" unicode="&#xb9;" horiz-adv-x="700" 
d="M399 895l172 643l-174 -59l-16 153l287 105h133l-223 -842h-179z" />
    <glyph glyph-name="ordmasculine" unicode="&#xba;" horiz-adv-x="874" 
d="M121 592l37 137h590l-37 -137h-590zM403 1147q0 -67 38 -108.5t100 -41.5q69 0 123 54q63 63 63 155q0 66 -38 107t-101 41q-69 0 -123 -51q-29 -29 -45.5 -71.5t-16.5 -84.5zM895 1212q0 -147 -111 -258q-104 -104 -249 -104q-137 0 -219.5 81t-82.5 208q0 147 111 258
q104 104 250 104q138 0 219.5 -80t81.5 -209z" />
    <glyph glyph-name="guillemotright" unicode="&#xbb;" horiz-adv-x="1374" 
d="M1012 1049l250 -471l-5 -17l-522 -489l-160 155l359 371l-152 348zM444 1049l250 -471l-4 -17l-522 -489l-158 155l357 371l-152 348z" />
    <glyph glyph-name="onequarter" unicode="&#xbc;" horiz-adv-x="1775" 
d="M297 662l172 643l-176 -62l-14 156l286 102h131l-223 -839h-176zM66 0l745 780l662 711h186l-746 -780l-661 -711h-186zM1217 0l47 176h-402l31 170l528 498h189l-142 -527h111l-39 -141h-110l-48 -176h-165zM1051 315h252l86 322h-3z" />
    <glyph glyph-name="onehalf" unicode="&#xbd;" horiz-adv-x="1775" 
d="M848 0l41 154l428 303q59 41 86 73t27 68q0 38 -30 62t-79 24q-102 0 -211 -106l-109 118q143 156 326 156q133 0 211 -66t78 -172q0 -78 -43 -140t-168 -144l-266 -172h372l-41 -158h-622zM45 0l746 780l661 711h186l-745 -780l-662 -711h-186zM297 662l172 643
l-176 -62l-14 156l286 102h131l-223 -839h-176z" />
    <glyph glyph-name="threequarters" unicode="&#xbe;" horiz-adv-x="1935" 
d="M1376 0l47 176h-401l31 170l528 498h188l-141 -527h111l-39 -141h-111l-47 -176h-166zM1210 315h252l86 322h-2zM215 0l746 780l661 711h186l-745 -780l-662 -711h-186zM438 639q-209 0 -317 135l117 121q50 -47 95 -69.5t107 -22.5q70 0 118 36.5t48 84.5q0 47 -44 72.5
t-126 25.5h-55l-12 111l274 196h-334l43 162h572l-37 -137l-301 -211q207 -37 207 -205q0 -129 -101.5 -214t-253.5 -85z" />
    <glyph glyph-name="questiondown" unicode="&#xbf;" horiz-adv-x="1177" 
d="M883 991l-43 -346l-15 -10q-209 -14 -320.5 -71.5t-111.5 -155.5q0 -67 47.5 -104.5t139.5 -37.5q160 0 311 131l164 -207q-101 -103 -235 -155.5t-283 -52.5q-214 0 -342.5 112.5t-128.5 272.5q0 190 137.5 309t406.5 160l64 155h209zM1073 1491l-88 -332h-334l90 332
h332z" />
    <glyph glyph-name="Agrave" unicode="&#xc0;" horiz-adv-x="1648" 
d="M-109 0l1045 1501h303l240 -1501h-324l-47 340h-645l-232 -340h-340zM651 618h418l-74 515zM999 1630l-229 211l279 119l163 -330h-213z" />
    <glyph glyph-name="Aacute" unicode="&#xc1;" horiz-adv-x="1648" 
d="M-109 0l1045 1501h303l240 -1501h-324l-47 340h-645l-232 -340h-340zM651 618h418l-74 515zM989 1630l344 330l262 -119l-342 -211h-264z" />
    <glyph glyph-name="Acircumflex" unicode="&#xc2;" horiz-adv-x="1648" 
d="M-109 0l1045 1501h303l240 -1501h-324l-47 340h-645l-232 -340h-340zM651 618h418l-74 515zM686 1622l352 307h293l189 -307h-232l-135 119l-199 -119h-268z" />
    <glyph glyph-name="Atilde" unicode="&#xc3;" horiz-adv-x="1648" 
d="M-109 0l1045 1501h303l240 -1501h-324l-47 340h-645l-232 -340h-340zM651 618h418l-74 515zM862 1608l-166 57q61 144 129.5 213.5t171.5 69.5q80 0 191 -47q7 -3 26.5 -10.5t28 -10.5t22.5 -7.5t25 -6.5t21 -2q46 0 75.5 24t65.5 80l166 -57q-32 -72 -60.5 -120
t-64 -86.5t-78.5 -56.5t-96 -18q-84 0 -191 47q-91 35 -124 35q-46 0 -77.5 -24t-64.5 -80z" />
    <glyph glyph-name="Adieresis" unicode="&#xc4;" horiz-adv-x="1648" 
d="M-109 0l1045 1501h303l240 -1501h-324l-47 340h-645l-232 -340h-340zM651 618h418l-74 515zM745 1630l72 264h303l-73 -264h-302zM1204 1630l72 264h303l-74 -264h-301z" />
    <glyph glyph-name="Aring" unicode="&#xc5;" horiz-adv-x="1648" 
d="M-109 0l1000 1434q-43 55 -43 118q0 109 77 186t212 77q101 0 170 -60t69 -145q0 -67 -31 -125t-90 -94l224 -1391h-324l-47 340h-645l-232 -340h-340zM651 618h418l-74 515zM1094 1458q69 0 112 42.5t43 96.5q0 47 -33.5 77t-87.5 30q-68 0 -110.5 -42t-42.5 -97
q0 -48 32.5 -77.5t86.5 -29.5z" />
    <glyph glyph-name="AE" unicode="&#xc6;" horiz-adv-x="2273" 
d="M-117 0l1211 1491h1294l-76 -281h-756l-86 -321h660l-76 -277h-659l-90 -331h770l-76 -281h-1081l92 340h-512l-271 -340h-344zM721 618h364l160 601h-41z" />
    <glyph glyph-name="Ccedilla" unicode="&#xc7;" horiz-adv-x="1568" 
d="M606 -365l-233 109l248 260q-213 58 -339 221t-126 396q0 177 70 339.5t196 288.5t291 196.5t350 70.5q399 0 594 -318l-260 -180q-70 101 -158.5 155t-214.5 54q-98 0 -190.5 -41.5t-167.5 -116.5q-183 -183 -183 -436q0 -165 104 -267t269 -102q104 0 183 37t175 115
l205 -211q-246 -232 -565 -232h-18z" />
    <glyph glyph-name="Egrave" unicode="&#xc8;" horiz-adv-x="1435" 
d="M897 1610l-229 211l278 118l164 -329h-213zM39 0l399 1491h1112l-75 -281h-799l-84 -321h700l-75 -277h-701l-90 -331h809l-76 -281h-1120z" />
    <glyph glyph-name="Eacute" unicode="&#xc9;" horiz-adv-x="1435" 
d="M887 1610l344 329l262 -118l-342 -211h-264zM39 0l399 1491h1112l-75 -281h-799l-84 -321h700l-75 -277h-701l-90 -331h809l-76 -281h-1120z" />
    <glyph glyph-name="Ecircumflex" unicode="&#xca;" horiz-adv-x="1435" 
d="M39 0l399 1491h1112l-75 -281h-799l-84 -321h700l-75 -277h-701l-90 -331h809l-76 -281h-1120zM590 1610l352 307h293l188 -307h-231l-135 119l-199 -119h-268z" />
    <glyph glyph-name="Edieresis" unicode="&#xcb;" horiz-adv-x="1435" 
d="M643 1610l72 264h303l-74 -264h-301zM1102 1610l72 264h303l-74 -264h-301zM39 0l399 1491h1112l-75 -281h-799l-84 -321h700l-75 -277h-701l-90 -331h809l-76 -281h-1120z" />
    <glyph glyph-name="Igrave" unicode="&#xcc;" horiz-adv-x="729" 
d="M53 0l402 1491h315l-401 -1491h-316zM518 1610l-229 211l278 118l164 -329h-213z" />
    <glyph glyph-name="Iacute" unicode="&#xcd;" horiz-adv-x="729" 
d="M53 0l402 1491h315l-401 -1491h-316zM508 1610l344 329l262 -118l-342 -211h-264z" />
    <glyph glyph-name="Icircumflex" unicode="&#xce;" horiz-adv-x="729" 
d="M53 0l402 1491h315l-401 -1491h-316zM211 1610l352 307h293l188 -307h-231l-135 119l-199 -119h-268z" />
    <glyph glyph-name="Idieresis" unicode="&#xcf;" horiz-adv-x="729" 
d="M53 0l402 1491h315l-401 -1491h-316zM264 1610l72 264h303l-74 -264h-301zM723 1610l72 264h303l-74 -264h-301z" />
    <glyph glyph-name="Eth" unicode="&#xd0;" horiz-adv-x="1718" 
d="M82 0l172 641h-176l59 217h176l170 633h428q391 0 584 -193q162 -162 162 -436q0 -169 -62 -319t-182 -267q-276 -276 -780 -276h-551zM883 641h-314l-96 -356h197q324 0 508 184q73 73 112 171.5t39 209.5q0 154 -90 244q-106 112 -352 112h-166l-94 -348h315z" />
    <glyph glyph-name="Ntilde" unicode="&#xd1;" horiz-adv-x="1693" 
d="M864 1587l-166 58q61 144 129.5 213t171.5 69q80 0 191 -47q7 -3 26.5 -10.5t28 -10.5t22.5 -7.5t25 -6.5t21 -2q46 0 75.5 24t65.5 81l166 -58q-65 -146 -131 -213t-168 -67q-84 0 -191 47q-91 35 -124 35q-46 0 -77 -24.5t-65 -80.5zM39 0l399 1491h291l449 -969
l262 969h311l-401 -1491h-267l-467 999l-266 -999h-311z" />
    <glyph glyph-name="Ograve" unicode="&#xd2;" horiz-adv-x="1794" 
d="M1038 1630l-229 211l278 119l164 -330h-213zM1051 1516q150 0 278 -50.5t215.5 -138.5t137 -209t49.5 -260q0 -173 -69 -336.5t-194 -288.5q-260 -260 -632 -260q-151 0 -279.5 51t-215.5 139t-136 209.5t-49 260.5q0 172 69.5 335.5t194.5 288.5q259 259 631 259z
M872 264q203 0 355 152q83 83 129.5 196.5t46.5 225.5q0 173 -102.5 281t-284.5 108q-202 0 -354 -152q-85 -83 -132 -196.5t-47 -225.5q0 -175 102 -282t287 -107z" />
    <glyph glyph-name="Oacute" unicode="&#xd3;" horiz-adv-x="1794" 
d="M1012 1630l344 330l262 -119l-342 -211h-264zM1051 1516q150 0 278 -50.5t215.5 -138.5t137 -209t49.5 -260q0 -173 -69 -336.5t-194 -288.5q-260 -260 -632 -260q-151 0 -279.5 51t-215.5 139t-136 209.5t-49 260.5q0 172 69.5 335.5t194.5 288.5q259 259 631 259z
M872 264q203 0 355 152q83 83 129.5 196.5t46.5 225.5q0 173 -102.5 281t-284.5 108q-202 0 -354 -152q-85 -83 -132 -196.5t-47 -225.5q0 -175 102 -282t287 -107z" />
    <glyph glyph-name="Ocircumflex" unicode="&#xd4;" horiz-adv-x="1794" 
d="M1051 1516q150 0 278 -50.5t215.5 -138.5t137 -209t49.5 -260q0 -173 -69 -336.5t-194 -288.5q-260 -260 -632 -260q-151 0 -279.5 51t-215.5 139t-136 209.5t-49 260.5q0 172 69.5 335.5t194.5 288.5q259 259 631 259zM872 264q203 0 355 152q83 83 129.5 196.5
t46.5 225.5q0 173 -102.5 281t-284.5 108q-202 0 -354 -152q-85 -83 -132 -196.5t-47 -225.5q0 -175 102 -282t287 -107zM729 1630l352 307h293l189 -307h-232l-135 119l-199 -119h-268z" />
    <glyph glyph-name="Otilde" unicode="&#xd5;" horiz-adv-x="1794" 
d="M903 1608l-166 57q61 144 129.5 213.5t171.5 69.5q80 0 191 -47q7 -3 26.5 -10.5t28 -10.5t22.5 -7.5t25 -6.5t21 -2q46 0 75.5 24t65.5 80l166 -57q-32 -72 -60.5 -120t-64 -86.5t-78.5 -56.5t-96 -18q-84 0 -191 47q-91 35 -125 35q-46 0 -76.5 -24t-64.5 -80z
M1051 1516q150 0 278 -50.5t215.5 -138.5t137 -209t49.5 -260q0 -173 -69 -336.5t-194 -288.5q-260 -260 -632 -260q-151 0 -279.5 51t-215.5 139t-136 209.5t-49 260.5q0 172 69.5 335.5t194.5 288.5q259 259 631 259zM872 264q203 0 355 152q83 83 129.5 196.5t46.5 225.5
q0 173 -102.5 281t-284.5 108q-202 0 -354 -152q-85 -83 -132 -196.5t-47 -225.5q0 -175 102 -282t287 -107z" />
    <glyph glyph-name="Odieresis" unicode="&#xd6;" horiz-adv-x="1794" 
d="M784 1630l72 264h303l-74 -264h-301zM1243 1630l72 264h303l-74 -264h-301zM1051 1516q150 0 278 -50.5t215.5 -138.5t137 -209t49.5 -260q0 -173 -69 -336.5t-194 -288.5q-260 -260 -632 -260q-151 0 -279.5 51t-215.5 139t-136 209.5t-49 260.5q0 172 69.5 335.5
t194.5 288.5q259 259 631 259zM872 264q203 0 355 152q83 83 129.5 196.5t46.5 225.5q0 173 -102.5 281t-284.5 108q-202 0 -354 -152q-85 -83 -132 -196.5t-47 -225.5q0 -175 102 -282t287 -107z" />
    <glyph glyph-name="multiply" unicode="&#xd7;" horiz-adv-x="1380" 
d="M287 219l-160 215l426 330l-244 328l236 186l235 -336l424 338l160 -215l-426 -328l246 -325l-238 -189l-235 334z" />
    <glyph glyph-name="Oslash" unicode="&#xd8;" horiz-adv-x="1794" 
d="M1051 1516q259 0 444 -148l145 133h304l-312 -287q99 -157 99 -356q0 -173 -69 -336.5t-194 -288.5q-260 -260 -632 -260q-270 0 -447 148l-143 -131h-303l311 284q-98 154 -98 359q0 172 69.5 335.5t194.5 288.5q259 259 631 259zM471 651q0 -87 29 -172l760 692
q-98 70 -242 70q-207 0 -363 -156q-87 -85 -135.5 -201t-48.5 -233zM870 250q212 0 363 158q86 86 134 201t48 233q0 89 -31 168l-757 -693q98 -67 243 -67z" />
    <glyph glyph-name="Ugrave" unicode="&#xd9;" horiz-adv-x="1646" 
d="M963 1610l-230 211l279 118l164 -329h-213zM741 -23q-260 0 -408.5 133t-148.5 367q0 117 37 238l207 776h315l-217 -807q-22 -80 -22 -162q0 -118 69.5 -187t200.5 -69q151 0 250 99q104 104 150 284l225 842h315l-239 -889q-78 -290 -230 -442q-183 -183 -504 -183z
" />
    <glyph glyph-name="Uacute" unicode="&#xda;" horiz-adv-x="1646" 
d="M952 1610l344 329l263 -118l-342 -211h-265zM741 -23q-260 0 -408.5 133t-148.5 367q0 117 37 238l207 776h315l-217 -807q-22 -80 -22 -162q0 -118 69.5 -187t200.5 -69q151 0 250 99q104 104 150 284l225 842h315l-239 -889q-78 -290 -230 -442q-183 -183 -504 -183z
" />
    <glyph glyph-name="Ucircumflex" unicode="&#xdb;" horiz-adv-x="1646" 
d="M741 -23q-260 0 -408.5 133t-148.5 367q0 117 37 238l207 776h315l-217 -807q-22 -80 -22 -162q0 -118 69.5 -187t200.5 -69q151 0 250 99q104 104 150 284l225 842h315l-239 -889q-78 -290 -230 -442q-183 -183 -504 -183zM653 1610l353 307h292l189 -307h-232l-135 119
l-198 -119h-269z" />
    <glyph glyph-name="Udieresis" unicode="&#xdc;" horiz-adv-x="1646" 
d="M709 1610l71 264h303l-73 -264h-301zM1167 1610l72 264h303l-74 -264h-301zM741 -23q-260 0 -408.5 133t-148.5 367q0 117 37 238l207 776h315l-217 -807q-22 -80 -22 -162q0 -118 69.5 -187t200.5 -69q151 0 250 99q104 104 150 284l225 842h315l-239 -889
q-78 -290 -230 -442q-183 -183 -504 -183z" />
    <glyph glyph-name="Yacute" unicode="&#xdd;" horiz-adv-x="1406" 
d="M379 0l158 590l-314 901h348l187 -629l526 629h381l-819 -932l-152 -559h-315zM815 1610l344 329l262 -118l-342 -211h-264z" />
    <glyph glyph-name="Thorn" unicode="&#xde;" horiz-adv-x="1484" 
d="M39 0l399 1491h316l-58 -221h158q161 0 272.5 -35.5t192.5 -114.5q115 -115 115 -305q0 -223 -152 -375q-98 -99 -245 -150.5t-328 -51.5h-291l-64 -238h-315zM492 514h231q208 0 311 100q70 73 70 177q0 80 -49 129q-65 65 -213 65h-224z" />
    <glyph glyph-name="germandbls" unicode="&#xdf;" horiz-adv-x="1366" 
d="M494 -4l65 242q188 -7 275.5 60.5t87.5 172.5q0 153 -252 184l55 207q303 70 303 279q0 79 -49.5 122.5t-124.5 43.5q-185 0 -258 -254l-281 -1053h-307l287 1071q61 223 184 352q146 146 385 146q211 0 335 -113t124 -285q0 -155 -88.5 -257.5t-247.5 -151.5
q227 -90 227 -299q0 -104 -43 -190t-128.5 -151t-226 -98.5t-322.5 -27.5z" />
    <glyph glyph-name="agrave" unicode="&#xe0;" horiz-adv-x="1269" 
d="M360 -23q-147 0 -240 86.5t-93 221.5q0 166 108 274q138 135 383 135q170 0 328 -51l6 16q12 54 12 86q0 142 -223 142q-149 0 -305 -62l-49 246q191 80 420 80q226 0 342 -90.5t116 -259.5q0 -76 -24 -170l-168 -631h-301l35 135q-148 -158 -347 -158zM492 193
q101 0 187 69t114 168l8 35q-102 41 -226 41q-125 0 -190 -68q-49 -49 -49 -119q0 -56 42.5 -91t113.5 -35zM684 1268l-201 254l277 116l137 -370h-213z" />
    <glyph glyph-name="aacute" unicode="&#xe1;" horiz-adv-x="1269" 
d="M360 -23q-147 0 -240 86.5t-93 221.5q0 166 108 274q138 135 383 135q170 0 328 -51l6 16q12 54 12 86q0 142 -223 142q-149 0 -305 -62l-49 246q191 80 420 80q226 0 342 -90.5t116 -259.5q0 -76 -24 -170l-168 -631h-301l35 135q-148 -158 -347 -158zM492 193
q101 0 187 69t114 168l8 35q-102 41 -226 41q-125 0 -190 -68q-49 -49 -49 -119q0 -56 42.5 -91t113.5 -35zM676 1268l338 370l264 -116l-340 -254h-262z" />
    <glyph glyph-name="acircumflex" unicode="&#xe2;" horiz-adv-x="1269" 
d="M360 -23q-147 0 -240 86.5t-93 221.5q0 166 108 274q138 135 383 135q170 0 328 -51l6 16q12 54 12 86q0 142 -223 142q-149 0 -305 -62l-49 246q191 80 420 80q226 0 342 -90.5t116 -259.5q0 -76 -24 -170l-168 -631h-301l35 135q-148 -158 -347 -158zM492 193
q101 0 187 69t114 168l8 35q-102 41 -226 41q-125 0 -190 -68q-49 -49 -49 -119q0 -56 42.5 -91t113.5 -35zM387 1268l346 329h295l170 -329h-225l-129 141l-207 -141h-250z" />
    <glyph glyph-name="atilde" unicode="&#xe3;" horiz-adv-x="1269" 
d="M360 -23q-147 0 -240 86.5t-93 221.5q0 166 108 274q138 135 383 135q170 0 328 -51l6 16q12 54 12 86q0 142 -223 142q-149 0 -305 -62l-49 246q191 80 420 80q226 0 342 -90.5t116 -259.5q0 -76 -24 -170l-168 -631h-301l35 135q-148 -158 -347 -158zM492 193
q101 0 187 69t114 168l8 35q-102 41 -226 41q-125 0 -190 -68q-49 -49 -49 -119q0 -56 42.5 -91t113.5 -35zM1126 1608l166 -56q-62 -145 -129 -214.5t-170 -69.5q-79 0 -182 47q-91 35 -119 35q-47 0 -77 -23.5t-64 -81.5l-166 55q62 145 129 215t170 70q79 0 182 -47
q8 -3 32.5 -12.5t34 -13t25 -7.5t27.5 -4q47 0 76.5 24.5t64.5 82.5z" />
    <glyph glyph-name="adieresis" unicode="&#xe4;" horiz-adv-x="1269" 
d="M360 -23q-147 0 -240 86.5t-93 221.5q0 166 108 274q138 135 383 135q170 0 328 -51l6 16q12 54 12 86q0 142 -223 142q-149 0 -305 -62l-49 246q191 80 420 80q226 0 342 -90.5t116 -259.5q0 -76 -24 -170l-168 -631h-301l35 135q-148 -158 -347 -158zM492 193
q101 0 187 69t114 168l8 35q-102 41 -226 41q-125 0 -190 -68q-49 -49 -49 -119q0 -56 42.5 -91t113.5 -35zM430 1268l76 280h301l-76 -280h-301zM879 1268l77 280h301l-77 -280h-301z" />
    <glyph glyph-name="aring" unicode="&#xe5;" horiz-adv-x="1269" 
d="M360 -23q-147 0 -240 86.5t-93 221.5q0 166 108 274q138 135 383 135q170 0 328 -51l6 16q12 54 12 86q0 142 -223 142q-149 0 -305 -62l-49 246q191 80 420 80q226 0 342 -90.5t116 -259.5q0 -76 -24 -170l-168 -631h-301l35 135q-148 -158 -347 -158zM492 193
q101 0 187 69t114 168l8 35q-102 41 -226 41q-125 0 -190 -68q-49 -49 -49 -119q0 -56 42.5 -91t113.5 -35zM1124 1542q0 -111 -79 -194.5t-195 -83.5q-104 0 -168 60.5t-64 154.5q0 109 79 193.5t194 84.5q104 0 168.5 -61.5t64.5 -153.5zM739 1489q0 -55 32.5 -87
t82.5 -32q64 0 107 49.5t43 112.5q0 55 -32.5 87t-84.5 32q-65 0 -106.5 -49.5t-41.5 -112.5z" />
    <glyph glyph-name="ae" unicode="&#xe6;" horiz-adv-x="2025" 
d="M1339 -25q-149 0 -260 56.5t-174 165.5q-211 -220 -514 -220q-171 0 -267.5 83.5t-96.5 224.5q0 166 108 274q138 135 383 135q170 0 328 -51l6 16q12 54 12 86q0 142 -223 142q-149 0 -305 -62l-49 246q191 80 420 80q287 0 376 -174q81 85 188 133.5t228 48.5
q209 0 331 -124t122 -318q0 -115 -56 -256h-790v-2q8 -109 74 -172t194 -62q68 0 128 21.5t132 72.5l144 -192q-75 -69 -189.5 -110.5t-249.5 -41.5zM512 193q83 0 176 40t164 111q-9 50 -12 105q-134 57 -265 57q-125 0 -190 -68q-49 -49 -49 -119q0 -57 46 -91.5
t130 -34.5zM1231 811q-59 -56 -96 -154h514q10 38 10 74q0 80 -48 129t-147 49q-135 0 -233 -98z" />
    <glyph glyph-name="ccedilla" unicode="&#xe7;" horiz-adv-x="1214" 
d="M408 -365l-234 109l252 264q-151 52 -238.5 177t-87.5 302q0 137 51.5 258.5t145.5 215.5t217 146t258 52q325 0 465 -252l-238 -166q-32 49 -61.5 79.5t-78 51.5t-111.5 21q-117 0 -213 -96q-58 -58 -92.5 -139.5t-34.5 -170.5q0 -114 66 -180.5t167 -66.5
q74 0 132.5 27t129.5 87l160 -202q-96 -87 -194 -132t-228 -45h-2z" />
    <glyph glyph-name="egrave" unicode="&#xe8;" horiz-adv-x="1310" 
d="M1180 461h-791v-2q8 -109 75 -172t193 -62q68 0 129 21.5t132 72.5l145 -192q-180 -152 -440 -152q-242 0 -383.5 135t-141.5 369q0 133 54.5 261.5t152.5 226.5q90 90 210 141t257 51q216 0 340.5 -124t124.5 -318q0 -127 -57 -256zM514 811q-61 -61 -96 -154h516
q10 38 10 74q0 80 -48 129t-146 49q-138 0 -236 -98zM733 1268l-201 254l277 116l137 -370h-213z" />
    <glyph glyph-name="eacute" unicode="&#xe9;" horiz-adv-x="1310" 
d="M725 1268l338 370l264 -116l-340 -254h-262zM1180 461h-791v-2q8 -109 75 -172t193 -62q68 0 129 21.5t132 72.5l145 -192q-180 -152 -440 -152q-242 0 -383.5 135t-141.5 369q0 133 54.5 261.5t152.5 226.5q90 90 210 141t257 51q216 0 340.5 -124t124.5 -318
q0 -127 -57 -256zM514 811q-61 -61 -96 -154h516q10 38 10 74q0 80 -48 129t-146 49q-138 0 -236 -98z" />
    <glyph glyph-name="ecircumflex" unicode="&#xea;" horiz-adv-x="1310" 
d="M436 1268l346 329h295l170 -329h-225l-129 141l-207 -141h-250zM1180 461h-791v-2q8 -109 75 -172t193 -62q68 0 129 21.5t132 72.5l145 -192q-180 -152 -440 -152q-242 0 -383.5 135t-141.5 369q0 133 54.5 261.5t152.5 226.5q90 90 210 141t257 51q216 0 340.5 -124
t124.5 -318q0 -127 -57 -256zM514 811q-61 -61 -96 -154h516q10 38 10 74q0 80 -48 129t-146 49q-138 0 -236 -98z" />
    <glyph glyph-name="edieresis" unicode="&#xeb;" horiz-adv-x="1310" 
d="M479 1268l76 280h301l-76 -280h-301zM928 1268l78 280h301l-78 -280h-301zM1180 461h-791v-2q8 -109 75 -172t193 -62q68 0 129 21.5t132 72.5l145 -192q-180 -152 -440 -152q-242 0 -383.5 135t-141.5 369q0 133 54.5 261.5t152.5 226.5q90 90 210 141t257 51
q216 0 340.5 -124t124.5 -318q0 -127 -57 -256zM514 811q-61 -61 -96 -154h516q10 38 10 74q0 80 -48 129t-146 49q-138 0 -236 -98z" />
    <glyph glyph-name="igrave" unicode="&#xec;" horiz-adv-x="657" 
d="M20 0l306 1139h311l-305 -1139h-312zM395 1268l-200 254l276 116l137 -370h-213z" />
    <glyph glyph-name="iacute" unicode="&#xed;" horiz-adv-x="657" 
d="M389 1268l338 370l264 -116l-340 -254h-262zM20 0l306 1139h311l-305 -1139h-312z" />
    <glyph glyph-name="icircumflex" unicode="&#xee;" horiz-adv-x="657" 
d="M100 1268l346 329h295l170 -329h-225l-129 141l-207 -141h-250zM20 0l306 1139h311l-305 -1139h-312z" />
    <glyph glyph-name="idieresis" unicode="&#xef;" horiz-adv-x="657" 
d="M143 1268l76 280h301l-76 -280h-301zM592 1268l78 280h301l-78 -280h-301zM20 0l306 1139h311l-305 -1139h-312z" />
    <glyph glyph-name="eth" unicode="&#xf0;" horiz-adv-x="1409" 
d="M549 1202l-51 162l211 57q-21 24 -131 133h380q8 -10 25 -28.5t21 -22.5l256 70l53 -160l-201 -55q197 -298 197 -602q0 -177 -59 -329.5t-169 -262.5q-189 -189 -460 -189q-235 0 -378 138t-143 374q0 139 50.5 261.5t142.5 214.5q169 172 399 172q95 0 166 -33.5
t137 -102.5q-50 126 -168 279zM645 238q129 0 225 96q58 58 90.5 135.5t32.5 161.5q0 122 -66.5 192t-181.5 70q-132 0 -225 -96q-119 -116 -119 -295q0 -124 64 -194t180 -70z" />
    <glyph glyph-name="ntilde" unicode="&#xf1;" horiz-adv-x="1341" 
d="M6 0l305 1139h312l-35 -125q156 145 315 145q155 0 246.5 -89t91.5 -243q0 -65 -37 -213l-164 -614h-311l168 627q16 62 16 102q0 72 -43.5 111t-121.5 39q-96 0 -163.5 -64t-97.5 -176l-172 -639h-309zM1159 1608l166 -56q-62 -145 -129 -214.5t-170 -69.5
q-79 0 -182 47q-91 35 -119 35q-47 0 -77 -23.5t-64 -81.5l-166 55q62 145 129 215t170 70q79 0 182 -47q8 -3 32.5 -12.5t34 -13t25 -7.5t27.5 -4q47 0 76.5 24.5t64.5 82.5z" />
    <glyph glyph-name="ograve" unicode="&#xf2;" horiz-adv-x="1406" 
d="M760 1159q165 0 290 -68t191 -186.5t66 -269.5q0 -129 -52.5 -250t-146.5 -215q-93 -93 -211 -144t-250 -51q-248 0 -397.5 147t-149.5 378q0 127 52.5 248.5t146.5 216.5q194 194 461 194zM662 240q121 0 215 94q58 58 91 138.5t33 154.5q0 127 -69 196.5t-187 69.5
q-123 0 -215 -92q-58 -58 -91 -138.5t-33 -154.5q0 -127 69.5 -197.5t186.5 -70.5zM758 1268l-201 254l277 116l137 -370h-213z" />
    <glyph glyph-name="oacute" unicode="&#xf3;" horiz-adv-x="1406" 
d="M737 1268l338 370l264 -116l-340 -254h-262zM760 1159q165 0 290 -68t191 -186.5t66 -269.5q0 -129 -52.5 -250t-146.5 -215q-93 -93 -211 -144t-250 -51q-248 0 -397.5 147t-149.5 378q0 127 52.5 248.5t146.5 216.5q194 194 461 194zM662 240q121 0 215 94
q58 58 91 138.5t33 154.5q0 127 -69 196.5t-187 69.5q-123 0 -215 -92q-58 -58 -91 -138.5t-33 -154.5q0 -127 69.5 -197.5t186.5 -70.5z" />
    <glyph glyph-name="ocircumflex" unicode="&#xf4;" horiz-adv-x="1406" 
d="M465 1268l346 329h295l170 -329h-225l-129 141l-207 -141h-250zM760 1159q165 0 290 -68t191 -186.5t66 -269.5q0 -129 -52.5 -250t-146.5 -215q-93 -93 -211 -144t-250 -51q-248 0 -397.5 147t-149.5 378q0 127 52.5 248.5t146.5 216.5q194 194 461 194zM662 240
q121 0 215 94q58 58 91 138.5t33 154.5q0 127 -69 196.5t-187 69.5q-123 0 -215 -92q-58 -58 -91 -138.5t-33 -154.5q0 -127 69.5 -197.5t186.5 -70.5z" />
    <glyph glyph-name="otilde" unicode="&#xf5;" horiz-adv-x="1406" 
d="M760 1159q165 0 290 -68t191 -186.5t66 -269.5q0 -129 -52.5 -250t-146.5 -215q-93 -93 -211 -144t-250 -51q-248 0 -397.5 147t-149.5 378q0 127 52.5 248.5t146.5 216.5q194 194 461 194zM662 240q121 0 215 94q58 58 91 138.5t33 154.5q0 127 -69 196.5t-187 69.5
q-123 0 -215 -92q-58 -58 -91 -138.5t-33 -154.5q0 -127 69.5 -197.5t186.5 -70.5zM1204 1608l166 -56q-62 -145 -129 -214.5t-170 -69.5q-79 0 -182 47q-91 35 -119 35q-47 0 -77 -23.5t-64 -81.5l-166 55q62 145 129 215t170 70q79 0 182 -47q8 -3 32.5 -12.5t34 -13
t25 -7.5t27.5 -4q47 0 76.5 24.5t64.5 82.5z" />
    <glyph glyph-name="odieresis" unicode="&#xf6;" horiz-adv-x="1406" 
d="M508 1268l76 280h301l-76 -280h-301zM956 1268l78 280h301l-78 -280h-301zM760 1159q165 0 290 -68t191 -186.5t66 -269.5q0 -129 -52.5 -250t-146.5 -215q-93 -93 -211 -144t-250 -51q-248 0 -397.5 147t-149.5 378q0 127 52.5 248.5t146.5 216.5q194 194 461 194z
M662 240q121 0 215 94q58 58 91 138.5t33 154.5q0 127 -69 196.5t-187 69.5q-123 0 -215 -92q-58 -58 -91 -138.5t-33 -154.5q0 -127 69.5 -197.5t186.5 -70.5z" />
    <glyph glyph-name="divide" unicode="&#xf7;" horiz-adv-x="1380" 
d="M416 145l80 299h321l-78 -299h-323zM168 618l72 263h1071l-72 -263h-1071zM659 1055l80 299h322l-78 -299h-324z" />
    <glyph glyph-name="oslash" unicode="&#xf8;" horiz-adv-x="1406" 
d="M760 1159q213 0 356 -112l109 100h274l-262 -236q70 -122 70 -276q0 -129 -52.5 -250t-146.5 -215q-93 -93 -211 -144t-250 -51q-217 0 -356 111l-109 -98h-274l260 237q-68 118 -68 275q0 127 52.5 248.5t146.5 216.5q194 194 461 194zM754 903q-134 0 -232 -98
q-59 -61 -93 -141t-34 -156q0 -54 8 -90l498 448q-61 37 -147 37zM1012 627q0 33 -11 90l-495 -451q65 -35 147 -35q133 0 232 99q59 59 93 140t34 157z" />
    <glyph glyph-name="ugrave" unicode="&#xf9;" horiz-adv-x="1341" 
d="M438 -23q-155 0 -246.5 90t-91.5 244q0 65 37 213l164 615h311l-168 -627q-14 -58 -14 -104q0 -72 43 -110t121 -38q96 0 163 64t97 176l172 639h309l-305 -1139h-309l33 125q-160 -148 -316 -148zM729 1268l-201 254l277 116l137 -370h-213z" />
    <glyph glyph-name="uacute" unicode="&#xfa;" horiz-adv-x="1341" 
d="M723 1268l338 370l264 -116l-340 -254h-262zM438 -23q-155 0 -246.5 90t-91.5 244q0 65 37 213l164 615h311l-168 -627q-14 -58 -14 -104q0 -72 43 -110t121 -38q96 0 163 64t97 176l172 639h309l-305 -1139h-309l33 125q-160 -148 -316 -148z" />
    <glyph glyph-name="ucircumflex" unicode="&#xfb;" horiz-adv-x="1341" 
d="M432 1268l346 329h295l170 -329h-225l-129 141l-207 -141h-250zM438 -23q-155 0 -246.5 90t-91.5 244q0 65 37 213l164 615h311l-168 -627q-14 -58 -14 -104q0 -72 43 -110t121 -38q96 0 163 64t97 176l172 639h309l-305 -1139h-309l33 125q-160 -148 -316 -148z" />
    <glyph glyph-name="udieresis" unicode="&#xfc;" horiz-adv-x="1341" 
d="M475 1268l76 280h301l-76 -280h-301zM924 1268l77 280h302l-78 -280h-301zM438 -23q-155 0 -246.5 90t-91.5 244q0 65 37 213l164 615h311l-168 -627q-14 -58 -14 -104q0 -72 43 -110t121 -38q96 0 163 64t97 176l172 639h309l-305 -1139h-309l33 125
q-160 -148 -316 -148z" />
    <glyph glyph-name="yacute" unicode="&#xfd;" horiz-adv-x="1277" 
d="M352 -8l-145 1147h317l62 -787l442 787h336l-713 -1168q-113 -174 -219 -246.5t-250 -72.5q-146 0 -264 80l166 225q61 -47 129 -47q43 0 73 17t66 65zM676 1268l338 370l264 -116l-340 -254h-262z" />
    <glyph glyph-name="thorn" unicode="&#xfe;" horiz-adv-x="1454" 
d="M733 1554l-147 -544q76 75 155 112t174 37q192 0 315.5 -131t123.5 -356q0 -154 -54 -283.5t-151 -224.5q-89 -89 -198.5 -138t-225.5 -49q-238 0 -363 195l-135 -512h-311l506 1894h311zM684 240q125 0 225 100q123 123 123 311q0 116 -66 181t-178 65q-129 0 -229 -100
q-127 -127 -127 -305q0 -112 70.5 -182t181.5 -70z" />
    <glyph glyph-name="ydieresis" unicode="&#xff;" horiz-adv-x="1277" 
d="M352 -8l-145 1147h317l62 -787l442 787h336l-713 -1168q-113 -174 -219 -246.5t-250 -72.5q-146 0 -264 80l166 225q61 -47 129 -47q43 0 73 17t66 65zM430 1268l76 280h301l-76 -280h-301zM879 1268l77 280h301l-77 -280h-301z" />
    <glyph glyph-name="Amacron" unicode="&#x100;" horiz-adv-x="1648" 
d="M-109 0l1045 1501h303l240 -1501h-324l-47 340h-645l-232 -340h-340zM651 618h418l-74 515zM729 1642l59 222h801l-61 -222h-799z" />
    <glyph glyph-name="amacron" unicode="&#x101;" horiz-adv-x="1269" 
d="M360 -23q-147 0 -240 86.5t-93 221.5q0 166 108 274q138 135 383 135q170 0 328 -51l6 16q12 54 12 86q0 142 -223 142q-149 0 -305 -62l-49 246q191 80 420 80q226 0 342 -90.5t116 -259.5q0 -76 -24 -170l-168 -631h-301l35 135q-148 -158 -347 -158zM492 193
q101 0 187 69t114 168l8 35q-102 41 -226 41q-125 0 -190 -68q-49 -49 -49 -119q0 -56 42.5 -91t113.5 -35zM428 1280l57 217h760l-57 -217h-760z" />
    <glyph glyph-name="Abreve" unicode="&#x102;" horiz-adv-x="1648" 
d="M-109 0l1045 1501h303l240 -1501h-324l-47 340h-645l-232 -340h-340zM651 618h418l-74 515zM1120 1626q-169 0 -254 80.5t-61 230.5h201q6 -53 43 -79.5t116 -26.5q77 0 125 26.5t82 79.5h227q-53 -150 -180.5 -230.5t-298.5 -80.5z" />
    <glyph glyph-name="abreve" unicode="&#x103;" horiz-adv-x="1269" 
d="M360 -23q-147 0 -240 86.5t-93 221.5q0 166 108 274q138 135 383 135q170 0 328 -51l6 16q12 54 12 86q0 142 -223 142q-149 0 -305 -62l-49 246q191 80 420 80q226 0 342 -90.5t116 -259.5q0 -76 -24 -170l-168 -631h-301l35 135q-148 -158 -347 -158zM492 193
q101 0 187 69t114 168l8 35q-102 41 -226 41q-125 0 -190 -68q-49 -49 -49 -119q0 -56 42.5 -91t113.5 -35zM831 1264q-91 0 -159.5 26.5t-109 73t-59 105t-16.5 126.5h215q2 -57 39.5 -93t106.5 -36q79 0 127.5 33t89.5 96h217q-52 -148 -169 -239.5t-282 -91.5z" />
    <glyph glyph-name="Aogonek" unicode="&#x104;" horiz-adv-x="1648" 
d="M1462 -211l-37 -139q-39 -6 -106 -6q-105 0 -166 37t-61 104q0 92 137 215h-74l-47 340h-645l-232 -340h-340l1045 1501h303l240 -1501h-45q-52 -52 -75.5 -86.5t-23.5 -63.5q0 -34 29 -46.5t98 -14.5zM651 618h418l-74 515z" />
    <glyph glyph-name="aogonek" unicode="&#x105;" horiz-adv-x="1269" 
d="M963 -211l-37 -139q-39 -6 -107 -6q-105 0 -166 37t-61 104q0 92 137 215h-57l35 135q-148 -158 -347 -158q-147 0 -240 86.5t-93 221.5q0 166 108 274q138 135 383 135q170 0 328 -51l6 16q12 54 12 86q0 142 -223 142q-149 0 -305 -62l-49 246q191 80 420 80
q226 0 342 -90.5t116 -259.5q0 -76 -24 -170l-168 -631h-39q-52 -52 -75 -86t-23 -64q0 -34 29 -46.5t98 -14.5zM492 193q101 0 187 69t114 168l8 35q-102 41 -226 41q-125 0 -190 -68q-49 -49 -49 -119q0 -56 42.5 -91t113.5 -35z" />
    <glyph glyph-name="Cacute" unicode="&#x106;" horiz-adv-x="1568" 
d="M854 -27q-201 0 -359 78t-248.5 226t-90.5 344q0 177 70 339.5t196 288.5t291 196.5t350 70.5q399 0 594 -318l-260 -180q-70 101 -158.5 155t-214.5 54q-98 0 -190.5 -41.5t-167.5 -116.5q-183 -183 -183 -436q0 -165 104 -267t269 -102q104 0 183 37t175 115l205 -211
q-246 -232 -565 -232zM995 1630l344 330l263 -119l-342 -211h-265z" />
    <glyph glyph-name="cacute" unicode="&#x107;" horiz-adv-x="1214" 
d="M692 1268l338 370l264 -116l-340 -254h-262zM629 -25q-231 0 -380 141t-149 371q0 137 51.5 258.5t145.5 215.5t217 146t258 52q325 0 465 -252l-238 -166q-32 49 -61.5 79.5t-78 51.5t-111.5 21q-117 0 -213 -96q-58 -58 -92.5 -139.5t-34.5 -170.5q0 -114 66 -180.5
t167 -66.5q74 0 132.5 27t129.5 87l160 -202q-97 -89 -197 -133t-237 -44z" />
    <glyph glyph-name="Cdotaccent" unicode="&#x10a;" horiz-adv-x="1568" 
d="M977 1630l72 264h311l-74 -264h-309zM854 -27q-201 0 -359 78t-248.5 226t-90.5 344q0 177 70 339.5t196 288.5t291 196.5t350 70.5q399 0 594 -318l-260 -180q-70 101 -158.5 155t-214.5 54q-98 0 -190.5 -41.5t-167.5 -116.5q-183 -183 -183 -436q0 -165 104 -267
t269 -102q104 0 183 37t175 115l205 -211q-246 -232 -565 -232z" />
    <glyph glyph-name="cdotaccent" unicode="&#x10b;" horiz-adv-x="1214" 
d="M629 -25q-231 0 -380 141t-149 371q0 137 51.5 258.5t145.5 215.5t217 146t258 52q325 0 465 -252l-238 -166q-32 49 -61.5 79.5t-78 51.5t-111.5 21q-117 0 -213 -96q-58 -58 -92.5 -139.5t-34.5 -170.5q0 -114 66 -180.5t167 -66.5q74 0 132.5 27t129.5 87l160 -202
q-97 -89 -197 -133t-237 -44zM668 1268l77 280h310l-78 -280h-309z" />
    <glyph glyph-name="Ccaron" unicode="&#x10c;" horiz-adv-x="1568" 
d="M854 -27q-201 0 -359 78t-248.5 226t-90.5 344q0 177 70 339.5t196 288.5t291 196.5t350 70.5q399 0 594 -318l-260 -180q-70 101 -158.5 155t-214.5 54q-98 0 -190.5 -41.5t-167.5 -116.5q-183 -183 -183 -436q0 -165 104 -267t269 -102q104 0 183 37t175 115l205 -211
q-246 -232 -565 -232zM1647 1937l-353 -307h-293l-188 307h231l136 -118l198 118h269z" />
    <glyph glyph-name="ccaron" unicode="&#x10d;" horiz-adv-x="1214" 
d="M631 1268l-170 329h225l129 -141l207 141h250l-348 -329h-293zM629 -25q-231 0 -380 141t-149 371q0 137 51.5 258.5t145.5 215.5t217 146t258 52q325 0 465 -252l-238 -166q-32 49 -61.5 79.5t-78 51.5t-111.5 21q-117 0 -213 -96q-58 -58 -92.5 -139.5t-34.5 -170.5
q0 -114 66 -180.5t167 -66.5q74 0 132.5 27t129.5 87l160 -202q-97 -89 -197 -133t-237 -44z" />
    <glyph glyph-name="Dcaron" unicode="&#x10e;" horiz-adv-x="1675" 
d="M1554 1917l-352 -307h-293l-188 307h231l135 -119l199 119h268zM39 0l399 1491h430q391 0 584 -193q162 -162 162 -436q0 -168 -62.5 -318t-183.5 -268q-276 -276 -780 -276h-549zM1196 1094q-112 112 -352 112h-166l-248 -921h195q156 0 287.5 46.5t222.5 137.5
q72 74 111.5 172.5t39.5 208.5q0 154 -90 244z" />
    <glyph glyph-name="dcaron" unicode="&#x10f;" horiz-adv-x="1454" 
d="M1599 1260l117 436h248v-6l-240 -430h-125zM831 0l35 129q-78 -76 -155.5 -114t-171.5 -38q-192 0 -316.5 132.5t-124.5 357.5q0 151 55 282t150 226q88 88 198.5 136t227.5 48q130 0 217 -50t146 -144l157 589h312l-418 -1554h-312zM666 240q127 0 229 102
q127 127 127 305q0 110 -71 180t-183 70q-125 0 -223 -98q-125 -125 -125 -312q0 -116 66.5 -181.5t179.5 -65.5z" />
    <glyph glyph-name="Dcroat" unicode="&#x110;" horiz-adv-x="1718" 
d="M82 0l172 641h-176l59 217h176l170 633h428q391 0 584 -193q162 -162 162 -436q0 -169 -62 -319t-182 -267q-276 -276 -780 -276h-551zM883 641h-314l-96 -356h197q324 0 508 184q73 73 112 171.5t39 209.5q0 154 -90 244q-106 112 -352 112h-166l-94 -348h315z" />
    <glyph glyph-name="dcroat" unicode="&#x111;" horiz-adv-x="1454" 
d="M836 1266l47 176h336l30 112h312l-31 -112h143l-49 -176h-141l-340 -1266h-312l35 129q-78 -76 -155.5 -114t-171.5 -38q-192 0 -316.5 132.5t-124.5 357.5q0 151 55 282t150 226q88 88 198.5 136t227.5 48q130 0 217 -50t146 -144l79 301h-335zM666 240q127 0 229 102
q127 127 127 305q0 110 -71 180t-183 70q-125 0 -223 -98q-125 -125 -125 -312q0 -116 66.5 -181.5t179.5 -65.5z" />
    <glyph glyph-name="Emacron" unicode="&#x112;" horiz-adv-x="1435" 
d="M629 1622l59 221h801l-62 -221h-798zM39 0l399 1491h1112l-75 -281h-799l-84 -321h700l-75 -277h-701l-90 -331h809l-76 -281h-1120z" />
    <glyph glyph-name="emacron" unicode="&#x113;" horiz-adv-x="1310" 
d="M1180 461h-791v-2q8 -109 75 -172t193 -62q68 0 129 21.5t132 72.5l145 -192q-180 -152 -440 -152q-242 0 -383.5 135t-141.5 369q0 133 54.5 261.5t152.5 226.5q90 90 210 141t257 51q216 0 340.5 -124t124.5 -318q0 -127 -57 -256zM514 811q-61 -61 -96 -154h516
q10 38 10 74q0 80 -48 129t-146 49q-138 0 -236 -98zM477 1280l58 217h759l-57 -217h-760z" />
    <glyph glyph-name="Ebreve" unicode="&#x114;" horiz-adv-x="1435" 
d="M1020 1606q-169 0 -254 80.5t-61 230.5h200q6 -53 43.5 -80t116.5 -27q76 0 124.5 26.5t82.5 80.5h227q-53 -150 -180.5 -230.5t-298.5 -80.5zM39 0l399 1491h1112l-75 -281h-799l-84 -321h700l-75 -277h-701l-90 -331h809l-76 -281h-1120z" />
    <glyph glyph-name="ebreve" unicode="&#x115;" horiz-adv-x="1310" 
d="M1180 461h-791v-2q8 -109 75 -172t193 -62q68 0 129 21.5t132 72.5l145 -192q-180 -152 -440 -152q-242 0 -383.5 135t-141.5 369q0 133 54.5 261.5t152.5 226.5q90 90 210 141t257 51q216 0 340.5 -124t124.5 -318q0 -127 -57 -256zM514 811q-61 -61 -96 -154h516
q10 38 10 74q0 80 -48 129t-146 49q-138 0 -236 -98zM881 1264q-91 0 -159.5 26.5t-109 73t-59 105t-16.5 126.5h215q2 -57 39 -93t106 -36q79 0 127.5 33t89.5 96h217q-52 -148 -168.5 -239.5t-281.5 -91.5z" />
    <glyph glyph-name="Edotaccent" unicode="&#x116;" horiz-adv-x="1435" 
d="M868 1610l72 264h311l-73 -264h-310zM39 0l399 1491h1112l-75 -281h-799l-84 -321h700l-75 -277h-701l-90 -331h809l-76 -281h-1120z" />
    <glyph glyph-name="edotaccent" unicode="&#x117;" horiz-adv-x="1310" 
d="M1180 461h-791v-2q8 -109 75 -172t193 -62q68 0 129 21.5t132 72.5l145 -192q-180 -152 -440 -152q-242 0 -383.5 135t-141.5 369q0 133 54.5 261.5t152.5 226.5q90 90 210 141t257 51q216 0 340.5 -124t124.5 -318q0 -127 -57 -256zM514 811q-61 -61 -96 -154h516
q10 38 10 74q0 80 -48 129t-146 49q-138 0 -236 -98zM700 1268l78 280h309l-77 -280h-310z" />
    <glyph glyph-name="Eogonek" unicode="&#x118;" horiz-adv-x="1435" 
d="M39 0l399 1491h1112l-75 -281h-799l-84 -321h700l-75 -277h-701l-90 -331h809l-76 -281h-55q-52 -52 -75 -86t-23 -64q0 -34 29 -46.5t98 -14.5l-37 -139q-39 -6 -107 -6q-105 0 -166 37t-61 104q0 92 137 215h-860z" />
    <glyph glyph-name="eogonek" unicode="&#x119;" horiz-adv-x="1310" 
d="M918 319l143 -190q-139 -104 -180 -145q-76 -76 -76 -134q0 -34 29 -46.5t98 -14.5l-37 -139q-39 -6 -107 -6q-105 0 -166 37t-61 104q0 85 107 192q-14 -2 -45 -2q-242 0 -383.5 135t-141.5 369q0 133 54.5 261.5t152.5 226.5q90 90 210 141t257 51q216 0 340.5 -124
t124.5 -318q0 -127 -57 -256h-791v-2q8 -109 75 -172t193 -62q68 0 129 21.5t132 72.5zM514 811q-61 -61 -96 -154h516q10 38 10 74q0 80 -48 129t-146 49q-138 0 -236 -98z" />
    <glyph glyph-name="Ecaron" unicode="&#x11a;" horiz-adv-x="1435" 
d="M1538 1917l-352 -307h-293l-188 307h231l135 -119l199 119h268zM39 0l399 1491h1112l-75 -281h-799l-84 -321h700l-75 -277h-701l-90 -331h809l-76 -281h-1120z" />
    <glyph glyph-name="ecaron" unicode="&#x11b;" horiz-adv-x="1310" 
d="M664 1268l-170 329h225l129 -141l207 141h250l-349 -329h-292zM1180 461h-791v-2q8 -109 75 -172t193 -62q68 0 129 21.5t132 72.5l145 -192q-180 -152 -440 -152q-242 0 -383.5 135t-141.5 369q0 133 54.5 261.5t152.5 226.5q90 90 210 141t257 51q216 0 340.5 -124
t124.5 -318q0 -127 -57 -256zM514 811q-61 -61 -96 -154h516q10 38 10 74q0 80 -48 129t-146 49q-138 0 -236 -98z" />
    <glyph glyph-name="Gbreve" unicode="&#x11e;" horiz-adv-x="1683" 
d="M1147 1626q-169 0 -254.5 81t-61.5 230h201q6 -53 43.5 -79.5t116.5 -26.5q77 0 125 26.5t82 79.5h227q-53 -150 -180.5 -230.5t-298.5 -80.5zM852 -27q-105 0 -204 24.5t-189 77t-157.5 127t-107.5 183t-40 236.5q0 176 69 336t197 288q129 127 298.5 199t364.5 72
q220 0 369.5 -72t237.5 -187l-234 -204q-161 176 -397 176q-115 0 -217.5 -44t-182.5 -124q-83 -83 -130.5 -195.5t-47.5 -234.5q0 -173 111 -271t280 -98q142 0 277 62l74 258h-340l73 272h646l-209 -737q-245 -144 -541 -144z" />
    <glyph glyph-name="gbreve" unicode="&#x11f;" horiz-adv-x="1447" 
d="M541 -344q-172 0 -327.5 42t-270.5 120l166 213q190 -129 411 -129q162 0 254 92q65 68 107 211l12 43q-95 -83 -176.5 -119.5t-186.5 -36.5q-84 0 -160 27t-135.5 76t-95 127t-35.5 172q0 282 201 483q87 87 196.5 134.5t225.5 47.5q73 0 131 -16t99 -46.5t68.5 -63
t53.5 -77.5l49 183h310l-246 -920q-44 -164 -86.5 -249t-110.5 -158q-156 -156 -454 -156zM651 342q68 0 132 27t112 75q104 104 104 238q0 99 -64.5 158t-170.5 59q-134 0 -232 -98q-106 -106 -106 -250q0 -101 61.5 -155t163.5 -54zM934 1264q-91 0 -159.5 26.5t-109 73
t-59 105t-16.5 126.5h215q2 -57 39 -93t106 -36q79 0 127.5 33t89.5 96h217q-52 -148 -168.5 -239.5t-281.5 -91.5z" />
    <glyph glyph-name="Gdotaccent" unicode="&#x120;" horiz-adv-x="1683" 
d="M995 1630l72 264h311l-73 -264h-310zM852 -27q-105 0 -204 24.5t-189 77t-157.5 127t-107.5 183t-40 236.5q0 176 69 336t197 288q129 127 298.5 199t364.5 72q220 0 369.5 -72t237.5 -187l-234 -204q-161 176 -397 176q-115 0 -217.5 -44t-182.5 -124
q-83 -83 -130.5 -195.5t-47.5 -234.5q0 -173 111 -271t280 -98q142 0 277 62l74 258h-340l73 272h646l-209 -737q-245 -144 -541 -144z" />
    <glyph glyph-name="gdotaccent" unicode="&#x121;" horiz-adv-x="1447" 
d="M541 -344q-172 0 -327.5 42t-270.5 120l166 213q190 -129 411 -129q162 0 254 92q65 68 107 211l12 43q-95 -83 -176.5 -119.5t-186.5 -36.5q-84 0 -160 27t-135.5 76t-95 127t-35.5 172q0 282 201 483q87 87 196.5 134.5t225.5 47.5q73 0 131 -16t99 -46.5t68.5 -63
t53.5 -77.5l49 183h310l-246 -920q-44 -164 -86.5 -249t-110.5 -158q-156 -156 -454 -156zM651 342q68 0 132 27t112 75q104 104 104 238q0 99 -64.5 158t-170.5 59q-134 0 -232 -98q-106 -106 -106 -250q0 -101 61.5 -155t163.5 -54zM754 1268l77 280h310l-78 -280h-309z
" />
    <glyph glyph-name="Gcommaaccent" unicode="&#x122;" horiz-adv-x="1683" 
d="M852 -27q-105 0 -204 24.5t-189 77t-157.5 127t-107.5 183t-40 236.5q0 176 69 336t197 288q129 127 298.5 199t364.5 72q220 0 369.5 -72t237.5 -187l-234 -204q-161 176 -397 176q-115 0 -217.5 -44t-182.5 -124q-83 -83 -130.5 -195.5t-47.5 -234.5q0 -173 111 -271
t280 -98q142 0 277 62l74 258h-340l73 272h646l-209 -737q-245 -144 -541 -144zM461 -621l8 95q174 15 201 151h-133l65 240h285l-53 -203q-40 -148 -130.5 -213t-242.5 -70z" />
    <glyph glyph-name="gcommaaccent" unicode="&#x123;" horiz-adv-x="1447" 
d="M541 -344q-172 0 -327.5 42t-270.5 120l166 213q190 -129 411 -129q162 0 254 92q65 68 107 211l12 43q-95 -83 -176.5 -119.5t-186.5 -36.5q-84 0 -160 27t-135.5 76t-95 127t-35.5 172q0 282 201 483q87 87 196.5 134.5t225.5 47.5q73 0 131 -16t99 -46.5t68.5 -63
t53.5 -77.5l49 183h310l-246 -920q-44 -164 -86.5 -249t-110.5 -158q-156 -156 -454 -156zM651 342q68 0 132 27t112 75q104 104 104 238q0 99 -64.5 158t-170.5 59q-134 0 -232 -98q-106 -106 -106 -250q0 -101 61.5 -155t163.5 -54zM1180 1753l-11 -96q-173 -15 -198 -150
h133l-66 -239h-284l53 200q40 148 130.5 214t242.5 71z" />
    <glyph glyph-name="Hbar" unicode="&#x126;" horiz-adv-x="1630" 
d="M182 1090l58 217h149l49 184h316l-49 -184h618l49 184h314l-50 -184h152l-59 -217h-152l-291 -1090h-315l164 604h-619l-162 -604h-315l291 1090h-148zM594 895h618l54 199h-619z" />
    <glyph glyph-name="hbar" unicode="&#x127;" horiz-adv-x="1343" 
d="M201 1266l45 176h147l31 112h311l-30 -112h329l-45 -176h-332l-67 -252q156 145 315 145q155 0 246.5 -89t91.5 -243q0 -65 -37 -213l-164 -614h-311l168 627q16 62 16 102q0 72 -43.5 111t-121.5 39q-96 0 -163.5 -64t-97.5 -176l-172 -639h-309l338 1266h-145z" />
    <glyph glyph-name="Imacron" unicode="&#x12a;" horiz-adv-x="729" 
d="M53 0l402 1491h315l-401 -1491h-316zM250 1622l59 221h801l-61 -221h-799z" />
    <glyph glyph-name="imacron" unicode="&#x12b;" horiz-adv-x="657" 
d="M20 0l306 1139h311l-305 -1139h-312zM141 1280l58 217h759l-57 -217h-760z" />
    <glyph glyph-name="Ibreve" unicode="&#x12c;" horiz-adv-x="729" 
d="M53 0l402 1491h315l-401 -1491h-316zM641 1606q-169 0 -254 80.5t-61 230.5h200q6 -53 43.5 -80t116.5 -27q76 0 124.5 26.5t82.5 80.5h227q-53 -150 -180.5 -230.5t-298.5 -80.5z" />
    <glyph glyph-name="ibreve" unicode="&#x12d;" horiz-adv-x="657" 
d="M20 0l306 1139h311l-305 -1139h-312zM543 1264q-91 0 -159.5 26.5t-109 73t-59 105t-16.5 126.5h215q2 -57 39 -93t106 -36q79 0 127.5 33t89.5 96h217q-52 -148 -168.5 -239.5t-281.5 -91.5z" />
    <glyph glyph-name="Iogonek" unicode="&#x12e;" horiz-adv-x="729" 
d="M53 0l402 1491h315l-401 -1491h-43q-52 -52 -75.5 -86.5t-23.5 -63.5q0 -34 29 -46.5t98 -14.5l-37 -139q-39 -6 -106 -6q-105 0 -166 37t-61 104q0 92 137 215h-68z" />
    <glyph glyph-name="iogonek" unicode="&#x12f;" horiz-adv-x="657" 
d="M-57 -215q0 92 137 215h-60l306 1139h311l-305 -1139h-47q-52 -52 -75.5 -86.5t-23.5 -63.5q0 -34 29 -46.5t98 -14.5l-37 -139q-39 -6 -106 -6q-105 0 -166 37t-61 104zM354 1274l76 278h328l-76 -278h-328z" />
    <glyph glyph-name="Idotaccent" unicode="&#x130;" horiz-adv-x="729" 
d="M53 0l402 1491h315l-401 -1491h-316zM489 1610l72 264h311l-73 -264h-310z" />
    <glyph glyph-name="dotlessi" unicode="&#x131;" horiz-adv-x="657" 
d="M20 0l306 1139h311l-305 -1139h-312z" />
    <glyph glyph-name="Kcommaaccent" unicode="&#x136;" horiz-adv-x="1566" 
d="M39 0l399 1491h316l-181 -678l764 678h426l-733 -627l359 -864h-347l-262 676l-317 -270l-109 -406h-315zM375 -602l8 94q174 15 201 152h-133l65 239h285l-53 -202q-40 -148 -130.5 -213t-242.5 -70z" />
    <glyph glyph-name="kcommaaccent" unicode="&#x137;" horiz-adv-x="1275" 
d="M188 -612l9 94q173 15 200 151h-133l66 240h284l-53 -203q-40 -148 -130.5 -212.5t-242.5 -69.5zM6 0l416 1554h311l-223 -825l485 410h406l-555 -449l254 -690h-348l-168 487l-176 -141l-93 -346h-309z" />
    <glyph glyph-name="Lacute" unicode="&#x139;" horiz-adv-x="1349" 
d="M530 1610l344 329l263 -118l-342 -211h-265zM39 0l399 1491h316l-322 -1204h752l-78 -287h-1067z" />
    <glyph glyph-name="lacute" unicode="&#x13a;" horiz-adv-x="657" 
d="M494 1642l344 330l262 -119l-342 -211h-264zM20 0l418 1554h310l-416 -1554h-312z" />
    <glyph glyph-name="Lcommaaccent" unicode="&#x13b;" horiz-adv-x="1349" 
d="M39 0l399 1491h316l-322 -1204h752l-78 -287h-1067zM246 -612l8 94q174 15 201 151h-133l65 240h285l-54 -203q-40 -148 -130 -212.5t-242 -69.5z" />
    <glyph glyph-name="lcommaaccent" unicode="&#x13c;" horiz-adv-x="657" 
d="M-129 -612l8 94q174 15 201 151h-133l65 240h285l-53 -203q-40 -148 -130.5 -212.5t-242.5 -69.5zM20 0l418 1554h310l-416 -1554h-312z" />
    <glyph glyph-name="Lcaron" unicode="&#x13d;" horiz-adv-x="1349" 
d="M39 0l399 1491h316l-322 -1204h752l-78 -287h-1067zM786 1057l117 436h248v-6l-240 -430h-125z" />
    <glyph glyph-name="lcaron" unicode="&#x13e;" horiz-adv-x="657" 
d="M791 1260l116 436h248v-6l-240 -430h-124zM20 0l418 1554h310l-416 -1554h-312z" />
    <glyph glyph-name="Ldot" unicode="&#x13f;" horiz-adv-x="1353" 
d="M915 672l78 280h297l-78 -280h-297zM39 0l399 1491h316l-322 -1204h752l-78 -287h-1067z" />
    <glyph glyph-name="ldot" unicode="&#x140;" horiz-adv-x="845" 
d="M645 674l70 260h250l-72 -260h-248zM20 0l418 1554h310l-416 -1554h-312z" />
    <glyph glyph-name="Lslash" unicode="&#x141;" horiz-adv-x="1419" 
d="M86 518l80 293l170 47l170 633h315l-145 -539l442 123l-78 -293l-442 -123l-98 -372h751l-77 -287h-1068l152 565z" />
    <glyph glyph-name="lslash" unicode="&#x142;" horiz-adv-x="778" 
d="M76 555l78 293l172 47l178 659h309l-151 -567l172 47l-78 -291l-172 -47l-187 -696h-311l162 602z" />
    <glyph glyph-name="Nacute" unicode="&#x143;" horiz-adv-x="1693" 
d="M989 1610l344 329l262 -118l-342 -211h-264zM39 0l399 1491h291l449 -969l262 969h311l-401 -1491h-267l-467 999l-266 -999h-311z" />
    <glyph glyph-name="nacute" unicode="&#x144;" horiz-adv-x="1341" 
d="M711 1268l338 370l264 -116l-340 -254h-262zM6 0l305 1139h312l-35 -125q156 145 315 145q155 0 246.5 -89t91.5 -243q0 -65 -37 -213l-164 -614h-311l168 627q16 62 16 102q0 72 -43.5 111t-121.5 39q-96 0 -163.5 -64t-97.5 -176l-172 -639h-309z" />
    <glyph glyph-name="Ncommaaccent" unicode="&#x145;" horiz-adv-x="1693" 
d="M389 -602l8 94q174 15 201 152h-133l65 239h285l-53 -202q-40 -148 -130.5 -213t-242.5 -70zM39 0l399 1491h291l449 -969l262 969h311l-401 -1491h-267l-467 999l-266 -999h-311z" />
    <glyph glyph-name="ncommaaccent" unicode="&#x146;" horiz-adv-x="1341" 
d="M193 -612l8 94q173 15 200 151h-133l66 240h284l-53 -203q-40 -148 -130 -212.5t-242 -69.5zM6 0l305 1139h312l-35 -125q156 145 315 145q155 0 246.5 -89t91.5 -243q0 -65 -37 -213l-164 -614h-311l168 627q16 62 16 102q0 72 -43.5 111t-121.5 39q-96 0 -163.5 -64
t-97.5 -176l-172 -639h-309z" />
    <glyph glyph-name="Ncaron" unicode="&#x147;" horiz-adv-x="1693" 
d="M1640 1917l-352 -307h-293l-188 307h231l136 -119l198 119h268zM39 0l399 1491h291l449 -969l262 969h311l-401 -1491h-267l-467 999l-266 -999h-311z" />
    <glyph glyph-name="ncaron" unicode="&#x148;" horiz-adv-x="1341" 
d="M647 1268l-170 329h225l129 -141l207 141h250l-348 -329h-293zM6 0l305 1139h312l-35 -125q156 145 315 145q155 0 246.5 -89t91.5 -243q0 -65 -37 -213l-164 -614h-311l168 627q16 62 16 102q0 72 -43.5 111t-121.5 39q-96 0 -163.5 -64t-97.5 -176l-172 -639h-309z" />
    <glyph glyph-name="Omacron" unicode="&#x14c;" horiz-adv-x="1794" 
d="M770 1642l59 222h801l-61 -222h-799zM1051 1516q150 0 278 -50.5t215.5 -138.5t137 -209t49.5 -260q0 -173 -69 -336.5t-194 -288.5q-260 -260 -632 -260q-151 0 -279.5 51t-215.5 139t-136 209.5t-49 260.5q0 172 69.5 335.5t194.5 288.5q259 259 631 259zM872 264
q203 0 355 152q83 83 129.5 196.5t46.5 225.5q0 173 -102.5 281t-284.5 108q-202 0 -354 -152q-85 -83 -132 -196.5t-47 -225.5q0 -175 102 -282t287 -107z" />
    <glyph glyph-name="omacron" unicode="&#x14d;" horiz-adv-x="1406" 
d="M506 1280l57 217h760l-57 -217h-760zM760 1159q165 0 290 -68t191 -186.5t66 -269.5q0 -129 -52.5 -250t-146.5 -215q-93 -93 -211 -144t-250 -51q-248 0 -397.5 147t-149.5 378q0 127 52.5 248.5t146.5 216.5q194 194 461 194zM662 240q121 0 215 94q58 58 91 138.5
t33 154.5q0 127 -69 196.5t-187 69.5q-123 0 -215 -92q-58 -58 -91 -138.5t-33 -154.5q0 -127 69.5 -197.5t186.5 -70.5z" />
    <glyph glyph-name="Obreve" unicode="&#x14e;" horiz-adv-x="1794" 
d="M1159 1626q-169 0 -254 80.5t-61 230.5h200q6 -53 43.5 -79.5t116.5 -26.5q77 0 125 26.5t82 79.5h227q-53 -150 -180.5 -230.5t-298.5 -80.5zM1051 1516q150 0 278 -50.5t215.5 -138.5t137 -209t49.5 -260q0 -173 -69 -336.5t-194 -288.5q-260 -260 -632 -260
q-151 0 -279.5 51t-215.5 139t-136 209.5t-49 260.5q0 172 69.5 335.5t194.5 288.5q259 259 631 259zM872 264q203 0 355 152q83 83 129.5 196.5t46.5 225.5q0 173 -102.5 281t-284.5 108q-202 0 -354 -152q-85 -83 -132 -196.5t-47 -225.5q0 -175 102 -282t287 -107z" />
    <glyph glyph-name="obreve" unicode="&#x14f;" horiz-adv-x="1406" 
d="M760 1159q165 0 290 -68t191 -186.5t66 -269.5q0 -129 -52.5 -250t-146.5 -215q-93 -93 -211 -144t-250 -51q-248 0 -397.5 147t-149.5 378q0 127 52.5 248.5t146.5 216.5q194 194 461 194zM662 240q121 0 215 94q58 58 91 138.5t33 154.5q0 127 -69 196.5t-187 69.5
q-123 0 -215 -92q-58 -58 -91 -138.5t-33 -154.5q0 -127 69.5 -197.5t186.5 -70.5zM907 1264q-91 0 -159.5 26.5t-109 73t-59 105t-16.5 126.5h215q2 -57 39.5 -93t106.5 -36q79 0 127.5 33t89.5 96h217q-52 -148 -169 -239.5t-282 -91.5z" />
    <glyph glyph-name="Ohungarumlaut" unicode="&#x150;" horiz-adv-x="1794" 
d="M1051 1516q150 0 278 -50.5t215.5 -138.5t137 -209t49.5 -260q0 -173 -69 -336.5t-194 -288.5q-260 -260 -632 -260q-151 0 -279.5 51t-215.5 139t-136 209.5t-49 260.5q0 172 69.5 335.5t194.5 288.5q259 259 631 259zM872 264q203 0 355 152q83 83 129.5 196.5
t46.5 225.5q0 173 -102.5 281t-284.5 108q-202 0 -354 -152q-85 -83 -132 -196.5t-47 -225.5q0 -175 102 -282t287 -107zM780 1630l344 330l252 -119l-342 -211h-254zM1192 1630l344 330l252 -119l-344 -211h-252z" />
    <glyph glyph-name="ohungarumlaut" unicode="&#x151;" horiz-adv-x="1406" 
d="M444 1268l334 370l234 -116l-340 -254h-228zM854 1268l340 370l231 -116l-342 -254h-229zM760 1159q165 0 290 -68t191 -186.5t66 -269.5q0 -129 -52.5 -250t-146.5 -215q-93 -93 -211 -144t-250 -51q-248 0 -397.5 147t-149.5 378q0 127 52.5 248.5t146.5 216.5
q194 194 461 194zM662 240q121 0 215 94q58 58 91 138.5t33 154.5q0 127 -69 196.5t-187 69.5q-123 0 -215 -92q-58 -58 -91 -138.5t-33 -154.5q0 -127 69.5 -197.5t186.5 -70.5z" />
    <glyph glyph-name="OE" unicode="&#x152;" horiz-adv-x="2310" 
d="M2036 0h-1135q-208 0 -350.5 51t-243.5 152q-151 151 -151 426q0 167 62 316.5t181 268.5q277 277 781 277h1245l-76 -281h-756l-86 -321h660l-76 -277h-659l-91 -331h770zM573 397q112 -112 353 -112h104l248 921h-135q-155 0 -286 -46.5t-222 -137.5
q-73 -74 -112.5 -173t-39.5 -208q0 -154 90 -244z" />
    <glyph glyph-name="oe" unicode="&#x153;" horiz-adv-x="2211" 
d="M2083 461h-791v-2q8 -109 74.5 -172t194.5 -62q68 0 128 21.5t132 72.5l143 -192q-76 -69 -189 -110.5t-249 -41.5q-153 0 -260.5 55t-163.5 160q-81 -101 -199 -158t-256 -57q-248 0 -397.5 147t-149.5 378q0 127 52.5 248.5t146.5 216.5q194 194 461 194q157 0 269 -61
t171 -170q83 107 204 169t271 62q216 0 339.5 -124t123.5 -318q0 -118 -55 -256zM662 240q121 0 215 94q58 58 91 138.5t33 154.5q0 127 -69 196.5t-187 69.5q-123 0 -215 -92q-58 -58 -91 -138.5t-33 -154.5q0 -127 69.5 -197.5t186.5 -70.5zM1417 811q-59 -56 -96 -154
h514q10 38 10 74q0 80 -47.5 129t-146.5 49q-136 0 -234 -98z" />
    <glyph glyph-name="Racute" unicode="&#x154;" horiz-adv-x="1566" 
d="M977 0l-236 485h-2h-256l-129 -485h-315l399 1491h543q321 0 469 -148q115 -115 115 -296q0 -215 -138 -353q-130 -130 -350 -178l258 -516h-358zM559 764h301q213 0 311 98q64 67 64 158q0 76 -47 123q-66 63 -223 63h-287zM862 1610l344 329l262 -118l-342 -211h-264z
" />
    <glyph glyph-name="racute" unicode="&#x155;" horiz-adv-x="909" 
d="M518 1268l338 370l264 -116l-340 -254h-262zM6 0l305 1139h312l-64 -236q92 136 198.5 201t243.5 55l-88 -325h-16q-170 0 -290.5 -104.5t-178.5 -321.5l-113 -408h-309z" />
    <glyph glyph-name="Rcommaaccent" unicode="&#x156;" horiz-adv-x="1566" 
d="M977 0l-236 485h-2h-256l-129 -485h-315l399 1491h543q321 0 469 -148q115 -115 115 -296q0 -215 -138 -353q-130 -130 -350 -178l258 -516h-358zM559 764h301q213 0 311 98q64 67 64 158q0 76 -47 123q-66 63 -223 63h-287zM328 -602l8 94q174 15 201 152h-134l66 239
h285l-54 -202q-40 -148 -130.5 -213t-241.5 -70z" />
    <glyph glyph-name="rcommaaccent" unicode="&#x157;" horiz-adv-x="909" 
d="M-129 -612l8 94q174 15 201 151h-133l65 240h285l-53 -203q-40 -148 -130.5 -212.5t-242.5 -69.5zM6 0l305 1139h312l-64 -236q92 136 198.5 201t243.5 55l-88 -325h-16q-170 0 -290.5 -104.5t-178.5 -321.5l-113 -408h-309z" />
    <glyph glyph-name="Rcaron" unicode="&#x158;" horiz-adv-x="1566" 
d="M1513 1917l-352 -307h-293l-188 307h231l136 -119l198 119h268zM977 0l-236 485h-2h-256l-129 -485h-315l399 1491h543q321 0 469 -148q115 -115 115 -296q0 -215 -138 -353q-130 -130 -350 -178l258 -516h-358zM559 764h301q213 0 311 98q64 67 64 158q0 76 -47 123
q-66 63 -223 63h-287z" />
    <glyph glyph-name="rcaron" unicode="&#x159;" horiz-adv-x="909" 
d="M457 1268l-170 329h225l129 -141l207 141h250l-348 -329h-293zM6 0l305 1139h312l-64 -236q92 136 198.5 201t243.5 55l-88 -325h-16q-170 0 -290.5 -104.5t-178.5 -321.5l-113 -408h-309z" />
    <glyph glyph-name="Sacute" unicode="&#x15a;" horiz-adv-x="1376" 
d="M639 -20q-432 0 -647 274l237 201q93 -101 194.5 -150t229.5 -49q105 0 172.5 45.5t67.5 118.5q0 57 -53 99.5t-203 103.5q-85 34 -145 67.5t-115 81.5t-83 111.5t-28 142.5q0 186 131 317q79 79 199.5 123.5t257.5 44.5q355 0 557 -221l-217 -217q-91 84 -175 123
t-190 39q-104 0 -165.5 -47.5t-61.5 -112.5q0 -59 54 -100t212 -103q84 -33 145.5 -68t112.5 -82.5t77 -110.5t26 -140q0 -188 -133 -321q-170 -170 -457 -170zM799 1630l344 330l262 -119l-342 -211h-264z" />
    <glyph glyph-name="sacute" unicode="&#x15b;" 
d="M573 1268l338 370l265 -116l-340 -254h-263zM473 -25q-137 0 -277 52.5t-233 152.5l180 187q154 -154 353 -154q67 0 106 28t39 78q0 33 -34 59t-105 54q-79 34 -129.5 60.5t-101 66t-75 90.5t-24.5 115q0 173 123.5 284t331.5 111q128 0 248 -47.5t196 -114.5l-168 -196
q-150 121 -299 121q-65 0 -100 -27.5t-35 -75.5q0 -33 35.5 -60t120.5 -65q55 -24 93 -42.5t83 -48.5t72 -61t46 -75t19 -94q0 -182 -130 -290t-335 -108z" />
    <glyph glyph-name="Scedilla" unicode="&#x15e;" horiz-adv-x="1376" 
d="M412 -365l-234 109l244 256q-281 56 -430 254l237 201q93 -101 194.5 -150t229.5 -49q105 0 172.5 45.5t67.5 118.5q0 57 -53 99.5t-203 103.5q-85 34 -145 67.5t-115 81.5t-83 111.5t-28 142.5q0 186 131 317q79 79 199.5 123.5t257.5 44.5q355 0 557 -221l-217 -217
q-91 84 -175 123t-190 39q-104 0 -165.5 -47.5t-61.5 -112.5q0 -59 54 -100t212 -103q84 -33 145.5 -68t112.5 -82.5t77 -110.5t26 -140q0 -188 -133 -321q-167 -167 -451 -170v-3z" />
    <glyph glyph-name="scedilla" unicode="&#x15f;" 
d="M270 -365l-233 109l244 256q-192 51 -318 180l180 187q154 -154 353 -154q67 0 106 28t39 78q0 33 -34 59t-105 54q-79 34 -129.5 60.5t-101 66t-75 90.5t-24.5 115q0 173 123.5 284t331.5 111q128 0 248 -47.5t196 -114.5l-168 -196q-150 121 -299 121q-65 0 -100 -27.5
t-35 -75.5q0 -33 35.5 -60t120.5 -65q55 -24 93 -42.5t83 -48.5t72 -61t46 -75t19 -94q0 -177 -120 -283.5t-314 -114.5h-2z" />
    <glyph glyph-name="Scaron" unicode="&#x160;" horiz-adv-x="1376" 
d="M639 -20q-432 0 -647 274l237 201q93 -101 194.5 -150t229.5 -49q105 0 172.5 45.5t67.5 118.5q0 57 -53 99.5t-203 103.5q-85 34 -145 67.5t-115 81.5t-83 111.5t-28 142.5q0 186 131 317q79 79 199.5 123.5t257.5 44.5q355 0 557 -221l-217 -217q-91 84 -175 123
t-190 39q-104 0 -165.5 -47.5t-61.5 -112.5q0 -59 54 -100t212 -103q84 -33 145.5 -68t112.5 -82.5t77 -110.5t26 -140q0 -188 -133 -321q-170 -170 -457 -170zM1450 1937l-352 -307h-293l-189 307h232l135 -118l199 118h268z" />
    <glyph glyph-name="scaron" unicode="&#x161;" 
d="M514 1268l-170 329h225l129 -141l207 141h250l-348 -329h-293zM473 -25q-137 0 -277 52.5t-233 152.5l180 187q154 -154 353 -154q67 0 106 28t39 78q0 33 -34 59t-105 54q-79 34 -129.5 60.5t-101 66t-75 90.5t-24.5 115q0 173 123.5 284t331.5 111q128 0 248 -47.5
t196 -114.5l-168 -196q-150 121 -299 121q-65 0 -100 -27.5t-35 -75.5q0 -33 35.5 -60t120.5 -65q55 -24 93 -42.5t83 -48.5t72 -61t46 -75t19 -94q0 -182 -130 -290t-335 -108z" />
    <glyph glyph-name="Tcommaaccent" unicode="&#x162;" horiz-adv-x="1339" 
d="M354 0l324 1200h-457l78 291h1229l-78 -291h-457l-323 -1200h-316zM207 -612l8 94q174 15 201 151h-133l65 240h285l-53 -203q-40 -148 -130.5 -212.5t-242.5 -69.5z" />
    <glyph glyph-name="Tcommaaccent" unicode="&#x21a;" horiz-adv-x="1339" 
d="M354 0l324 1200h-457l78 291h1229l-78 -291h-457l-323 -1200h-316zM207 -612l8 94q174 15 201 151h-133l65 240h285l-53 -203q-40 -148 -130.5 -212.5t-242.5 -69.5z" />
    <glyph glyph-name="tcommaaccent" unicode="&#x163;" horiz-adv-x="901" 
d="M47 -612l8 94q174 15 201 151h-133l65 240h285l-53 -203q-40 -148 -130.5 -212.5t-242.5 -69.5zM422 -18q-143 0 -217 61t-74 162q0 65 21 139l141 528h-137l71 267h138l79 295h312l-80 -295h274l-71 -267h-275l-131 -491q-10 -30 -10 -53q0 -74 94 -74q78 0 166 37
l-72 -264q-99 -45 -229 -45z" />
    <glyph glyph-name="tcommaaccent" unicode="&#x21b;" horiz-adv-x="901" 
d="M47 -612l8 94q174 15 201 151h-133l65 240h285l-53 -203q-40 -148 -130.5 -212.5t-242.5 -69.5zM422 -18q-143 0 -217 61t-74 162q0 65 21 139l141 528h-137l71 267h138l79 295h312l-80 -295h274l-71 -267h-275l-131 -491q-10 -30 -10 -53q0 -74 94 -74q78 0 166 37
l-72 -264q-99 -45 -229 -45z" />
    <glyph glyph-name="Tcaron" unicode="&#x164;" horiz-adv-x="1339" 
d="M1458 1917l-352 -307h-293l-188 307h231l135 -119l199 119h268zM354 0l324 1200h-457l78 291h1229l-78 -291h-457l-323 -1200h-316z" />
    <glyph glyph-name="tcaron" unicode="&#x165;" horiz-adv-x="901" 
d="M829 1260l117 436h248v-6l-240 -430h-125zM422 -18q-143 0 -217 61t-74 162q0 65 21 139l141 528h-137l71 267h138l79 295h312l-80 -295h274l-71 -267h-275l-131 -491q-10 -30 -10 -53q0 -74 94 -74q78 0 166 37l-72 -264q-99 -45 -229 -45z" />
    <glyph glyph-name="Umacron" unicode="&#x16a;" horiz-adv-x="1646" 
d="M694 1622l60 221h800l-61 -221h-799zM741 -23q-260 0 -408.5 133t-148.5 367q0 117 37 238l207 776h315l-217 -807q-22 -80 -22 -162q0 -118 69.5 -187t200.5 -69q151 0 250 99q104 104 150 284l225 842h315l-239 -889q-78 -290 -230 -442q-183 -183 -504 -183z" />
    <glyph glyph-name="umacron" unicode="&#x16b;" horiz-adv-x="1341" 
d="M438 -23q-155 0 -246.5 90t-91.5 244q0 65 37 213l164 615h311l-168 -627q-14 -58 -14 -104q0 -72 43 -110t121 -38q96 0 163 64t97 176l172 639h309l-305 -1139h-309l33 125q-160 -148 -316 -148zM473 1280l57 217h760l-57 -217h-760z" />
    <glyph glyph-name="Ubreve" unicode="&#x16c;" horiz-adv-x="1646" 
d="M1077 1587q-169 0 -254 80.5t-61 230.5h201q6 -53 43 -79.5t116 -26.5q77 0 125 26.5t82 79.5h227q-53 -150 -180.5 -230.5t-298.5 -80.5zM741 -23q-260 0 -408.5 133t-148.5 367q0 117 37 238l207 776h315l-217 -807q-22 -80 -22 -162q0 -118 69.5 -187t200.5 -69
q151 0 250 99q104 104 150 284l225 842h315l-239 -889q-78 -290 -230 -442q-183 -183 -504 -183z" />
    <glyph glyph-name="ubreve" unicode="&#x16d;" horiz-adv-x="1341" 
d="M438 -23q-155 0 -246.5 90t-91.5 244q0 65 37 213l164 615h311l-168 -627q-14 -58 -14 -104q0 -72 43 -110t121 -38q96 0 163 64t97 176l172 639h309l-305 -1139h-309l33 125q-160 -148 -316 -148zM877 1264q-91 0 -160 26.5t-109 73t-59 105t-17 126.5h216q2 -57 39 -93
t106 -36q79 0 127.5 33t89.5 96h217q-52 -148 -168.5 -239.5t-281.5 -91.5z" />
    <glyph glyph-name="Uring" unicode="&#x16e;" horiz-adv-x="1646" 
d="M741 -23q-260 0 -408.5 133t-148.5 367q0 117 37 238l207 776h315l-217 -807q-22 -80 -22 -162q0 -118 69.5 -187t200.5 -69q151 0 250 99q104 104 150 284l225 842h315l-239 -889q-78 -290 -230 -442q-183 -183 -504 -183zM1153 2021q100 0 169 -60t69 -144
q0 -110 -78.5 -186.5t-212.5 -76.5q-101 0 -169.5 60t-68.5 145q0 108 78.5 185t212.5 77zM1110 1665q69 0 111.5 42.5t42.5 96.5q0 47 -33.5 77t-87.5 30q-69 0 -111.5 -42.5t-42.5 -96.5q0 -49 33.5 -78t87.5 -29z" />
    <glyph glyph-name="uring" unicode="&#x16f;" horiz-adv-x="1343" 
d="M1151 1513q0 -111 -79 -194.5t-195 -83.5q-104 0 -168 60.5t-64 154.5q0 109 79 194t194 85q104 0 168.5 -62t64.5 -154zM766 1460q0 -54 32 -86.5t83 -32.5q64 0 106.5 49.5t42.5 112.5q0 55 -32.5 87t-84.5 32q-65 0 -106 -49.5t-41 -112.5zM438 -23q-155 0 -246.5 90
t-91.5 244q0 65 37 213l164 615h311l-168 -627q-14 -58 -14 -104q0 -72 43 -110t121 -38q96 0 163 64t97 176l172 639h309l-305 -1139h-309l33 125q-160 -148 -316 -148z" />
    <glyph glyph-name="Uhungarumlaut" unicode="&#x170;" horiz-adv-x="1646" 
d="M741 -23q-260 0 -408.5 133t-148.5 367q0 117 37 238l207 776h315l-217 -807q-22 -80 -22 -162q0 -118 69.5 -187t200.5 -69q151 0 250 99q104 104 150 284l225 842h315l-239 -889q-78 -290 -230 -442q-183 -183 -504 -183zM705 1610l344 329l251 -118l-342 -211h-253z
M1116 1610l344 329l252 -118l-344 -211h-252z" />
    <glyph glyph-name="uhungarumlaut" unicode="&#x171;" horiz-adv-x="1341" 
d="M438 -23q-155 0 -246.5 90t-91.5 244q0 65 37 213l164 615h311l-168 -627q-14 -58 -14 -104q0 -72 43 -110t121 -38q96 0 163 64t97 176l172 639h309l-305 -1139h-309l33 125q-160 -148 -316 -148zM416 1268l334 370l233 -116l-340 -254h-227zM825 1268l340 370l232 -116
l-342 -254h-230z" />
    <glyph glyph-name="Uogonek" unicode="&#x172;" horiz-adv-x="1646" 
d="M825 -211l-37 -139q-39 -6 -106 -6q-105 0 -166 37t-61 104q0 92 129 207q-191 37 -295.5 162.5t-104.5 322.5q0 117 37 238l207 776h315l-217 -807q-22 -80 -22 -162q0 -118 69.5 -187t200.5 -69q151 0 250 99q104 104 150 284l225 842h315l-239 -889
q-78 -290 -230 -442q-174 -174 -469 -183h-2q-76 -73 -76 -127q0 -34 29 -46.5t98 -14.5z" />
    <glyph glyph-name="uogonek" unicode="&#x173;" horiz-adv-x="1343" 
d="M438 -23q-155 0 -246.5 90t-91.5 244q0 65 37 213l164 615h311l-168 -627q-14 -58 -14 -104q0 -72 43 -110t121 -38q96 0 163 64t97 176l172 639h309l-305 -1139h-39q-52 -52 -75 -86t-23 -64q0 -34 29 -46.5t98 -14.5l-37 -139q-39 -6 -106 -6q-105 0 -166.5 37
t-61.5 104q0 92 137 215h-65l33 125q-160 -148 -316 -148z" />
    <glyph glyph-name="Wcircumflex" unicode="&#x174;" horiz-adv-x="2375" 
d="M397 -10l-108 1501h327l43 -1028l613 1032h270l68 -1032l594 1028h356l-913 -1501h-291l-74 977l-596 -977h-289zM1008 1610l352 307h293l188 -307h-231l-135 119l-199 -119h-268z" />
    <glyph glyph-name="wcircumflex" unicode="&#x175;" horiz-adv-x="1845" 
d="M678 1268l346 329h295l170 -329h-225l-129 141l-207 -141h-250zM248 -8l-47 1147h315l2 -709l412 713h268l31 -715l389 711h309l-667 -1147h-279l-35 715l-422 -715h-276z" />
    <glyph glyph-name="Ycircumflex" unicode="&#x176;" horiz-adv-x="1406" 
d="M379 0l158 590l-314 901h348l187 -629l526 629h381l-819 -932l-152 -559h-315zM518 1610l352 307h293l189 -307h-232l-135 119l-199 -119h-268z" />
    <glyph glyph-name="ycircumflex" unicode="&#x177;" horiz-adv-x="1277" 
d="M352 -8l-145 1147h317l62 -787l442 787h336l-713 -1168q-113 -174 -219 -246.5t-250 -72.5q-146 0 -264 80l166 225q61 -47 129 -47q43 0 73 17t66 65zM385 1268l346 329h295l170 -329h-225l-129 141l-207 -141h-250z" />
    <glyph glyph-name="Ydieresis" unicode="&#x178;" horiz-adv-x="1406" 
d="M379 0l158 590l-314 901h348l187 -629l526 629h381l-819 -932l-152 -559h-315zM571 1610l72 264h303l-74 -264h-301zM1030 1610l72 264h303l-74 -264h-301z" />
    <glyph glyph-name="Zacute" unicode="&#x179;" horiz-adv-x="1484" 
d="M-31 0l64 238l1067 976h-778l75 277h1205l-66 -238l-1065 -977h811l-74 -276h-1239zM858 1610l344 329l262 -118l-342 -211h-264z" />
    <glyph glyph-name="zacute" unicode="&#x17a;" horiz-adv-x="1206" 
d="M627 1268l338 370l264 -116l-340 -254h-262zM-45 0l57 217l764 670h-563l68 252h962l-59 -219l-766 -668h594l-68 -252h-989z" />
    <glyph glyph-name="Zdotaccent" unicode="&#x17b;" horiz-adv-x="1484" 
d="M840 1610l71 264h312l-74 -264h-309zM-31 0l64 238l1067 976h-778l75 277h1205l-66 -238l-1065 -977h811l-74 -276h-1239z" />
    <glyph glyph-name="zdotaccent" unicode="&#x17c;" horiz-adv-x="1206" 
d="M-45 0l57 217l764 670h-563l68 252h962l-59 -219l-766 -668h594l-68 -252h-989zM602 1268l78 280h309l-78 -280h-309z" />
    <glyph glyph-name="Zcaron" unicode="&#x17d;" horiz-adv-x="1484" 
d="M1509 1917l-352 -307h-293l-188 307h231l135 -119l199 119h268zM-31 0l64 238l1067 976h-778l75 277h1205l-66 -238l-1065 -977h811l-74 -276h-1239z" />
    <glyph glyph-name="zcaron" unicode="&#x17e;" horiz-adv-x="1206" 
d="M567 1268l-170 329h226l129 -141l206 141h250l-348 -329h-293zM-45 0l57 217l764 670h-563l68 252h962l-59 -219l-766 -668h594l-68 -252h-989z" />
    <glyph glyph-name="uni018F" unicode="&#x18f;" horiz-adv-x="1716" 
d="M156 551q0 151 69 332h1116v2q-5 148 -101 243t-277 95q-201 0 -424 -146l-154 246q283 190 594 190q308 0 491 -177t183 -476q0 -175 -66 -337.5t-190 -286.5q-261 -261 -625 -261q-286 0 -451 159t-165 417zM1163 412q94 94 137 206h-825q-10 -52 -10 -77
q0 -55 18 -103.5t55.5 -90t103 -65.5t151.5 -24q116 0 211.5 45.5t158.5 108.5z" />
    <glyph glyph-name="florin" unicode="&#x192;" horiz-adv-x="1175" 
d="M137 -18q-100 0 -188 18l67 250q49 -12 101 -12q100 0 164 137l161 362h-157l69 256h203l82 191q145 325 432 325q151 0 254 -41l-68 -254q-72 35 -163 35q-64 0 -109 -38.5t-82 -116.5l-45 -101h262l-69 -256h-308l-200 -456q-133 -299 -406 -299z" />
    <glyph glyph-name="Aringacute" unicode="&#x1fa;" horiz-adv-x="1648" 
d="M-109 0l1000 1434q-43 55 -43 118q0 109 77 186t212 77q101 0 170 -60t69 -145q0 -67 -31 -125t-90 -94l224 -1391h-324l-47 340h-645l-232 -340h-340zM651 618h418l-74 515zM1094 1458q69 0 112 42.5t43 96.5q0 47 -33.5 77t-87.5 30q-68 0 -110.5 -42t-42.5 -97
q0 -48 32.5 -77.5t86.5 -29.5zM1036 1874l344 289l262 -119l-344 -170h-262z" />
    <glyph glyph-name="aringacute" unicode="&#x1fb;" horiz-adv-x="1269" 
d="M360 -23q-147 0 -240 86.5t-93 221.5q0 166 108 274q138 135 383 135q170 0 328 -51l6 16q12 54 12 86q0 142 -223 142q-149 0 -305 -62l-49 246q191 80 420 80q226 0 342 -90.5t116 -259.5q0 -76 -24 -170l-168 -631h-301l35 135q-148 -158 -347 -158zM492 193
q101 0 187 69t114 168l8 35q-102 41 -226 41q-125 0 -190 -68q-49 -49 -49 -119q0 -56 42.5 -91t113.5 -35zM1124 1542q0 -111 -79 -194.5t-195 -83.5q-104 0 -168 60.5t-64 154.5q0 109 79 193.5t194 84.5q104 0 168.5 -61.5t64.5 -153.5zM739 1489q0 -55 32.5 -87
t82.5 -32q64 0 107 49.5t43 112.5q0 55 -32.5 87t-84.5 32q-65 0 -106.5 -49.5t-41.5 -112.5zM831 1829l334 309l260 -119l-340 -190h-254z" />
    <glyph glyph-name="AEacute" unicode="&#x1fc;" horiz-adv-x="2273" 
d="M1421 1610l344 329l263 -118l-342 -211h-265zM-117 0l1211 1491h1294l-76 -281h-756l-86 -321h660l-76 -277h-659l-90 -331h770l-76 -281h-1081l92 340h-512l-271 -340h-344zM721 618h364l160 601h-41z" />
    <glyph glyph-name="aeacute" unicode="&#x1fd;" horiz-adv-x="2025" 
d="M1026 1268l338 370l264 -116l-340 -254h-262zM1339 -25q-149 0 -260 56.5t-174 165.5q-211 -220 -514 -220q-171 0 -267.5 83.5t-96.5 224.5q0 166 108 274q138 135 383 135q170 0 328 -51l6 16q12 54 12 86q0 142 -223 142q-149 0 -305 -62l-49 246q191 80 420 80
q287 0 376 -174q81 85 188 133.5t228 48.5q209 0 331 -124t122 -318q0 -115 -56 -256h-790v-2q8 -109 74 -172t194 -62q68 0 128 21.5t132 72.5l144 -192q-75 -69 -189.5 -110.5t-249.5 -41.5zM512 193q83 0 176 40t164 111q-9 50 -12 105q-134 57 -265 57q-125 0 -190 -68
q-49 -49 -49 -119q0 -57 46 -91.5t130 -34.5zM1231 811q-59 -56 -96 -154h514q10 38 10 74q0 80 -48 129t-147 49q-135 0 -233 -98z" />
    <glyph glyph-name="Oslashacute" unicode="&#x1fe;" horiz-adv-x="1794" 
d="M1051 1516q259 0 444 -148l145 133h304l-312 -287q99 -157 99 -356q0 -173 -69 -336.5t-194 -288.5q-260 -260 -632 -260q-270 0 -447 148l-143 -131h-303l311 284q-98 154 -98 359q0 172 69.5 335.5t194.5 288.5q259 259 631 259zM471 651q0 -87 29 -172l760 692
q-98 70 -242 70q-207 0 -363 -156q-87 -85 -135.5 -201t-48.5 -233zM870 250q212 0 363 158q86 86 134 201t48 233q0 89 -31 168l-757 -693q98 -67 243 -67zM1012 1630l344 330l262 -119l-342 -211h-264z" />
    <glyph glyph-name="oslashacute" unicode="&#x1ff;" horiz-adv-x="1406" 
d="M760 1159q213 0 356 -112l109 100h274l-262 -236q70 -122 70 -276q0 -129 -52.5 -250t-146.5 -215q-93 -93 -211 -144t-250 -51q-217 0 -356 111l-109 -98h-274l260 237q-68 118 -68 275q0 127 52.5 248.5t146.5 216.5q194 194 461 194zM754 903q-134 0 -232 -98
q-59 -61 -93 -141t-34 -156q0 -54 8 -90l498 448q-61 37 -147 37zM1012 627q0 33 -11 90l-495 -451q65 -35 147 -35q133 0 232 99q59 59 93 140t34 157zM737 1268l338 370l264 -116l-340 -254h-262z" />
    <glyph glyph-name="Scommaaccent" unicode="&#x218;" horiz-adv-x="1376" 
d="M639 -20q-432 0 -647 274l237 201q93 -101 194.5 -150t229.5 -49q105 0 172.5 45.5t67.5 118.5q0 57 -53 99.5t-203 103.5q-85 34 -145 67.5t-115 81.5t-83 111.5t-28 142.5q0 186 131 317q79 79 199.5 123.5t257.5 44.5q355 0 557 -221l-217 -217q-91 84 -175 123
t-190 39q-104 0 -165.5 -47.5t-61.5 -112.5q0 -59 54 -100t212 -103q84 -33 145.5 -68t112.5 -82.5t77 -110.5t26 -140q0 -188 -133 -321q-170 -170 -457 -170zM227 -621l9 95q173 15 200 151h-133l66 240h284l-53 -203q-40 -148 -130.5 -213t-242.5 -70z" />
    <glyph glyph-name="scommaaccent" unicode="&#x219;" 
d="M78 -612l8 94q174 15 201 151h-133l65 240h285l-53 -203q-40 -148 -130.5 -212.5t-242.5 -69.5zM473 -25q-137 0 -277 52.5t-233 152.5l180 187q154 -154 353 -154q67 0 106 28t39 78q0 33 -34 59t-105 54q-79 34 -129.5 60.5t-101 66t-75 90.5t-24.5 115
q0 173 123.5 284t331.5 111q128 0 248 -47.5t196 -114.5l-168 -196q-150 121 -299 121q-65 0 -100 -27.5t-35 -75.5q0 -33 35.5 -60t120.5 -65q55 -24 93 -42.5t83 -48.5t72 -61t46 -75t19 -94q0 -182 -130 -290t-335 -108z" />
    <glyph glyph-name="schwa" unicode="&#x259;" horiz-adv-x="1310" 
d="M74 422q0 118 55 256h789v2q-6 107 -73.5 170.5t-191.5 62.5q-68 0 -129.5 -21.5t-132.5 -72.5l-143 193q178 151 440 151q242 0 383 -135t141 -369q0 -134 -54 -261.5t-152 -225.5q-91 -91 -211 -143t-258 -52q-144 0 -250 59t-159.5 159t-53.5 227zM795 328
q60 60 96 153h-514q-10 -38 -10 -75q0 -79 47.5 -128t146.5 -49q141 0 234 99z" />
    <glyph glyph-name="circumflex" unicode="&#x2c6;" 
d="M326 1268l346 329h295l170 -329h-226l-129 141l-207 -141h-249z" />
    <glyph glyph-name="caron" unicode="&#x2c7;" 
d="M575 1268l-169 329h225l129 -141l207 141h250l-349 -329h-293z" />
    <glyph glyph-name="breve" unicode="&#x2d8;" 
d="M762 1264q-91 0 -159.5 26.5t-109 73t-59 105t-16.5 126.5h215q2 -57 39 -93t106 -36q79 0 127.5 33t89.5 96h217q-52 -148 -168.5 -239.5t-281.5 -91.5z" />
    <glyph glyph-name="dotaccent" unicode="&#x2d9;" 
d="M578 1268l77 280h310l-78 -280h-309z" />
    <glyph glyph-name="ring" unicode="&#x2da;" 
d="M1049 1542q0 -111 -79.5 -194.5t-195.5 -83.5q-104 0 -167.5 60.5t-63.5 154.5q0 109 78.5 193.5t193.5 84.5q104 0 169 -61.5t65 -153.5zM664 1489q0 -55 32 -87t82 -32q64 0 107 49.5t43 112.5q0 55 -32.5 87t-84.5 32q-65 0 -106 -49.5t-41 -112.5z" />
    <glyph glyph-name="ogonek" unicode="&#x2db;" 
d="M561 -211l-37 -139q-39 -6 -106 -6q-105 0 -166.5 37t-61.5 104q0 57 42 113t122 125l199 -3q-67 -67 -93 -102t-26 -68q0 -34 29 -46.5t98 -14.5z" />
    <glyph glyph-name="tilde" unicode="&#x2dc;" 
d="M1055 1608l166 -56q-62 -145 -129 -214.5t-170 -69.5q-80 0 -183 47q-91 35 -118 35q-47 0 -77.5 -24t-64.5 -81l-166 55q62 145 129 215t170 70q80 0 183 -47q9 -4 32 -13t33.5 -12.5t25.5 -7.5t27 -4q47 0 77 24.5t65 82.5z" />
    <glyph glyph-name="hungarumlaut" unicode="&#x2dd;" 
d="M281 1268l333 370l234 -116l-340 -254h-227zM690 1268l340 370l232 -116l-342 -254h-230z" />
    <glyph glyph-name="commaaccent" unicode="&#x326;" 
d="M80 -612l8 94q174 15 201 151h-133l65 240h285l-53 -203q-40 -148 -130.5 -212.5t-242.5 -69.5z" />
    <glyph glyph-name="uni0384" unicode="&#x384;" 
d="M549 1268l260 383l258 -117l-285 -266h-233z" />
    <glyph glyph-name="uni0385" unicode="&#x385;" 
d="M934 1268l76 276h264l-74 -276h-266zM262 1268l74 276h266l-76 -276h-264zM571 1268l205 436l268 -59l-282 -377h-191z" />
    <glyph glyph-name="uni0386" unicode="&#x386;" horiz-adv-x="1648" 
d="M-109 0l1045 1501h303l240 -1501h-324l-47 340h-645l-232 -340h-340zM651 618h418l-74 515zM182 1059l135 442h330l-278 -442h-187z" />
    <glyph glyph-name="uni0387" unicode="&#x387;" horiz-adv-x="643" 
d="M219 807l88 332h332l-86 -332h-334z" />
    <glyph glyph-name="uni0388" unicode="&#x388;" horiz-adv-x="1437" 
d="M-104 1049l135 442h329l-278 -442h-186zM39 0l399 1491h1112l-75 -281h-799l-84 -321h700l-75 -277h-701l-90 -331h809l-76 -281h-1120z" />
    <glyph glyph-name="uni0389" unicode="&#x389;" horiz-adv-x="1630" 
d="M59 0l400 1491h315l-158 -596h617l160 596h313l-399 -1491h-316l164 604h-616l-164 -604h-316zM-104 1049l135 442h329l-278 -442h-186z" />
    <glyph glyph-name="uni038A" unicode="&#x38a;" horiz-adv-x="729" 
d="M53 0l402 1491h315l-401 -1491h-316zM-104 1049l135 442h329l-278 -442h-186z" />
    <glyph glyph-name="uni038C" unicode="&#x38c;" horiz-adv-x="1794" 
d="M-86 1073l135 443h330l-279 -443h-186zM1051 1516q150 0 278 -50.5t215.5 -138.5t137 -209t49.5 -260q0 -173 -69 -336.5t-194 -288.5q-260 -260 -632 -260q-151 0 -279.5 51t-215.5 139t-136 209.5t-49 260.5q0 172 69.5 335.5t194.5 288.5q259 259 631 259zM872 264
q203 0 355 152q83 83 129.5 196.5t46.5 225.5q0 173 -102.5 281t-284.5 108q-202 0 -354 -152q-85 -83 -132 -196.5t-47 -225.5q0 -175 102 -282t287 -107z" />
    <glyph glyph-name="uni038E" unicode="&#x38e;" horiz-adv-x="1406" 
d="M379 0l158 590l-314 901h348l187 -629l526 629h381l-819 -932l-152 -559h-315zM-268 1049l135 442h330l-279 -442h-186z" />
    <glyph glyph-name="uni038F" unicode="&#x38f;" horiz-adv-x="1863" 
d="M555 680q0 -232 162 -416l-72 -264h-635l72 268h350q-89 105 -144 221t-55 261q0 160 63 301t174 243.5t271 162t346 59.5q319 0 502 -162t183 -422q0 -197 -110 -359t-314 -305h333l-71 -268h-680l69 264q92 57 168 121.5t140.5 142t100.5 168.5t36 185q0 160 -100 253
t-277 93q-232 0 -372 -152t-140 -395zM-76 1073l135 443h330l-278 -443h-187z" />
    <glyph glyph-name="uni0390" unicode="&#x390;" horiz-adv-x="714" 
d="M721 1268l76 276h264l-74 -276h-266zM49 1268l74 276h266l-76 -276h-264zM358 1268l205 436l268 -59l-282 -377h-191zM569 248l-65 -240q-67 -20 -150 -20q-132 0 -199 64t-67 177q0 79 37 215l184 695h309l-200 -752q-12 -54 -12 -78q0 -65 100 -65q27 0 63 4z" />
    <glyph glyph-name="uni0391" unicode="&#x391;" horiz-adv-x="1648" 
d="M-109 0l1045 1501h303l240 -1501h-324l-47 340h-645l-232 -340h-340zM651 618h418l-74 515z" />
    <glyph glyph-name="uni0392" unicode="&#x392;" horiz-adv-x="1548" 
d="M39 0l399 1491h580q247 0 373.5 -102t126.5 -263q0 -146 -86.5 -241.5t-237.5 -128.5q213 -97 213 -303q0 -205 -168 -329t-471 -124h-729zM420 276h395q129 0 204 52.5t75 144.5q0 70 -56 109t-159 39h-367zM584 883h338q136 0 208 47.5t72 142.5q0 64 -53.5 102.5
t-159.5 38.5h-319z" />
    <glyph glyph-name="uni0393" unicode="&#x393;" horiz-adv-x="1353" 
d="M39 0l399 1491h1067l-78 -287h-751l-322 -1204h-315z" />
    <glyph glyph-name="uni0394" unicode="&#x394;" horiz-adv-x="1685" 
d="M1257 1501l234 -1274l-86 -227h-1425l36 227l914 1274h327zM1010 1139l-594 -860h733z" />
    <glyph glyph-name="uni0395" unicode="&#x395;" horiz-adv-x="1435" 
d="M39 0l399 1491h1112l-75 -281h-799l-84 -321h700l-75 -277h-701l-90 -331h809l-76 -281h-1120z" />
    <glyph glyph-name="uni0396" unicode="&#x396;" horiz-adv-x="1484" 
d="M-31 0l64 238l1067 976h-778l75 277h1205l-66 -238l-1065 -977h811l-74 -276h-1239z" />
    <glyph glyph-name="uni0397" unicode="&#x397;" horiz-adv-x="1630" 
d="M39 0l399 1491h316l-158 -596h616l160 596h314l-400 -1491h-315l164 604h-617l-164 -604h-315z" />
    <glyph glyph-name="uni0398" unicode="&#x398;" horiz-adv-x="1794" 
d="M1278 893l-76 -285h-588l76 285h588zM473 653q0 -175 105.5 -284t293.5 -109q207 0 363 156q84 84 131 196.5t47 225.5q0 175 -105.5 284t-291.5 109q-207 0 -363 -156q-85 -84 -132.5 -196t-47.5 -226zM156 633q0 172 69.5 335.5t194.5 288.5q259 259 631 259
q150 0 278 -50.5t215.5 -138.5t137 -209t49.5 -260q0 -173 -69 -336.5t-194 -288.5q-260 -260 -632 -260q-151 0 -279.5 51t-215.5 139t-136 209.5t-49 260.5z" />
    <glyph glyph-name="uni0399" unicode="&#x399;" horiz-adv-x="729" 
d="M53 0l402 1491h315l-401 -1491h-316z" />
    <glyph glyph-name="uni039A" unicode="&#x39a;" horiz-adv-x="1566" 
d="M39 0l399 1491h316l-181 -678l764 678h426l-733 -627l359 -864h-347l-262 676l-317 -270l-109 -406h-315z" />
    <glyph glyph-name="uni039B" unicode="&#x39b;" horiz-adv-x="1605" 
d="M1202 1501l217 -1501h-336l-133 1051l-696 -1051h-354l1024 1501h278z" />
    <glyph glyph-name="uni039C" unicode="&#x39c;" horiz-adv-x="1857" 
d="M39 0l399 1491h322l223 -645l573 645h357l-400 -1491h-313l264 993l-598 -651h-8l-246 645l-264 -987h-309z" />
    <glyph glyph-name="uni039D" unicode="&#x39d;" horiz-adv-x="1693" 
d="M39 0l399 1491h291l449 -969l262 969h311l-401 -1491h-267l-467 999l-266 -999h-311z" />
    <glyph glyph-name="uni039E" unicode="&#x39e;" horiz-adv-x="1411" 
d="M1212 285l-75 -285h-1166l76 285h1165zM305 1206l78 285h1145l-78 -285h-1145zM1313 891l-76 -281h-1038l75 281h1039z" />
    <glyph glyph-name="uni039F" unicode="&#x39f;" horiz-adv-x="1794" 
d="M1051 1516q150 0 278 -50.5t215.5 -138.5t137 -209t49.5 -260q0 -173 -69 -336.5t-194 -288.5q-260 -260 -632 -260q-151 0 -279.5 51t-215.5 139t-136 209.5t-49 260.5q0 172 69.5 335.5t194.5 288.5q259 259 631 259zM872 264q203 0 355 152q83 83 129.5 196.5
t46.5 225.5q0 173 -102.5 281t-284.5 108q-202 0 -354 -152q-85 -83 -132 -196.5t-47 -225.5q0 -175 102 -282t287 -107z" />
    <glyph glyph-name="uni03A0" unicode="&#x3a0;" horiz-adv-x="1619" 
d="M39 0l399 1491h1239l-401 -1491h-315l323 1204h-608l-322 -1204h-315z" />
    <glyph glyph-name="uni03A1" unicode="&#x3a1;" horiz-adv-x="1464" 
d="M39 0l399 1491h473q162 0 274 -35.5t191 -114.5q115 -115 115 -305q0 -227 -150 -377q-99 -98 -246.5 -149t-328.5 -51h-289l-123 -459h-315zM1114 1141q-68 65 -215 65h-223l-125 -471h231q209 0 310 101q69 69 69 174q0 84 -47 131z" />
    <glyph glyph-name="uni03A3" unicode="&#x3a3;" horiz-adv-x="1458" 
d="M1083 733l-555 -457h752l-74 -276h-1229l64 233l657 533l-379 491l64 234h1182l-76 -277h-762z" />
    <glyph glyph-name="uni03A4" unicode="&#x3a4;" horiz-adv-x="1339" 
d="M354 0l324 1200h-457l78 291h1229l-78 -291h-457l-323 -1200h-316z" />
    <glyph glyph-name="uni03A5" unicode="&#x3a5;" horiz-adv-x="1406" 
d="M379 0l158 590l-314 901h348l187 -629l526 629h381l-819 -932l-152 -559h-315z" />
    <glyph glyph-name="uni03A6" unicode="&#x3a6;" horiz-adv-x="2078" 
d="M1135 1509h315l-41 -151q274 -30 438 -174t164 -367q0 -204 -118.5 -358.5t-329 -238.5t-484.5 -89l-39 -149h-315l41 155q-273 25 -438.5 172t-165.5 371q0 202 118.5 356t330 238.5t485.5 89.5zM485 698q0 -128 93.5 -205.5t265.5 -89.5l184 691q-247 -7 -395 -115.5
t-148 -280.5zM1688 799q0 125 -93 202.5t-264 90.5l-186 -691q245 4 394 115t149 283z" />
    <glyph glyph-name="uni03A7" unicode="&#x3a7;" horiz-adv-x="1511" 
d="M-94 0l723 772l-324 719h352l199 -490l432 490h404l-705 -754l334 -737h-352l-211 512l-451 -512h-401z" />
    <glyph glyph-name="uni03A8" unicode="&#x3a8;" horiz-adv-x="1832" 
d="M1937 1491l-168 -617q-73 -252 -192 -368q-186 -192 -569 -195h-2l-84 -311h-310l84 317q-219 27 -342 141.5t-123 303.5q0 114 45 276l121 453h312l-127 -475q-39 -142 -39 -211q0 -98 55 -146t178 -55l240 887h303l-240 -889h2q189 3 275 92q73 73 117 232l153 565h311
z" />
    <glyph glyph-name="uni03A9" unicode="&#x3a9;" horiz-adv-x="1863" 
d="M555 680q0 -232 162 -416l-72 -264h-635l72 268h350q-89 105 -144 221t-55 261q0 160 63 301t174 243.5t271 162t346 59.5q319 0 502 -162t183 -422q0 -197 -110 -359t-314 -305h333l-71 -268h-680l69 264q92 57 168 121.5t140.5 142t100.5 168.5t36 185q0 160 -100 253
t-277 93q-232 0 -372 -152t-140 -395z" />
    <glyph glyph-name="uni03AA" unicode="&#x3aa;" horiz-adv-x="729" 
d="M53 0l402 1491h315l-401 -1491h-316zM264 1610l72 264h303l-74 -264h-301zM723 1610l72 264h303l-74 -264h-301z" />
    <glyph glyph-name="uni03AB" unicode="&#x3ab;" horiz-adv-x="1406" 
d="M379 0l158 590l-314 901h348l187 -629l526 629h381l-819 -932l-152 -559h-315zM571 1610l72 264h303l-74 -264h-301zM1030 1610l72 264h303l-74 -264h-301z" />
    <glyph glyph-name="uni03AC" unicode="&#x3ac;" horiz-adv-x="1538" 
d="M778 1268l260 383l258 -117l-284 -266h-234zM1444 1139l-201 -752q-12 -54 -12 -78q0 -65 100 -65q28 0 64 4l-66 -240q-67 -20 -151 -20q-96 0 -156.5 40.5t-81.5 114.5q-166 -166 -391 -166q-200 0 -326.5 132t-126.5 358q0 151 55 282t150 226q88 88 198.5 136
t227.5 48q130 0 217 -50t146 -144l43 174h311zM664 240q127 0 229 102q127 127 127 305q0 110 -71 180t-183 70q-125 0 -223 -98q-125 -125 -125 -312q0 -116 66.5 -181.5t179.5 -65.5z" />
    <glyph glyph-name="uni03AD" unicode="&#x3ad;" horiz-adv-x="1261" 
d="M645 1268l260 383l258 -117l-284 -266h-234zM354 588q-73 42 -107 94t-34 123q0 145 141 249.5t377 104.5q308 0 518 -188l-178 -199q-148 137 -348 137q-103 0 -157 -33t-54 -94q0 -48 38.5 -74t135.5 -26h219l-59 -223h-240q-225 0 -225 -121q0 -113 207 -113
q199 0 393 99l92 -228q-97 -55 -235 -88t-273 -33q-236 0 -367.5 86.5t-131.5 225.5q0 223 288 301z" />
    <glyph glyph-name="uni03AE" unicode="&#x3ae;" horiz-adv-x="1337" 
d="M748 1268l260 383l258 -117l-285 -266h-233zM6 0l305 1139h312l-35 -125q160 145 317 145q155 0 246.5 -89t91.5 -243q0 -65 -37 -213l-256 -954h-311l260 967q14 54 14 102q0 72 -42.5 111t-120.5 39q-97 0 -165 -64t-98 -176l-172 -639h-309z" />
    <glyph glyph-name="uni03AF" unicode="&#x3af;" horiz-adv-x="714" 
d="M369 1268l260 383l258 -117l-285 -266h-233zM569 248l-65 -240q-67 -20 -150 -20q-132 0 -199 64t-67 177q0 79 37 215l184 695h309l-200 -752q-12 -54 -12 -78q0 -65 100 -65q27 0 63 4z" />
    <glyph glyph-name="uni03B0" unicode="&#x3b0;" horiz-adv-x="1341" 
d="M1061 1268l76 276h264l-74 -276h-266zM389 1268l74 276h266l-76 -276h-264zM698 1268l205 436l268 -59l-282 -377h-191zM139 551l158 588h309l-164 -611q-22 -95 -22 -139q0 -147 176 -147q111 0 178 67q62 62 92 187l172 643h312l-183 -684q-63 -214 -172 -326
q-154 -154 -424 -154q-217 0 -339.5 99.5t-122.5 277.5q0 94 30 199z" />
    <glyph glyph-name="uni03B1" unicode="&#x3b1;" horiz-adv-x="1538" 
d="M1444 1139l-201 -752q-12 -54 -12 -78q0 -65 100 -65q28 0 64 4l-66 -240q-67 -20 -151 -20q-96 0 -156.5 40.5t-81.5 114.5q-166 -166 -391 -166q-200 0 -326.5 132t-126.5 358q0 151 55 282t150 226q88 88 198.5 136t227.5 48q130 0 217 -50t146 -144l43 174h311z
M664 240q127 0 229 102q127 127 127 305q0 110 -71 180t-183 70q-125 0 -223 -98q-125 -125 -125 -312q0 -116 66.5 -181.5t179.5 -65.5z" />
    <glyph glyph-name="uni03B2" unicode="&#x3b2;" horiz-adv-x="1447" 
d="M-82 -340l363 1362q42 145 87 234t113 157q156 156 437 156q227 0 363 -116.5t136 -297.5q0 -156 -94 -260.5t-279 -146.5q250 -102 250 -332q0 -187 -147 -313t-365 -126q-283 0 -415 195l-138 -512h-311zM625 659h-133l-21 -79q-12 -52 -12 -99q0 -115 78 -178t204 -63
q118 0 183 61t65 152q0 96 -87.5 151t-276.5 55zM584 997l-33 -118h192q173 0 270 64t97 187q0 79 -53.5 131t-153.5 52q-117 0 -201 -78q-76 -76 -118 -238z" />
    <glyph glyph-name="uni03B3" unicode="&#x3b3;" horiz-adv-x="1284" 
d="M543 -340h-312l103 387l-139 1092h317l57 -766l467 766h334l-725 -1094z" />
    <glyph glyph-name="uni03B4" unicode="&#x3b4;" horiz-adv-x="1396" 
d="M850 1309l151 -164q147 -160 216 -287t69 -291q0 -161 -75 -295.5t-216.5 -215.5t-322.5 -81q-143 0 -255.5 44t-179.5 117t-102 162.5t-35 186.5q0 222 135 372t422 247l-194 219l61 231h873l-68 -254zM983 557q0 90 -38 174.5t-118 179.5q-120 -38 -204.5 -85
t-132 -100.5t-68.5 -109.5t-21 -120q0 -107 72.5 -183.5t200.5 -76.5q136 0 222.5 91.5t86.5 229.5z" />
    <glyph glyph-name="uni03B5" unicode="&#x3b5;" horiz-adv-x="1261" 
d="M354 588q-73 42 -107 94t-34 123q0 145 141 249.5t377 104.5q308 0 518 -188l-178 -199q-148 137 -348 137q-103 0 -157 -33t-54 -94q0 -48 38.5 -74t135.5 -26h219l-59 -223h-240q-225 0 -225 -121q0 -113 207 -113q199 0 393 99l92 -228q-97 -55 -235 -88t-273 -33
q-236 0 -367.5 86.5t-131.5 225.5q0 223 288 301z" />
    <glyph glyph-name="uni03B6" unicode="&#x3b6;" horiz-adv-x="1220" 
d="M1327 1315l-723 -588q-113 -90 -159 -147.5t-46 -116.5q0 -64 48.5 -103.5t173.5 -64.5l401 -86l-127 -481h-291l76 280l-203 43q-214 43 -308.5 137t-94.5 240q0 91 38.5 172t111.5 157.5t202 180.5l455 360h-480l68 256h922z" />
    <glyph glyph-name="uni03B7" unicode="&#x3b7;" horiz-adv-x="1337" 
d="M6 0l305 1139h312l-35 -125q160 145 317 145q155 0 246.5 -89t91.5 -243q0 -65 -37 -213l-256 -954h-311l260 967q14 54 14 102q0 72 -42.5 111t-120.5 39q-97 0 -165 -64t-98 -176l-172 -639h-309z" />
    <glyph glyph-name="uni03B8" unicode="&#x3b8;" horiz-adv-x="1431" 
d="M1384 1010q0 -135 -31.5 -281.5t-105.5 -301.5t-180 -261q-193 -193 -449 -193q-120 0 -211.5 43t-147.5 119.5t-84 177.5t-28 222q0 99 18.5 208.5t55.5 223t100 222t144 189.5q191 191 448 191q120 0 211.5 -42.5t147.5 -119t84 -176.5t28 -221zM438 518
q0 -285 205 -285q114 0 207 93q114 114 180 323h-584q-8 -65 -8 -131zM682 1219q-114 -114 -180 -322h583q9 71 9 127q0 285 -205 285q-114 0 -207 -90z" />
    <glyph glyph-name="uni03B9" unicode="&#x3b9;" horiz-adv-x="714" 
d="M569 248l-65 -240q-67 -20 -150 -20q-132 0 -199 64t-67 177q0 79 37 215l184 695h309l-200 -752q-12 -54 -12 -78q0 -65 100 -65q27 0 63 4z" />
    <glyph glyph-name="uni03BA" unicode="&#x3ba;" horiz-adv-x="1302" 
d="M623 1139l-121 -449l504 449h415l-579 -484l254 -655h-332l-172 459l-197 -166l-78 -293h-309l303 1139h312z" />
    <glyph glyph-name="uni03BB" unicode="&#x3bb;" horiz-adv-x="1308" 
d="M799 0l-76 774l-481 -774h-336l766 1145l-2 29q-9 66 -39 96q-38 35 -117 35q-51 0 -131 -17l51 256q98 25 178 25q152 0 240 -88q46 -46 75.5 -121.5t45.5 -208.5l141 -1151h-315z" />
    <glyph glyph-name="uni03BC" unicode="&#x3bc;" horiz-adv-x="1447" 
d="M221 -340h-305l395 1479h312l-162 -602q-21 -92 -21 -127q0 -76 45 -118t129 -42q98 0 159 53.5t91 169.5l178 666h312l-201 -752q-12 -54 -12 -78q0 -65 100 -65q28 0 64 4l-66 -240q-67 -20 -152 -20q-91 0 -151 39.5t-84 107.5q-112 -149 -274 -149q-91 0 -159 44.5
t-102 137.5h-4q0 -162 -39 -307z" />
    <glyph glyph-name="uni03BD" unicode="&#x3bd;" horiz-adv-x="1275" 
d="M334 -8l-141 1147h317l57 -774l467 774h334l-754 -1147h-280z" />
    <glyph glyph-name="uni03BE" unicode="&#x3be;" horiz-adv-x="1204" 
d="M612 289l392 -84l-127 -477h-291l76 280l-144 29q-219 46 -330.5 140t-111.5 253q0 151 99.5 254t303.5 145q-73 58 -111 125.5t-38 159.5q0 193 152 324t397 131q302 0 512 -221l-193 -211q-35 35 -62.5 58t-69 50t-90 41t-102.5 14q-112 0 -174.5 -61t-62.5 -152
q0 -194 293 -194h121l-68 -254h-276q-155 0 -230.5 -47.5t-75.5 -132.5q0 -66 51 -106.5t160 -63.5z" />
    <glyph glyph-name="uni03BF" unicode="&#x3bf;" horiz-adv-x="1406" 
d="M760 1159q165 0 290 -68t191 -186.5t66 -269.5q0 -129 -52.5 -250t-146.5 -215q-93 -93 -211 -144t-250 -51q-248 0 -397.5 147t-149.5 378q0 127 52.5 248.5t146.5 216.5q194 194 461 194zM662 240q121 0 215 94q58 58 91 138.5t33 154.5q0 127 -69 196.5t-187 69.5
q-123 0 -215 -92q-58 -58 -91 -138.5t-33 -154.5q0 -127 69.5 -197.5t186.5 -70.5z" />
    <glyph glyph-name="uni03C0" unicode="&#x3c0;" horiz-adv-x="1546" 
d="M1354 248l-66 -240q-67 -20 -149 -20q-132 0 -199.5 64t-67.5 177q0 79 37 215l111 418h-369l-231 -862h-309l231 862h-180l74 277h1353l-73 -277h-187l-127 -475q-12 -54 -12 -78q0 -65 100 -65q28 0 64 4z" />
    <glyph glyph-name="uni03C1" unicode="&#x3c1;" horiz-adv-x="1425" 
d="M-104 -340l256 954q73 255 188 373q172 172 436 172q243 0 397 -142t154 -374q0 -139 -52.5 -263t-146.5 -218q-89 -89 -198 -137t-225 -48q-129 0 -215 50.5t-146 144.5l-137 -512h-311zM674 240q129 0 223 94q58 58 91.5 139.5t33.5 157.5q0 127 -67 196.5t-179 69.5
q-126 0 -221 -92q-60 -60 -94.5 -143t-34.5 -168q0 -116 70 -185t178 -69z" />
    <glyph glyph-name="uni03C2" unicode="&#x3c2;" horiz-adv-x="1224" 
d="M702 272l291 -61l-127 -483h-291l76 284l-119 25q-213 49 -322.5 174.5t-109.5 306.5q0 134 49.5 250.5t133.5 200.5q97 97 208.5 143.5t251.5 46.5q326 0 488 -256l-236 -170q-97 158 -260 158q-129 0 -219 -90q-108 -108 -108 -260q0 -106 68.5 -170t225.5 -99z" />
    <glyph glyph-name="uni03C3" unicode="&#x3c3;" horiz-adv-x="1488" 
d="M1282 563q0 -231 -170 -401q-88 -88 -208.5 -137.5t-258.5 -49.5q-249 0 -397 142t-148 372q0 133 47.5 249t133.5 202q199 199 507 199h752l-72 -267l-309 7q123 -123 123 -316zM659 240q130 0 224 94q50 50 78 120.5t28 147.5q0 131 -67 200.5t-181 69.5
q-130 0 -223 -96q-51 -51 -81.5 -126t-30.5 -152q0 -127 66.5 -192.5t186.5 -65.5z" />
    <glyph glyph-name="uni03C4" unicode="&#x3c4;" horiz-adv-x="1243" 
d="M1307 1139l-74 -277h-393l-115 -434q-16 -66 -16 -98q0 -51 33 -70.5t98 -19.5q50 0 135 12l-66 -246q-122 -18 -182 -18q-163 0 -251.5 67t-88.5 201q0 69 33 190l108 416h-372l73 277h1078z" />
    <glyph glyph-name="uni03C5" unicode="&#x3c5;" horiz-adv-x="1341" 
d="M139 551l158 588h309l-164 -611q-22 -95 -22 -139q0 -147 176 -147q111 0 178 67q62 62 92 187l172 643h312l-183 -684q-63 -214 -172 -326q-154 -154 -424 -154q-217 0 -339.5 99.5t-122.5 277.5q0 94 30 199z" />
    <glyph glyph-name="uni03C6" unicode="&#x3c6;" horiz-adv-x="1816" 
d="M1716 608q0 -225 -162 -387q-107 -107 -272 -166t-371 -59h-2l-90 -336h-305l92 350q-234 41 -370 183t-136 337q0 226 162 388q108 106 274 165.5t371 59.5h2l111 411h307l-115 -428q234 -46 369 -185t135 -333zM401 537q0 -106 73 -180.5t206 -94.5l166 621h-2
q-231 0 -350 -125q-93 -93 -93 -221zM1415 602q0 105 -72.5 178.5t-203.5 93.5l-166 -618h2q110 0 200.5 32.5t147.5 92.5q92 92 92 221z" />
    <glyph glyph-name="uni03C7" unicode="&#x3c7;" horiz-adv-x="1310" 
d="M535 1139l143 -469l356 469h377l-620 -742l276 -737h-336l-168 522l-418 -522h-376l682 786l-252 693h336z" />
    <glyph glyph-name="uni03C8" unicode="&#x3c8;" horiz-adv-x="1783" 
d="M1790 1139l-168 -629q-55 -205 -172 -322q-189 -189 -559 -192h-2l-90 -336h-307l90 340q-205 26 -328 136.5t-123 295.5q0 114 29 205l131 502h309l-141 -533q-21 -74 -21 -137q0 -179 217 -201l346 1286h304l-347 -1290h3q171 3 262 94q69 69 106 211l152 570h309z" />
    <glyph glyph-name="uni03C9" unicode="&#x3c9;" horiz-adv-x="1918" 
d="M803 571l90 347h303l-86 -332q-29 -119 -29 -166q0 -76 38.5 -123t123.5 -47q116 0 182 113t66 292q0 245 -121 484h316q108 -242 108 -486q0 -156 -42.5 -285t-116 -214.5t-173.5 -132t-215 -46.5q-296 0 -354 269q-67 -133 -170 -201t-223 -68q-189 0 -295.5 119.5
t-106.5 306.5q0 186 89 376t270 362h358q-409 -365 -409 -699q0 -91 39.5 -140.5t111.5 -49.5q80 0 139 72.5t107 248.5z" />
    <glyph glyph-name="uni03CA" unicode="&#x3ca;" horiz-adv-x="714" 
d="M131 1268l76 280h301l-76 -280h-301zM580 1268l77 280h301l-77 -280h-301zM569 248l-65 -240q-67 -20 -150 -20q-132 0 -199 64t-67 177q0 79 37 215l184 695h309l-200 -752q-12 -54 -12 -78q0 -65 100 -65q27 0 63 4z" />
    <glyph glyph-name="uni03CB" unicode="&#x3cb;" horiz-adv-x="1341" 
d="M469 1268l76 280h301l-76 -280h-301zM918 1268l77 280h301l-77 -280h-301zM139 551l158 588h309l-164 -611q-22 -95 -22 -139q0 -147 176 -147q111 0 178 67q62 62 92 187l172 643h312l-183 -684q-63 -214 -172 -326q-154 -154 -424 -154q-217 0 -339.5 99.5
t-122.5 277.5q0 94 30 199z" />
    <glyph glyph-name="uni03CC" unicode="&#x3cc;" horiz-adv-x="1406" 
d="M743 1268l261 383l258 -117l-285 -266h-234zM760 1159q165 0 290 -68t191 -186.5t66 -269.5q0 -129 -52.5 -250t-146.5 -215q-93 -93 -211 -144t-250 -51q-248 0 -397.5 147t-149.5 378q0 127 52.5 248.5t146.5 216.5q194 194 461 194zM662 240q121 0 215 94
q58 58 91 138.5t33 154.5q0 127 -69 196.5t-187 69.5q-123 0 -215 -92q-58 -58 -91 -138.5t-33 -154.5q0 -127 69.5 -197.5t186.5 -70.5z" />
    <glyph glyph-name="uni03CD" unicode="&#x3cd;" horiz-adv-x="1341" 
d="M707 1268l260 383l258 -117l-285 -266h-233zM139 551l158 588h309l-164 -611q-22 -95 -22 -139q0 -147 176 -147q111 0 178 67q62 62 92 187l172 643h312l-183 -684q-63 -214 -172 -326q-154 -154 -424 -154q-217 0 -339.5 99.5t-122.5 277.5q0 94 30 199z" />
    <glyph glyph-name="uni03CE" unicode="&#x3ce;" horiz-adv-x="1918" 
d="M1001 1268l261 383l258 -117l-285 -266h-234zM803 571l90 347h303l-86 -332q-29 -119 -29 -166q0 -76 38.5 -123t123.5 -47q116 0 182 113t66 292q0 245 -121 484h316q108 -242 108 -486q0 -156 -42.5 -285t-116 -214.5t-173.5 -132t-215 -46.5q-296 0 -354 269
q-67 -133 -170 -201t-223 -68q-189 0 -295.5 119.5t-106.5 306.5q0 186 89 376t270 362h358q-409 -365 -409 -699q0 -91 39.5 -140.5t111.5 -49.5q80 0 139 72.5t107 248.5z" />
    <glyph glyph-name="uni0400" unicode="&#x400;" horiz-adv-x="1435" 
d="M897 1610l-229 211l278 118l164 -329h-213zM39 0l399 1491h1112l-75 -281h-799l-84 -321h700l-75 -277h-701l-90 -331h809l-76 -281h-1120z" />
    <glyph glyph-name="uni0401" unicode="&#x401;" horiz-adv-x="1435" 
d="M643 1610l72 264h303l-74 -264h-301zM1102 1610l72 264h303l-74 -264h-301zM39 0l399 1491h1112l-75 -281h-799l-84 -321h700l-75 -277h-701l-90 -331h809l-76 -281h-1120z" />
    <glyph glyph-name="uni0402" unicode="&#x402;" horiz-adv-x="1753" 
d="M1440 1200h-467l-78 -287q116 17 209 17q264 0 401 -109t137 -305q0 -244 -173 -382t-488 -138h-70l72 272h12q156 0 241 60.5t85 156.5q0 87 -67.5 127.5t-213.5 40.5q-89 0 -221 -20l-170 -633h-315l323 1200h-436l78 291h1219z" />
    <glyph glyph-name="uni0403" unicode="&#x403;" horiz-adv-x="1353" 
d="M825 1610l344 329l263 -118l-342 -211h-265zM39 0l399 1491h1067l-78 -287h-751l-322 -1204h-315z" />
    <glyph glyph-name="uni0404" unicode="&#x404;" horiz-adv-x="1566" 
d="M1049 1516q206 0 350.5 -78.5t253.5 -233.5l-260 -180q-70 103 -158.5 155t-216.5 52q-212 0 -363 -154q-84 -84 -129 -192h650l-72 -267h-627v-2q4 -168 109.5 -262t269.5 -94q183 0 356 150l201 -209q-120 -108 -256 -168t-309 -60q-201 0 -357.5 77.5t-245.5 225.5
t-89 345q0 183 69 346.5t195 289.5q120 120 283.5 189.5t345.5 69.5z" />
    <glyph glyph-name="uni0405" unicode="&#x405;" horiz-adv-x="1376" 
d="M639 -20q-432 0 -647 274l237 201q93 -101 194.5 -150t229.5 -49q105 0 172.5 45.5t67.5 118.5q0 57 -53 99.5t-203 103.5q-85 34 -145 67.5t-115 81.5t-83 111.5t-28 142.5q0 186 131 317q79 79 199.5 123.5t257.5 44.5q355 0 557 -221l-217 -217q-91 84 -175 123
t-190 39q-104 0 -165.5 -47.5t-61.5 -112.5q0 -59 54 -100t212 -103q84 -33 145.5 -68t112.5 -82.5t77 -110.5t26 -140q0 -188 -133 -321q-170 -170 -457 -170z" />
    <glyph glyph-name="uni0406" unicode="&#x406;" horiz-adv-x="729" 
d="M53 0l402 1491h315l-401 -1491h-316z" />
    <glyph glyph-name="uni0407" unicode="&#x407;" horiz-adv-x="729" 
d="M53 0l402 1491h315l-401 -1491h-316zM264 1610l72 264h303l-74 -264h-301zM723 1610l72 264h303l-74 -264h-301z" />
    <glyph glyph-name="uni0408" unicode="&#x408;" horiz-adv-x="1241" 
d="M412 -20q-151 0 -277.5 64.5t-202.5 188.5l224 193q62 -82 126 -119t146 -37q119 0 205 86q36 36 63.5 99t67.5 207l221 829h324l-242 -905q-45 -173 -92.5 -272.5t-124.5 -176.5q-157 -157 -438 -157z" />
    <glyph glyph-name="uni0409" unicode="&#x409;" horiz-adv-x="2334" 
d="M932 0l325 1219h-30l-977 -1219h-367l1211 1491h551l-127 -475h168q266 0 408 -118.5t142 -328.5q0 -222 -149 -368q-201 -201 -602 -201h-553zM1909 549q0 92 -64.5 140t-183.5 48h-219l-121 -454h219q203 0 299 96q70 70 70 170z" />
    <glyph glyph-name="uni040A" unicode="&#x40a;" horiz-adv-x="2351" 
d="M948 0l162 604h-594l-162 -604h-315l399 1491h316l-160 -596h594l160 596h313l-127 -475h168q266 0 408.5 -118.5t142.5 -328.5q0 -221 -150 -368q-201 -201 -602 -201h-553zM1925 549q0 92 -64.5 140t-183.5 48h-219l-121 -454h219q203 0 299 96q70 70 70 170z" />
    <glyph glyph-name="uni040B" unicode="&#x40b;" horiz-adv-x="1787" 
d="M1440 1200h-467l-78 -289q129 19 227 19q99 0 184.5 -22.5t157 -69.5t113 -130.5t41.5 -195.5q0 -77 -33 -213l-80 -299h-315l86 322q27 106 27 153q0 172 -256 172q-100 0 -230 -18l-168 -629h-315l323 1200h-436l78 291h1219z" />
    <glyph glyph-name="uni040C" unicode="&#x40c;" horiz-adv-x="1576" 
d="M909 1610l344 329l263 -118l-342 -211h-265zM39 0l399 1491h316l-166 -612h104l664 612h420l-863 -760l519 -731h-357l-428 623h-129l-164 -623h-315z" />
    <glyph glyph-name="uni040D" unicode="&#x40d;" horiz-adv-x="1701" 
d="M991 1610l-229 211l278 118l164 -329h-213zM1452 1491h307l-401 -1491h-316l258 963l-976 -963h-285l399 1491h316l-250 -934z" />
    <glyph glyph-name="uni040E" unicode="&#x40e;" horiz-adv-x="1525" 
d="M989 1606q-169 0 -254 80.5t-61 230.5h200q6 -53 43.5 -80t116.5 -27q76 0 124.5 26.5t82.5 80.5h227q-53 -150 -180.5 -230.5t-298.5 -80.5zM1739 1491l-1211 -1491h-364l424 524l-318 967h334l213 -703l557 703h365z" />
    <glyph glyph-name="uni040F" unicode="&#x40f;" horiz-adv-x="1619" 
d="M1677 1491l-401 -1491h-471l-80 -303h-295l82 303h-473l399 1491h316l-322 -1204h606l324 1204h315z" />
    <glyph glyph-name="uni0410" unicode="&#x410;" horiz-adv-x="1648" 
d="M-109 0l1045 1501h303l240 -1501h-324l-47 340h-645l-232 -340h-340zM651 618h418l-74 515z" />
    <glyph glyph-name="uni0411" unicode="&#x411;" horiz-adv-x="1540" 
d="M590 907h254q170 0 278 -31.5t178 -99.5q101 -104 101 -270q0 -93 -33 -178t-94 -148q-180 -180 -596 -180h-639l399 1491h1100l-74 -279h-792zM516 635l-96 -356h317q103 0 170.5 18t112.5 63q51 51 51 129q0 60 -33 93q-31 31 -87 42t-160 11h-275z" />
    <glyph glyph-name="uni0412" unicode="&#x412;" horiz-adv-x="1548" 
d="M39 0l399 1491h580q247 0 373.5 -102t126.5 -263q0 -146 -86.5 -241.5t-237.5 -128.5q213 -97 213 -303q0 -205 -168 -329t-471 -124h-729zM420 276h395q129 0 204 52.5t75 144.5q0 70 -56 109t-159 39h-367zM584 883h338q136 0 208 47.5t72 142.5q0 64 -53.5 102.5
t-159.5 38.5h-319z" />
    <glyph glyph-name="uni0413" unicode="&#x413;" horiz-adv-x="1353" 
d="M39 0l399 1491h1067l-78 -287h-751l-322 -1204h-315z" />
    <glyph glyph-name="uni0414" unicode="&#x414;" horiz-adv-x="1814" 
d="M0 287h156l835 1214h332l182 -1214h160l-160 -590h-295l82 303h-1075l-82 -303h-293zM1069 1139l-577 -865h690z" />
    <glyph glyph-name="uni0415" unicode="&#x415;" horiz-adv-x="1435" 
d="M39 0l399 1491h1112l-75 -281h-799l-84 -321h700l-75 -277h-701l-90 -331h809l-76 -281h-1120z" />
    <glyph glyph-name="uni0416" unicode="&#x416;" horiz-adv-x="2336" 
d="M1585 1491l-170 -612h84l633 612h405l-829 -774l463 -717h-348l-379 623h-96l-162 -623h-316l172 623h-90l-665 -623h-406l873 791l-420 700h350l342 -612h84l160 612h315z" />
    <glyph glyph-name="uni0417" unicode="&#x417;" horiz-adv-x="1435" 
d="M420 1092l-144 239q126 85 282 135t316 50q250 0 399.5 -110.5t149.5 -281.5q0 -151 -94.5 -248.5t-247.5 -142.5q94 -40 154.5 -118t60.5 -185q0 -104 -51 -191.5t-136.5 -144t-195 -88t-227.5 -31.5q-228 0 -390 72.5t-282 202.5l205 205q105 -102 218 -151.5
t253 -49.5q127 0 207 55t80 140q0 172 -264 172h-273l72 262h250q158 0 241.5 51t83.5 141q0 71 -60 116.5t-167 45.5q-211 0 -440 -145z" />
    <glyph glyph-name="uni0418" unicode="&#x418;" horiz-adv-x="1701" 
d="M1452 1491h307l-401 -1491h-316l258 963l-976 -963h-285l399 1491h316l-250 -934z" />
    <glyph glyph-name="uni0419" unicode="&#x419;" horiz-adv-x="1701" 
d="M1116 1606q-169 0 -254 80.5t-61 230.5h200q6 -53 43.5 -80t116.5 -27q76 0 124.5 26.5t82.5 80.5h227q-53 -150 -180.5 -230.5t-298.5 -80.5zM1452 1491h307l-401 -1491h-316l258 963l-976 -963h-285l399 1491h316l-250 -934z" />
    <glyph glyph-name="uni041A" unicode="&#x41a;" horiz-adv-x="1576" 
d="M39 0l399 1491h316l-166 -612h104l664 612h420l-863 -760l519 -731h-357l-428 623h-129l-164 -623h-315z" />
    <glyph glyph-name="uni041B" unicode="&#x41b;" horiz-adv-x="1603" 
d="M1202 1501l217 -1501h-336l-133 1051l-696 -1051h-354l1024 1501h278z" />
    <glyph glyph-name="uni041C" unicode="&#x41c;" horiz-adv-x="1857" 
d="M39 0l399 1491h322l223 -645l573 645h357l-400 -1491h-313l264 993l-598 -651h-8l-246 645l-264 -987h-309z" />
    <glyph glyph-name="uni041D" unicode="&#x41d;" horiz-adv-x="1630" 
d="M59 0l400 1491h315l-158 -596h617l160 596h313l-399 -1491h-316l164 604h-616l-164 -604h-316z" />
    <glyph glyph-name="uni041E" unicode="&#x41e;" horiz-adv-x="1794" 
d="M1051 1516q150 0 278 -50.5t215.5 -138.5t137 -209t49.5 -260q0 -173 -69 -336.5t-194 -288.5q-260 -260 -632 -260q-151 0 -279.5 51t-215.5 139t-136 209.5t-49 260.5q0 172 69.5 335.5t194.5 288.5q259 259 631 259zM872 264q203 0 355 152q83 83 129.5 196.5
t46.5 225.5q0 173 -102.5 281t-284.5 108q-202 0 -354 -152q-85 -83 -132 -196.5t-47 -225.5q0 -175 102 -282t287 -107z" />
    <glyph glyph-name="uni041F" unicode="&#x41f;" horiz-adv-x="1619" 
d="M39 0l399 1491h1239l-401 -1491h-315l323 1204h-608l-322 -1204h-315z" />
    <glyph glyph-name="uni0420" unicode="&#x420;" horiz-adv-x="1464" 
d="M39 0l399 1491h473q162 0 274 -35.5t191 -114.5q115 -115 115 -305q0 -227 -150 -377q-99 -98 -246.5 -149t-328.5 -51h-289l-123 -459h-315zM1114 1141q-68 65 -215 65h-223l-125 -471h231q209 0 310 101q69 69 69 174q0 84 -47 131z" />
    <glyph glyph-name="uni0421" unicode="&#x421;" horiz-adv-x="1568" 
d="M854 -27q-201 0 -359 78t-248.5 226t-90.5 344q0 177 70 339.5t196 288.5t291 196.5t350 70.5q399 0 594 -318l-260 -180q-70 101 -158.5 155t-214.5 54q-98 0 -190.5 -41.5t-167.5 -116.5q-183 -183 -183 -436q0 -165 104 -267t269 -102q104 0 183 37t175 115l205 -211
q-246 -232 -565 -232z" />
    <glyph glyph-name="uni0422" unicode="&#x422;" horiz-adv-x="1339" 
d="M354 0l324 1200h-457l78 291h1229l-78 -291h-457l-323 -1200h-316z" />
    <glyph glyph-name="uni0423" unicode="&#x423;" horiz-adv-x="1525" 
d="M1739 1491l-1211 -1491h-364l424 524l-318 967h334l213 -703l557 703h365z" />
    <glyph glyph-name="uni0424" unicode="&#x424;" horiz-adv-x="2078" 
d="M1135 1509h315l-41 -151q274 -30 438 -174t164 -367q0 -204 -118.5 -358.5t-329 -238.5t-484.5 -89l-39 -149h-315l41 155q-273 25 -438.5 172t-165.5 371q0 202 118.5 356t330 238.5t485.5 89.5zM485 698q0 -128 93.5 -205.5t265.5 -89.5l184 691q-247 -7 -395 -115.5
t-148 -280.5zM1688 799q0 125 -93 202.5t-264 90.5l-186 -691q245 4 394 115t149 283z" />
    <glyph glyph-name="uni0425" unicode="&#x425;" horiz-adv-x="1511" 
d="M-94 0l723 772l-324 719h352l199 -490l432 490h404l-705 -754l334 -737h-352l-211 512l-451 -512h-401z" />
    <glyph glyph-name="uni0426" unicode="&#x426;" horiz-adv-x="1685" 
d="M1677 1491l-325 -1204h196l-157 -590h-295l82 303h-1139l399 1491h316l-322 -1204h606l324 1204h315z" />
    <glyph glyph-name="uni0427" unicode="&#x427;" horiz-adv-x="1521" 
d="M862 0l125 475q-103 -20 -237 -20q-82 0 -153 12.5t-137.5 43.5t-114 77.5t-75.5 119.5t-28 166q0 88 32 216l109 401h313l-112 -426q-27 -93 -27 -145q0 -181 252 -181q129 0 258 29l195 723h315l-399 -1491h-316z" />
    <glyph glyph-name="uni0428" unicode="&#x428;" horiz-adv-x="2410" 
d="M2466 1491l-400 -1491h-2027l399 1491h316l-322 -1204h541l323 1204h314l-322 -1204h541l323 1204h314z" />
    <glyph glyph-name="uni0429" unicode="&#x429;" horiz-adv-x="2476" 
d="M2466 1491l-324 -1204h197l-158 -590h-295l82 303h-1929l399 1491h316l-322 -1204h541l323 1204h314l-322 -1204h541l323 1204h314z" />
    <glyph glyph-name="uni042A" unicode="&#x42a;" horiz-adv-x="1775" 
d="M350 0l324 1210h-455l76 281h770l-127 -475h188q267 0 410 -118.5t143 -328.5q0 -220 -151 -368q-198 -201 -602 -201h-576zM1350 549q0 92 -63.5 140t-182.5 48h-242l-121 -454h242q195 0 299 96q68 71 68 170z" />
    <glyph glyph-name="uni042B" unicode="&#x42b;" horiz-adv-x="2074" 
d="M1446 0l401 1491h316l-402 -1491h-315zM39 0l399 1491h316l-127 -475h188q267 0 410 -118.5t143 -328.5q0 -220 -151 -368q-198 -201 -603 -201h-575zM1038 549q0 92 -63 140t-182 48h-242l-121 -454h242q195 0 299 96q67 70 67 170z" />
    <glyph glyph-name="uni042C" unicode="&#x42c;" horiz-adv-x="1464" 
d="M39 0l399 1491h316l-127 -475h188q267 0 410 -118.5t143 -328.5q0 -220 -151 -368q-198 -201 -603 -201h-575zM1038 549q0 92 -63 140t-182 48h-242l-121 -454h242q195 0 299 96q67 70 67 170z" />
    <glyph glyph-name="uni042D" unicode="&#x42d;" horiz-adv-x="1566" 
d="M639 -27q-200 0 -359.5 81t-265.5 231l238 188q159 -213 399 -213q219 0 367 148q86 86 129 210h-664l72 267h625v2q-11 159 -105.5 252t-255.5 92q-210 0 -387 -150l-178 226q253 209 584 209q299 0 481 -178.5t182 -467.5q1 -193 -65.5 -360t-190.5 -291
q-243 -246 -606 -246z" />
    <glyph glyph-name="uni042E" unicode="&#x42e;" horiz-adv-x="2369" 
d="M39 0l399 1491h316l-158 -596h231q65 211 228 375q246 246 596 246q193 0 343 -86.5t231 -236t81 -335.5q0 -175 -68 -341t-194 -292q-252 -252 -600 -252q-188 0 -336.5 82.5t-231.5 225.5t-88 321v2h-272l-162 -604h-315zM1479 264q181 0 323 142q81 81 128.5 194
t47.5 238q0 174 -95 281.5t-267 107.5q-182 0 -324 -142q-81 -81 -128.5 -194t-47.5 -238q0 -175 95 -282t268 -107z" />
    <glyph glyph-name="uni042F" unicode="&#x42f;" horiz-adv-x="1574" 
d="M1630 1491l-399 -1491h-316l129 485h-266h-2l-432 -485h-391l510 563q-101 55 -164 148.5t-63 228.5q0 215 147 365q95 95 234.5 140.5t340.5 45.5h672zM1239 1206h-334q-100 0 -165.5 -18.5t-108.5 -61.5q-66 -72 -66 -168q0 -194 273 -194h282z" />
    <glyph glyph-name="uni0430" unicode="&#x430;" horiz-adv-x="1269" 
d="M360 -23q-147 0 -240 86.5t-93 221.5q0 166 108 274q138 135 383 135q170 0 328 -51l6 16q12 54 12 86q0 142 -223 142q-149 0 -305 -62l-49 246q191 80 420 80q226 0 342 -90.5t116 -259.5q0 -76 -24 -170l-168 -631h-301l35 135q-148 -158 -347 -158zM492 193
q101 0 187 69t114 168l8 35q-102 41 -226 41q-125 0 -190 -68q-49 -49 -49 -119q0 -56 42.5 -91t113.5 -35z" />
    <glyph glyph-name="uni0431" unicode="&#x431;" horiz-adv-x="1443" 
d="M1329 612q0 -127 -51.5 -244.5t-139.5 -203.5t-211 -137.5t-259 -51.5q-243 0 -381 138q-74 74 -111 172t-37 235q0 205 73 411t220 353q118 114 251.5 172t326.5 78l391 41l12 -285l-393 -41q-296 -32 -428 -164q-52 -48 -105 -155q160 123 383 123q221 0 340 -122
t119 -319zM432 487q0 -113 67 -182t187 -69q141 0 238.5 99.5t97.5 244.5q0 111 -65.5 176t-182.5 65q-142 0 -242 -96.5t-100 -237.5z" />
    <glyph glyph-name="uni0432" unicode="&#x432;" horiz-adv-x="1282" 
d="M6 0l305 1139h482q209 0 306 -78t97 -205q0 -103 -67.5 -181t-178.5 -108q72 -28 119 -82.5t47 -138.5q0 -158 -133 -252t-381 -94h-596zM489 678h201q101 0 156 35.5t55 107.5q0 97 -151 97h-195zM367 219h231q103 0 157 40t54 108q0 102 -166 102h-209z" />
    <glyph glyph-name="uni0433" unicode="&#x433;" horiz-adv-x="1103" 
d="M6 0l305 1139h869l-76 -281h-557l-232 -858h-309z" />
    <glyph glyph-name="uni0434" unicode="&#x434;" horiz-adv-x="1464" 
d="M-20 281h122l623 866h328l149 -866h127l-149 -555h-281l74 276h-789l-71 -276h-279zM809 821l-377 -553h461z" />
    <glyph glyph-name="uni0435" unicode="&#x435;" horiz-adv-x="1310" 
d="M1180 461h-791v-2q8 -109 75 -172t193 -62q68 0 129 21.5t132 72.5l145 -192q-180 -152 -440 -152q-242 0 -383.5 135t-141.5 369q0 133 54.5 261.5t152.5 226.5q90 90 210 141t257 51q216 0 340.5 -124t124.5 -318q0 -127 -57 -256zM514 811q-61 -61 -96 -154h516
q10 38 10 74q0 80 -48 129t-146 49q-138 0 -236 -98z" />
    <glyph glyph-name="uni0436" unicode="&#x436;" horiz-adv-x="1910" 
d="M1264 1139l-121 -439h82l428 439h379l-600 -584l319 -555h-332l-243 449h-101l-114 -449h-312l125 449h-90l-448 -449h-379l632 602l-311 537h332l238 -439h94l110 439h312z" />
    <glyph glyph-name="uni0437" unicode="&#x437;" horiz-adv-x="1228" 
d="M1053 313q0 -137 -136.5 -237.5t-363.5 -100.5q-325 0 -557 189l162 198q176 -137 391 -137q95 0 150 35t55 90q0 109 -179 109h-241l59 223h228q210 0 210 123q0 50 -43 77t-122 27q-182 0 -357 -94l-116 217q115 63 230 95t265 32q220 0 340.5 -89.5t120.5 -227.5
q0 -109 -74 -183t-186 -106q83 -38 123.5 -94.5t40.5 -145.5z" />
    <glyph glyph-name="uni0438" unicode="&#x438;" horiz-adv-x="1384" 
d="M1079 1139h299l-305 -1139h-307l174 657l-651 -657h-283l305 1139h310l-172 -637z" />
    <glyph glyph-name="uni0439" unicode="&#x439;" horiz-adv-x="1384" 
d="M1079 1139h299l-305 -1139h-307l174 657l-651 -657h-283l305 1139h310l-172 -637zM893 1264q-91 0 -159.5 26.5t-109 73t-59 105t-16.5 126.5h215q2 -57 39 -93t106 -36q79 0 127.5 33t89.5 96h217q-52 -148 -168.5 -239.5t-281.5 -91.5z" />
    <glyph glyph-name="uni043A" unicode="&#x43a;" horiz-adv-x="1300" 
d="M6 0l305 1139h312l-123 -439h100l424 439h403l-616 -598l319 -541h-335l-252 449h-111l-117 -449h-309z" />
    <glyph glyph-name="uni043B" unicode="&#x43b;" horiz-adv-x="1347" 
d="M983 1147l172 -1147h-324l-83 764l-500 -764h-340l780 1147h295z" />
    <glyph glyph-name="uni043C" unicode="&#x43c;" horiz-adv-x="1568" 
d="M680 199l-184 487l-185 -686h-305l305 1139h297l183 -473l423 473h351l-305 -1139h-308l187 692l-453 -493h-6z" />
    <glyph glyph-name="uni043D" unicode="&#x43d;" horiz-adv-x="1370" 
d="M1364 1139l-305 -1139h-311l116 430h-432l-117 -430h-309l305 1139h312l-115 -424h432l115 424h309z" />
    <glyph glyph-name="uni043E" unicode="&#x43e;" horiz-adv-x="1406" 
d="M760 1159q165 0 290 -68t191 -186.5t66 -269.5q0 -129 -52.5 -250t-146.5 -215q-93 -93 -211 -144t-250 -51q-248 0 -397.5 147t-149.5 378q0 127 52.5 248.5t146.5 216.5q194 194 461 194zM662 240q121 0 215 94q58 58 91 138.5t33 154.5q0 127 -69 196.5t-187 69.5
q-123 0 -215 -92q-58 -58 -91 -138.5t-33 -154.5q0 -127 69.5 -197.5t186.5 -70.5z" />
    <glyph glyph-name="uni043F" unicode="&#x43f;" horiz-adv-x="1374" 
d="M1368 1139l-305 -1139h-311l231 858h-436l-232 -858h-309l305 1139h1057z" />
    <glyph glyph-name="uni0440" unicode="&#x440;" horiz-adv-x="1454" 
d="M725 -23q-238 0 -363 195l-137 -512h-311l397 1479h312l-37 -129q76 75 155 112t174 37q192 0 315.5 -131t123.5 -356q0 -154 -54 -283.5t-151 -224.5q-89 -89 -198.5 -138t-225.5 -49zM684 240q125 0 225 100q123 123 123 311q0 116 -66 181t-178 65q-129 0 -229 -100
q-127 -127 -127 -305q0 -112 70.5 -182t181.5 -70z" />
    <glyph glyph-name="uni0441" unicode="&#x441;" horiz-adv-x="1214" 
d="M629 -25q-231 0 -380 141t-149 371q0 137 51.5 258.5t145.5 215.5t217 146t258 52q325 0 465 -252l-238 -166q-32 49 -61.5 79.5t-78 51.5t-111.5 21q-117 0 -213 -96q-58 -58 -92.5 -139.5t-34.5 -170.5q0 -114 66 -180.5t167 -66.5q74 0 132.5 27t129.5 87l160 -202
q-97 -89 -197 -133t-237 -44z" />
    <glyph glyph-name="uni0442" unicode="&#x442;" horiz-adv-x="1234" 
d="M240 1139h1065l-74 -277h-377l-231 -862h-312l232 862h-375z" />
    <glyph glyph-name="uni0443" unicode="&#x443;" horiz-adv-x="1277" 
d="M352 -8l-145 1147h317l62 -787l442 787h336l-713 -1168q-113 -174 -219 -246.5t-250 -72.5q-146 0 -264 80l166 225q61 -47 129 -47q43 0 73 17t66 65z" />
    <glyph glyph-name="uni0444" unicode="&#x444;" horiz-adv-x="1816" 
d="M1716 608q0 -225 -162 -387q-107 -107 -272 -166t-371 -59h-2l-90 -336h-305l92 350q-234 41 -370 183t-136 337q0 226 162 388q108 106 274 165.5t371 59.5h2l111 411h307l-115 -428q234 -46 369 -185t135 -333zM401 537q0 -106 73 -180.5t206 -94.5l166 621h-2
q-231 0 -350 -125q-93 -93 -93 -221zM1415 602q0 105 -72.5 178.5t-203.5 93.5l-166 -618h2q110 0 200.5 32.5t147.5 92.5q92 92 92 221z" />
    <glyph glyph-name="uni0445" unicode="&#x445;" horiz-adv-x="1249" 
d="M547 1139l135 -328l281 328h370l-536 -576l254 -563h-332l-139 348l-304 -348h-370l561 594l-252 545h332z" />
    <glyph glyph-name="uni0446" unicode="&#x446;" horiz-adv-x="1443" 
d="M6 0l305 1139h312l-232 -858h436l232 858h309l-231 -858h149l-149 -555h-279l74 274h-926z" />
    <glyph glyph-name="uni0447" unicode="&#x447;" horiz-adv-x="1273" 
d="M1270 1139l-305 -1139h-312l86 328q-70 -11 -164 -11q-204 0 -316 81t-112 247q0 79 35 213l76 281h309l-90 -338q-14 -68 -14 -90q0 -62 49 -90.5t150 -28.5q95 0 151 12l145 535h312z" />
    <glyph glyph-name="uni0448" unicode="&#x448;" horiz-adv-x="2031" 
d="M6 0l305 1139h312l-232 -858h391l232 858h309l-229 -858h391l229 858h311l-305 -1139h-1714z" />
    <glyph glyph-name="uni0449" unicode="&#x449;" horiz-adv-x="2099" 
d="M6 0l305 1139h312l-232 -858h391l232 858h309l-229 -858h391l229 858h311l-231 -858h154l-150 -555h-278l73 274h-1587z" />
    <glyph glyph-name="uni044A" unicode="&#x44a;" horiz-adv-x="1458" 
d="M774 809h98q238 0 356 -94.5t118 -259.5q0 -206 -161.5 -330.5t-451.5 -124.5h-485l231 868h-319l71 271h633zM860 561h-155l-82 -311h155q130 0 197 50.5t67 133.5q0 127 -182 127z" />
    <glyph glyph-name="uni044B" unicode="&#x44b;" horiz-adv-x="1798" 
d="M1174 0l307 1139h309l-305 -1139h-311zM625 561h-162l-82 -311h168q129 0 195.5 50.5t66.5 135.5q0 125 -186 125zM532 809h115q234 0 350.5 -94.5t116.5 -259.5q0 -206 -155 -330.5t-437 -124.5h-516l305 1139h312z" />
    <glyph glyph-name="uni044C" unicode="&#x44c;" horiz-adv-x="1216" 
d="M618 561h-155l-82 -311h156q130 0 197 50.5t67 133.5q0 127 -183 127zM532 809h99q238 0 355.5 -94.5t117.5 -259.5q0 -206 -161 -330.5t-451 -124.5h-486l305 1139h312z" />
    <glyph glyph-name="uni044D" unicode="&#x44d;" horiz-adv-x="1234" 
d="M2 197l195 180q69 -75 133 -110.5t155 -35.5q149 0 248 99q51 51 78 121l-485 -5l65 244l449 -4v2q-11 100 -78 159t-172 58q-152 0 -283 -98l-135 209q204 143 438 143q240 0 385.5 -144t145.5 -374q0 -136 -52 -262t-145 -219q-185 -185 -461 -185q-158 0 -272 55.5
t-209 166.5z" />
    <glyph glyph-name="uni044E" unicode="&#x44e;" horiz-adv-x="1916" 
d="M6 0l305 1139h312l-113 -422h164q53 146 164 254q88 88 203 138t243 50q161 0 283 -68t186 -186.5t64 -269.5q0 -132 -53.5 -254.5t-147.5 -216.5q-89 -89 -204.5 -139t-242.5 -50q-224 0 -366.5 124.5t-163.5 328.5v2h-207l-117 -430h-309zM1180 240q115 0 211 96
q56 56 88 134t32 157q0 126 -63.5 196t-173.5 70q-117 0 -211 -94q-56 -55 -88.5 -133.5t-32.5 -157.5q0 -127 63.5 -197.5t174.5 -70.5z" />
    <glyph glyph-name="uni044F" unicode="&#x44f;" horiz-adv-x="1314" 
d="M1311 1139l-305 -1139h-308l99 371h-154h-2l-328 -371h-366l399 434q-166 97 -166 287q0 189 148.5 303.5t396.5 114.5h586zM938 901h-227q-105 0 -166.5 -45.5t-61.5 -124.5q0 -65 44 -100t147 -35h182z" />
    <glyph glyph-name="uni0450" unicode="&#x450;" horiz-adv-x="1310" 
d="M1180 461h-791v-2q8 -109 75 -172t193 -62q68 0 129 21.5t132 72.5l145 -192q-180 -152 -440 -152q-242 0 -383.5 135t-141.5 369q0 133 54.5 261.5t152.5 226.5q90 90 210 141t257 51q216 0 340.5 -124t124.5 -318q0 -127 -57 -256zM514 811q-61 -61 -96 -154h516
q10 38 10 74q0 80 -48 129t-146 49q-138 0 -236 -98zM733 1268l-201 254l277 116l137 -370h-213z" />
    <glyph glyph-name="uni0451" unicode="&#x451;" horiz-adv-x="1310" 
d="M479 1268l76 280h301l-76 -280h-301zM928 1268l78 280h301l-78 -280h-301zM1180 461h-791v-2q8 -109 75 -172t193 -62q68 0 129 21.5t132 72.5l145 -192q-180 -152 -440 -152q-242 0 -383.5 135t-141.5 369q0 133 54.5 261.5t152.5 226.5q90 90 210 141t257 51
q216 0 340.5 -124t124.5 -318q0 -127 -57 -256zM514 811q-61 -61 -96 -154h516q10 38 10 74q0 80 -48 129t-146 49q-138 0 -236 -98z" />
    <glyph glyph-name="uni0452" unicode="&#x452;" horiz-adv-x="1292" 
d="M729 55l113 420q12 55 12 90q0 63 -48 91t-151 28q-83 0 -151 -12l-182 -672h-310l314 1176h-209l65 241h209l37 137h311l-37 -137h336l-65 -241h-336l-62 -230q79 12 168 12q205 0 318 -81t113 -246q0 -86 -37 -213l-105 -387q-56 -210 -162.5 -294.5t-300.5 -84.5
q-94 0 -188 20l65 244q68 -14 111 -14q67 0 107.5 33t64.5 120z" />
    <glyph glyph-name="uni0453" unicode="&#x453;" horiz-adv-x="1103" 
d="M608 1268l338 370l264 -116l-340 -254h-262zM6 0l305 1139h869l-76 -281h-557l-232 -858h-309z" />
    <glyph glyph-name="uni0454" unicode="&#x454;" horiz-adv-x="1234" 
d="M100 487q0 138 52.5 265t146.5 221q186 186 465 186q111 0 203 -30.5t151.5 -74.5t120.5 -110l-209 -186q-59 71 -122 108t-158 37q-146 0 -242 -96q-49 -49 -78 -121l488 4l-66 -244l-451 5v-2q10 -105 76 -163.5t170 -56.5q149 0 289 105l137 -209q-202 -150 -436 -150
q-241 0 -389 140t-148 372z" />
    <glyph glyph-name="uni0455" unicode="&#x455;" horiz-adv-x="1089" 
d="M473 -25q-137 0 -277 52.5t-233 152.5l180 187q154 -154 353 -154q67 0 106 28t39 78q0 33 -34 59t-105 54q-79 34 -129.5 60.5t-101 66t-75 90.5t-24.5 115q0 173 123.5 284t331.5 111q128 0 248 -47.5t196 -114.5l-168 -196q-150 121 -299 121q-65 0 -100 -27.5
t-35 -75.5q0 -33 35.5 -60t120.5 -65q55 -24 93 -42.5t83 -48.5t72 -61t46 -75t19 -94q0 -182 -130 -290t-335 -108z" />
    <glyph glyph-name="uni0456" unicode="&#x456;" horiz-adv-x="657" 
d="M20 0l306 1139h311l-305 -1139h-312zM354 1274l76 278h328l-76 -278h-328z" />
    <glyph glyph-name="uni0457" unicode="&#x457;" horiz-adv-x="657" 
d="M143 1268l76 280h301l-76 -280h-301zM592 1268l78 280h301l-78 -280h-301zM20 0l306 1139h311l-305 -1139h-312z" />
    <glyph glyph-name="uni0458" unicode="&#x458;" horiz-adv-x="655" 
d="M-88 -348q-86 0 -174 18l65 244q42 -10 80 -10q54 0 94 39.5t60 113.5l289 1082h311l-299 -1121q-56 -196 -163.5 -281t-262.5 -85zM354 1274l74 278h328l-74 -278h-328z" />
    <glyph glyph-name="uni0459" unicode="&#x459;" horiz-adv-x="1830" 
d="M-127 0l866 1139h525l-88 -330h69q238 0 355.5 -94.5t117.5 -259.5q0 -206 -160.5 -330.5t-449.5 -124.5h-461l240 897h-6l-678 -897h-330zM1235 561h-129l-82 -311h129q129 0 195.5 50.5t66.5 133.5q0 127 -180 127z" />
    <glyph glyph-name="uni045A" unicode="&#x45a;" horiz-adv-x="1912" 
d="M1257 809h70q238 0 355.5 -94.5t117.5 -259.5q0 -206 -160.5 -330.5t-449.5 -124.5h-461l115 430h-412l-117 -430h-309l305 1139h312l-113 -422h412l114 422h310zM1317 561h-129l-82 -311h129q129 0 195.5 50.5t66.5 133.5q0 127 -180 127z" />
    <glyph glyph-name="uni045B" unicode="&#x45b;" horiz-adv-x="1292" 
d="M973 1176h-336l-62 -230q79 12 168 12q205 0 318 -81t113 -246q0 -86 -37 -213l-113 -418h-311l129 475q12 55 12 90q0 63 -48 91t-151 28q-83 0 -151 -12l-182 -672h-310l314 1176h-209l65 241h209l37 137h311l-37 -137h336z" />
    <glyph glyph-name="uni045C" unicode="&#x45c;" horiz-adv-x="1300" 
d="M680 1268l338 370l264 -116l-340 -254h-262zM6 0l305 1139h312l-123 -439h100l424 439h403l-616 -598l319 -541h-335l-252 449h-111l-117 -449h-309z" />
    <glyph glyph-name="uni045D" unicode="&#x45d;" horiz-adv-x="1384" 
d="M748 1268l-201 254l276 116l138 -370h-213zM1079 1139h299l-305 -1139h-307l174 657l-651 -657h-283l305 1139h310l-172 -637z" />
    <glyph glyph-name="uni045E" unicode="&#x45e;" horiz-adv-x="1277" 
d="M352 -8l-145 1147h317l62 -787l442 787h336l-713 -1168q-113 -174 -219 -246.5t-250 -72.5q-146 0 -264 80l166 225q61 -47 129 -47q43 0 73 17t66 65zM829 1264q-91 0 -159.5 26.5t-109 73t-59 105t-16.5 126.5h215q2 -57 39.5 -93t106.5 -36q79 0 127.5 33t89.5 96h217
q-52 -148 -169 -239.5t-282 -91.5z" />
    <glyph glyph-name="uni045F" unicode="&#x45f;" horiz-adv-x="1374" 
d="M6 0l305 1139h312l-232 -858h436l232 858h309l-305 -1139h-391l-74 -274h-279l74 274h-387z" />
    <glyph glyph-name="uni0462" unicode="&#x462;" horiz-adv-x="1775" 
d="M1440 1087h-490l-57 -219h293q226 0 349.5 -96.5t123.5 -284.5t-129 -317q-170 -170 -514 -170h-666l287 1083h-451l70 256h451l45 170h311l-45 -170h489zM1331 463q0 133 -182 133h-330l-84 -320h336q145 0 213 68q47 47 47 119z" />
    <glyph glyph-name="uni0463" unicode="&#x463;" horiz-adv-x="1468" 
d="M752 723h172q214 0 319 -84t105 -231q0 -185 -143 -296.5t-402 -111.5h-555l233 877h-321l69 262h322l113 415h309l-111 -415h418l-68 -258h-419zM897 487h-213l-66 -247h216q102 0 155 40t53 105q0 102 -145 102z" />
    <glyph glyph-name="uni0472" unicode="&#x472;" horiz-adv-x="1781" 
d="M1044 1516q149 0 276 -50.5t214 -138.5t135.5 -209t48.5 -260q0 -173 -68.5 -336.5t-191.5 -288.5q-121 -122 -281.5 -191t-347.5 -69q-149 0 -276 51t-213.5 139t-135 209.5t-48.5 260.5q0 172 69 335.5t193 288.5q121 123 280 191t346 68zM1229 403q89 89 135 211h-897
v-2q12 -164 117 -264t282 -100q208 0 363 155zM1405 887v2q-14 160 -117.5 257t-277.5 97q-207 0 -363 -156q-85 -85 -133 -200h891z" />
    <glyph glyph-name="uni0473" unicode="&#x473;" horiz-adv-x="1394" 
d="M754 1159q163 0 286.5 -68t188.5 -186.5t65 -269.5q0 -130 -50.5 -251t-143.5 -214q-195 -195 -459 -195q-163 0 -286.5 68t-189 187t-65.5 270q0 128 51 249.5t144 215.5q194 194 459 194zM655 221q137 0 240 103q58 58 88 129h-602v-2q17 -110 90 -171t184 -59z
M502 813q-62 -68 -90 -129h600v2q-17 108 -89.5 168.5t-183.5 58.5q-137 0 -237 -100z" />
    <glyph glyph-name="uni0474" unicode="&#x474;" horiz-adv-x="1652" 
d="M1397 961l-643 -971h-279l-196 1501h337l113 -1059l420 676q98 158 178.5 238t178.5 114.5t249 34.5h96l-75 -285h-25q-56 0 -94 -7t-69 -20.5t-62 -46.5t-57.5 -69.5t-71.5 -105.5z" />
    <glyph glyph-name="uni0475" unicode="&#x475;" horiz-adv-x="1325" 
d="M604 -8h-280l-131 1147h317l51 -774l256 421q91 148 162 221.5t156 104.5t217 31h71l-67 -256h-23q-82 0 -130 -35t-126 -150z" />
    <glyph glyph-name="uni0490" unicode="&#x490;" horiz-adv-x="1353" 
d="M1427 1204h-751l-322 -1204h-315l399 1491h772l78 289h295z" />
    <glyph glyph-name="uni0491" unicode="&#x491;" horiz-adv-x="1103" 
d="M1104 858h-557l-232 -858h-309l305 1139h580l70 266h290z" />
    <glyph glyph-name="uni0492" unicode="&#x492;" horiz-adv-x="1392" 
d="M76 0l160 600h-160l59 217h160l180 674h1067l-78 -287h-751l-105 -387h369l-59 -217h-367l-160 -600h-315z" />
    <glyph glyph-name="uni0493" unicode="&#x493;" horiz-adv-x="1146" 
d="M49 0l117 434h-146l48 176h145l141 529h869l-76 -281h-557l-68 -248h266l-47 -176h-266l-117 -434h-309z" />
    <glyph glyph-name="uni0496" unicode="&#x496;" horiz-adv-x="2320" 
d="M2537 1491l-829 -774l279 -430h292l-157 -590h-295l82 303h-86l-379 623h-96l-162 -623h-316l172 623h-90l-665 -623h-406l873 791l-420 700h350l342 -612h84l160 612h315l-170 -612h84l633 612h405z" />
    <glyph glyph-name="uni0497" unicode="&#x497;" horiz-adv-x="1947" 
d="M2032 1139l-600 -584l157 -274h240l-150 -555h-278l74 274h-56l-243 449h-101l-114 -449h-312l125 449h-90l-448 -449h-379l632 602l-311 537h332l238 -439h94l110 439h312l-121 -439h82l428 439h379z" />
    <glyph glyph-name="uni0498" unicode="&#x498;" horiz-adv-x="1435" 
d="M420 1092l-144 239q126 85 282 135t316 50q250 0 399.5 -110.5t149.5 -281.5q0 -151 -94.5 -248.5t-247.5 -142.5q94 -40 154.5 -118t60.5 -185q0 -130 -79 -232.5t-204 -157.5t-274 -63v-2l-67 -278h-307l98 301q-262 52 -449 252l205 205q105 -102 218 -151.5
t253 -49.5q127 0 207 55t80 140q0 172 -264 172h-273l72 262h250q158 0 241.5 51t83.5 141q0 71 -60 116.5t-167 45.5q-211 0 -440 -145z" />
    <glyph glyph-name="uni0499" unicode="&#x499;" horiz-adv-x="1228" 
d="M1053 313q0 -128 -121 -226t-326 -110l-59 -251h-291l88 272q-205 43 -348 166l162 198q176 -137 391 -137q95 0 150 35t55 90q0 109 -179 109h-241l59 223h228q210 0 210 123q0 50 -43 77t-122 27q-182 0 -357 -94l-116 217q115 63 230 95t265 32q220 0 340.5 -89.5
t120.5 -227.5q0 -109 -74 -183t-186 -106q83 -38 123.5 -94.5t40.5 -145.5z" />
    <glyph glyph-name="uni049A" unicode="&#x49a;" horiz-adv-x="1597" 
d="M1776 1491l-863 -760l316 -444h278l-157 -590h-295l82 303h-62l-428 623h-129l-164 -623h-315l399 1491h316l-166 -612h104l664 612h420z" />
    <glyph glyph-name="uni049B" unicode="&#x49b;" horiz-adv-x="1325" 
d="M1427 1139l-616 -598l154 -260h258l-150 -555h-278l73 274h-73l-252 449h-111l-117 -449h-309l305 1139h312l-123 -439h100l424 439h403z" />
    <glyph glyph-name="uni049C" unicode="&#x49c;" horiz-adv-x="1638" 
d="M1464 0h-342l-266 612h-2l-100 -389h-189l111 400h-156l-166 -623h-315l399 1491h316l-166 -614h155l109 421h188l-108 -395h2l514 588h375l-705 -766z" />
    <glyph glyph-name="uni049D" unicode="&#x49d;" horiz-adv-x="1400" 
d="M1188 0h-320l-174 455h-8l-80 -318h-149l86 318h-105l-123 -455h-309l305 1139h312l-121 -449h104l82 305h148l-84 -301h2l391 445h373l-574 -586z" />
    <glyph glyph-name="uni04A0" unicode="&#x4a0;" horiz-adv-x="1888" 
d="M350 0l324 1210h-455l76 281h770l-166 -612h105l663 612h420l-862 -760l518 -731h-357l-428 623h-129l-163 -623h-316z" />
    <glyph glyph-name="uni04A1" unicode="&#x4a1;" horiz-adv-x="1544" 
d="M227 0l232 868h-320l72 271h633l-123 -439h100l424 439h404l-617 -598l320 -541h-336l-252 449h-111l-116 -449h-310z" />
    <glyph glyph-name="uni04A2" unicode="&#x4a2;" horiz-adv-x="1708" 
d="M59 0l400 1491h315l-158 -596h617l160 596h313l-324 -1204h197l-158 -590h-295l82 303h-217l164 604h-616l-164 -604h-316z" />
    <glyph glyph-name="uni04A3" unicode="&#x4a3;" horiz-adv-x="1439" 
d="M1364 1139l-231 -858h153l-149 -555h-279l74 274h-184l116 430h-432l-117 -430h-309l305 1139h312l-115 -424h432l115 424h309z" />
    <glyph glyph-name="uni04A4" unicode="&#x4a4;" horiz-adv-x="2199" 
d="M950 0l162 604h-596l-162 -604h-315l399 1491h316l-160 -596h596l160 596h1001l-78 -287h-686l-321 -1204h-316z" />
    <glyph glyph-name="uni04A5" unicode="&#x4a5;" horiz-adv-x="1806" 
d="M729 0l115 430h-412l-117 -430h-309l305 1139h312l-113 -422h412l114 422h848l-76 -281h-540l-228 -858h-311z" />
    <glyph glyph-name="uni04AA" unicode="&#x4aa;" horiz-adv-x="1568" 
d="M508 -303l100 309q-207 63 -329.5 224.5t-122.5 390.5q0 177 70 339.5t196 288.5t291 196.5t350 70.5q399 0 594 -318l-260 -180q-70 101 -158.5 155t-214.5 54q-98 0 -190.5 -41.5t-167.5 -116.5q-183 -183 -183 -436q0 -165 104 -267t269 -102q104 0 183 37t175 115
l205 -211q-236 -222 -536 -230l-68 -278h-307z" />
    <glyph glyph-name="uni04AB" unicode="&#x4ab;" horiz-adv-x="1214" 
d="M313 -274l95 288q-144 57 -226 180t-82 293q0 137 51.5 258.5t145.5 215.5t217 146t258 52q325 0 465 -252l-238 -166q-32 49 -61.5 79.5t-78 51.5t-111.5 21q-117 0 -213 -96q-58 -58 -92.5 -139.5t-34.5 -170.5q0 -114 66 -180.5t167 -66.5q74 0 132.5 27t129.5 87
l160 -202q-93 -83 -185 -126t-214 -49l-60 -251h-291z" />
    <glyph glyph-name="uni04AE" unicode="&#x4ae;" horiz-adv-x="1406" 
d="M379 0l158 590l-314 901h348l187 -629l526 629h381l-819 -932l-152 -559h-315z" />
    <glyph glyph-name="uni04AF" unicode="&#x4af;" horiz-adv-x="1275" 
d="M541 -340h-312l103 387l-139 1092h317l57 -766l467 766h334l-725 -1094z" />
    <glyph glyph-name="uni04B0" unicode="&#x4b0;" horiz-adv-x="1406" 
d="M379 0l104 389h-340l58 217h329l-307 885h348l187 -629l526 629h381l-778 -885h325l-55 -217h-358l-105 -389h-315z" />
    <glyph glyph-name="uni04B1" unicode="&#x4b1;" horiz-adv-x="1292" 
d="M1014 176l-47 -176h-318l-90 -340h-311l90 340h-309l47 176h258l-123 963h317l58 -766l467 766h333l-638 -963h266z" />
    <glyph glyph-name="uni04B2" unicode="&#x4b2;" horiz-adv-x="1595" 
d="M-94 0l723 772l-324 719h352l199 -490l432 490h404l-705 -754l203 -450h272l-157 -590h-295l82 303h-123l-211 512l-451 -512h-401z" />
    <glyph glyph-name="uni04B3" unicode="&#x4b3;" horiz-adv-x="1292" 
d="M547 1139l135 -328l281 328h370l-536 -576l127 -282h252l-150 -555h-278l73 274h-102l-139 348l-304 -348h-370l561 594l-252 545h332z" />
    <glyph glyph-name="uni04B6" unicode="&#x4b6;" horiz-adv-x="1585" 
d="M862 0l125 475q-103 -20 -237 -20q-82 0 -153 12.5t-137.5 43.5t-114 77.5t-75.5 119.5t-28 166q0 88 32 216l109 401h313l-112 -426q-27 -93 -27 -145q0 -181 252 -181q129 0 258 29l195 723h315l-324 -1204h197l-158 -590h-295l82 303h-217z" />
    <glyph glyph-name="uni04B7" unicode="&#x4b7;" horiz-adv-x="1343" 
d="M1270 1139l-232 -858h154l-150 -555h-278l74 274h-185l86 328q-70 -11 -164 -11q-204 0 -316 81t-112 247q0 79 35 213l76 281h309l-90 -338q-14 -68 -14 -90q0 -62 49 -90.5t150 -28.5q95 0 151 12l145 535h312z" />
    <glyph glyph-name="uni04B8" unicode="&#x4b8;" horiz-adv-x="1519" 
d="M1262 1491h315l-399 -1491h-316l125 475q-104 -18 -190 -20h-2l-80 -314h-189l88 324q-81 13 -145.5 41t-117 75.5t-81 121.5t-28.5 171q0 88 32 216l109 401h313l-112 -426q-27 -93 -27 -145q0 -129 135 -168l103 399h188l-113 -412h2q88 5 195 29z" />
    <glyph glyph-name="uni04B9" unicode="&#x4b9;" horiz-adv-x="1273" 
d="M1270 1139l-305 -1139h-312l86 328q-75 -11 -127 -11l-55 -219h-147l61 226q-324 40 -324 321q0 77 35 211l76 283h309l-90 -338q-14 -49 -14 -90q0 -80 84 -107l71 279h148l-80 -291q68 0 127 12l145 535h312z" />
    <glyph glyph-name="uni04BA" unicode="&#x4ba;" horiz-adv-x="1521" 
d="M752 1491l-127 -477q113 22 239 22q81 0 152.5 -12.5t138 -43.5t114 -78t75.5 -120t28 -166q0 -112 -33 -215l-106 -401h-315l112 426q27 93 27 145q0 181 -250 181q-115 0 -260 -29l-195 -723h-315l401 1491h314z" />
    <glyph glyph-name="uni04BB" unicode="&#x4bb;" horiz-adv-x="1343" 
d="M8 0l416 1554h311l-145 -540q156 145 315 145q155 0 246.5 -89t91.5 -243q0 -65 -37 -213l-164 -614h-311l168 627q16 62 16 102q0 72 -43.5 111t-121.5 39q-96 0 -163.5 -64t-97.5 -176l-172 -639h-309z" />
    <glyph glyph-name="uni04C0" unicode="&#x4c0;" horiz-adv-x="729" 
d="M53 0l402 1491h315l-401 -1491h-316z" />
    <glyph glyph-name="uni04C1" unicode="&#x4c1;" horiz-adv-x="2336" 
d="M1464 1606q-169 0 -254 80.5t-61 230.5h201q6 -53 43 -80t116 -27q76 0 124.5 26.5t82.5 80.5h228q-53 -149 -181 -230t-299 -81zM1585 1491l-170 -612h84l633 612h405l-829 -774l463 -717h-348l-379 623h-96l-162 -623h-316l172 623h-90l-665 -623h-406l873 791
l-420 700h350l342 -612h84l160 612h315z" />
    <glyph glyph-name="uni04C2" unicode="&#x4c2;" horiz-adv-x="1910" 
d="M1264 1139l-121 -439h82l428 439h379l-600 -584l319 -555h-332l-243 449h-101l-114 -449h-312l125 449h-90l-448 -449h-379l632 602l-311 537h332l238 -439h94l110 439h312zM1161 1264q-91 0 -159.5 26.5t-109 73t-59 105t-16.5 126.5h215q2 -57 39.5 -93t106.5 -36
q79 0 127.5 33t89.5 96h217q-52 -148 -169 -239.5t-282 -91.5z" />
    <glyph glyph-name="uni04CF" unicode="&#x4cf;" horiz-adv-x="657" 
d="M20 0l418 1554h310l-416 -1554h-312z" />
    <glyph glyph-name="uni04D0" unicode="&#x4d0;" horiz-adv-x="1648" 
d="M-109 0l1045 1501h303l240 -1501h-324l-47 340h-645l-232 -340h-340zM651 618h418l-74 515zM1120 1626q-169 0 -254 80.5t-61 230.5h201q6 -53 43 -79.5t116 -26.5q77 0 125 26.5t82 79.5h227q-53 -150 -180.5 -230.5t-298.5 -80.5z" />
    <glyph glyph-name="uni04D1" unicode="&#x4d1;" horiz-adv-x="1269" 
d="M360 -23q-147 0 -240 86.5t-93 221.5q0 166 108 274q138 135 383 135q170 0 328 -51l6 16q12 54 12 86q0 142 -223 142q-149 0 -305 -62l-49 246q191 80 420 80q226 0 342 -90.5t116 -259.5q0 -76 -24 -170l-168 -631h-301l35 135q-148 -158 -347 -158zM492 193
q101 0 187 69t114 168l8 35q-102 41 -226 41q-125 0 -190 -68q-49 -49 -49 -119q0 -56 42.5 -91t113.5 -35zM831 1264q-91 0 -159.5 26.5t-109 73t-59 105t-16.5 126.5h215q2 -57 39.5 -93t106.5 -36q79 0 127.5 33t89.5 96h217q-52 -148 -169 -239.5t-282 -91.5z" />
    <glyph glyph-name="uni04D2" unicode="&#x4d2;" horiz-adv-x="1648" 
d="M-109 0l1045 1501h303l240 -1501h-324l-47 340h-645l-232 -340h-340zM651 618h418l-74 515zM745 1630l72 264h303l-73 -264h-302zM1204 1630l72 264h303l-74 -264h-301z" />
    <glyph glyph-name="uni04D3" unicode="&#x4d3;" horiz-adv-x="1269" 
d="M360 -23q-147 0 -240 86.5t-93 221.5q0 166 108 274q138 135 383 135q170 0 328 -51l6 16q12 54 12 86q0 142 -223 142q-149 0 -305 -62l-49 246q191 80 420 80q226 0 342 -90.5t116 -259.5q0 -76 -24 -170l-168 -631h-301l35 135q-148 -158 -347 -158zM492 193
q101 0 187 69t114 168l8 35q-102 41 -226 41q-125 0 -190 -68q-49 -49 -49 -119q0 -56 42.5 -91t113.5 -35zM430 1268l76 280h301l-76 -280h-301zM879 1268l77 280h301l-77 -280h-301z" />
    <glyph glyph-name="uni04D4" unicode="&#x4d4;" horiz-adv-x="2273" 
d="M-117 0l1211 1491h1294l-76 -281h-756l-86 -321h660l-76 -277h-659l-90 -331h770l-76 -281h-1081l92 340h-512l-271 -340h-344zM721 618h364l160 601h-41z" />
    <glyph glyph-name="uni04D5" unicode="&#x4d5;" horiz-adv-x="2025" 
d="M1339 -25q-149 0 -260 56.5t-174 165.5q-211 -220 -514 -220q-171 0 -267.5 83.5t-96.5 224.5q0 166 108 274q138 135 383 135q170 0 328 -51l6 16q12 54 12 86q0 142 -223 142q-149 0 -305 -62l-49 246q191 80 420 80q287 0 376 -174q81 85 188 133.5t228 48.5
q209 0 331 -124t122 -318q0 -115 -56 -256h-790v-2q8 -109 74 -172t194 -62q68 0 128 21.5t132 72.5l144 -192q-75 -69 -189.5 -110.5t-249.5 -41.5zM512 193q83 0 176 40t164 111q-9 50 -12 105q-134 57 -265 57q-125 0 -190 -68q-49 -49 -49 -119q0 -57 46 -91.5
t130 -34.5zM1231 811q-59 -56 -96 -154h514q10 38 10 74q0 80 -48 129t-147 49q-135 0 -233 -98z" />
    <glyph glyph-name="uni04D6" unicode="&#x4d6;" horiz-adv-x="1435" 
d="M1020 1606q-169 0 -254 80.5t-61 230.5h200q6 -53 43.5 -80t116.5 -27q76 0 124.5 26.5t82.5 80.5h227q-53 -150 -180.5 -230.5t-298.5 -80.5zM39 0l399 1491h1112l-75 -281h-799l-84 -321h700l-75 -277h-701l-90 -331h809l-76 -281h-1120z" />
    <glyph glyph-name="uni04D7" unicode="&#x4d7;" horiz-adv-x="1310" 
d="M1180 461h-791v-2q8 -109 75 -172t193 -62q68 0 129 21.5t132 72.5l145 -192q-180 -152 -440 -152q-242 0 -383.5 135t-141.5 369q0 133 54.5 261.5t152.5 226.5q90 90 210 141t257 51q216 0 340.5 -124t124.5 -318q0 -127 -57 -256zM514 811q-61 -61 -96 -154h516
q10 38 10 74q0 80 -48 129t-146 49q-138 0 -236 -98zM881 1264q-91 0 -159.5 26.5t-109 73t-59 105t-16.5 126.5h215q2 -57 39 -93t106 -36q79 0 127.5 33t89.5 96h217q-52 -148 -168.5 -239.5t-281.5 -91.5z" />
    <glyph glyph-name="uni04D8" unicode="&#x4d8;" horiz-adv-x="1716" 
d="M156 551q0 151 69 332h1116v2q-5 148 -101 243t-277 95q-201 0 -424 -146l-154 246q283 190 594 190q308 0 491 -177t183 -476q0 -175 -66 -337.5t-190 -286.5q-261 -261 -625 -261q-286 0 -451 159t-165 417zM1163 412q94 94 137 206h-825q-10 -52 -10 -77
q0 -55 18 -103.5t55.5 -90t103 -65.5t151.5 -24q116 0 211.5 45.5t158.5 108.5z" />
    <glyph glyph-name="uni04D9" unicode="&#x4d9;" horiz-adv-x="1310" 
d="M74 422q0 118 55 256h789v2q-6 107 -73.5 170.5t-191.5 62.5q-68 0 -129.5 -21.5t-132.5 -72.5l-143 193q178 151 440 151q242 0 383 -135t141 -369q0 -134 -54 -261.5t-152 -225.5q-91 -91 -211 -143t-258 -52q-144 0 -250 59t-159.5 159t-53.5 227zM795 328
q60 60 96 153h-514q-10 -38 -10 -75q0 -79 47.5 -128t146.5 -49q141 0 234 99z" />
    <glyph glyph-name="uni04DC" unicode="&#x4dc;" horiz-adv-x="2336" 
d="M1085 1610l72 264h303l-74 -264h-301zM1544 1610l72 264h303l-74 -264h-301zM1585 1491l-170 -612h84l633 612h405l-829 -774l463 -717h-348l-379 623h-96l-162 -623h-316l172 623h-90l-665 -623h-406l873 791l-420 700h350l342 -612h84l160 612h315z" />
    <glyph glyph-name="uni04DD" unicode="&#x4dd;" horiz-adv-x="1910" 
d="M762 1268l76 280h301l-76 -280h-301zM1210 1268l78 280h301l-78 -280h-301zM1264 1139l-121 -439h82l428 439h379l-600 -584l319 -555h-332l-243 449h-101l-114 -449h-312l125 449h-90l-448 -449h-379l632 602l-311 537h332l238 -439h94l110 439h312z" />
    <glyph glyph-name="uni04DE" unicode="&#x4de;" horiz-adv-x="1435" 
d="M580 1630l71 264h303l-73 -264h-301zM1038 1630l72 264h303l-74 -264h-301zM420 1092l-144 239q126 85 282 135t316 50q250 0 399.5 -110.5t149.5 -281.5q0 -151 -94.5 -248.5t-247.5 -142.5q94 -40 154.5 -118t60.5 -185q0 -104 -51 -191.5t-136.5 -144t-195 -88
t-227.5 -31.5q-228 0 -390 72.5t-282 202.5l205 205q105 -102 218 -151.5t253 -49.5q127 0 207 55t80 140q0 172 -264 172h-273l72 262h250q158 0 241.5 51t83.5 141q0 71 -60 116.5t-167 45.5q-211 0 -440 -145z" />
    <glyph glyph-name="uni04DF" unicode="&#x4df;" horiz-adv-x="1228" 
d="M371 1268l75 280h302l-76 -280h-301zM819 1268l78 280h301l-78 -280h-301zM1053 313q0 -137 -136.5 -237.5t-363.5 -100.5q-325 0 -557 189l162 198q176 -137 391 -137q95 0 150 35t55 90q0 109 -179 109h-241l59 223h228q210 0 210 123q0 50 -43 77t-122 27
q-182 0 -357 -94l-116 217q115 63 230 95t265 32q220 0 340.5 -89.5t120.5 -227.5q0 -109 -74 -183t-186 -106q83 -38 123.5 -94.5t40.5 -145.5z" />
    <glyph glyph-name="uni04E2" unicode="&#x4e2;" horiz-adv-x="1701" 
d="M723 1622l59 221h801l-61 -221h-799zM1452 1491h307l-401 -1491h-316l258 963l-976 -963h-285l399 1491h316l-250 -934z" />
    <glyph glyph-name="uni04E3" unicode="&#x4e3;" horiz-adv-x="1384" 
d="M492 1280l57 217h760l-58 -217h-759zM1079 1139h299l-305 -1139h-307l174 657l-651 -657h-283l305 1139h310l-172 -637z" />
    <glyph glyph-name="uni04E4" unicode="&#x4e4;" horiz-adv-x="1701" 
d="M737 1610l72 264h303l-74 -264h-301zM1196 1610l72 264h303l-74 -264h-301zM1452 1491h307l-401 -1491h-316l258 963l-976 -963h-285l399 1491h316l-250 -934z" />
    <glyph glyph-name="uni04E5" unicode="&#x4e5;" horiz-adv-x="1384" 
d="M494 1268l75 280h301l-75 -280h-301zM942 1268l78 280h301l-78 -280h-301zM1079 1139h299l-305 -1139h-307l174 657l-651 -657h-283l305 1139h310l-172 -637z" />
    <glyph glyph-name="uni04E6" unicode="&#x4e6;" horiz-adv-x="1794" 
d="M784 1630l72 264h303l-74 -264h-301zM1243 1630l72 264h303l-74 -264h-301zM1051 1516q150 0 278 -50.5t215.5 -138.5t137 -209t49.5 -260q0 -173 -69 -336.5t-194 -288.5q-260 -260 -632 -260q-151 0 -279.5 51t-215.5 139t-136 209.5t-49 260.5q0 172 69.5 335.5
t194.5 288.5q259 259 631 259zM872 264q203 0 355 152q83 83 129.5 196.5t46.5 225.5q0 173 -102.5 281t-284.5 108q-202 0 -354 -152q-85 -83 -132 -196.5t-47 -225.5q0 -175 102 -282t287 -107z" />
    <glyph glyph-name="uni04E7" unicode="&#x4e7;" horiz-adv-x="1406" 
d="M508 1268l76 280h301l-76 -280h-301zM956 1268l78 280h301l-78 -280h-301zM760 1159q165 0 290 -68t191 -186.5t66 -269.5q0 -129 -52.5 -250t-146.5 -215q-93 -93 -211 -144t-250 -51q-248 0 -397.5 147t-149.5 378q0 127 52.5 248.5t146.5 216.5q194 194 461 194z
M662 240q121 0 215 94q58 58 91 138.5t33 154.5q0 127 -69 196.5t-187 69.5q-123 0 -215 -92q-58 -58 -91 -138.5t-33 -154.5q0 -127 69.5 -197.5t186.5 -70.5z" />
    <glyph glyph-name="uni04E8" unicode="&#x4e8;" horiz-adv-x="1781" 
d="M1044 1516q149 0 276 -50.5t214 -138.5t135.5 -209t48.5 -260q0 -173 -68.5 -336.5t-191.5 -288.5q-121 -122 -281.5 -191t-347.5 -69q-149 0 -276 51t-213.5 139t-135 209.5t-48.5 260.5q0 172 69 335.5t193 288.5q121 123 280 191t346 68zM1229 403q89 89 135 211h-897
v-2q12 -164 117 -264t282 -100q208 0 363 155zM1405 887v2q-14 160 -117.5 257t-277.5 97q-207 0 -363 -156q-85 -85 -133 -200h891z" />
    <glyph glyph-name="uni04E9" unicode="&#x4e9;" horiz-adv-x="1394" 
d="M754 1159q163 0 286.5 -68t188.5 -186.5t65 -269.5q0 -130 -50.5 -251t-143.5 -214q-195 -195 -459 -195q-163 0 -286.5 68t-189 187t-65.5 270q0 128 51 249.5t144 215.5q194 194 459 194zM655 221q137 0 240 103q58 58 88 129h-602v-2q17 -110 90 -171t184 -59z
M502 813q-62 -68 -90 -129h600v2q-17 108 -89.5 168.5t-183.5 58.5q-137 0 -237 -100z" />
    <glyph glyph-name="uni04EE" unicode="&#x4ee;" horiz-adv-x="1525" 
d="M596 1622l59 221h801l-61 -221h-799zM1739 1491l-1211 -1491h-364l424 524l-318 967h334l213 -703l557 703h365z" />
    <glyph glyph-name="uni04EF" unicode="&#x4ef;" horiz-adv-x="1277" 
d="M352 -8l-145 1147h317l62 -787l442 787h336l-713 -1168q-113 -174 -219 -246.5t-250 -72.5q-146 0 -264 80l166 225q61 -47 129 -47q43 0 73 17t66 65zM428 1280l57 217h760l-57 -217h-760z" />
    <glyph glyph-name="uni04F0" unicode="&#x4f0;" horiz-adv-x="1525" 
d="M610 1610l72 264h303l-74 -264h-301zM1069 1610l72 264h303l-74 -264h-301zM1739 1491l-1211 -1491h-364l424 524l-318 967h334l213 -703l557 703h365z" />
    <glyph glyph-name="uni04F1" unicode="&#x4f1;" horiz-adv-x="1277" 
d="M352 -8l-145 1147h317l62 -787l442 787h336l-713 -1168q-113 -174 -219 -246.5t-250 -72.5q-146 0 -264 80l166 225q61 -47 129 -47q43 0 73 17t66 65zM430 1268l76 280h301l-76 -280h-301zM879 1268l77 280h301l-77 -280h-301z" />
    <glyph glyph-name="uni04F2" unicode="&#x4f2;" horiz-adv-x="1525" 
d="M1739 1491l-1211 -1491h-364l424 524l-318 967h334l213 -703l557 703h365zM608 1610l344 329l252 -118l-342 -211h-254zM1020 1610l344 329l252 -118l-344 -211h-252z" />
    <glyph glyph-name="uni04F3" unicode="&#x4f3;" horiz-adv-x="1277" 
d="M352 -8l-145 1147h317l62 -787l442 787h336l-713 -1168q-113 -174 -219 -246.5t-250 -72.5q-146 0 -264 80l166 225q61 -47 129 -47q43 0 73 17t66 65zM369 1268l333 370l234 -116l-340 -254h-227zM778 1268l340 370l232 -116l-342 -254h-230z" />
    <glyph glyph-name="uni04F4" unicode="&#x4f4;" horiz-adv-x="1521" 
d="M862 0l125 475q-103 -20 -237 -20q-82 0 -153 12.5t-137.5 43.5t-114 77.5t-75.5 119.5t-28 166q0 88 32 216l109 401h313l-112 -426q-27 -93 -27 -145q0 -181 252 -181q129 0 258 29l195 723h315l-399 -1491h-316zM608 1610l72 264h303l-74 -264h-301zM1067 1610l72 264
h303l-74 -264h-301z" />
    <glyph glyph-name="uni04F5" unicode="&#x4f5;" horiz-adv-x="1273" 
d="M401 1268l76 280h301l-76 -280h-301zM850 1268l78 280h301l-78 -280h-301zM1270 1139l-305 -1139h-312l86 328q-70 -11 -164 -11q-204 0 -316 81t-112 247q0 79 35 213l76 281h309l-90 -338q-14 -68 -14 -90q0 -62 49 -90.5t150 -28.5q95 0 151 12l145 535h312z" />
    <glyph glyph-name="uni04F8" unicode="&#x4f8;" horiz-adv-x="2074" 
d="M1446 0l401 1491h316l-402 -1491h-315zM39 0l399 1491h316l-127 -475h188q267 0 410 -118.5t143 -328.5q0 -220 -151 -368q-198 -201 -603 -201h-575zM1038 549q0 92 -63 140t-182 48h-242l-121 -454h242q195 0 299 96q67 70 67 170zM938 1610l72 264h303l-74 -264h-301z
M1397 1610l71 264h304l-74 -264h-301z" />
    <glyph glyph-name="uni04F9" unicode="&#x4f9;" horiz-adv-x="1798" 
d="M702 1268l76 280h301l-75 -280h-302zM1151 1268l78 280h301l-78 -280h-301zM1174 0l307 1139h309l-305 -1139h-311zM625 561h-162l-82 -311h168q129 0 195.5 50.5t66.5 135.5q0 125 -186 125zM532 809h115q234 0 350.5 -94.5t116.5 -259.5q0 -206 -155 -330.5
t-437 -124.5h-516l305 1139h312z" />
    <glyph glyph-name="baht" unicode="&#xe3f;" horiz-adv-x="1392" 
d="M0 0l401 1491h506h2l64 170h198l-71 -186q161 -34 243 -128t82 -221q0 -148 -90.5 -246t-259.5 -137q193 -87 193 -290q0 -205 -169 -329t-472 -124h-62l-90 -252h-199l91 252h-367zM981 473q0 76 -50 119t-149 47l-137 -381h51q130 0 207.5 58t77.5 157zM514 864h180
l133 369h-2h-215zM1139 1073q0 132 -146 154l-129 -363q130 2 202.5 54.5t72.5 154.5zM350 258h127l137 381h-163z" />
    <glyph glyph-name="Wgrave" unicode="&#x1e80;" horiz-adv-x="2375" 
d="M1315 1610l-230 211l279 118l164 -329h-213zM397 -10l-108 1501h327l43 -1028l613 1032h270l68 -1032l594 1028h356l-913 -1501h-291l-74 977l-596 -977h-289z" />
    <glyph glyph-name="wgrave" unicode="&#x1e81;" horiz-adv-x="1845" 
d="M248 -8l-47 1147h315l2 -709l412 713h268l31 -715l389 711h309l-667 -1147h-279l-35 715l-422 -715h-276zM971 1268l-201 254l277 116l137 -370h-213z" />
    <glyph glyph-name="Wacute" unicode="&#x1e82;" horiz-adv-x="2375" 
d="M1305 1610l344 329l262 -118l-342 -211h-264zM397 -10l-108 1501h327l43 -1028l613 1032h270l68 -1032l594 1028h356l-913 -1501h-291l-74 977l-596 -977h-289z" />
    <glyph glyph-name="wacute" unicode="&#x1e83;" horiz-adv-x="1845" 
d="M965 1268l338 370l264 -116l-340 -254h-262zM248 -8l-47 1147h315l2 -709l412 713h268l31 -715l389 711h309l-667 -1147h-279l-35 715l-422 -715h-276z" />
    <glyph glyph-name="Wdieresis" unicode="&#x1e84;" horiz-adv-x="2375" 
d="M1061 1610l72 264h303l-74 -264h-301zM1520 1610l71 264h303l-73 -264h-301zM397 -10l-108 1501h327l43 -1028l613 1032h270l68 -1032l594 1028h356l-913 -1501h-291l-74 977l-596 -977h-289z" />
    <glyph glyph-name="wdieresis" unicode="&#x1e85;" horiz-adv-x="1845" 
d="M721 1268l76 280h301l-76 -280h-301zM1169 1268l78 280h301l-78 -280h-301zM248 -8l-47 1147h315l2 -709l412 713h268l31 -715l389 711h309l-667 -1147h-279l-35 715l-422 -715h-276z" />
    <glyph glyph-name="Ygrave" unicode="&#x1ef2;" horiz-adv-x="1406" 
d="M379 0l158 590l-314 901h348l187 -629l526 629h381l-819 -932l-152 -559h-315zM825 1610l-229 211l278 118l164 -329h-213z" />
    <glyph glyph-name="ygrave" unicode="&#x1ef3;" horiz-adv-x="1277" 
d="M352 -8l-145 1147h317l62 -787l442 787h336l-713 -1168q-113 -174 -219 -246.5t-250 -72.5q-146 0 -264 80l166 225q61 -47 129 -47q43 0 73 17t66 65zM684 1268l-201 254l277 116l137 -370h-213z" />
    <glyph glyph-name="enspace" unicode="&#x2002;" horiz-adv-x="1024" 
 />
    <glyph glyph-name="emspace" unicode="&#x2003;" horiz-adv-x="2048" 
 />
    <glyph glyph-name="threeperemspace" unicode="&#x2004;" horiz-adv-x="681" 
 />
    <glyph glyph-name="fourperemspace" unicode="&#x2005;" horiz-adv-x="512" 
 />
    <glyph glyph-name="figurespace" unicode="&#x2007;" horiz-adv-x="1290" 
 />
    <glyph glyph-name="thinspace" unicode="&#x2009;" horiz-adv-x="272" 
 />
    <glyph glyph-name="hairspace" unicode="&#x200a;" horiz-adv-x="153" 
 />
    <glyph glyph-name="endash" unicode="&#x2013;" horiz-adv-x="1150" 
d="M109 514l77 291h906l-78 -291h-905z" />
    <glyph glyph-name="emdash" unicode="&#x2014;" horiz-adv-x="1939" 
d="M109 514l77 291h1694l-78 -291h-1693z" />
    <glyph glyph-name="quoteleft" unicode="&#x2018;" horiz-adv-x="688" 
d="M215 834l76 280q53 200 166 291.5t303 97.5l20 -129q-125 -12 -188.5 -63.5t-81.5 -145.5h127l-88 -331h-334z" />
    <glyph glyph-name="quoteright" unicode="&#x2019;" horiz-adv-x="688" 
d="M201 821l-21 129q125 12 189 63.5t82 145.5h-127l88 332h333l-75 -281q-53 -200 -166 -291.5t-303 -97.5z" />
    <glyph glyph-name="quotesinglbase" unicode="&#x201a;" horiz-adv-x="688" 
d="M-96 -338l-21 129q125 12 189 63.5t82 145.5h-127l88 332h334l-76 -281q-53 -200 -166 -291.5t-303 -97.5z" />
    <glyph glyph-name="quotedblleft" unicode="&#x201c;" horiz-adv-x="1220" 
d="M217 831l74 281q55 201 168.5 292t302.5 97l20 -129q-125 -12 -188.5 -63.5t-81.5 -145.5h127l-90 -332h-332zM750 831l73 281q53 200 166 291.5t303 97.5l21 -129q-125 -12 -189 -63.5t-82 -145.5h129l-90 -332h-331z" />
    <glyph glyph-name="quotedblright" unicode="&#x201d;" horiz-adv-x="1220" 
d="M203 821l-21 129q125 12 189 63.5t82 145.5h-127l88 332h331l-73 -281q-53 -200 -166 -291.5t-303 -97.5zM733 821l-20 129q125 12 188.5 63.5t81.5 145.5h-127l90 332h332l-74 -281q-55 -201 -168.5 -292t-302.5 -97z" />
    <glyph glyph-name="quotedblbase" unicode="&#x201e;" horiz-adv-x="1220" 
d="M-96 -338l-21 129q125 12 189 63.5t82 145.5h-127l88 332h334l-76 -281q-53 -200 -166 -291.5t-303 -97.5zM436 -338l-20 129q125 12 188.5 63.5t81.5 145.5h-129l90 332h332l-74 -281q-55 -201 -167.5 -292t-301.5 -97z" />
    <glyph glyph-name="dagger" unicode="&#x2020;" horiz-adv-x="897" 
d="M342 508l176 575l-262 -20l47 172l248 -21l47 277h190l-100 -277l260 21l-47 -172l-252 20l-133 -575h-174z" />
    <glyph glyph-name="daggerdbl" unicode="&#x2021;" horiz-adv-x="901" 
d="M199 0l102 276l-260 -20l45 172l248 -20l74 337l108 338l-260 -20l47 172l248 -21l49 277h191l-103 -277l260 21l-47 -172l-248 20l-71 -338l-111 -337l260 20l-45 -172l-248 20l-47 -276h-192z" />
    <glyph glyph-name="bullet" unicode="&#x2022;" horiz-adv-x="1081" 
d="M641 1075q115 0 180.5 -67t65.5 -179q0 -83 -32.5 -161.5t-90.5 -139.5q-100 -100 -232 -100q-116 0 -180.5 67t-64.5 181q0 81 32.5 159.5t90.5 139.5q100 100 231 100z" />
    <glyph glyph-name="ellipsis" unicode="&#x2026;" horiz-adv-x="1853" 
d="M27 0l86 324h325l-88 -324h-323zM614 0l86 324h326l-88 -324h-324zM1200 0l88 324h324l-86 -324h-326z" />
    <glyph glyph-name="perthousand" unicode="&#x2030;" horiz-adv-x="2752" 
d="M516 737q-147 0 -236.5 90.5t-89.5 235.5q0 192 136 328q116 116 276 116q147 0 237.5 -90t90.5 -235q0 -91 -35.5 -176t-99.5 -152q-117 -117 -279 -117zM528 918q68 0 117 49q38 38 60 94.5t22 112.5q0 72 -37 113.5t-100 41.5t-117 -51q-36 -38 -58 -94.5t-22 -110.5
q0 -72 36 -113.5t99 -41.5zM139 0l715 743l719 748h268l-717 -743l-716 -748h-269zM1376 -16q-147 0 -236 90t-89 235q0 193 135 328q117 117 278 117q147 0 236.5 -90.5t89.5 -235.5q0 -193 -135 -328q-116 -116 -279 -116zM1389 162q65 0 116 51q38 38 60 94t22 111
q0 72 -36.5 113.5t-98.5 41.5q-68 0 -117 -49q-38 -38 -60 -94.5t-22 -112.5q0 -72 37 -113.5t99 -41.5zM2243 -16q-147 0 -236.5 90t-89.5 235q0 193 135 328q117 117 277 117q147 0 237 -90.5t90 -235.5q0 -91 -35.5 -176t-99.5 -152q-116 -116 -278 -116zM2255 162
q66 0 117 51q38 38 60 94t22 111q0 72 -37.5 113.5t-100.5 41.5q-67 0 -116 -49q-37 -38 -58.5 -94.5t-21.5 -112.5q0 -72 36 -113.5t99 -41.5z" />
    <glyph glyph-name="guilsinglleft" unicode="&#x2039;" horiz-adv-x="806" 
d="M358 72l-249 471l4 16l522 490l158 -156l-357 -371l152 -348z" />
    <glyph glyph-name="guilsinglright" unicode="&#x203a;" horiz-adv-x="806" 
d="M444 1049l250 -471l-4 -17l-522 -489l-158 155l357 371l-152 348z" />
    <glyph glyph-name="fraction" unicode="&#x2044;" horiz-adv-x="233" 
d="M-680 0l746 780l661 711h186l-745 -780l-662 -711h-186z" />
    <glyph glyph-name="zero.sup" unicode="&#x2070;" horiz-adv-x="860" 
d="M995 1446q0 -132 -46 -252.5t-130 -204.5q-115 -115 -264 -115q-131 0 -213 80.5t-82 219.5q0 132 46 252t130 204q117 117 262 117q133 0 215 -80.5t82 -220.5zM451 1184q0 -70 31.5 -106t86.5 -36q59 0 111 52q57 57 91 159t34 183q0 70 -32.5 105.5t-88.5 35.5
q-60 0 -109 -49q-58 -58 -91 -160t-33 -184z" />
    <glyph glyph-name="four.sup" unicode="&#x2074;" horiz-adv-x="860" 
d="M592 895l47 176h-401l30 170l529 498h188l-141 -527h110l-39 -141h-110l-47 -176h-166zM426 1210h252l86 322h-2z" />
    <glyph glyph-name="five.sup" unicode="&#x2075;" horiz-adv-x="860" 
d="M545 874q-97 0 -189.5 40t-144.5 102l121 119q106 -95 215 -95q78 0 128 37t50 94q0 45 -40 76t-110 31q-64 0 -124 -31l-105 78l139 399h514l-41 -161h-362l-57 -158q54 14 110 14q124 0 197.5 -63.5t73.5 -173.5q0 -128 -103.5 -218t-271.5 -90z" />
    <glyph glyph-name="six.sup" unicode="&#x2076;" horiz-adv-x="860" 
d="M565 874q-145 0 -219 83t-74 223q0 112 48 231.5t133 204.5q131 131 309 131q143 0 231 -88l-96 -131q-61 55 -152 55q-104 0 -184 -80q-59 -62 -86 -141q82 74 207 74q93 0 160 -60.5t67 -169.5q0 -134 -97 -233t-247 -99zM571 1024q70 0 117 47t47 109q0 55 -32 85.5
t-91 30.5q-73 0 -120 -47q-46 -46 -46 -106q0 -55 34.5 -87t90.5 -32z" />
    <glyph glyph-name="seven.sup" unicode="&#x2077;" horiz-adv-x="860" 
d="M254 891l516 668h-383l45 165h584l-39 -141l-526 -692h-197z" />
    <glyph glyph-name="eight.sup" unicode="&#x2078;" horiz-adv-x="860" 
d="M573 874q-132 0 -224.5 65.5t-92.5 172.5q0 93 58.5 151.5t156.5 79.5q-109 56 -109 166q0 93 85.5 165.5t234.5 72.5q130 0 215.5 -65.5t85.5 -163.5q0 -80 -50 -136t-140 -73q125 -64 125 -181q0 -105 -94 -179.5t-251 -74.5zM582 1014q71 0 118.5 33t47.5 86
q2 51 -41 82.5t-115 31.5q-73 0 -120 -32.5t-48 -86.5q0 -50 43.5 -82t114.5 -32zM670 1386q64 0 105.5 31.5t41.5 81.5q0 44 -36.5 74.5t-102.5 30.5q-67 0 -109.5 -30.5t-42.5 -80.5q-2 -44 37.5 -75.5t106.5 -31.5z" />
    <glyph glyph-name="nine.sup" unicode="&#x2079;" horiz-adv-x="860" 
d="M496 874q-158 0 -248 97l96 131q72 -66 168 -66q108 0 182 74q59 59 84 143q-29 -32 -82.5 -53.5t-122.5 -21.5q-96 0 -162.5 60.5t-66.5 170.5q0 84 41.5 161t121.5 127t179 50q144 0 220.5 -85t76.5 -224q0 -112 -45.5 -230.5t-128.5 -201.5q-129 -132 -313 -132z
M643 1315q72 0 121 49q43 37 43 109q0 57 -34 89.5t-91 32.5q-70 -1 -116 -49.5t-46 -113.5q0 -54 33 -85.5t90 -31.5z" />
    <glyph glyph-name="zero.inf" unicode="&#x2080;" horiz-adv-x="860" 
d="M684 272q0 -132 -46 -252t-130 -204q-115 -115 -264 -115q-131 0 -213 80t-82 219q0 132 46 252.5t130 204.5q116 116 262 116q133 0 215 -80.5t82 -220.5zM139 10q0 -70 31.5 -105.5t87.5 -35.5q60 0 111 51q57 57 91 159t34 183q0 70 -32.5 105.5t-88.5 35.5
q-60 0 -109 -49q-58 -58 -91.5 -160t-33.5 -184z" />
    <glyph glyph-name="one.inf" unicode="&#x2081;" horiz-adv-x="700" 
d="M88 -279l172 644l-174 -60l-16 154l286 104h133l-223 -842h-178z" />
    <glyph glyph-name="two.inf" unicode="&#x2082;" horiz-adv-x="860" 
d="M-109 -279l41 154l428 303q59 41 86 73t27 68q0 39 -29.5 63t-78.5 24q-101 0 -211 -107l-109 119q142 155 326 155q133 0 210.5 -65.5t77.5 -171.5q0 -78 -43 -140.5t-167 -144.5l-267 -172h373l-41 -158h-623z" />
    <glyph glyph-name="three.inf" unicode="&#x2083;" horiz-adv-x="860" 
d="M231 -299q-209 0 -317 135l117 121q47 -47 93 -70.5t109 -23.5q70 0 118 36.5t48 84.5q0 49 -44.5 74.5t-125.5 25.5h-57l-10 109l272 198h-334l43 160h574l-37 -135l-301 -213q205 -37 205 -205q0 -128 -100.5 -212.5t-252.5 -84.5z" />
    <glyph glyph-name="four.inf" unicode="&#x2084;" horiz-adv-x="860" 
d="M281 -279l47 177h-402l31 170l528 497h189l-142 -526h111l-39 -141h-110l-48 -177h-165zM115 37h252l86 321h-2z" />
    <glyph glyph-name="five.inf" unicode="&#x2085;" horiz-adv-x="860" 
d="M233 -299q-97 0 -189 39.5t-144 101.5l120 119q104 -94 216 -94q78 0 128 37t50 94q0 45 -39.5 75.5t-110.5 30.5q-67 0 -125 -30l-104 78l139 399h514l-41 -162h-362l-58 -158q58 15 111 15q124 0 197 -64t73 -174q0 -128 -103.5 -217.5t-271.5 -89.5z" />
    <glyph glyph-name="six.inf" unicode="&#x2086;" horiz-adv-x="860" 
d="M254 -299q-145 0 -219 82.5t-74 222.5q0 113 47.5 232t132.5 204q131 131 310 131q143 0 231 -88l-96 -131q-62 56 -152 56q-104 0 -184 -80q-59 -61 -86 -142q82 74 207 74q93 0 160 -60t67 -169q0 -134 -97 -233t-247 -99zM260 -150q70 0 117 47t47 109q0 55 -32 86
t-91 31q-74 0 -121 -47q-45 -45 -45 -107q0 -55 34.5 -87t90.5 -32z" />
    <glyph glyph-name="seven.inf" unicode="&#x2087;" horiz-adv-x="860" 
d="M-35 -283l516 668h-383l45 166h584l-39 -141l-526 -693h-197z" />
    <glyph glyph-name="eight.inf" unicode="&#x2088;" horiz-adv-x="860" 
d="M260 -299q-132 0 -224.5 65.5t-92.5 172.5q0 93 58.5 151.5t156.5 79.5q-109 56 -109 166q0 93 85.5 165t234.5 72q130 0 215.5 -65.5t85.5 -163.5q0 -80 -50.5 -136t-140.5 -73q125 -64 125 -180q0 -105 -93.5 -179.5t-250.5 -74.5zM268 -160q71 0 118.5 33t47.5 86
q2 51 -40.5 83t-114.5 32q-73 0 -120 -32.5t-48 -86.5q0 -50 43 -82.5t114 -32.5zM356 213q64 0 106 31.5t42 81.5q0 44 -36.5 74t-102.5 30q-67 0 -109.5 -30.5t-42.5 -80.5q-2 -44 37 -75t106 -31z" />
    <glyph glyph-name="nine.inf" unicode="&#x2089;" horiz-adv-x="860" 
d="M184 -299q-158 0 -247 96l96 131q71 -65 168 -65q108 0 182 74q59 59 84 143q-29 -32 -82.5 -54t-122.5 -22q-95 0 -162 61t-67 171q0 84 41.5 160.5t121.5 126.5t179 50q144 0 220.5 -85t76.5 -224q0 -112 -45.5 -230.5t-128.5 -201.5q-128 -131 -314 -131zM332 141
q72 0 121 49q43 37 43 109q0 57 -34 90t-91 33q-70 -1 -116 -50t-46 -114q0 -54 33 -85.5t90 -31.5z" />
    <glyph glyph-name="colonmonetary" unicode="&#x20a1;" horiz-adv-x="1339" 
d="M1260 1661h143l-111 -275q86 -52 144 -118l-168 -240q-48 56 -88 88l-332 -844q103 26 207 115l133 -219q-85 -70 -199 -116t-241 -52l-99 -252h-145l102 260q-56 7 -137 37l-117 -297h-143l141 361q-116 80 -177.5 209.5t-61.5 293.5q0 195 66.5 366t189.5 294
q216 216 528 219l68 170h145l-72 -180q61 -10 138 -35zM406 604q0 -133 61 -219l328 836q-114 -22 -203 -111q-93 -93 -139.5 -236.5t-46.5 -269.5zM928 1225l-365 -924q58 -33 150 -39l362 924q-67 33 -147 39z" />
    <glyph glyph-name="naira" unicode="&#x20a6;" horiz-adv-x="1806" 
d="M1702 426h-227l-115 -426h-309l-138 428h-366l-113 -428h-297l113 426h-219l51 190h219l72 267h-219l51 190h219l113 418h333l134 -418h348l112 418h297l-112 -418h227l-51 -190h-228l-71 -267h227zM711 1053l-121 -445h272l-141 445h-10zM1186 467h10l113 424h-254z" />
    <glyph glyph-name="rupee" unicode="&#x20a8;" horiz-adv-x="2379" 
d="M1954 315q0 40 -32 67.5t-116 63.5q-44 19 -70.5 31.5t-64 32.5t-60 37t-48 42t-39.5 51.5t-23.5 60.5t-9.5 73q0 167 124.5 275t319.5 108q223 0 426 -139l-149 -203q-155 113 -299 113q-63 0 -102 -29t-39 -76q0 -39 34.5 -68t116.5 -67q48 -21 80 -36.5t71.5 -38.5
t64.5 -46.5t48 -54t34 -68.5t11 -82q0 -175 -130 -281t-320 -106q-133 0 -261.5 46.5t-230.5 136.5l164 186q80 -76 169.5 -107.5t166.5 -31.5q78 0 121 29.5t43 80.5zM823 0l-174 498h-203l-133 -498h-295l400 1491h432q131 0 231.5 -31.5t157 -78.5t92 -110t47 -116.5
t11.5 -107.5q0 -212 -123 -349.5t-322 -179.5l201 -518h-322zM518 758h213q163 0 255.5 69.5t92.5 198.5q0 83 -57.5 139t-185.5 56h-195z" />
    <glyph glyph-name="won" unicode="&#x20a9;" horiz-adv-x="2404" 
d="M2290 436h-353l-233 -440h-375l8 440h-350l-227 -440h-371l2 440h-348l51 201h297l2 217h-239l53 199h186l4 438h328l-25 -438h318l235 442h351l2 -442h325l205 438h361l-234 -438h193l-54 -199h-243l-115 -217h299zM649 348h13l266 514h-248zM1337 1112l-258 -485h269
l2 485h-13zM1599 348h13l237 514h-250v-514z" />
    <glyph glyph-name="sheqel" unicode="&#x20aa;" horiz-adv-x="1361" 
d="M-18 0l301 1139h381q149 0 224 -63.5t75 -176.5q0 -51 -19 -119l-88 -329h-151l47 174q18 63 18 123q0 75 -45 107t-135 32h-141l-238 -887h-229zM1075 0h-254q-217 0 -306.5 95t-68.5 288l31 307h152l-17 -213q-12 -134 38.5 -179.5t183.5 -45.5h77l236 887h233z" />
    <glyph glyph-name="Euro" unicode="&#x20ac;" horiz-adv-x="1550" 
d="M160 825l55 209h154q73 162 182 271q211 211 516 211q217 0 345 -90t190 -257l-269 -131q-48 100 -111.5 147.5t-174.5 47.5q-147 0 -252 -105q-46 -46 -74 -94h426l-55 -209h-451q-25 -72 -35 -151h445l-56 -209h-393q23 -102 89 -154.5t165 -52.5q93 0 162.5 36
t146.5 118l213 -185q-211 -252 -528 -252q-241 0 -394 131t-182 359h-211l56 209h160q11 90 28 151h-147z" />
    <glyph glyph-name="peso" unicode="&#x20b1;" horiz-adv-x="1638" 
d="M1677 866h-180q-41 -139 -141 -239q-99 -102 -247.5 -156.5t-326.5 -54.5h-221l-110 -416h-316l232 866h-213l49 181h213l119 444h405q162 0 274 -35.5t191 -114.5q109 -109 115 -294h204zM623 676h180q203 0 309 106q46 49 62 95h-498zM768 1223l-49 -187h477
q-11 77 -51 117q-70 70 -205 70h-172z" />
    <glyph glyph-name="hryvnia" unicode="&#x20b4;" horiz-adv-x="1394" 
d="M209 905l49 131l576 -73q90 58 122.5 93t32.5 81q0 110 -147 110q-143 0 -328 -110l-115 239q237 140 478 140q113 0 200.5 -28.5t140 -77.5t79 -110.5t26.5 -130.5q0 -144 -106 -256l202 -24l-51 -131l-295 37l-207 -133l441 -56l-52 -131l-571 72q-102 -62 -142 -106
t-40 -89q0 -110 153 -110q174 0 367 112l115 -239q-112 -63 -244.5 -101.5t-261.5 -38.5q-226 0 -345.5 97.5t-119.5 257.5q0 79 28 142.5t93 125.5l-193 25l51 133l304 -39l206 131z" />
    <glyph glyph-name="numero" unicode="&#x2116;" horiz-adv-x="2430" 
d="M20 0l400 1491h289l292 -956l250 956h305l-399 -1491h-268l-307 989l-256 -989h-306zM1974 588q-169 0 -263.5 98.5t-94.5 267.5q0 115 43.5 227t112.5 181q139 139 309 139q168 0 263 -99t95 -267q0 -115 -43 -227t-112 -181q-139 -139 -310 -139zM1982 780q61 0 121 56
q48 48 77.5 131.5t29.5 162.5q0 82 -34.5 130.5t-100.5 48.5q-65 0 -123 -58q-48 -48 -77.5 -131t-29.5 -162q0 -82 35 -130t102 -48zM1466 272l50 172h729l-54 -172h-725z" />
    <glyph glyph-name="published" unicode="&#x2117;" horiz-adv-x="1787" 
d="M772 1167h266q143 0 224 -64t81 -185q0 -148 -106.5 -233t-290.5 -85h-147l-68 -250h-178zM1163 905q0 107 -135 107h-121l-67 -256h116q95 0 151 37t56 112zM1020 1516q154 0 283 -52t216.5 -142.5t136 -214.5t48.5 -265q0 -174 -66 -336.5t-188 -284.5
q-246 -246 -594 -246q-154 0 -283 52t-216.5 142.5t-136 214.5t-48.5 265q0 174 66 336.5t188 284.5q246 246 594 246zM858 57q309 0 524 215q234 240 234 568q0 123 -40.5 230.5t-115.5 188.5t-189 128t-253 47q-307 0 -522 -215q-236 -236 -236 -564q0 -124 40.5 -232.5
t115.5 -190t189 -128.5t253 -47z" />
    <glyph glyph-name="servicemark" unicode="&#x2120;" horiz-adv-x="1517" 
d="M436 823q-181 0 -284 121l100 84q89 -92 199 -92q50 0 82 22t32 60q0 29 -23.5 48t-97.5 48q-92 36 -130 75t-38 101q0 82 58 140q73 73 205 73q152 0 243 -98l-88 -90q-74 74 -170 74q-52 0 -81 -21t-29 -55q0 -28 24.5 -49t102.5 -52q87 -31 123 -69t36 -103
q0 -86 -57 -143q-74 -74 -207 -74zM795 836l178 655h143l103 -285l254 285h157l-178 -655h-137l121 446l-262 -293h-13l-108 293l-121 -446h-137z" />
    <glyph glyph-name="trademark" unicode="&#x2122;" horiz-adv-x="1509" 
d="M307 836l142 526h-197l35 129h538l-34 -129h-197l-143 -526h-144zM786 836l179 655h143l102 -285l254 285h158l-178 -655h-137l120 446l-262 -293h-12l-109 293l-120 -446h-138z" />
    <glyph glyph-name="Omega" unicode="&#x2126;" horiz-adv-x="1863" 
d="M555 680q0 -232 162 -416l-72 -264h-635l72 268h350q-89 105 -144 221t-55 261q0 160 63 301t174 243.5t271 162t346 59.5q319 0 502 -162t183 -422q0 -197 -110 -359t-314 -305h333l-71 -268h-680l69 264q92 57 168 121.5t140.5 142t100.5 168.5t36 185q0 160 -100 253
t-277 93q-232 0 -372 -152t-140 -395z" />
    <glyph glyph-name="onethird" unicode="&#x2153;" horiz-adv-x="1775" 
d="M1190 -20q-210 0 -318 135l117 121q47 -48 93.5 -71.5t109.5 -23.5q70 0 118 36.5t48 84.5q0 49 -44.5 74.5t-125.5 25.5h-58l-10 109l273 199h-334l43 159h573l-37 -135l-301 -213q205 -37 205 -205q0 -128 -100 -212t-252 -84zM297 662l172 643l-176 -62l-14 156
l286 102h131l-223 -839h-176zM23 0l745 780l662 711h186l-746 -780l-661 -711h-186z" />
    <glyph glyph-name="twothirds" unicode="&#x2154;" horiz-adv-x="1935" 
d="M1350 -20q-210 0 -318 135l117 121q47 -48 93.5 -71.5t109.5 -23.5q70 0 118 36.5t48 84.5q0 49 -44.5 74.5t-125.5 25.5h-58l-10 109l272 199h-333l43 159h573l-37 -135l-301 -213q205 -37 205 -205q0 -128 -100 -212t-252 -84zM82 662l41 153l428 301q59 45 85 76.5
t26 67.5q0 38 -30 62t-79 24q-99 0 -209 -107l-111 119q140 153 326 153q133 0 211 -64.5t78 -170.5q0 -80 -43 -142.5t-168 -144.5l-264 -172h370l-41 -155h-620zM172 0l746 780l661 711h186l-745 -780l-662 -711h-186z" />
    <glyph glyph-name="onefifth" unicode="&#x2155;" horiz-adv-x="1775" 
d="M1190 -20q-97 0 -190 39.5t-144 101.5l121 119q106 -95 215 -95q78 0 128 37t50 94q0 45 -39.5 76t-109.5 31q-65 0 -125 -31l-105 78l139 399h515l-41 -161h-363l-57 -158q54 14 110 14q124 0 197.5 -63.5t73.5 -173.5q0 -128 -103.5 -217.5t-271.5 -89.5zM297 662
l172 643l-176 -62l-14 156l286 102h131l-223 -839h-176zM33 0l745 780l662 711h186l-745 -780l-662 -711h-186z" />
    <glyph glyph-name="twofifths" unicode="&#x2156;" horiz-adv-x="1935" 
d="M1350 -20q-97 0 -190 39.5t-144 101.5l121 119q106 -95 215 -95q78 0 128 37t50 94q0 45 -40 76t-110 31q-65 0 -125 -31l-104 78l139 399h514l-41 -161h-362l-58 -158q54 14 111 14q124 0 197 -63.5t73 -173.5q0 -128 -103 -217.5t-271 -89.5zM193 0l745 780l661 711
h187l-746 -780l-661 -711h-186zM82 662l41 153l428 301q59 45 85 76.5t26 67.5q0 38 -30 62t-79 24q-99 0 -209 -107l-111 119q140 153 326 153q133 0 211 -64.5t78 -170.5q0 -80 -43 -142.5t-168 -144.5l-264 -172h370l-41 -155h-620z" />
    <glyph glyph-name="threefifths" unicode="&#x2157;" horiz-adv-x="1935" 
d="M1350 -20q-97 0 -190 39.5t-144 101.5l121 119q106 -95 215 -95q78 0 128 37t50 94q0 45 -40 76t-110 31q-65 0 -125 -31l-104 78l139 399h514l-41 -161h-362l-58 -158q54 14 111 14q124 0 197 -63.5t73 -173.5q0 -128 -103 -217.5t-271 -89.5zM162 0l745 780l662 711
h186l-745 -780l-662 -711h-186zM420 639q-210 0 -318 135l117 121q50 -47 95 -69.5t108 -22.5q70 0 118 36.5t48 84.5q0 47 -44 72.5t-126 25.5h-56l-12 111l275 196h-334l43 162h571l-37 -137l-301 -211q207 -37 207 -205q0 -129 -101 -214t-253 -85z" />
    <glyph glyph-name="fourfifths" unicode="&#x2158;" horiz-adv-x="1935" 
d="M471 657l47 174h-401l28 173l529 495h188l-141 -524h110l-38 -144h-111l-47 -174h-164zM305 973h252l84 319h-2zM1350 -20q-97 0 -190 39.5t-144 101.5l121 119q106 -95 215 -95q78 0 128 37t50 94q0 45 -40 76t-110 31q-65 0 -125 -31l-104 78l139 399h514l-41 -161
h-362l-58 -158q54 14 111 14q124 0 197 -63.5t73 -173.5q0 -128 -103 -217.5t-271 -89.5zM193 0l745 780l661 711h187l-746 -780l-661 -711h-186z" />
    <glyph glyph-name="onesixth" unicode="&#x2159;" horiz-adv-x="1775" 
d="M1210 -20q-145 0 -218.5 82.5t-73.5 222.5q0 113 47.5 232t132.5 204q131 131 309 131q143 0 231 -88l-96 -131q-61 55 -151 55q-105 0 -185 -80q-59 -62 -86 -141q82 74 207 74q93 0 160 -60.5t67 -169.5q0 -134 -97 -232.5t-247 -98.5zM1217 129q70 0 116.5 47
t46.5 109q0 55 -32 85.5t-91 30.5q-73 0 -120 -47q-45 -45 -45 -106q0 -55 34.5 -87t90.5 -32zM297 662l172 643l-176 -62l-14 156l286 102h131l-223 -839h-176zM45 0l746 780l661 711h186l-745 -780l-662 -711h-186z" />
    <glyph glyph-name="fivesixths" unicode="&#x215a;" horiz-adv-x="1935" 
d="M1370 -20q-145 0 -219 82.5t-74 222.5q0 113 47.5 232t132.5 204q131 131 310 131q143 0 231 -88l-96 -131q-61 55 -152 55q-104 0 -184 -80q-59 -62 -86 -141q82 74 207 74q93 0 160 -60.5t67 -169.5q0 -134 -97 -232.5t-247 -98.5zM1376 129q70 0 117 47t47 109
q0 55 -32 85.5t-91 30.5q-74 0 -121 -47q-45 -45 -45 -106q0 -55 34.5 -87t90.5 -32zM172 0l746 780l661 711h186l-745 -780l-662 -711h-186zM424 639q-97 0 -189.5 40.5t-144.5 102.5l121 119q94 -94 215 -94q78 0 128 36.5t50 92.5q0 46 -40 77t-111 31q-63 0 -125 -30
l-105 76l139 401h517l-41 -164h-365l-55 -156q58 15 108 15q123 0 197 -65t74 -175q0 -126 -103.5 -216.5t-269.5 -90.5z" />
    <glyph glyph-name="oneeighth" unicode="&#x215b;" horiz-adv-x="1775" 
d="M1219 -20q-132 0 -225 65t-93 172q0 93 59 152t156 80q-108 55 -108 165q0 93 85.5 165.5t233.5 72.5q130 0 215.5 -65.5t85.5 -163.5q0 -80 -50 -136t-140 -73q125 -64 125 -181q0 -105 -93.5 -179t-250.5 -74zM1227 119q71 0 118.5 33t47.5 86q2 51 -41 82.5t-115 31.5
q-73 0 -120 -32.5t-48 -86.5q0 -50 43.5 -82t114.5 -32zM1315 492q64 0 105.5 31t41.5 81q0 44 -36.5 74.5t-102.5 30.5q-67 0 -109.5 -30.5t-42.5 -80.5q-2 -44 37.5 -75t106.5 -31zM297 662l172 643l-176 -62l-14 156l286 102h131l-223 -839h-176zM35 0l745 780l662 711
h186l-745 -780l-662 -711h-186z" />
    <glyph glyph-name="threeeighths" unicode="&#x215c;" horiz-adv-x="1935" 
d="M1378 -20q-132 0 -224.5 65t-92.5 172q0 93 59 152t156 80q-109 56 -109 165q0 93 85.5 165.5t234.5 72.5q130 0 215.5 -65.5t85.5 -163.5q0 -80 -50.5 -136t-140.5 -73q125 -64 125 -181q0 -105 -93.5 -179t-250.5 -74zM1386 119q71 0 118.5 33t47.5 86q2 51 -40.5 82.5
t-114.5 31.5q-73 0 -120 -32.5t-48 -86.5q0 -50 43 -82t114 -32zM1475 492q64 0 105.5 31t41.5 81q0 44 -36.5 74.5t-102.5 30.5q-67 0 -109.5 -30.5t-42.5 -80.5q-2 -44 37.5 -75t106.5 -31zM172 0l746 780l661 711h186l-745 -780l-662 -711h-186zM420 639q-210 0 -318 135
l117 121q50 -47 95 -69.5t108 -22.5q70 0 118 36.5t48 84.5q0 47 -44 72.5t-126 25.5h-56l-12 111l275 196h-334l43 162h571l-37 -137l-301 -211q207 -37 207 -205q0 -129 -101 -214t-253 -85z" />
    <glyph glyph-name="fiveeighths" unicode="&#x215d;" horiz-adv-x="1935" 
d="M1378 -20q-132 0 -224.5 65t-92.5 172q0 93 59 152t156 80q-109 56 -109 165q0 93 85.5 165.5t234.5 72.5q130 0 215.5 -65.5t85.5 -163.5q0 -80 -50.5 -136t-140.5 -73q125 -64 125 -181q0 -105 -93.5 -179t-250.5 -74zM1386 119q71 0 118.5 33t47.5 86q2 51 -40.5 82.5
t-114.5 31.5q-73 0 -120 -32.5t-48 -86.5q0 -50 43 -82t114 -32zM1475 492q64 0 105.5 31t41.5 81q0 44 -36.5 74.5t-102.5 30.5q-67 0 -109.5 -30.5t-42.5 -80.5q-2 -44 37.5 -75t106.5 -31zM172 0l746 780l661 711h186l-745 -780l-662 -711h-186zM424 639
q-97 0 -189.5 40.5t-144.5 102.5l121 119q94 -94 215 -94q78 0 128 36.5t50 92.5q0 46 -40 77t-111 31q-63 0 -125 -30l-105 76l139 401h517l-41 -164h-365l-55 -156q58 15 108 15q123 0 197 -65t74 -175q0 -126 -103.5 -216.5t-269.5 -90.5z" />
    <glyph glyph-name="seveneighths" unicode="&#x215e;" horiz-adv-x="1935" 
d="M1378 -20q-132 0 -224.5 65t-92.5 172q0 93 59 152t156 80q-109 56 -109 165q0 93 85.5 165.5t234.5 72.5q130 0 215.5 -65.5t85.5 -163.5q0 -80 -50.5 -136t-140.5 -73q125 -64 125 -181q0 -105 -93.5 -179t-250.5 -74zM1386 119q71 0 118.5 33t47.5 86q2 51 -40.5 82.5
t-114.5 31.5q-73 0 -120 -32.5t-48 -86.5q0 -50 43 -82t114 -32zM1475 492q64 0 105.5 31t41.5 81q0 44 -36.5 74.5t-102.5 30.5q-67 0 -109.5 -30.5t-42.5 -80.5q-2 -44 37.5 -75t106.5 -31zM170 657l516 666h-381l45 168h582l-39 -141l-526 -693h-197zM109 0l745 780
l662 711h186l-746 -780l-661 -711h-186z" />
    <glyph glyph-name="Delta" unicode="&#x2206;" horiz-adv-x="1685" 
d="M1257 1501l234 -1274l-86 -227h-1425l36 227l914 1274h327zM1010 1139l-594 -860h733z" />
    <glyph glyph-name="minus" unicode="&#x2212;" horiz-adv-x="1380" 
d="M166 606l76 287h1071l-76 -287h-1071z" />
    <glyph glyph-name="NUL" horiz-adv-x="0" 
 />
    <glyph glyph-name="CR" horiz-adv-x="659" 
 />
    <glyph glyph-name="Q.alt" horiz-adv-x="1794" 
d="M1051 1516q150 0 278 -50.5t215.5 -138.5t137 -209t49.5 -260q0 -172 -66.5 -333.5t-189.5 -284.5l120 -158l-260 -174l-98 158q-191 -93 -401 -93q-151 0 -279.5 51t-215.5 139t-136 209.5t-49 260.5q0 172 69.5 335.5t194.5 288.5q259 259 631 259zM872 264
q101 0 201 43l-196 262l260 174l155 -247q111 160 111 342q0 173 -102.5 281t-284.5 108q-202 0 -354 -152q-85 -83 -132 -196.5t-47 -225.5q0 -175 102 -282t287 -107z" />
    <glyph glyph-name="a.alt" horiz-adv-x="1454" 
d="M539 -23q-192 0 -316.5 132.5t-124.5 357.5q0 151 55 282t150 226q88 88 198.5 136t227.5 48q130 0 217 -50t146 -144l45 174h311l-305 -1139h-312l33 129q-78 -76 -154.5 -114t-170.5 -38zM666 240q127 0 229 102q127 127 127 305q0 110 -71 180t-183 70
q-125 0 -223 -98q-125 -125 -125 -312q0 -116 66.5 -181.5t179.5 -65.5z" />
    <glyph glyph-name="uni039E.alt" horiz-adv-x="1581" 
d="M1483 887l-76 -273h-457l-92 -335h522l-73 -279h-1336l74 279h512l92 335h-450l75 273h449l88 325h-504l76 279h1315l-76 -279h-510l-88 -325h459z" />
    <glyph glyph-name="uni0424.bgr" horiz-adv-x="2131" 
d="M156 676q0 146 58.5 282.5t158.5 237.5q144 144 343.5 222.5t430.5 78.5h2l57 207h316l-62 -227q275 -51 436.5 -223.5t161.5 -438.5q0 -146 -58 -282.5t-157 -237.5q-144 -144 -345.5 -222.5t-432.5 -78.5h-2l-55 -207h-314l60 227q-274 51 -436 224t-162 438zM479 674
q0 -151 95.5 -255t265.5 -128l245 919h-2q-137 -5 -259 -53t-206 -133q-63 -63 -101 -153.5t-38 -196.5zM1735 817q0 151 -94 254t-267 127l-246 -917h2q137 5 259 53t206 133q63 63 101.5 153.5t38.5 196.5z" />
    <glyph glyph-name="uni0432.bgr" horiz-adv-x="1419" 
d="M125 461q0 91 31 205l94 356q38 141 84.5 231t116.5 160q156 156 436 156q227 0 363 -116.5t136 -297.5q0 -157 -94 -261t-278 -146q124 -51 187 -132.5t63 -201.5q0 -197 -158 -318t-420 -121q-255 0 -408 131t-153 355zM594 659h-131l-21 -75q-14 -52 -14 -105
q0 -116 71.5 -178.5t200.5 -62.5q122 0 190 62t68 153q0 96 -87.5 151t-276.5 55zM874 1313q-118 0 -202 -78q-77 -77 -119 -238l-33 -118h193q173 0 270.5 64.5t97.5 186.5q0 79 -53.5 131t-153.5 52z" />
    <glyph glyph-name="uni0433.bgr" horiz-adv-x="1132" 
d="M43 297q0 153 98 236t330 151q33 10 73 21.5t62.5 18t50.5 15t42 14t31 13.5t24.5 14.5t15 15.5t10 19t2.5 23q0 77 -141 77q-145 0 -340 -84l-76 228q217 96 426 96q211 0 314.5 -89t103.5 -232q0 -50 -11.5 -92t-30 -74.5t-50.5 -60t-64.5 -47.5t-82 -40t-93 -34
t-106.5 -31q-195 -58 -227 -72q-65 -27 -74 -64q-2 -8 -2 -18q0 -80 155 -80q177 0 400 101l82 -226q-240 -114 -502 -114q-197 0 -308.5 79.5t-111.5 235.5z" />
    <glyph glyph-name="uni0434.bgr" horiz-adv-x="1447" 
d="M541 -344q-172 0 -327.5 42t-270.5 120l166 213q190 -129 411 -129q162 0 254 92q65 68 107 211l12 43q-95 -83 -176.5 -119.5t-186.5 -36.5q-84 0 -160 27t-135.5 76t-95 127t-35.5 172q0 282 201 483q87 87 196.5 134.5t225.5 47.5q73 0 131 -16t99 -46.5t68.5 -63
t53.5 -77.5l49 183h310l-246 -920q-44 -164 -86.5 -249t-110.5 -158q-156 -156 -454 -156zM651 342q68 0 132 27t112 75q104 104 104 238q0 99 -64.5 158t-170.5 59q-134 0 -232 -98q-106 -106 -106 -250q0 -101 61.5 -155t163.5 -54z" />
    <glyph glyph-name="uni0436.bgr" horiz-adv-x="1910" 
d="M1374 1554l-231 -854h82l428 439h379l-600 -584l319 -555h-332l-243 449h-101l-114 -449h-312l125 449h-90l-448 -449h-379l632 602l-311 537h332l238 -439h96l221 854h309z" />
    <glyph glyph-name="uni0438.bgr" horiz-adv-x="1343" 
d="M438 -23q-155 0 -246.5 90t-91.5 244q0 65 37 213l164 615h311l-168 -627q-14 -58 -14 -104q0 -72 43 -110t121 -38q96 0 163 64t97 176l172 639h309l-305 -1139h-309l33 125q-160 -148 -316 -148z" />
    <glyph glyph-name="uni0439.bgr" horiz-adv-x="1343" 
d="M438 -23q-155 0 -246.5 90t-91.5 244q0 65 37 213l164 615h311l-168 -627q-14 -58 -14 -104q0 -72 43 -110t121 -38q96 0 163 64t97 176l172 639h309l-305 -1139h-309l33 125q-160 -148 -316 -148zM887 1264q-91 0 -159.5 26.5t-109 73t-59 105t-16.5 126.5h215
q2 -57 39 -93t106 -36q79 0 127.5 33t89.5 96h217q-52 -148 -168.5 -239.5t-281.5 -91.5z" />
    <glyph glyph-name="uni043A.bgr" horiz-adv-x="1300" 
d="M1130 0h-335l-252 449h-111l-117 -449h-309l416 1554h311l-233 -854h100l424 439h403l-616 -598z" />
    <glyph glyph-name="uni043F.bgr" horiz-adv-x="1343" 
d="M8 0l305 1139h312l-35 -125q156 145 315 145q155 0 246.5 -89t91.5 -243q0 -65 -37 -213l-164 -614h-311l168 627q16 62 16 102q0 72 -43.5 111t-121.5 39q-96 0 -163.5 -64t-97.5 -176l-172 -639h-309z" />
    <glyph glyph-name="uni0442.bgr" horiz-adv-x="2039" 
d="M6 0l305 1139h312l-35 -125q76 69 147 107t160 38q115 0 192.5 -56t110.5 -153q170 209 412 209q153 0 241 -89t88 -243q0 -69 -36 -213l-164 -614h-312l168 627q17 66 17 102q0 150 -158 150q-95 0 -159.5 -63.5t-94.5 -176.5l-172 -639h-311l168 627q14 54 14 102
q0 150 -158 150q-95 0 -159.5 -63.5t-94.5 -176.5l-172 -639h-309z" />
    <glyph glyph-name="uni0446.bgr" horiz-adv-x="1402" 
d="M438 -23q-155 0 -246.5 90t-91.5 244q0 65 37 213l164 615h311l-168 -627q-14 -58 -14 -104q0 -72 43 -110t121 -38q96 0 163 64t97 176l172 639h309l-231 -858h151l-149 -555h-279l74 274h-180l33 125q-160 -148 -316 -148z" />
    <glyph glyph-name="uni0448.bgr" horiz-adv-x="2039" 
d="M2034 1139l-305 -1139h-310l33 125q-78 -71 -148 -109.5t-157 -38.5q-226 0 -305 211q-168 -211 -412 -211q-154 0 -242 89.5t-88 244.5q0 65 37 213l164 615h311l-168 -627q-14 -58 -14 -104q0 -148 156 -148q96 0 161 64t95 176l172 639h309l-168 -627
q-14 -58 -14 -104q0 -148 157 -148q95 0 159.5 63.5t94.5 176.5l172 639h310z" />
    <glyph glyph-name="uni0449.bgr" horiz-adv-x="2101" 
d="M2034 1139l-232 -858h152l-150 -555h-278l73 274h-180l33 125q-78 -71 -148 -109.5t-157 -38.5q-226 0 -305 211q-168 -211 -412 -211q-154 0 -242 89.5t-88 244.5q0 65 37 213l164 615h311l-168 -627q-14 -58 -14 -104q0 -148 156 -148q96 0 161 64t95 176l172 639h309
l-168 -627q-14 -58 -14 -104q0 -148 157 -148q95 0 159.5 63.5t94.5 176.5l172 639h310z" />
    <glyph glyph-name="uni044E.bgr" horiz-adv-x="1916" 
d="M1284 1159q161 0 283 -68t186 -186.5t64 -269.5q0 -132 -53.5 -254.5t-147.5 -216.5q-89 -89 -204.5 -139t-242.5 -50q-224 0 -366.5 124.5t-163.5 328.5v2h-207l-117 -430h-309l416 1554h311l-223 -837h164q53 146 164 254q88 88 203 138t243 50zM1180 240q115 0 211 96
q56 56 88 134t32 157q0 126 -63.5 196t-173.5 70q-117 0 -211 -94q-56 -55 -88.5 -133.5t-32.5 -157.5q0 -127 63.5 -197.5t174.5 -70.5z" />
    <glyph glyph-name="aacute.alt" horiz-adv-x="1454" 
d="M788 1268l338 370l265 -116l-340 -254h-263zM539 -23q-192 0 -316.5 132.5t-124.5 357.5q0 151 55 282t150 226q88 88 198.5 136t227.5 48q130 0 217 -50t146 -144l45 174h311l-305 -1139h-312l33 129q-78 -76 -154.5 -114t-170.5 -38zM666 240q127 0 229 102
q127 127 127 305q0 110 -71 180t-183 70q-125 0 -223 -98q-125 -125 -125 -312q0 -116 66.5 -181.5t179.5 -65.5z" />
    <glyph glyph-name="abreve.alt" horiz-adv-x="1454" 
d="M539 -23q-192 0 -316.5 132.5t-124.5 357.5q0 151 55 282t150 226q88 88 198.5 136t227.5 48q130 0 217 -50t146 -144l45 174h311l-305 -1139h-312l33 129q-78 -76 -154.5 -114t-170.5 -38zM666 240q127 0 229 102q127 127 127 305q0 110 -71 180t-183 70
q-125 0 -223 -98q-125 -125 -125 -312q0 -116 66.5 -181.5t179.5 -65.5zM942 1264q-91 0 -159.5 26.5t-109 73t-59 105t-16.5 126.5h215q2 -57 39 -93t106 -36q79 0 128 33t90 96h217q-52 -148 -169 -239.5t-282 -91.5z" />
    </font>
</defs>
</svg>
