<?xml version="1.0" standalone="no"?>
<!DOCTYPE svg PUBLIC "-//W3C//DTD SVG 1.1//EN" "http://www.w3.org/Graphics/SVG/1.1/DTD/svg11.dtd" >
<svg xmlns="http://www.w3.org/2000/svg" xmlns:xlink="http://www.w3.org/1999/xlink" version="1.1">
<metadata>
Created by FontForge 20201107 at Mon Apr  7 19:28:49 2025
 By 
Copyright (C) 2001, 2010 Hoefler &#38; Co. http://www.typography.com |DCNT
</metadata>
<defs>
<font id="GothamSSm-Book" horiz-adv-x="860" >
  <font-face 
    font-family="GothamSSm"
    font-weight="400"
    font-stretch="normal"
    units-per-em="2048"
    panose-1="0 0 0 0 0 0 0 0 0 0"
    ascent="1638"
    descent="-410"
    x-height="1108"
    cap-height="1491"
    bbox="-455 -539 2490 2126"
    underline-thickness="102"
    underline-position="-204"
    unicode-range="U+0020-FB04"
  />
<missing-glyph horiz-adv-x="1024" 
d="M0 -410v2048h1024v-2048h-1024zM145 1536l367 -799l367 799h-734zM102 -156l353 770l-353 770v-1540zM922 1384l-353 -770l353 -770v1540zM512 492l-367 -799h734z" />
    <glyph glyph-name="f_f" unicode="ff" horiz-adv-x="1593" 
d="M246 0v940h-150v164h150v92q0 189 94 283q89 86 242 86q99 0 188 -29v-166q-89 29 -156 29q-178 0 -178 -215v-80h332v-164h-330v-940h-192zM1034 0v940h-149v164h149v92q0 189 94 283q89 86 242 86q100 0 189 -29v-166q-89 29 -156 29q-178 0 -178 -215v-80h331v-164
h-329v-940h-193z" />
    <glyph glyph-name="fi" unicode="fi" horiz-adv-x="1380" 
d="M246 0v940h-150v164h150v92q0 189 94 283q89 86 242 86q99 0 188 -29v-166q-89 29 -156 29q-178 0 -178 -215v-80h332v-164h-330v-940h-192zM977 1329v201h215v-201h-215zM989 0v1108h191v-1108h-191z" />
    <glyph glyph-name="fl" unicode="fl" horiz-adv-x="1380" 
d="M246 0v940h-150v164h150v92q0 189 94 283q89 86 242 86q99 0 188 -29v-166q-89 29 -156 29q-178 0 -178 -215v-80h332v-164h-330v-940h-192zM987 0v1554h191v-1554h-191z" />
    <glyph glyph-name="f_f_i" unicode="ffi" horiz-adv-x="2168" 
d="M246 0v940h-150v164h150v92q0 189 94 283q89 86 242 86q99 0 188 -29v-166q-89 29 -156 29q-178 0 -178 -215v-80h332v-164h-330v-940h-192zM1034 0v940h-149v164h149v92q0 189 94 283q89 86 242 86q100 0 189 -29v-166q-89 29 -156 29q-178 0 -178 -215v-80h331v-164
h-329v-940h-193zM1763 1329v201h215v-201h-215zM1776 0v1108h190v-1108h-190z" />
    <glyph glyph-name="f_f_l" unicode="ffl" horiz-adv-x="2168" 
d="M246 0v940h-150v164h150v92q0 189 94 283q89 86 242 86q99 0 188 -29v-166q-89 29 -156 29q-178 0 -178 -215v-80h332v-164h-330v-940h-192zM1034 0v940h-149v164h149v92q0 189 94 283q89 86 242 86q100 0 189 -29v-166q-89 29 -156 29q-178 0 -178 -215v-80h331v-164
h-329v-940h-193zM1776 0v1554h190v-1554h-190z" />
    <glyph glyph-name=".notdef" horiz-adv-x="1024" 
d="M0 -410v2048h1024v-2048h-1024zM145 1536l367 -799l367 799h-734zM102 -156l353 770l-353 770v-1540zM922 1384l-353 -770l353 -770v1540zM512 492l-367 -799h734z" />
    <glyph glyph-name=".null" horiz-adv-x="0" 
 />
    <glyph glyph-name="nonmarkingreturn" horiz-adv-x="682" 
 />
    <glyph glyph-name="space" unicode=" " horiz-adv-x="651" 
 />
    <glyph glyph-name="exclam" unicode="!" horiz-adv-x="614" 
d="M254 436l-59 948v107h225v-107l-60 -948h-106zM197 0v246h221v-246h-221z" />
    <glyph glyph-name="quotedbl" unicode="&#x22;" horiz-adv-x="983" 
d="M575 895l60 596h225v-10l-182 -586h-103zM143 895l60 596h227v-10l-184 -586h-103z" />
    <glyph glyph-name="numbersign" unicode="#" horiz-adv-x="1507" 
d="M1325 537v-170h-270l-62 -367h-174l62 367h-387l-64 -367h-174l61 367h-217v170h248l72 426h-238v170h269l61 358h174l-61 -358h387l63 358h172l-61 -358h219v-170h-248l-74 -426h242zM594 967l-74 -435h393l74 435h-393z" />
    <glyph glyph-name="dollar" unicode="$" horiz-adv-x="1374" 
d="M1182 1319l-101 -150q-152 122 -311 148v-490q241 -57 351.5 -156.5t109.5 -262.5v-2q0 -171 -126 -281.5t-329 -122.5v-211h-149v213q-276 26 -504 217l108 148q95 -86 191 -134t211 -65v500q-239 58 -347.5 156t-107.5 266v2q0 167 124.5 276t324.5 121v123h149v-127
q116 -11 212 -52.5t194 -115.5zM1040 393v2q0 91 -58 146.5t-212 95.5v-473q128 11 199.5 71t70.5 158zM369 1106v-2q0 -90 55.5 -146t208.5 -98v467q-124 -7 -194 -68.5t-70 -152.5z" />
    <glyph glyph-name="percent" unicode="%" horiz-adv-x="1802" 
d="M457 745q-150 0 -245 110t-95 267v4q0 158 96 269.5t248 111.5q99 0 177.5 -52.5t120.5 -138t42 -186.5v-4q0 -158 -97 -269.5t-247 -111.5zM457 1376q-80 0 -132.5 -72t-52.5 -174v-4q0 -105 54.5 -176t134.5 -71t132 70.5t52 172.5v4q0 105 -54.5 177.5t-133.5 72.5z
M848 780l514 711h170l-580 -784l-512 -707h-170zM1341 -16q-149 0 -244.5 110t-95.5 266v5q0 157 97 268.5t248 111.5q150 0 245 -110.5t95 -265.5v-4q0 -158 -96.5 -269.5t-248.5 -111.5zM1346 115q80 0 132 71t52 174v5q0 104 -54.5 175.5t-134.5 71.5t-132 -70.5
t-52 -172.5v-4q0 -104 55 -177t134 -73z" />
    <glyph glyph-name="ampersand" unicode="&#x26;" horiz-adv-x="1499" 
d="M1276 -31l-223 232q-211 -221 -478 -221q-207 0 -341 115.5t-134 303.5v4q0 288 346 426q-74 89 -107.5 163.5t-33.5 160.5v4q0 151 112.5 255t293.5 104q162 0 267 -99t105 -246v-4q0 -263 -344 -387l314 -319q86 126 174 319l155 -78q-107 -227 -211 -364l254 -256z
M631 891q272 88 272 266v4q0 86 -56 141.5t-142 55.5q-93 0 -153 -58.5t-60 -146.5v-4q0 -61 30 -117t109 -141zM592 143q180 0 344 174l-377 390q-131 -49 -195.5 -126.5t-64.5 -168.5v-6q0 -113 82.5 -188t210.5 -75z" />
    <glyph glyph-name="quotesingle" unicode="'" horiz-adv-x="552" 
d="M143 895l60 596h229v-10l-184 -586h-105z" />
    <glyph glyph-name="parenleft" unicode="(" horiz-adv-x="944" 
d="M823 -172l-84 -129q-589 328 -589 911v2q0 584 589 912l84 -129q-243 -156 -361 -346t-118 -439v-2q0 -245 118.5 -434.5t360.5 -345.5z" />
    <glyph glyph-name="parenright" unicode=")" horiz-adv-x="944" 
d="M207 -301l-84 129q242 156 359.5 345.5t117.5 436.5v2q0 245 -118 436t-359 347l84 129q590 -328 590 -914v-2q0 -291 -150 -519.5t-440 -389.5z" />
    <glyph glyph-name="asterisk" unicode="*" horiz-adv-x="931" 
d="M403 836l27 264l-219 -154l-64 109l246 110l-246 113l64 108l219 -155l-27 264h125l-26 -264l219 155l63 -108l-245 -113l245 -110l-63 -109l-219 154l26 -264h-125z" />
    <glyph glyph-name="plus" unicode="+" horiz-adv-x="1353" 
d="M584 231v428h-430v181h430v428h186v-428h430v-181h-430v-428h-186z" />
    <glyph glyph-name="comma" unicode="," horiz-adv-x="552" 
d="M125 -274l-27 86q168 49 156 188h-88v246h223v-211q0 -141 -63.5 -213t-200.5 -96z" />
    <glyph glyph-name="hyphen" unicode="-" horiz-adv-x="884" 
d="M139 545v196h606v-196h-606z" />
    <glyph glyph-name="period" unicode="." horiz-adv-x="552" 
d="M166 0v246h223v-246h-223z" />
    <glyph glyph-name="slash" unicode="/" horiz-adv-x="1105" 
d="M-39 -272l981 1972h172l-981 -1972h-172z" />
    <glyph glyph-name="zero" unicode="0" horiz-adv-x="1546" 
d="M770 -25q-142 0 -261.5 60.5t-200.5 164.5t-126 244t-45 297v4q0 210 78 385t225 280.5t334 105.5q188 0 334 -104t223.5 -278t77.5 -384v-5q0 -210 -78 -385t-225.5 -280t-335.5 -105zM774 154q130 0 229.5 81t150 213.5t50.5 292.5v4q0 159 -52.5 293.5t-153 216.5
t-228.5 82q-127 0 -226.5 -81t-151.5 -214t-52 -292v-5q0 -159 52.5 -293t153 -216t228.5 -82z" />
    <glyph glyph-name="one" unicode="1" horiz-adv-x="804" 
d="M389 0v1300l-276 -86l-45 160l374 127h142v-1501h-195z" />
    <glyph glyph-name="two" unicode="2" horiz-adv-x="1300" 
d="M111 0v154l532 464q116 106 177 174.5t92.5 135t31.5 139.5q0 121 -81 194.5t-201 73.5q-116 0 -201.5 -57.5t-181.5 -187.5l-142 106q72 107 143 172.5t170.5 104t227.5 38.5q206 0 338.5 -120.5t132.5 -307.5v-4q0 -67 -15.5 -125.5t-42.5 -109.5t-76.5 -108.5
t-105.5 -110t-141 -125.5l-371 -322h766v-178h-1052z" />
    <glyph glyph-name="three" unicode="3" horiz-adv-x="1325" 
d="M670 -25q-352 0 -559 263l141 129q88 -108 189.5 -161.5t232.5 -53.5q130 0 217.5 75t87.5 195v4q0 128 -107.5 199t-287.5 71h-103l-37 121l449 500h-703v174h963v-145l-453 -492q77 -7 146 -26t130.5 -53.5t105.5 -81.5t70 -113.5t26 -145.5v-4q0 -199 -144.5 -327
t-363.5 -128z" />
    <glyph glyph-name="four" unicode="4" horiz-adv-x="1452" 
d="M915 0v348h-776l-43 141l838 1012h172v-989h225v-164h-225v-348h-191zM330 512h585v715z" />
    <glyph glyph-name="five" unicode="5" horiz-adv-x="1327" 
d="M653 -25q-299 0 -536 234l127 141q206 -196 411 -196q152 0 246 85.5t94 221.5v4q0 130 -98 211.5t-254 81.5q-149 0 -301 -78l-127 84l43 727h868v-178h-696l-29 -439q145 60 277 60q108 0 201.5 -31.5t163 -89t109.5 -145.5t40 -195v-4q0 -220 -150 -357t-389 -137z
" />
    <glyph glyph-name="six" unicode="6" horiz-adv-x="1400" 
d="M721 -25q-250 0 -402 152q-94 97 -139 226.5t-45 348.5v5q0 229 71.5 410.5t215.5 290t340 108.5q130 0 234.5 -42t209.5 -126l-110 -154q-87 74 -166 108.5t-178 34.5q-81 0 -150 -33.5t-117 -90.5t-81.5 -133t-49.5 -162t-16 -177v-10q75 103 173 156t232 53
q141 0 258 -55t189 -161.5t72 -244.5v-4q0 -216 -156 -358t-385 -142zM721 147q154 0 247 91t93 229v4q0 130 -96 215.5t-250 85.5q-156 0 -254.5 -91.5t-98.5 -215.5v-4q0 -136 101 -225t258 -89z" />
    <glyph glyph-name="seven" unicode="7" horiz-adv-x="1294" 
d="M279 0l673 1313h-798v178h1022v-148l-676 -1343h-221z" />
    <glyph glyph-name="eight" unicode="8" horiz-adv-x="1357" 
d="M680 -20q-244 0 -403.5 117.5t-159.5 305.5v5q0 129 78 220.5t217 143.5q-244 112 -244 338v4q0 113 69.5 204.5t186.5 142t256 50.5q140 0 256.5 -50.5t185 -142t68.5 -204.5v-4q0 -219 -244 -338q295 -122 295 -362v-4q0 -126 -73.5 -223.5t-201 -150t-286.5 -52.5z
M680 840q136 0 226.5 71t90.5 185v4q0 104 -90.5 173.5t-226.5 69.5q-139 0 -229.5 -69t-90.5 -172v-4q0 -113 91.5 -185.5t228.5 -72.5zM680 147q166 0 265 77t99 186v4q0 117 -104.5 191.5t-259.5 74.5q-156 0 -261.5 -74.5t-105.5 -191.5v-4q0 -109 100 -186t267 -77z
" />
    <glyph glyph-name="nine" unicode="9" horiz-adv-x="1400" 
d="M645 154q101 0 183 49.5t132 132.5t76.5 184.5t26.5 210.5v21q-148 -215 -401 -215q-231 0 -377 131t-146 336v4q0 217 153 362.5t390 145.5q245 0 399 -154q90 -90 137.5 -227.5t47.5 -348.5v-4q0 -235 -77.5 -418t-220.5 -286t-329 -103q-138 0 -249.5 47.5
t-215.5 133.5l111 151q93 -80 177.5 -116.5t182.5 -36.5zM686 705q157 0 254.5 94t97.5 223v4q0 136 -100.5 226.5t-259.5 90.5q-153 0 -245.5 -95.5t-92.5 -231.5v-4q0 -136 95.5 -221.5t250.5 -85.5z" />
    <glyph glyph-name="colon" unicode=":" horiz-adv-x="575" 
d="M176 864v244h223v-244h-223zM176 0v246h223v-246h-223z" />
    <glyph glyph-name="semicolon" unicode=";" horiz-adv-x="575" 
d="M176 864v244h223v-244h-223zM135 -274l-26 86q167 46 155 188h-88v246h223v-211q0 -141 -63.5 -213t-200.5 -96z" />
    <glyph glyph-name="less" unicode="&#x3c;" horiz-adv-x="1353" 
d="M1151 176l-1004 490v168l1004 489v-190l-803 -381l803 -383v-193z" />
    <glyph glyph-name="equal" unicode="=" horiz-adv-x="1353" 
d="M176 913v183h1002v-183h-1002zM176 403v183h1002v-183h-1002z" />
    <glyph glyph-name="greater" unicode="&#x3e;" horiz-adv-x="1353" 
d="M203 176v191l803 381l-803 385v190l1005 -489v-168z" />
    <glyph glyph-name="question" unicode="?" horiz-adv-x="1163" 
d="M469 436l-37 346l10 11q206 6 311 79t105 203v4q0 111 -79 181.5t-212 70.5q-210 0 -374 -190l-123 125q98 117 219 180t284 63q217 0 350.5 -117.5t133.5 -306.5v-6q0 -97 -34.5 -174.5t-96.5 -128.5t-139.5 -82.5t-170.5 -44.5l-20 -213h-127zM420 0v246h221v-246h-221
z" />
    <glyph glyph-name="at" unicode="@" horiz-adv-x="2103" 
d="M1071 -344q-201 0 -378.5 74t-302.5 199t-197 296t-72 359t73 360t197.5 297.5t298 200t365.5 74.5q153 0 295.5 -44.5t256 -124.5t198.5 -184.5t131 -231t46 -257.5t-33.5 -234t-90.5 -164.5t-127.5 -93.5t-149.5 -32q-117 0 -194 46t-111 123q-151 -169 -344 -169
q-163 0 -273 108t-110 283q0 89 27 171.5t75 147t109.5 113t133.5 74.5t144 26q200 0 308 -172l28 141l162 -24l-88 -498q-14 -77 -14 -119q0 -78 46 -121.5t132 -43.5q122 0 206.5 113t84.5 325q0 146 -65.5 285.5t-176.5 246t-270.5 171.5t-335.5 65q-239 0 -436 -116
t-307.5 -312.5t-110.5 -429.5q0 -176 65 -333.5t178.5 -272t276.5 -181.5t350 -67q156 0 279.5 34.5t248.5 108.5l37 -57q-266 -160 -565 -160zM971 297q124 0 217 96q54 51 84.5 123t30.5 150q0 113 -69.5 185.5t-178.5 72.5q-122 0 -221 -99q-113 -113 -113 -274
q0 -119 68.5 -186.5t181.5 -67.5z" />
    <glyph glyph-name="A" unicode="A" horiz-adv-x="1699" 
d="M84 0l674 1501h184l672 -1501h-209l-170 385h-778l-170 -385h-203zM530 561h631l-315 711z" />
    <glyph glyph-name="B" unicode="B" horiz-adv-x="1554" 
d="M213 0v1491h645q255 0 389 -131q99 -104 99 -244v-4q0 -230 -230 -340q314 -99 314 -360v-4q0 -190 -148 -299t-397 -109h-672zM1147 1083v4q0 106 -81 167t-228 61h-430v-477h415q150 0 237 62.5t87 182.5zM1231 424v4q0 114 -93.5 177t-275.5 63h-454v-492h479
q161 0 252.5 65t91.5 183z" />
    <glyph glyph-name="C" unicode="C" horiz-adv-x="1595" 
d="M897 -25q-212 0 -384.5 102t-269 277t-96.5 387v4q0 156 57 297.5t156 246t241 166t304 61.5q130 0 239.5 -31.5t186 -79.5t156.5 -123l-129 -145q-103 96 -210.5 147t-244.5 51q-155 0 -281.5 -77.5t-198 -211.5t-71.5 -296v-5q0 -162 71.5 -297t198 -213.5t281.5 -78.5
q141 0 247.5 51.5t217.5 157.5l129 -127q-132 -132 -269 -197.5t-331 -65.5z" />
    <glyph glyph-name="D" unicode="D" horiz-adv-x="1681" 
d="M213 0v1491h530q229 0 411 -97.5t282 -266.5t100 -377v-5q0 -208 -100 -378t-282 -268.5t-411 -98.5h-530zM743 1311h-333v-1131h333q131 0 241.5 43t185.5 118t117 178t42 222v4q0 158 -71.5 286.5t-206 204t-308.5 75.5z" />
    <glyph glyph-name="E" unicode="E" horiz-adv-x="1443" 
d="M213 0v1491h1085v-178h-888v-473h792v-178h-792v-484h899v-178h-1096z" />
    <glyph glyph-name="F" unicode="F" horiz-adv-x="1413" 
d="M213 0v1491h1083v-180h-886v-494h790v-180h-790v-637h-197z" />
    <glyph glyph-name="G" unicode="G" horiz-adv-x="1685" 
d="M909 -25q-228 0 -403 102.5t-267 276t-92 387.5v4q0 153 56 294t153.5 246.5t239.5 168t305 62.5q181 0 310 -49t251 -150l-125 -150q-98 83 -199.5 125.5t-244.5 42.5q-152 0 -277 -80t-194.5 -214t-69.5 -291v-5q0 -169 69 -303.5t198.5 -212t298.5 -77.5
q117 0 223.5 38t183.5 101v342h-430v174h621v-604q-116 -101 -271.5 -164.5t-335.5 -63.5z" />
    <glyph glyph-name="H" unicode="H" horiz-adv-x="1634" 
d="M213 0v1491h197v-649h815v649h198v-1491h-198v659h-815v-659h-197z" />
    <glyph glyph-name="I" unicode="I" horiz-adv-x="653" 
d="M227 0v1491h199v-1491h-199z" />
    <glyph glyph-name="J" unicode="J" horiz-adv-x="1198" 
d="M532 -20q-293 0 -464 256l137 126q71 -103 147.5 -152.5t182.5 -49.5q123 0 198.5 88t75.5 250v993h201v-993q0 -258 -140 -392q-126 -126 -338 -126z" />
    <glyph glyph-name="K" unicode="K" horiz-adv-x="1552" 
d="M213 0v1491h197v-848l811 848h252l-635 -647l661 -844h-244l-553 707l-292 -297v-410h-197z" />
    <glyph glyph-name="L" unicode="L" horiz-adv-x="1329" 
d="M213 0v1491h197v-1311h823v-180h-1020z" />
    <glyph glyph-name="M" unicode="M" horiz-adv-x="1865" 
d="M213 0v1491h203l516 -780l516 780h205v-1491h-197v1167l-522 -770h-8l-520 766v-1163h-193z" />
    <glyph glyph-name="N" unicode="N" horiz-adv-x="1699" 
d="M213 0v1491h182l897 -1145v1145h195v-1491h-162l-919 1174v-1174h-193z" />
    <glyph glyph-name="O" unicode="O" horiz-adv-x="1826" 
d="M911 -25q-222 0 -398 105t-271 279t-95 382v4q0 154 57 295t156.5 246t244 167.5t310.5 62.5q222 0 398 -105t271 -279t95 -382v-5q0 -154 -57 -294.5t-156.5 -245.5t-244 -167.5t-310.5 -62.5zM915 156q160 0 289 79t200 212.5t71 293.5v4q0 119 -42.5 227.5
t-116.5 188.5t-179.5 127t-225.5 47q-160 0 -289 -79t-199.5 -212.5t-70.5 -293.5v-5q0 -160 72 -294.5t202 -214.5t289 -80z" />
    <glyph glyph-name="P" unicode="P" horiz-adv-x="1439" 
d="M213 0v1491h567q255 0 408 -129.5t153 -349.5v-4q0 -119 -47 -214.5t-128 -156.5t-187 -93t-227 -32h-342v-512h-197zM410 690h350q172 0 277.5 86t105.5 225v5q0 149 -101.5 227t-277.5 78h-354v-621z" />
    <glyph glyph-name="Q" unicode="Q" horiz-adv-x="1826" 
d="M1700 98l-131 -143l-193 172q-198 -152 -465 -152q-222 0 -398 105t-271 279t-95 382v4q0 154 57 295t156.5 246t244 167.5t310.5 62.5q222 0 398 -105t271 -279t95 -382v-5q0 -274 -168 -485zM915 156q184 0 318 96l-272 235l131 146l274 -250q109 148 109 358v4
q0 119 -42.5 227.5t-116.5 188.5t-179.5 127t-225.5 47q-160 0 -289 -79t-199.5 -212.5t-70.5 -293.5v-5q0 -160 72 -294.5t202 -214.5t289 -80z" />
    <glyph glyph-name="R" unicode="R" horiz-adv-x="1556" 
d="M213 0v1491h647q282 0 426 -150q119 -116 119 -301v-4q0 -179 -105 -290t-284 -150l440 -596h-237l-412 561h-397v-561h-197zM410 737h436q161 0 260.5 78.5t99.5 210.5v4q0 134 -94 207.5t-266 73.5h-436v-574z" />
    <glyph glyph-name="S" unicode="S" horiz-adv-x="1380" 
d="M727 -20q-348 0 -612 237l121 143q119 -106 235 -155t262 -49q141 0 227.5 64.5t86.5 168.5v4q0 66 -29.5 110.5t-112 84t-231.5 71.5q-261 54 -380.5 153t-119.5 282v4q0 180 140.5 296.5t355.5 116.5q160 0 284.5 -44.5t243.5 -139.5l-111 -151q-196 159 -421 159
q-133 0 -214 -63t-81 -156v-4q0 -72 31.5 -117.5t115 -83t242.5 -73.5q252 -57 367.5 -155t115.5 -271v-4q0 -195 -143 -311.5t-373 -116.5z" />
    <glyph glyph-name="T" unicode="T" horiz-adv-x="1384" 
d="M594 0v1309h-494v182h1184v-182h-493v-1309h-197z" />
    <glyph glyph-name="U" unicode="U" horiz-adv-x="1632" 
d="M815 -23q-289 0 -458 168.5t-169 481.5v864h199v-854q0 -230 113.5 -354.5t318.5 -124.5q199 0 312.5 120t113.5 349v864h197v-852q0 -320 -169 -491t-458 -171z" />
    <glyph glyph-name="V" unicode="V" horiz-adv-x="1613" 
d="M719 -10l-635 1501h219l506 -1243l508 1243h213l-635 -1501h-176z" />
    <glyph glyph-name="W" unicode="W" horiz-adv-x="2379" 
d="M627 -10l-529 1501h215l404 -1200l395 1204h164l395 -1204l406 1200h207l-529 -1501h-168l-397 1167l-395 -1167h-168z" />
    <glyph glyph-name="X" unicode="X" horiz-adv-x="1562" 
d="M1214 1491h228l-541 -729l561 -762h-231l-453 621l-450 -621h-228l562 760l-541 731h233l430 -592z" />
    <glyph glyph-name="Y" unicode="Y" horiz-adv-x="1542" 
d="M672 0v590l-613 901h236l477 -721l481 721h230l-613 -897v-594h-198z" />
    <glyph glyph-name="Z" unicode="Z" horiz-adv-x="1499" 
d="M150 0v137l940 1180h-910v174h1172v-137l-940 -1180h940v-174h-1202z" />
    <glyph glyph-name="bracketleft" unicode="[" horiz-adv-x="962" 
d="M205 -276v1767h622v-150h-440v-1468h440v-149h-622z" />
    <glyph glyph-name="backslash" unicode="\" horiz-adv-x="1105" 
d="M973 -272l-981 1972h174l979 -1972h-172z" />
    <glyph glyph-name="bracketright" unicode="]" horiz-adv-x="962" 
d="M133 -276v149h442v1468h-442v150h625v-1767h-625z" />
    <glyph glyph-name="asciicircum" unicode="^" horiz-adv-x="1081" 
d="M139 1051l330 444h143l330 -444h-162l-241 313l-242 -313h-158z" />
    <glyph glyph-name="underscore" unicode="_" horiz-adv-x="1294" 
d="M4 -340v154h1286v-154h-1286z" />
    <glyph glyph-name="grave" unicode="`" horiz-adv-x="1081" 
d="M551 1268l-248 233l189 86l206 -319h-147z" />
    <glyph glyph-name="a" unicode="a" horiz-adv-x="1253" 
d="M512 -25q-106 0 -197.5 38.5t-151 118.5t-59.5 187v5q0 174 127.5 266t341.5 92q182 0 328 -47v37q0 138 -81 210t-232 72q-166 0 -330 -77l-55 153q104 47 197.5 70.5t209.5 23.5q238 0 361 -123q114 -114 114 -329v-672h-186v158q-145 -183 -387 -183zM555 125
q149 0 248.5 79t99.5 202v96q-143 47 -303 47q-146 0 -225.5 -57.5t-79.5 -157.5v-4q0 -94 75 -149.5t185 -55.5z" />
    <glyph glyph-name="b" unicode="b" horiz-adv-x="1435" 
d="M788 -25q-258 0 -411 226v-201h-193v1554h193v-657q157 236 411 236q99 0 192.5 -39.5t168 -111t119.5 -182.5t45 -243v-4q0 -133 -45 -244.5t-119.5 -183t-168 -111t-192.5 -39.5zM748 145q158 0 263 110t105 296v4q0 181 -107 294.5t-261 113.5q-151 0 -264 -115.5
t-113 -290.5v-4q0 -177 112.5 -292.5t264.5 -115.5z" />
    <glyph glyph-name="c" unicode="c" horiz-adv-x="1232" 
d="M688 -25q-159 0 -290.5 78t-205 209.5t-73.5 286.5v4q0 155 73.5 288t205.5 212.5t292 79.5q145 0 249.5 -52t193.5 -145l-123 -131q-78 78 -150.5 118t-171.5 40q-104 0 -190.5 -54.5t-135.5 -148t-49 -203.5v-4q0 -172 110 -290t275 -118q96 0 173.5 40.5t150.5 115.5
l119 -115q-90 -101 -198 -156t-255 -55z" />
    <glyph glyph-name="d" unicode="d" horiz-adv-x="1435" 
d="M647 -25q-99 0 -192.5 39.5t-167.5 111t-119 182.5t-45 243v4q0 133 44 244.5t117.5 183t167.5 111t195 39.5q249 0 412 -226v647h190v-1554h-190v211q-164 -236 -412 -236zM686 145q152 0 264.5 115.5t112.5 292.5v4q0 175 -113 290.5t-264 115.5q-157 0 -262 -110.5
t-105 -295.5v-4q0 -180 107.5 -294t259.5 -114z" />
    <glyph glyph-name="e" unicode="e" horiz-adv-x="1284" 
d="M676 -25q-114 0 -216 42t-177 116.5t-119.5 183t-44.5 234.5v4q0 158 68.5 290.5t191.5 210t274 77.5q163 0 283.5 -81t180 -213.5t59.5 -295.5q0 -3 -5 -60h-858q17 -161 120.5 -253.5t246.5 -92.5q105 0 184.5 38t151.5 112l117 -105q-88 -100 -197.5 -153.5
t-259.5 -53.5zM311 621h670q-13 151 -99 250.5t-231 99.5q-136 0 -229.5 -98t-110.5 -252z" />
    <glyph glyph-name="f" unicode="f" horiz-adv-x="804" 
d="M246 0v940h-150v164h150v92q0 189 94 283q89 86 242 86q99 0 188 -29v-166q-89 29 -156 29q-178 0 -178 -215v-80h332v-164h-330v-940h-192z" />
    <glyph glyph-name="g" unicode="g" horiz-adv-x="1435" 
d="M676 -344q-275 0 -502 145l82 150q189 -133 418 -133q183 0 284 95.5t101 281.5v116q-167 -225 -420 -225q-99 0 -192 36.5t-165 102t-115.5 165t-43.5 216.5v4q0 118 43.5 218t116 165.5t165 102.5t191.5 37q255 0 420 -215v190h190v-903q0 -264 -141 -402
q-147 -147 -432 -147zM682 254q154 0 267.5 100t113.5 252v4q0 103 -54 185.5t-140.5 126t-186.5 43.5q-153 0 -258 -97.5t-105 -255.5v-4q0 -155 106 -254.5t257 -99.5z" />
    <glyph glyph-name="h" unicode="h" horiz-adv-x="1331" 
d="M184 0v1554h193v-632q132 211 368 211q195 0 305.5 -120.5t110.5 -318.5v-694h-192v641q0 148 -75 231.5t-210 83.5q-133 0 -220 -89t-87 -236v-631h-193z" />
    <glyph glyph-name="i" unicode="i" horiz-adv-x="591" 
d="M188 1329v201h215v-201h-215zM201 0v1108h190v-1108h-190z" />
    <glyph glyph-name="j" unicode="j" horiz-adv-x="591" 
d="M188 1329v201h215v-201h-215zM106 -348q-43 0 -108 10v158q25 -6 78 -6q58 0 91.5 35.5t33.5 107.5v1151h190v-1157q0 -151 -73.5 -225t-211.5 -74z" />
    <glyph glyph-name="k" unicode="k" horiz-adv-x="1236" 
d="M184 0v1554h193v-1030l555 584h239l-458 -469l473 -639h-230l-374 506l-205 -209v-297h-193z" />
    <glyph glyph-name="l" unicode="l" horiz-adv-x="591" 
d="M201 0v1554h190v-1554h-190z" />
    <glyph glyph-name="m" unicode="m" horiz-adv-x="2041" 
d="M184 0v1108h193v-180q42 61 83 102t111.5 72t157.5 31q125 0 213 -57.5t135 -155.5q144 213 385 213q191 0 298.5 -117t107.5 -324v-692h-193v641q0 153 -70 234t-198 81q-124 0 -204.5 -86t-80.5 -235v-635h-192v645q0 147 -70.5 229t-195.5 82q-124 0 -205.5 -91
t-81.5 -234v-631h-193z" />
    <glyph glyph-name="n" unicode="n" horiz-adv-x="1331" 
d="M184 0v1108h193v-186q132 211 368 211q195 0 305.5 -120.5t110.5 -318.5v-694h-192v641q0 148 -75 231.5t-210 83.5q-133 0 -220 -89t-87 -236v-631h-193z" />
    <glyph glyph-name="o" unicode="o" horiz-adv-x="1400" 
d="M698 -25q-164 0 -297.5 78t-207.5 209.5t-74 286.5v4q0 155 75 288t209.5 212.5t298.5 79.5q163 0 297 -78t208.5 -210t74.5 -288v-4q0 -155 -75 -287.5t-210 -211.5t-299 -79zM702 145q168 0 275.5 117.5t107.5 286.5v4q0 169 -111.5 289.5t-275.5 120.5
q-168 0 -276.5 -119t-108.5 -287v-4q0 -168 112.5 -288t276.5 -120z" />
    <glyph glyph-name="p" unicode="p" horiz-adv-x="1435" 
d="M184 -340v1448h193v-211q157 236 411 236q99 0 192.5 -39.5t168 -111t119.5 -182.5t45 -243v-4q0 -133 -45 -244.5t-119.5 -183t-168 -111t-192.5 -39.5q-258 0 -411 226v-541h-193zM748 145q158 0 263 110t105 296v4q0 181 -107 294.5t-261 113.5q-151 0 -264 -115.5
t-113 -290.5v-4q0 -177 112.5 -292.5t264.5 -115.5z" />
    <glyph glyph-name="q" unicode="q" horiz-adv-x="1435" 
d="M1059 -340v551q-164 -236 -412 -236q-99 0 -192.5 39.5t-167.5 111t-119 182.5t-45 243v4q0 133 44 244.5t117.5 183t167.5 111t195 39.5q249 0 412 -226v201h190v-1448h-190zM686 145q152 0 264.5 115.5t112.5 292.5v4q0 175 -113 290.5t-264 115.5q-157 0 -262 -110.5
t-105 -295.5v-4q0 -180 107.5 -294t259.5 -114z" />
    <glyph glyph-name="r" unicode="r" horiz-adv-x="882" 
d="M184 0v1108h193v-277q59 139 173 220.5t261 74.5v-202h-12q-186 0 -304 -127.5t-118 -360.5v-436h-193z" />
    <glyph glyph-name="s" unicode="s" horiz-adv-x="1079" 
d="M555 -20q-120 0 -243 42t-220 119l94 135q190 -139 377 -139q94 0 152.5 43t58.5 115v4q0 22 -8.5 41t-19 33t-34 28.5t-40 23.5t-51 21.5t-53 18t-60.5 18.5q-45 13 -74.5 22.5t-71 26t-68.5 32t-57.5 40t-48 52t-29.5 64t-12 79.5v4q0 147 107.5 236t275.5 89
q102 0 208.5 -33t193.5 -91l-84 -142q-169 107 -324 107q-90 0 -143 -41t-53 -105v-4q0 -18 5 -34t18.5 -30t25 -24.5t36.5 -22.5t39.5 -19t48 -18t48.5 -15.5t53 -16.5q60 -17 103 -33t94 -43t82.5 -58.5t53 -78.5t21.5 -104v-5q0 -160 -112.5 -248.5t-288.5 -88.5z" />
    <glyph glyph-name="t" unicode="t" horiz-adv-x="880" 
d="M557 -18q-145 0 -230 76t-85 239v643h-150v168h150v326h190v-326h336v-168h-336v-616q0 -170 172 -170q81 0 160 39v-162q-88 -49 -207 -49z" />
    <glyph glyph-name="u" unicode="u" horiz-adv-x="1331" 
d="M584 -25q-194 0 -305 120.5t-111 318.5v694h192v-641q0 -148 75.5 -231.5t211.5 -83.5q133 0 220 89.5t87 235.5v631h191v-1108h-191v186q-136 -211 -370 -211z" />
    <glyph glyph-name="v" unicode="v" horiz-adv-x="1271" 
d="M551 -8l-473 1116h209l350 -887l352 887h205l-473 -1116h-170z" />
    <glyph glyph-name="w" unicode="w" horiz-adv-x="1849" 
d="M471 -8l-379 1116h201l270 -850l283 854h162l282 -854l273 850h196l-381 -1116h-170l-282 837l-285 -837h-170z" />
    <glyph glyph-name="x" unicode="x" horiz-adv-x="1243" 
d="M317 1108l306 -416l307 416h211l-412 -541l428 -567h-217l-322 438l-321 -438h-211l424 563l-408 545h215z" />
    <glyph glyph-name="y" unicode="y" horiz-adv-x="1280" 
d="M659 215l336 893h203l-457 -1143q-68 -170 -153 -241.5t-215 -71.5q-119 0 -244 61l66 148q77 -41 165 -41q69 0 116.5 40.5t90.5 141.5l-491 1106h209z" />
    <glyph glyph-name="z" unicode="z" horiz-adv-x="1204" 
d="M125 0v127l706 821h-681v160h935v-127l-706 -819h706v-162h-960z" />
    <glyph glyph-name="braceleft" unicode="{" horiz-adv-x="1046" 
d="M926 -174l-31 -127q-115 21 -197.5 51.5t-135 67t-83 85.5t-42 101.5t-11.5 122.5q0 16 1 79t1 81q0 129 -56 189.5t-192 60.5h-55v147h55q136 0 192 60.5t56 191.5q0 18 -1 81t-1 79q0 70 11.5 122.5t42 101.5t83 85.5t135 67t197.5 51.5l31 -127q-86 -23 -143 -46.5
t-92.5 -49t-54 -62t-24.5 -74t-6 -96.5q0 -21 1 -78.5t1 -81.5q0 -127 -55 -196t-166 -103q115 -37 168 -103t53 -194q0 -24 -1 -81t-1 -78q0 -59 6 -96.5t24.5 -74t54 -62t92.5 -49t143 -46.5z" />
    <glyph glyph-name="bar" unicode="|" horiz-adv-x="679" 
d="M260 -272v1972h160v-1972h-160z" />
    <glyph glyph-name="braceright" unicode="}" horiz-adv-x="1046" 
d="M154 -301l-33 127q87 24 143.5 47.5t92.5 49t53.5 61.5t23.5 73.5t6 96.5q0 21 -1 78t-1 81q0 126 55.5 194.5t165.5 102.5q-113 39 -167 106t-54 193q0 24 1 81.5t1 78.5q0 59 -6 96.5t-23.5 73.5t-53.5 61.5t-92.5 49t-143.5 47.5l33 127q114 -21 196.5 -51.5t135 -67
t83.5 -85.5t42.5 -102t11.5 -122q0 -16 -2.5 -79t-2.5 -81q0 -131 56 -191.5t192 -60.5h56v-147h-56q-136 0 -192 -60.5t-56 -189.5q0 -18 2.5 -81t2.5 -79q0 -69 -11.5 -122t-42.5 -102t-83.5 -85.5t-135 -67t-196.5 -51.5z" />
    <glyph glyph-name="asciitilde" unicode="~" horiz-adv-x="1038" 
d="M672 520q-54 0 -162 45q-84 41 -131 41q-40 0 -63.5 -23.5t-49.5 -82.5l-110 32q33 127 81 182.5t132 55.5q52 0 149 -41q7 -3 10 -4q84 -41 131 -41q42 0 65.5 22.5t47.5 81.5l113 -32q-36 -127 -83.5 -181.5t-129.5 -54.5z" />
    <glyph glyph-name="uni00A0" unicode="&#xa0;" horiz-adv-x="0" 
 />
    <glyph glyph-name="exclamdown" unicode="&#xa1;" horiz-adv-x="614" 
d="M197 1245v246h221v-246h-221zM195 0v106l59 949h106l60 -949v-106h-225z" />
    <glyph glyph-name="cent" unicode="&#xa2;" horiz-adv-x="1253" 
d="M907 1503l-39 -190q155 -45 275 -174l-123 -129q-99 99 -191 133l-155 -795h28q175 0 328 156l117 -111q-92 -104 -200 -159.5t-255 -55.5q-29 0 -43 2l-37 -192h-153l43 223q-166 58 -270.5 206.5t-104.5 334.5v4q0 155 73.5 287.5t205.5 212t292 79.5h25l33 168h151z
M319 760v-4q0 -127 60.5 -226t163.5 -147l153 782h-4q-157 0 -265 -118.5t-108 -286.5z" />
    <glyph glyph-name="sterling" unicode="&#xa3;" horiz-adv-x="1388" 
d="M150 0v119l174 45v452h-174v170h174v222q0 243 133 376q130 127 344 127q110 0 199 -32t147.5 -80.5t112.5 -120.5l-150 -119q-69 85 -140 128.5t-169 43.5q-119 0 -193 -74q-86 -86 -86 -253v-218h574v-170h-574v-442h735v-174h-1107z" />
    <glyph glyph-name="yen" unicode="&#xa5;" horiz-adv-x="1476" 
d="M215 565v150h369l-523 776h232l448 -696l453 696h223l-526 -776h373v-150h-430v-178h430v-149h-430v-238h-191v238h-428v149h428v178h-428z" />
    <glyph glyph-name="section" unicode="&#xa7;" horiz-adv-x="1361" 
d="M958 487q69 -38 108.5 -93t39.5 -120v-4q0 -134 -107.5 -212t-293.5 -78q-291 0 -488 200l119 117q165 -162 373 -162q100 0 152 36t52 93v4q0 58 -71 98.5t-256 84.5q-245 57 -347 126t-102 179v4q0 96 71.5 158t194.5 86q-69 37 -107 92t-38 121v4q0 134 107 212
t292 78q149 0 273.5 -52.5t214.5 -147.5l-117 -117q-165 162 -375 162q-99 0 -151.5 -35.5t-52.5 -93.5v-4q0 -59 70 -99.5t257 -83.5q245 -57 347 -126t102 -179v-4q0 -96 -71.5 -158t-195.5 -86zM834 569q92 0 151 40t59 98v4q0 53 -63.5 93.5t-222.5 80.5
q-145 37 -228 37q-95 0 -154 -40t-59 -98v-4q0 -54 63.5 -94t223.5 -80q143 -37 230 -37z" />
    <glyph glyph-name="dieresis" unicode="&#xa8;" horiz-adv-x="1081" 
d="M627 1268v217h213v-217h-213zM242 1268v217h213v-217h-213z" />
    <glyph glyph-name="copyright" unicode="&#xa9;" horiz-adv-x="1783" 
d="M891 -25q-213 0 -390.5 103.5t-278.5 279.5t-101 383v4q0 155 60.5 297t163.5 246t247 166t303 62q212 0 389 -103.5t278 -279.5t101 -383v-5q0 -207 -101.5 -384t-279.5 -281.5t-391 -104.5zM891 45q195 0 355.5 94.5t251.5 255t91 350.5v5q0 142 -53.5 270.5
t-145.5 222t-221 148.5t-274 55q-195 0 -356.5 -94.5t-252.5 -255.5t-91 -351v-4q0 -190 90.5 -349.5t250.5 -253t355 -93.5zM901 344q-170 0 -285.5 120.5t-115.5 289.5v4q0 170 116.5 290.5t288.5 120.5q102 0 171 -32.5t138 -96.5l-86 -94q-114 103 -225 103
q-116 0 -193 -84.5t-77 -204.5v-4q0 -119 78.5 -205t193.5 -86q69 0 121 25t111 79l82 -84q-70 -70 -143 -105.5t-175 -35.5z" />
    <glyph glyph-name="ordfeminine" unicode="&#xaa;" horiz-adv-x="847" 
d="M360 864q-92 0 -158.5 52t-66.5 141v4q0 96 70 147.5t190 51.5q84 0 168 -25v12q0 71 -41.5 107.5t-120.5 36.5q-75 0 -180 -45l-35 98q116 53 230 53q131 0 198 -70q64 -61 64 -182v-366h-117v79q-78 -94 -201 -94zM385 961q75 0 126.5 40.5t51.5 102.5v47
q-67 23 -153 23q-71 0 -112.5 -29.5t-41.5 -77.5v-4q0 -48 36.5 -75t92.5 -27zM129 610v107h559v-107h-559z" />
    <glyph glyph-name="guillemotleft" unicode="&#xab;" horiz-adv-x="1224" 
d="M956 90l-356 455v18l356 457l138 -76l-277 -387l277 -391zM465 90l-356 455v18l356 457l137 -76l-276 -387l276 -391z" />
    <glyph glyph-name="registered" unicode="&#xae;" horiz-adv-x="862" 
d="M430 766q-155 0 -263 109t-108 262v2q0 153 108.5 262.5t262.5 109.5q155 0 263 -108.5t108 -261.5v-2q0 -153 -108.5 -263t-262.5 -110zM430 807q139 0 233.5 97.5t94.5 234.5v2q0 137 -94.5 234.5t-233.5 97.5q-137 0 -232.5 -98.5t-95.5 -235.5v-2q0 -137 94.5 -233.5
t233.5 -96.5zM283 956v381h174q68 0 108.5 -31.5t40.5 -91.5v-2q0 -42 -24.5 -72.5t-63.5 -41.5l100 -142h-96l-86 129h-74v-129h-79zM362 1149h89q35 0 54 16t19 43v2q0 27 -19.5 43t-53.5 15h-89v-119z" />
    <glyph glyph-name="macron" unicode="&#xaf;" horiz-adv-x="1081" 
d="M199 1305v149h684v-149h-684z" />
    <glyph glyph-name="degree" unicode="&#xb0;" horiz-adv-x="999" 
d="M500 840q-135 0 -237.5 98.5t-102.5 230.5v5q0 133 102 231t238 98t238 -98t102 -231v-5q0 -132 -102.5 -230.5t-237.5 -98.5zM500 961q88 0 148.5 62.5t60.5 145.5v5q0 84 -61 147t-148 63q-88 0 -147.5 -63t-59.5 -147v-5q0 -84 59 -146t148 -62z" />
    <glyph glyph-name="plusminus" unicode="&#xb1;" horiz-adv-x="1353" 
d="M1184 780h-418v-409h-178v409h-418v174h418v410h178v-410h418v-174zM1184 0h-1014v168h1014v-168z" />
    <glyph glyph-name="two.sup" unicode="&#xb2;" 
d="M127 903v107l303 260q89 76 124.5 124.5t35.5 106.5q0 59 -43 97t-107 38q-117 0 -213 -137l-92 66q61 93 134 139.5t180 46.5q117 0 193.5 -68.5t76.5 -171.5q0 -83 -44 -149t-147 -152l-231 -194h428v-113h-598z" />
    <glyph glyph-name="three.sup" unicode="&#xb3;" 
d="M424 883q-190 0 -315 145l79 86q105 -121 238 -121q69 0 116.5 40.5t47.5 105.5q0 68 -56 105.5t-149 37.5h-76l-20 78l258 256h-389v113h547v-99l-259 -252q118 -8 194.5 -68.5t76.5 -168.5q0 -115 -83.5 -186.5t-209.5 -71.5z" />
    <glyph glyph-name="acute" unicode="&#xb4;" horiz-adv-x="1081" 
d="M383 1268l207 319l188 -86l-248 -233h-147z" />
    <glyph glyph-name="mu" unicode="&#xb5;" horiz-adv-x="1433" 
d="M1382 158v-158q-58 -14 -125 -14q-216 0 -262 180q-114 -186 -315 -186q-107 0 -193.5 52t-132.5 152h-4q25 -170 25 -268v-256h-191v1448h193v-635q0 -142 84 -234t215 -92q129 0 214 92.5t85 233.5v635h192v-823q4 -71 37.5 -103t100.5 -32q53 0 77 8z" />
    <glyph glyph-name="paragraph" unicode="&#xb6;" horiz-adv-x="1132" 
d="M733 0v551h-28q-172 0 -305.5 52t-213.5 159.5t-80 255.5v4q0 218 156.5 343.5t409.5 125.5h260v-1491h-199z" />
    <glyph glyph-name="periodcentered" unicode="&#xb7;" horiz-adv-x="552" 
d="M166 522v244h223v-244h-223z" />
    <glyph glyph-name="cedilla" unicode="&#xb8;" horiz-adv-x="1081" 
d="M494 -336l-179 78l197 289h147z" />
    <glyph glyph-name="one.sup" unicode="&#xb9;" horiz-adv-x="700" 
d="M461 903h-123v709l-178 -68l-35 107l240 92h96v-840z" />
    <glyph glyph-name="ordmasculine" unicode="&#xba;" horiz-adv-x="847" 
d="M422 864q-135 0 -224 92t-89 224v4q0 131 91 224t226 93q134 0 223.5 -91.5t89.5 -223.5v-4q0 -131 -91 -224.5t-226 -93.5zM117 610v107h614v-107h-614zM426 975q84 0 136 59t52 146v4q0 87 -54 147t-138 60q-85 0 -137 -58.5t-52 -146.5v-4q0 -88 54 -147.5t139 -59.5z
" />
    <glyph glyph-name="guillemotright" unicode="&#xbb;" horiz-adv-x="1224" 
d="M760 90l-137 74l276 389l-276 389l137 78l356 -457v-18zM266 90l-137 74l279 389l-279 389l137 78l357 -457v-18z" />
    <glyph glyph-name="onequarter" unicode="&#xbc;" horiz-adv-x="1775" 
d="M461 666h-123v708l-178 -67l-35 106l240 90h96v-837zM291 0l530 768l484 723h125l-531 -768l-483 -723h-125zM1559 182v-186h-117v186h-402l-22 111l407 545h134v-553h114v-103h-114zM1444 283v407l-307 -407h307z" />
    <glyph glyph-name="onehalf" unicode="&#xbd;" horiz-adv-x="1775" 
d="M1057 0v106l303 261q89 76 124.5 124.5t35.5 106.5q0 59 -43 97t-107 38q-117 0 -213 -137l-92 66q61 93 133.5 139.5t179.5 46.5q117 0 194 -68.5t77 -171.5q0 -83 -44 -149t-147 -152l-231 -194h428v-113h-598zM270 0l531 768l483 723h125l-530 -768l-484 -723h-125z
M461 666h-123v708l-178 -67l-35 106l240 90h96v-837z" />
    <glyph glyph-name="threequarters" unicode="&#xbe;" horiz-adv-x="1935" 
d="M1718 182v-186h-116v186h-402l-22 111l407 545h133v-553h115v-103h-115zM1604 283v407l-308 -407h308zM440 0l531 768l483 723h125l-530 -768l-484 -723h-125zM428 643q-187 0 -315 148l80 86q105 -121 237 -121q69 0 116.5 40t47.5 105q0 68 -56 105.5t-149 37.5h-76
l-20 76l258 256h-389v115h547v-98l-258 -252q118 -8 194 -69t76 -169q0 -114 -83.5 -187t-209.5 -73z" />
    <glyph glyph-name="questiondown" unicode="&#xbf;" horiz-adv-x="1163" 
d="M520 1245v246h223v-246h-223zM590 -18q-217 0 -350.5 117.5t-133.5 306.5v6q0 97 34.5 174.5t95.5 128.5t138.5 82.5t170.5 44.5l20 213h129l35 -346l-10 -11q-206 -6 -310 -79t-104 -203v-4q0 -111 78 -181.5t211 -70.5q214 0 375 190l125 -125q-99 -117 -221 -180
t-283 -63z" />
    <glyph glyph-name="Agrave" unicode="&#xc0;" horiz-adv-x="1699" 
d="M84 0l674 1501h184l672 -1501h-209l-170 385h-778l-170 -385h-203zM530 561h631l-315 711zM930 1640h-156l-254 201l189 84z" />
    <glyph glyph-name="Aacute" unicode="&#xc1;" horiz-adv-x="1699" 
d="M84 0l674 1501h184l672 -1501h-209l-170 385h-778l-170 -385h-203zM530 561h631l-315 711zM770 1640l223 285l187 -84l-252 -201h-158z" />
    <glyph glyph-name="Acircumflex" unicode="&#xc2;" horiz-adv-x="1699" 
d="M84 0l674 1501h184l672 -1501h-209l-170 385h-778l-170 -385h-203zM530 561h631l-315 711zM518 1636l242 262h180l242 -262h-174l-160 127l-160 -127h-170z" />
    <glyph glyph-name="Atilde" unicode="&#xc3;" horiz-adv-x="1699" 
d="M84 0l674 1501h184l672 -1501h-209l-170 385h-778l-170 -385h-203zM530 561h631l-315 711zM1014 1640q-53 0 -172 48q-89 34 -123 34q-40 0 -64.5 -22.5t-48.5 -77.5l-117 33q36 120 84.5 175.5t126.5 55.5q56 0 172 -47q91 -35 123 -35q41 0 65 22.5t48 78.5l117 -35
q-33 -120 -82 -175t-129 -55z" />
    <glyph glyph-name="Adieresis" unicode="&#xc4;" horiz-adv-x="1699" 
d="M84 0l674 1501h184l672 -1501h-209l-170 385h-778l-170 -385h-203zM530 561h631l-315 711zM946 1640v207h217v-207h-217zM535 1640v207h219v-207h-219z" />
    <glyph glyph-name="Aring" unicode="&#xc5;" horiz-adv-x="1699" 
d="M84 0l633 1413q-109 64 -109 182q0 91 71 153t171 62t171 -62t71 -153q0 -116 -111 -182l633 -1413h-209l-170 385h-778l-170 -385h-203zM530 561h631l-315 711zM850 1466q60 0 99.5 36.5t39.5 92.5q0 54 -39.5 90.5t-99.5 36.5q-61 0 -101 -36.5t-40 -90.5
q0 -56 40 -92.5t101 -36.5z" />
    <glyph glyph-name="AE" unicode="&#xc6;" horiz-adv-x="2242" 
d="M41 0l864 1491h1192v-178h-848v-473h752v-178h-752v-484h858v-178h-1054v385h-584l-223 -385h-205zM565 561h488v756h-49z" />
    <glyph glyph-name="Ccedilla" unicode="&#xc7;" horiz-adv-x="1595" 
d="M795 -336l-179 78l164 242q-182 27 -326.5 132.5t-225.5 269t-81 355.5v4q0 156 57 297.5t156 246t241 166t304 61.5q130 0 239.5 -31.5t186 -79.5t156.5 -123l-129 -145q-103 96 -210.5 147t-244.5 51q-155 0 -281.5 -77.5t-198 -211.5t-71.5 -296v-5q0 -162 71.5 -297
t198 -213.5t281.5 -78.5q141 0 247.5 51.5t217.5 157.5l129 -127q-119 -123 -252 -190t-309 -71z" />
    <glyph glyph-name="Egrave" unicode="&#xc8;" horiz-adv-x="1443" 
d="M840 1620h-156l-254 201l188 84zM213 0v1491h1085v-178h-888v-473h792v-178h-792v-484h899v-178h-1096z" />
    <glyph glyph-name="Eacute" unicode="&#xc9;" horiz-adv-x="1443" 
d="M680 1620l223 285l187 -84l-252 -201h-158zM213 0v1491h1085v-178h-888v-473h792v-178h-792v-484h899v-178h-1096z" />
    <glyph glyph-name="Ecircumflex" unicode="&#xca;" horiz-adv-x="1443" 
d="M213 0v1491h1085v-178h-888v-473h792v-178h-792v-484h899v-178h-1096zM428 1620l242 262h180l242 -262h-174l-160 127l-160 -127h-170z" />
    <glyph glyph-name="Edieresis" unicode="&#xcb;" horiz-adv-x="1443" 
d="M858 1620v207h217v-207h-217zM446 1620v207h220v-207h-220zM213 0v1491h1085v-178h-888v-473h792v-178h-792v-484h899v-178h-1096z" />
    <glyph glyph-name="Igrave" unicode="&#xcc;" horiz-adv-x="653" 
d="M227 0v1491h199v-1491h-199zM408 1620h-156l-254 201l188 84z" />
    <glyph glyph-name="Iacute" unicode="&#xcd;" horiz-adv-x="653" 
d="M227 0v1491h199v-1491h-199zM248 1620l223 285l186 -84l-251 -201h-158z" />
    <glyph glyph-name="Icircumflex" unicode="&#xce;" horiz-adv-x="653" 
d="M227 0v1491h199v-1491h-199zM-4 1620l242 262h180l241 -262h-174l-159 127l-160 -127h-170z" />
    <glyph glyph-name="Idieresis" unicode="&#xcf;" horiz-adv-x="653" 
d="M227 0v1491h199v-1491h-199zM426 1620v207h217v-207h-217zM14 1620v207h219v-207h-219z" />
    <glyph glyph-name="Eth" unicode="&#xd0;" horiz-adv-x="1744" 
d="M276 0v674h-159v151h159v666h531q172 0 320 -57t251.5 -155.5t162 -235.5t58.5 -293v-5q0 -156 -58.5 -293.5t-161.5 -237t-251.5 -157t-320.5 -57.5h-531zM899 674h-424v-494h332q131 0 241.5 43t185.5 118t117 178t42 222v4q0 158 -71.5 286.5t-206 204t-308.5 75.5
h-332v-486h424v-151z" />
    <glyph glyph-name="Ntilde" unicode="&#xd1;" horiz-adv-x="1699" 
d="M1014 1616q-56 0 -172 47q-91 35 -123 35q-40 0 -64.5 -22.5t-48.5 -78.5l-117 33q36 121 85 176.5t126 55.5q56 0 172 -47q91 -35 123 -35q41 0 65 22t48 78l117 -35q-33 -120 -82 -174.5t-129 -54.5zM213 0v1491h182l897 -1145v1145h195v-1491h-162l-919 1174v-1174
h-193z" />
    <glyph glyph-name="Ograve" unicode="&#xd2;" horiz-adv-x="1826" 
d="M993 1640h-155l-254 201l188 84zM911 -25q-222 0 -398 105t-271 279t-95 382v4q0 154 57 295t156.5 246t244 167.5t310.5 62.5q222 0 398 -105t271 -279t95 -382v-5q0 -154 -57 -294.5t-156.5 -245.5t-244 -167.5t-310.5 -62.5zM915 156q160 0 289 79t200 212.5t71 293.5
v4q0 119 -42.5 227.5t-116.5 188.5t-179.5 127t-225.5 47q-160 0 -289 -79t-199.5 -212.5t-70.5 -293.5v-5q0 -160 72 -294.5t202 -214.5t289 -80z" />
    <glyph glyph-name="Oacute" unicode="&#xd3;" horiz-adv-x="1826" 
d="M834 1640l223 285l186 -84l-252 -201h-157zM911 -25q-222 0 -398 105t-271 279t-95 382v4q0 154 57 295t156.5 246t244 167.5t310.5 62.5q222 0 398 -105t271 -279t95 -382v-5q0 -154 -57 -294.5t-156.5 -245.5t-244 -167.5t-310.5 -62.5zM915 156q160 0 289 79
t200 212.5t71 293.5v4q0 119 -42.5 227.5t-116.5 188.5t-179.5 127t-225.5 47q-160 0 -289 -79t-199.5 -212.5t-70.5 -293.5v-5q0 -160 72 -294.5t202 -214.5t289 -80z" />
    <glyph glyph-name="Ocircumflex" unicode="&#xd4;" horiz-adv-x="1826" 
d="M911 -25q-222 0 -398 105t-271 279t-95 382v4q0 154 57 295t156.5 246t244 167.5t310.5 62.5q222 0 398 -105t271 -279t95 -382v-5q0 -154 -57 -294.5t-156.5 -245.5t-244 -167.5t-310.5 -62.5zM915 156q160 0 289 79t200 212.5t71 293.5v4q0 119 -42.5 227.5
t-116.5 188.5t-179.5 127t-225.5 47q-160 0 -289 -79t-199.5 -212.5t-70.5 -293.5v-5q0 -160 72 -294.5t202 -214.5t289 -80zM582 1640l241 263h181l241 -263h-174l-160 127l-159 -127h-170z" />
    <glyph glyph-name="Otilde" unicode="&#xd5;" horiz-adv-x="1826" 
d="M1077 1640q-53 0 -172 48q-89 34 -123 34q-40 0 -64 -22t-48 -78l-117 33q36 120 84.5 175.5t126.5 55.5q56 0 172 -47q91 -35 123 -35q41 0 64.5 22t47.5 79l117 -35q-33 -120 -82 -175t-129 -55zM911 -25q-222 0 -398 105t-271 279t-95 382v4q0 154 57 295t156.5 246
t244 167.5t310.5 62.5q222 0 398 -105t271 -279t95 -382v-5q0 -154 -57 -294.5t-156.5 -245.5t-244 -167.5t-310.5 -62.5zM915 156q160 0 289 79t200 212.5t71 293.5v4q0 119 -42.5 227.5t-116.5 188.5t-179.5 127t-225.5 47q-160 0 -289 -79t-199.5 -212.5t-70.5 -293.5v-5
q0 -160 72 -294.5t202 -214.5t289 -80z" />
    <glyph glyph-name="Odieresis" unicode="&#xd6;" horiz-adv-x="1826" 
d="M1012 1640v207h217v-207h-217zM600 1640v207h219v-207h-219zM911 -25q-222 0 -398 105t-271 279t-95 382v4q0 154 57 295t156.5 246t244 167.5t310.5 62.5q222 0 398 -105t271 -279t95 -382v-5q0 -154 -57 -294.5t-156.5 -245.5t-244 -167.5t-310.5 -62.5zM915 156
q160 0 289 79t200 212.5t71 293.5v4q0 119 -42.5 227.5t-116.5 188.5t-179.5 127t-225.5 47q-160 0 -289 -79t-199.5 -212.5t-70.5 -293.5v-5q0 -160 72 -294.5t202 -214.5t289 -80z" />
    <glyph glyph-name="multiply" unicode="&#xd7;" horiz-adv-x="1353" 
d="M1038 262l-362 369l-365 -369l-123 123l371 363l-371 362l127 127l365 -369l362 369l123 -121l-368 -364l368 -363z" />
    <glyph glyph-name="Oslash" unicode="&#xd8;" horiz-adv-x="1826" 
d="M1495 1501h203l-211 -233q93 -105 142.5 -238t49.5 -280v-5q0 -154 -57 -294.5t-156.5 -245.5t-244 -167.5t-310.5 -62.5q-258 0 -458 146l-121 -131h-203l211 233q-93 105 -143 238t-50 280v4q0 154 57 295t156.5 246t244 167.5t310.5 62.5q258 0 459 -148zM348 750v-2
q0 -218 125 -381l776 858q-146 114 -338 114q-161 0 -290.5 -78.5t-201 -213t-71.5 -297.5zM915 152q161 0 290.5 78.5t201.5 213t72 297.5v2q0 217 -125 379l-779 -858q143 -112 340 -112z" />
    <glyph glyph-name="Ugrave" unicode="&#xd9;" horiz-adv-x="1632" 
d="M895 1616h-156l-254 201l189 84zM815 -23q-289 0 -458 168.5t-169 481.5v864h199v-854q0 -230 113.5 -354.5t318.5 -124.5q199 0 312.5 120t113.5 349v864h197v-852q0 -320 -169 -491t-458 -171z" />
    <glyph glyph-name="Uacute" unicode="&#xda;" horiz-adv-x="1632" 
d="M735 1616l223 285l187 -84l-252 -201h-158zM815 -23q-289 0 -458 168.5t-169 481.5v864h199v-854q0 -230 113.5 -354.5t318.5 -124.5q199 0 312.5 120t113.5 349v864h197v-852q0 -320 -169 -491t-458 -171z" />
    <glyph glyph-name="Ucircumflex" unicode="&#xdb;" horiz-adv-x="1632" 
d="M815 -23q-289 0 -458 168.5t-169 481.5v864h199v-854q0 -230 113.5 -354.5t318.5 -124.5q199 0 312.5 120t113.5 349v864h197v-852q0 -320 -169 -491t-458 -171zM483 1616l242 262h180l242 -262h-174l-160 127l-160 -127h-170z" />
    <glyph glyph-name="Udieresis" unicode="&#xdc;" horiz-adv-x="1632" 
d="M913 1616v207h217v-207h-217zM502 1616v207h219v-207h-219zM815 -23q-289 0 -458 168.5t-169 481.5v864h199v-854q0 -230 113.5 -354.5t318.5 -124.5q199 0 312.5 120t113.5 349v864h197v-852q0 -320 -169 -491t-458 -171z" />
    <glyph glyph-name="Yacute" unicode="&#xdd;" horiz-adv-x="1542" 
d="M672 0v590l-613 901h236l477 -721l481 721h230l-613 -897v-594h-198zM690 1616l223 285l187 -84l-252 -201h-158z" />
    <glyph glyph-name="Thorn" unicode="&#xde;" horiz-adv-x="1449" 
d="M213 0v1491h197v-250h370q255 0 408 -129.5t153 -349.5v-4q0 -119 -47 -214.5t-128 -156.5t-187 -93t-227 -32h-342v-262h-197zM410 440h350q172 0 277.5 86t105.5 226v4q0 149 -101.5 228t-277.5 79h-354v-623z" />
    <glyph glyph-name="germandbls" unicode="&#xdf;" horiz-adv-x="1337" 
d="M633 -4v151q184 6 283.5 73t99.5 194v4q0 115 -103 186t-280 90v140q291 110 291 327v6q0 105 -71 170.5t-187 65.5q-129 0 -209 -89.5t-80 -240.5v-1073h-193v1067q0 228 133.5 365t358.5 137q202 0 323 -109.5t121 -277.5v-6q0 -71 -23 -132.5t-64 -108t-87.5 -80
t-103.5 -60.5q76 -20 139 -50t116.5 -75t84 -110t30.5 -144v-4q0 -198 -156 -309.5t-423 -106.5z" />
    <glyph glyph-name="agrave" unicode="&#xe0;" horiz-adv-x="1253" 
d="M512 -25q-106 0 -197.5 38.5t-151 118.5t-59.5 187v5q0 174 127.5 266t341.5 92q182 0 328 -47v37q0 138 -81 210t-232 72q-166 0 -330 -77l-55 153q104 47 197.5 70.5t209.5 23.5q238 0 361 -123q114 -114 114 -329v-672h-186v158q-145 -183 -387 -183zM555 125
q149 0 248.5 79t99.5 202v96q-143 47 -303 47q-146 0 -225.5 -57.5t-79.5 -157.5v-4q0 -94 75 -149.5t185 -55.5zM559 1268l-248 233l189 86l207 -319h-148z" />
    <glyph glyph-name="aacute" unicode="&#xe1;" horiz-adv-x="1253" 
d="M512 -25q-106 0 -197.5 38.5t-151 118.5t-59.5 187v5q0 174 127.5 266t341.5 92q182 0 328 -47v37q0 138 -81 210t-232 72q-166 0 -330 -77l-55 153q104 47 197.5 70.5t209.5 23.5q238 0 361 -123q114 -114 114 -329v-672h-186v158q-145 -183 -387 -183zM555 125
q149 0 248.5 79t99.5 202v96q-143 47 -303 47q-146 0 -225.5 -57.5t-79.5 -157.5v-4q0 -94 75 -149.5t185 -55.5zM551 1268l207 319l188 -86l-248 -233h-147z" />
    <glyph glyph-name="acircumflex" unicode="&#xe2;" horiz-adv-x="1253" 
d="M512 -25q-106 0 -197.5 38.5t-151 118.5t-59.5 187v5q0 174 127.5 266t341.5 92q182 0 328 -47v37q0 138 -81 210t-232 72q-166 0 -330 -77l-55 153q104 47 197.5 70.5t209.5 23.5q238 0 361 -123q114 -114 114 -329v-672h-186v158q-145 -183 -387 -183zM555 125
q149 0 248.5 79t99.5 202v96q-143 47 -303 47q-146 0 -225.5 -57.5t-79.5 -157.5v-4q0 -94 75 -149.5t185 -55.5zM309 1268l234 288h172l233 -288h-160l-161 143l-162 -143h-156z" />
    <glyph glyph-name="atilde" unicode="&#xe3;" horiz-adv-x="1253" 
d="M512 -25q-106 0 -197.5 38.5t-151 118.5t-59.5 187v5q0 174 127.5 266t341.5 92q182 0 328 -47v37q0 138 -81 210t-232 72q-166 0 -330 -77l-55 153q104 47 197.5 70.5t209.5 23.5q238 0 361 -123q114 -114 114 -329v-672h-186v158q-145 -183 -387 -183zM555 125
q149 0 248.5 79t99.5 202v96q-143 47 -303 47q-146 0 -225.5 -57.5t-79.5 -157.5v-4q0 -94 75 -149.5t185 -55.5zM788 1268q-56 0 -159 43q-92 43 -131 43q-41 0 -65 -23.5t-48 -83.5l-113 33q33 125 81.5 180.5t131.5 55.5q57 0 160 -43q87 -41 131 -41q42 0 65.5 22.5
t47.5 81.5l112 -33q-33 -125 -81.5 -180t-131.5 -55z" />
    <glyph glyph-name="adieresis" unicode="&#xe4;" horiz-adv-x="1253" 
d="M512 -25q-106 0 -197.5 38.5t-151 118.5t-59.5 187v5q0 174 127.5 266t341.5 92q182 0 328 -47v37q0 138 -81 210t-232 72q-166 0 -330 -77l-55 153q104 47 197.5 70.5t209.5 23.5q238 0 361 -123q114 -114 114 -329v-672h-186v158q-145 -183 -387 -183zM555 125
q149 0 248.5 79t99.5 202v96q-143 47 -303 47q-146 0 -225.5 -57.5t-79.5 -157.5v-4q0 -94 75 -149.5t185 -55.5zM715 1268v217h213v-217h-213zM330 1268v217h213v-217h-213z" />
    <glyph glyph-name="aring" unicode="&#xe5;" horiz-adv-x="1253" 
d="M512 -25q-106 0 -197.5 38.5t-151 118.5t-59.5 187v5q0 174 127.5 266t341.5 92q182 0 328 -47v37q0 138 -81 210t-232 72q-166 0 -330 -77l-55 153q104 47 197.5 70.5t209.5 23.5q238 0 361 -123q114 -114 114 -329v-672h-186v158q-145 -183 -387 -183zM555 125
q149 0 248.5 79t99.5 202v96q-143 47 -303 47q-146 0 -225.5 -57.5t-79.5 -157.5v-4q0 -94 75 -149.5t185 -55.5zM629 1264q-97 0 -166.5 66t-69.5 161q0 92 69.5 159.5t166.5 67.5q96 0 165.5 -67t69.5 -160q0 -95 -69 -161t-166 -66zM629 1346q60 0 102.5 42.5t42.5 102.5
t-42.5 102.5t-102.5 42.5t-103 -42.5t-43 -102.5t43 -102.5t103 -42.5z" />
    <glyph glyph-name="ae" unicode="&#xe6;" horiz-adv-x="2045" 
d="M522 -25q-112 0 -205.5 38.5t-153 118.5t-59.5 187v5q0 174 126 266t337 92q170 0 316 -47v37q0 139 -77.5 210.5t-225.5 71.5q-158 0 -322 -77l-55 153q103 48 193 71t206 23q313 0 402 -221q68 107 175 168.5t238 61.5q121 0 220.5 -47t163.5 -127.5t99 -187.5t35 -228
q0 -37 -2 -60h-860q17 -161 121 -253.5t248 -92.5q103 0 182.5 38t151.5 112l116 -105q-87 -100 -196.5 -153.5t-257.5 -53.5q-134 0 -249 55.5t-190 155.5q-218 -211 -477 -211zM1073 621h668q-8 98 -46 175.5t-111.5 126t-172.5 48.5q-135 0 -228 -98t-110 -252zM549 127
q212 0 377 180q-34 87 -43 197q-157 45 -289 45q-141 0 -220 -58t-79 -157v-4q0 -94 73 -148.5t181 -54.5z" />
    <glyph glyph-name="ccedilla" unicode="&#xe7;" horiz-adv-x="1232" 
d="M584 -336l-178 78l165 246q-131 24 -235 106t-160.5 201.5t-56.5 253.5v4q0 155 73.5 288t205.5 212.5t292 79.5q145 0 249.5 -52t193.5 -145l-123 -131q-78 78 -150.5 118t-171.5 40q-104 0 -190.5 -54.5t-135.5 -148t-49 -203.5v-4q0 -172 110 -290t275 -118
q96 0 173.5 40.5t150.5 115.5l119 -115q-84 -95 -183.5 -148.5t-232.5 -60.5z" />
    <glyph glyph-name="egrave" unicode="&#xe8;" horiz-adv-x="1284" 
d="M676 -25q-114 0 -216 42t-177 116.5t-119.5 183t-44.5 234.5v4q0 158 68.5 290.5t191.5 210t274 77.5q163 0 283.5 -81t180 -213.5t59.5 -295.5q0 -3 -5 -60h-858q17 -161 120.5 -253.5t246.5 -92.5q105 0 184.5 38t151.5 112l117 -105q-88 -100 -197.5 -153.5
t-259.5 -53.5zM311 621h670q-13 151 -99 250.5t-231 99.5q-136 0 -229.5 -98t-110.5 -252zM582 1268l-248 233l188 86l207 -319h-147z" />
    <glyph glyph-name="eacute" unicode="&#xe9;" horiz-adv-x="1284" 
d="M573 1268l207 319l189 -86l-248 -233h-148zM676 -25q-114 0 -216 42t-177 116.5t-119.5 183t-44.5 234.5v4q0 158 68.5 290.5t191.5 210t274 77.5q163 0 283.5 -81t180 -213.5t59.5 -295.5q0 -3 -5 -60h-858q17 -161 120.5 -253.5t246.5 -92.5q105 0 184.5 38t151.5 112
l117 -105q-88 -100 -197.5 -153.5t-259.5 -53.5zM311 621h670q-13 151 -99 250.5t-231 99.5q-136 0 -229.5 -98t-110.5 -252z" />
    <glyph glyph-name="ecircumflex" unicode="&#xea;" horiz-adv-x="1284" 
d="M332 1268l233 288h172l234 -288h-160l-162 143l-162 -143h-155zM676 -25q-114 0 -216 42t-177 116.5t-119.5 183t-44.5 234.5v4q0 158 68.5 290.5t191.5 210t274 77.5q163 0 283.5 -81t180 -213.5t59.5 -295.5q0 -3 -5 -60h-858q17 -161 120.5 -253.5t246.5 -92.5
q105 0 184.5 38t151.5 112l117 -105q-88 -100 -197.5 -153.5t-259.5 -53.5zM311 621h670q-13 151 -99 250.5t-231 99.5q-136 0 -229.5 -98t-110.5 -252z" />
    <glyph glyph-name="edieresis" unicode="&#xeb;" horiz-adv-x="1284" 
d="M737 1268v217h213v-217h-213zM352 1268v217h213v-217h-213zM676 -25q-114 0 -216 42t-177 116.5t-119.5 183t-44.5 234.5v4q0 158 68.5 290.5t191.5 210t274 77.5q163 0 283.5 -81t180 -213.5t59.5 -295.5q0 -3 -5 -60h-858q17 -161 120.5 -253.5t246.5 -92.5
q105 0 184.5 38t151.5 112l117 -105q-88 -100 -197.5 -153.5t-259.5 -53.5zM311 621h670q-13 151 -99 250.5t-231 99.5q-136 0 -229.5 -98t-110.5 -252z" />
    <glyph glyph-name="igrave" unicode="&#xec;" horiz-adv-x="591" 
d="M201 0v1108h190v-1108h-190zM227 1268l-247 233l188 86l207 -319h-148z" />
    <glyph glyph-name="iacute" unicode="&#xed;" horiz-adv-x="591" 
d="M221 1268l207 319l188 -86l-247 -233h-148zM201 0v1108h190v-1108h-190z" />
    <glyph glyph-name="icircumflex" unicode="&#xee;" horiz-adv-x="591" 
d="M-23 1268l234 288h172l233 -288h-159l-162 143l-162 -143h-156zM201 0v1108h190v-1108h-190z" />
    <glyph glyph-name="idieresis" unicode="&#xef;" horiz-adv-x="591" 
d="M383 1268v217h213v-217h-213zM-2 1268v217h213v-217h-213zM201 0v1108h190v-1108h-190z" />
    <glyph glyph-name="eth" unicode="&#xf0;" horiz-adv-x="1398" 
d="M1075 1448l-180 -70q383 -376 383 -770v-4q0 -179 -71.5 -322t-205.5 -225t-309 -82q-120 0 -226.5 45.5t-182.5 123.5t-120 186t-44 229v4q0 117 42 219t113 172.5t165 111t196 40.5q112 0 197.5 -37t162.5 -102q-76 156 -274 344l-248 -94l-51 114l196 74l-188 149h268
q9 -8 30.5 -24.5t37 -29.5t29.5 -27l231 88zM700 145q169 0 276 115t107 289v4q0 168 -110.5 280.5t-286.5 112.5q-165 0 -269 -112.5t-104 -280.5v-6q0 -166 111.5 -284t275.5 -118z" />
    <glyph glyph-name="ntilde" unicode="&#xf1;" horiz-adv-x="1331" 
d="M184 0v1108h193v-186q132 211 368 211q195 0 305.5 -120.5t110.5 -318.5v-694h-192v641q0 148 -75 231.5t-210 83.5q-133 0 -220 -89t-87 -236v-631h-193zM831 1268q-56 0 -159 43q-92 43 -131 43q-41 0 -65 -23.5t-48 -83.5l-113 33q33 125 81.5 180.5t131.5 55.5
q57 0 160 -43q87 -41 131 -41q42 0 65.5 22.5t47.5 81.5l112 -33q-33 -125 -81.5 -180t-131.5 -55z" />
    <glyph glyph-name="ograve" unicode="&#xf2;" horiz-adv-x="1400" 
d="M698 -25q-164 0 -297.5 78t-207.5 209.5t-74 286.5v4q0 155 75 288t209.5 212.5t298.5 79.5q163 0 297 -78t208.5 -210t74.5 -288v-4q0 -155 -75 -287.5t-210 -211.5t-299 -79zM702 145q168 0 275.5 117.5t107.5 286.5v4q0 169 -111.5 289.5t-275.5 120.5
q-168 0 -276.5 -119t-108.5 -287v-4q0 -168 112.5 -288t276.5 -120zM629 1268l-248 233l188 86l207 -319h-147z" />
    <glyph glyph-name="oacute" unicode="&#xf3;" horiz-adv-x="1400" 
d="M623 1268l206 319l189 -86l-248 -233h-147zM698 -25q-164 0 -297.5 78t-207.5 209.5t-74 286.5v4q0 155 75 288t209.5 212.5t298.5 79.5q163 0 297 -78t208.5 -210t74.5 -288v-4q0 -155 -75 -287.5t-210 -211.5t-299 -79zM702 145q168 0 275.5 117.5t107.5 286.5v4
q0 169 -111.5 289.5t-275.5 120.5q-168 0 -276.5 -119t-108.5 -287v-4q0 -168 112.5 -288t276.5 -120z" />
    <glyph glyph-name="ocircumflex" unicode="&#xf4;" horiz-adv-x="1400" 
d="M381 1268l233 288h172l234 -288h-160l-162 143l-161 -143h-156zM698 -25q-164 0 -297.5 78t-207.5 209.5t-74 286.5v4q0 155 75 288t209.5 212.5t298.5 79.5q163 0 297 -78t208.5 -210t74.5 -288v-4q0 -155 -75 -287.5t-210 -211.5t-299 -79zM702 145q168 0 275.5 117.5
t107.5 286.5v4q0 169 -111.5 289.5t-275.5 120.5q-168 0 -276.5 -119t-108.5 -287v-4q0 -168 112.5 -288t276.5 -120z" />
    <glyph glyph-name="otilde" unicode="&#xf5;" horiz-adv-x="1400" 
d="M698 -25q-164 0 -297.5 78t-207.5 209.5t-74 286.5v4q0 155 75 288t209.5 212.5t298.5 79.5q163 0 297 -78t208.5 -210t74.5 -288v-4q0 -155 -75 -287.5t-210 -211.5t-299 -79zM702 145q168 0 275.5 117.5t107.5 286.5v4q0 169 -111.5 289.5t-275.5 120.5
q-168 0 -276.5 -119t-108.5 -287v-4q0 -168 112.5 -288t276.5 -120zM860 1268q-57 0 -160 43q-92 43 -131 43q-41 0 -64.5 -23.5t-47.5 -83.5l-113 33q33 125 81.5 180.5t131.5 55.5q57 0 160 -43q87 -41 131 -41q42 0 65.5 22.5t47.5 81.5l112 -33q-33 -125 -81.5 -180
t-131.5 -55z" />
    <glyph glyph-name="odieresis" unicode="&#xf6;" horiz-adv-x="1400" 
d="M786 1268v217h213v-217h-213zM401 1268v217h213v-217h-213zM698 -25q-164 0 -297.5 78t-207.5 209.5t-74 286.5v4q0 155 75 288t209.5 212.5t298.5 79.5q163 0 297 -78t208.5 -210t74.5 -288v-4q0 -155 -75 -287.5t-210 -211.5t-299 -79zM702 145q168 0 275.5 117.5
t107.5 286.5v4q0 169 -111.5 289.5t-275.5 120.5q-168 0 -276.5 -119t-108.5 -287v-4q0 -168 112.5 -288t276.5 -120z" />
    <glyph glyph-name="divide" unicode="&#xf7;" horiz-adv-x="1353" 
d="M559 1061v235h236v-235h-236zM1200 664h-1046v172h1046v-172zM559 203v235h236v-235h-236z" />
    <glyph glyph-name="oslash" unicode="&#xf8;" horiz-adv-x="1400" 
d="M1128 1122h187l-172 -188q139 -158 139 -377v-4q0 -155 -75 -287.5t-210 -211.5t-299 -79q-187 0 -340 105l-86 -90h-186l170 184q-137 156 -137 375v4q0 155 75 288t209.5 212.5t298.5 79.5q187 0 338 -107zM702 139q169 0 279.5 120t110.5 290v2q0 132 -76 248
l-541 -588q97 -72 227 -72zM309 557v-2q0 -139 74 -248l543 586q-99 74 -228 74q-173 0 -281 -119t-108 -291z" />
    <glyph glyph-name="ugrave" unicode="&#xf9;" horiz-adv-x="1331" 
d="M584 -25q-194 0 -305 120.5t-111 318.5v694h192v-641q0 -148 75.5 -231.5t211.5 -83.5q133 0 220 89.5t87 235.5v631h191v-1108h-191v186q-136 -211 -370 -211zM586 1268l-248 233l188 86l207 -319h-147z" />
    <glyph glyph-name="uacute" unicode="&#xfa;" horiz-adv-x="1331" 
d="M580 1268l206 319l189 -86l-248 -233h-147zM584 -25q-194 0 -305 120.5t-111 318.5v694h192v-641q0 -148 75.5 -231.5t211.5 -83.5q133 0 220 89.5t87 235.5v631h191v-1108h-191v186q-136 -211 -370 -211z" />
    <glyph glyph-name="ucircumflex" unicode="&#xfb;" horiz-adv-x="1331" 
d="M336 1268l233 288h172l234 -288h-160l-162 143l-161 -143h-156zM584 -25q-194 0 -305 120.5t-111 318.5v694h192v-641q0 -148 75.5 -231.5t211.5 -83.5q133 0 220 89.5t87 235.5v631h191v-1108h-191v186q-136 -211 -370 -211z" />
    <glyph glyph-name="udieresis" unicode="&#xfc;" horiz-adv-x="1331" 
d="M741 1268v217h213v-217h-213zM356 1268v217h213v-217h-213zM584 -25q-194 0 -305 120.5t-111 318.5v694h192v-641q0 -148 75.5 -231.5t211.5 -83.5q133 0 220 89.5t87 235.5v631h191v-1108h-191v186q-136 -211 -370 -211z" />
    <glyph glyph-name="yacute" unicode="&#xfd;" horiz-adv-x="1280" 
d="M659 215l336 893h203l-457 -1143q-68 -170 -153 -241.5t-215 -71.5q-119 0 -244 61l66 148q77 -41 165 -41q69 0 116.5 40.5t90.5 141.5l-491 1106h209zM567 1268l207 319l189 -86l-248 -233h-148z" />
    <glyph glyph-name="thorn" unicode="&#xfe;" horiz-adv-x="1435" 
d="M184 -340v1894h193v-657q157 236 411 236q99 0 192.5 -39.5t168 -111t119.5 -182.5t45 -243v-4q0 -133 -45 -244.5t-119.5 -183t-168 -111t-192.5 -39.5q-258 0 -411 226v-541h-193zM748 145q158 0 263 110t105 296v4q0 181 -107 294.5t-261 113.5q-151 0 -264 -115.5
t-113 -290.5v-4q0 -177 112.5 -292.5t264.5 -115.5z" />
    <glyph glyph-name="ydieresis" unicode="&#xff;" horiz-adv-x="1280" 
d="M659 215l336 893h203l-457 -1143q-68 -170 -153 -241.5t-215 -71.5q-119 0 -244 61l66 148q77 -41 165 -41q69 0 116.5 40.5t90.5 141.5l-491 1106h209zM729 1268v217h213v-217h-213zM344 1268v217h213v-217h-213z" />
    <glyph glyph-name="Amacron" unicode="&#x100;" horiz-adv-x="1699" 
d="M84 0l674 1501h184l672 -1501h-209l-170 385h-778l-170 -385h-203zM530 561h631l-315 711zM489 1679v154h721v-154h-721z" />
    <glyph glyph-name="amacron" unicode="&#x101;" horiz-adv-x="1253" 
d="M512 -25q-106 0 -197.5 38.5t-151 118.5t-59.5 187v5q0 174 127.5 266t341.5 92q182 0 328 -47v37q0 138 -81 210t-232 72q-166 0 -330 -77l-55 153q104 47 197.5 70.5t209.5 23.5q238 0 361 -123q114 -114 114 -329v-672h-186v158q-145 -183 -387 -183zM555 125
q149 0 248.5 79t99.5 202v96q-143 47 -303 47q-146 0 -225.5 -57.5t-79.5 -157.5v-4q0 -94 75 -149.5t185 -55.5zM287 1305v149h684v-149h-684z" />
    <glyph glyph-name="Abreve" unicode="&#x102;" horiz-adv-x="1699" 
d="M84 0l674 1501h184l672 -1501h-209l-170 385h-778l-170 -385h-203zM530 561h631l-315 711zM850 1636q-142 0 -232 67.5t-100 188.5h146q40 -108 186 -108t186 108h146q-10 -121 -100 -188.5t-232 -67.5z" />
    <glyph glyph-name="abreve" unicode="&#x103;" horiz-adv-x="1253" 
d="M512 -25q-106 0 -197.5 38.5t-151 118.5t-59.5 187v5q0 174 127.5 266t341.5 92q182 0 328 -47v37q0 138 -81 210t-232 72q-166 0 -330 -77l-55 153q104 47 197.5 70.5t209.5 23.5q238 0 361 -123q114 -114 114 -329v-672h-186v158q-145 -183 -387 -183zM555 125
q149 0 248.5 79t99.5 202v96q-143 47 -303 47q-146 0 -225.5 -57.5t-79.5 -157.5v-4q0 -94 75 -149.5t185 -55.5zM629 1264q-142 0 -231 73t-99 205h137q42 -133 193 -133q150 0 192 133h137q-10 -132 -99 -205t-230 -73z" />
    <glyph glyph-name="Aogonek" unicode="&#x104;" horiz-adv-x="1699" 
d="M1630 -246v-104q-8 0 -20 -1t-17 -1q-132 4 -204 51.5t-72 124.5q0 89 96 176h-8l-170 385h-778l-170 -385h-203l674 1501h184l672 -1501h-49q-90 -81 -90 -150q0 -45 37 -68.5t118 -27.5zM530 561h631l-315 711z" />
    <glyph glyph-name="aogonek" unicode="&#x105;" horiz-adv-x="1253" 
d="M1108 -246v-104q-8 0 -20 -1t-17 -1q-132 4 -204 51.5t-72 124.5q0 48 25.5 90.5t78.5 93.5v2v148q-145 -183 -387 -183q-106 0 -197.5 38.5t-151 118.5t-59.5 187v5q0 174 127.5 266t341.5 92q182 0 328 -47v37q0 138 -81 210t-232 72q-166 0 -330 -77l-55 153
q104 47 197.5 70.5t209.5 23.5q238 0 361 -123q114 -114 114 -329v-672h-43q-90 -81 -90 -150q0 -45 37.5 -68.5t118.5 -27.5zM555 125q149 0 248.5 79t99.5 202v96q-143 47 -303 47q-146 0 -225.5 -57.5t-79.5 -157.5v-4q0 -94 75 -149.5t185 -55.5z" />
    <glyph glyph-name="Cacute" unicode="&#x106;" horiz-adv-x="1595" 
d="M897 -25q-212 0 -384.5 102t-269 277t-96.5 387v4q0 156 57 297.5t156 246t241 166t304 61.5q130 0 239.5 -31.5t186 -79.5t156.5 -123l-129 -145q-103 96 -210.5 147t-244.5 51q-155 0 -281.5 -77.5t-198 -211.5t-71.5 -296v-5q0 -162 71.5 -297t198 -213.5t281.5 -78.5
q141 0 247.5 51.5t217.5 157.5l129 -127q-132 -132 -269 -197.5t-331 -65.5zM807 1640l223 285l187 -84l-252 -201h-158z" />
    <glyph glyph-name="cacute" unicode="&#x107;" horiz-adv-x="1232" 
d="M600 1268l207 319l188 -86l-247 -233h-148zM688 -25q-159 0 -290.5 78t-205 209.5t-73.5 286.5v4q0 155 73.5 288t205.5 212.5t292 79.5q145 0 249.5 -52t193.5 -145l-123 -131q-78 78 -150.5 118t-171.5 40q-104 0 -190.5 -54.5t-135.5 -148t-49 -203.5v-4
q0 -172 110 -290t275 -118q96 0 173.5 40.5t150.5 115.5l119 -115q-90 -101 -198 -156t-255 -55z" />
    <glyph glyph-name="Cdotaccent" unicode="&#x10a;" horiz-adv-x="1595" 
d="M774 1640v207h225v-207h-225zM897 -25q-212 0 -384.5 102t-269 277t-96.5 387v4q0 156 57 297.5t156 246t241 166t304 61.5q130 0 239.5 -31.5t186 -79.5t156.5 -123l-129 -145q-103 96 -210.5 147t-244.5 51q-155 0 -281.5 -77.5t-198 -211.5t-71.5 -296v-5
q0 -162 71.5 -297t198 -213.5t281.5 -78.5q141 0 247.5 51.5t217.5 157.5l129 -127q-132 -132 -269 -197.5t-331 -65.5z" />
    <glyph glyph-name="cdotaccent" unicode="&#x10b;" horiz-adv-x="1232" 
d="M688 -25q-159 0 -290.5 78t-205 209.5t-73.5 286.5v4q0 155 73.5 288t205.5 212.5t292 79.5q145 0 249.5 -52t193.5 -145l-123 -131q-78 78 -150.5 118t-171.5 40q-104 0 -190.5 -54.5t-135.5 -148t-49 -203.5v-4q0 -172 110 -290t275 -118q96 0 173.5 40.5t150.5 115.5
l119 -115q-90 -101 -198 -156t-255 -55zM567 1268v219h221v-219h-221z" />
    <glyph glyph-name="Ccaron" unicode="&#x10c;" horiz-adv-x="1595" 
d="M897 -25q-212 0 -384.5 102t-269 277t-96.5 387v4q0 156 57 297.5t156 246t241 166t304 61.5q130 0 239.5 -31.5t186 -79.5t156.5 -123l-129 -145q-103 96 -210.5 147t-244.5 51q-155 0 -281.5 -77.5t-198 -211.5t-71.5 -296v-5q0 -162 71.5 -297t198 -213.5t281.5 -78.5
q141 0 247.5 51.5t217.5 157.5l129 -127q-132 -132 -269 -197.5t-331 -65.5zM1219 1903l-242 -263h-180l-242 263h174l160 -125l160 125h170z" />
    <glyph glyph-name="ccaron" unicode="&#x10d;" horiz-adv-x="1232" 
d="M997 1556l-233 -288h-172l-234 288h160l162 -143l162 143h155zM688 -25q-159 0 -290.5 78t-205 209.5t-73.5 286.5v4q0 155 73.5 288t205.5 212.5t292 79.5q145 0 249.5 -52t193.5 -145l-123 -131q-78 78 -150.5 118t-171.5 40q-104 0 -190.5 -54.5t-135.5 -148
t-49 -203.5v-4q0 -172 110 -290t275 -118q96 0 173.5 40.5t150.5 115.5l119 -115q-90 -101 -198 -156t-255 -55z" />
    <glyph glyph-name="Dcaron" unicode="&#x10e;" horiz-adv-x="1681" 
d="M1141 1882l-242 -262h-180l-242 262h174l160 -125l160 125h170zM213 0v1491h530q229 0 411 -97.5t282 -266.5t100 -377v-5q0 -208 -100 -378t-282 -268.5t-411 -98.5h-530zM743 1311h-333v-1131h333q131 0 241.5 43t185.5 118t117 178t42 222v4q0 158 -71.5 286.5
t-206 204t-308.5 75.5z" />
    <glyph glyph-name="dcaron" unicode="&#x10f;" horiz-adv-x="1435" 
d="M1380 1190l31 366h172v-6l-113 -360h-90zM647 -25q-99 0 -192.5 39.5t-167.5 111t-119 182.5t-45 243v4q0 133 44 244.5t117.5 183t167.5 111t195 39.5q249 0 412 -226v647h190v-1554h-190v211q-164 -236 -412 -236zM686 145q152 0 264.5 115.5t112.5 292.5v4
q0 175 -113 290.5t-264 115.5q-157 0 -262 -110.5t-105 -295.5v-4q0 -180 107.5 -294t259.5 -114z" />
    <glyph glyph-name="Dcroat" unicode="&#x110;" horiz-adv-x="1744" 
d="M276 0v674h-159v151h159v666h531q172 0 320 -57t251.5 -155.5t162 -235.5t58.5 -293v-5q0 -156 -58.5 -293.5t-161.5 -237t-251.5 -157t-320.5 -57.5h-531zM899 674h-424v-494h332q131 0 241.5 43t185.5 118t117 178t42 222v4q0 158 -71.5 286.5t-206 204t-308.5 75.5
h-332v-486h424v-151z" />
    <glyph glyph-name="dcroat" unicode="&#x111;" horiz-adv-x="1435" 
d="M690 1294v131h369v129h190v-129h148v-131h-148v-1294h-190v211q-164 -236 -412 -236q-99 0 -192.5 39.5t-167.5 111t-119 182.5t-45 243v4q0 133 44 244.5t117.5 183t167.5 111t195 39.5q249 0 412 -226v387h-369zM686 145q152 0 264.5 115.5t112.5 292.5v4
q0 175 -113 290.5t-264 115.5q-157 0 -262 -110.5t-105 -295.5v-4q0 -180 107.5 -294t259.5 -114z" />
    <glyph glyph-name="Emacron" unicode="&#x112;" horiz-adv-x="1443" 
d="M399 1659v153h721v-153h-721zM213 0v1491h1085v-178h-888v-473h792v-178h-792v-484h899v-178h-1096z" />
    <glyph glyph-name="emacron" unicode="&#x113;" horiz-adv-x="1284" 
d="M676 -25q-114 0 -216 42t-177 116.5t-119.5 183t-44.5 234.5v4q0 158 68.5 290.5t191.5 210t274 77.5q163 0 283.5 -81t180 -213.5t59.5 -295.5q0 -3 -5 -60h-858q17 -161 120.5 -253.5t246.5 -92.5q105 0 184.5 38t151.5 112l117 -105q-88 -100 -197.5 -153.5
t-259.5 -53.5zM311 621h670q-13 151 -99 250.5t-231 99.5q-136 0 -229.5 -98t-110.5 -252zM309 1305v149h684v-149h-684z" />
    <glyph glyph-name="Ebreve" unicode="&#x114;" horiz-adv-x="1443" 
d="M760 1616q-142 0 -232 67.5t-100 188.5h145q40 -109 187 -109q146 0 186 109h146q-10 -121 -100 -188.5t-232 -67.5zM213 0v1491h1085v-178h-888v-473h792v-178h-792v-484h899v-178h-1096z" />
    <glyph glyph-name="ebreve" unicode="&#x115;" horiz-adv-x="1284" 
d="M676 -25q-114 0 -216 42t-177 116.5t-119.5 183t-44.5 234.5v4q0 158 68.5 290.5t191.5 210t274 77.5q163 0 283.5 -81t180 -213.5t59.5 -295.5q0 -3 -5 -60h-858q17 -161 120.5 -253.5t246.5 -92.5q105 0 184.5 38t151.5 112l117 -105q-88 -100 -197.5 -153.5
t-259.5 -53.5zM311 621h670q-13 151 -99 250.5t-231 99.5q-136 0 -229.5 -98t-110.5 -252zM651 1264q-141 0 -230 73t-99 205h137q42 -133 192 -133q151 0 193 133h137q-10 -132 -99 -205t-231 -73z" />
    <glyph glyph-name="Edotaccent" unicode="&#x116;" horiz-adv-x="1443" 
d="M647 1620v207h225v-207h-225zM213 0v1491h1085v-178h-888v-473h792v-178h-792v-484h899v-178h-1096z" />
    <glyph glyph-name="edotaccent" unicode="&#x117;" horiz-adv-x="1284" 
d="M676 -25q-114 0 -216 42t-177 116.5t-119.5 183t-44.5 234.5v4q0 158 68.5 290.5t191.5 210t274 77.5q163 0 283.5 -81t180 -213.5t59.5 -295.5q0 -3 -5 -60h-858q17 -161 120.5 -253.5t246.5 -92.5q105 0 184.5 38t151.5 112l117 -105q-88 -100 -197.5 -153.5
t-259.5 -53.5zM311 621h670q-13 151 -99 250.5t-231 99.5q-136 0 -229.5 -98t-110.5 -252zM541 1268v219h221v-219h-221z" />
    <glyph glyph-name="Eogonek" unicode="&#x118;" horiz-adv-x="1443" 
d="M213 0v1491h1085v-178h-888v-473h792v-178h-792v-484h899v-178h-68q-90 -81 -90 -150q0 -45 37.5 -68.5t118.5 -27.5v-104q-7 0 -20 -1t-17 -1q-133 4 -205 51.5t-72 124.5q0 88 97 176h-877z" />
    <glyph glyph-name="eogonek" unicode="&#x119;" horiz-adv-x="1284" 
d="M311 621h670q-13 151 -99 250.5t-231 99.5q-136 0 -229.5 -98t-110.5 -252zM1016 287l117 -105q-36 -42 -117 -112q-77 -67 -108 -114.5t-31 -92.5q0 -54 37.5 -79t119.5 -30v-104q-7 0 -19.5 -1t-19.5 -1q-133 4 -203.5 51.5t-70.5 126.5q0 78 76 160q-71 -11 -121 -11
q-114 0 -216 42t-177 116.5t-119.5 183t-44.5 234.5v4q0 158 68.5 290.5t191.5 210t274 77.5q163 0 283.5 -81t180 -213.5t59.5 -295.5q0 -3 -5 -60h-858q17 -161 120.5 -253.5t246.5 -92.5q105 0 184.5 38t151.5 112z" />
    <glyph glyph-name="Ecaron" unicode="&#x11a;" horiz-adv-x="1443" 
d="M1092 1882l-242 -262h-180l-242 262h174l160 -125l160 125h170zM213 0v1491h1085v-178h-888v-473h792v-178h-792v-484h899v-178h-1096z" />
    <glyph glyph-name="ecaron" unicode="&#x11b;" horiz-adv-x="1284" 
d="M971 1556l-234 -288h-172l-233 288h160l161 -143l162 143h156zM676 -25q-114 0 -216 42t-177 116.5t-119.5 183t-44.5 234.5v4q0 158 68.5 290.5t191.5 210t274 77.5q163 0 283.5 -81t180 -213.5t59.5 -295.5q0 -3 -5 -60h-858q17 -161 120.5 -253.5t246.5 -92.5
q105 0 184.5 38t151.5 112l117 -105q-88 -100 -197.5 -153.5t-259.5 -53.5zM311 621h670q-13 151 -99 250.5t-231 99.5q-136 0 -229.5 -98t-110.5 -252z" />
    <glyph glyph-name="Gbreve" unicode="&#x11e;" horiz-adv-x="1685" 
d="M885 1636q-142 0 -232 67.5t-100 188.5h145q40 -108 187 -108q146 0 186 108h146q-10 -121 -100 -188.5t-232 -67.5zM909 -25q-228 0 -403 102.5t-267 276t-92 387.5v4q0 153 56 294t153.5 246.5t239.5 168t305 62.5q181 0 310 -49t251 -150l-125 -150
q-98 83 -199.5 125.5t-244.5 42.5q-152 0 -277 -80t-194.5 -214t-69.5 -291v-5q0 -169 69 -303.5t198.5 -212t298.5 -77.5q117 0 223.5 38t183.5 101v342h-430v174h621v-604q-116 -101 -271.5 -164.5t-335.5 -63.5z" />
    <glyph glyph-name="gbreve" unicode="&#x11f;" horiz-adv-x="1435" 
d="M676 -344q-275 0 -502 145l82 150q189 -133 418 -133q183 0 284 95.5t101 281.5v116q-167 -225 -420 -225q-99 0 -192 36.5t-165 102t-115.5 165t-43.5 216.5v4q0 118 43.5 218t116 165.5t165 102.5t191.5 37q255 0 420 -215v190h190v-903q0 -264 -141 -402
q-147 -147 -432 -147zM682 254q154 0 267.5 100t113.5 252v4q0 103 -54 185.5t-140.5 126t-186.5 43.5q-153 0 -258 -97.5t-105 -255.5v-4q0 -155 106 -254.5t257 -99.5zM727 1264q-142 0 -231 73t-99 205h138q42 -133 192 -133q151 0 193 133h137q-10 -132 -99 -205
t-231 -73z" />
    <glyph glyph-name="Gdotaccent" unicode="&#x120;" horiz-adv-x="1685" 
d="M772 1640v207h225v-207h-225zM909 -25q-228 0 -403 102.5t-267 276t-92 387.5v4q0 153 56 294t153.5 246.5t239.5 168t305 62.5q181 0 310 -49t251 -150l-125 -150q-98 83 -199.5 125.5t-244.5 42.5q-152 0 -277 -80t-194.5 -214t-69.5 -291v-5q0 -169 69 -303.5
t198.5 -212t298.5 -77.5q117 0 223.5 38t183.5 101v342h-430v174h621v-604q-116 -101 -271.5 -164.5t-335.5 -63.5z" />
    <glyph glyph-name="gdotaccent" unicode="&#x121;" horiz-adv-x="1435" 
d="M676 -344q-275 0 -502 145l82 150q189 -133 418 -133q183 0 284 95.5t101 281.5v116q-167 -225 -420 -225q-99 0 -192 36.5t-165 102t-115.5 165t-43.5 216.5v4q0 118 43.5 218t116 165.5t165 102.5t191.5 37q255 0 420 -215v190h190v-903q0 -264 -141 -402
q-147 -147 -432 -147zM682 254q154 0 267.5 100t113.5 252v4q0 103 -54 185.5t-140.5 126t-186.5 43.5q-153 0 -258 -97.5t-105 -255.5v-4q0 -155 106 -254.5t257 -99.5zM616 1268v219h222v-219h-222z" />
    <glyph glyph-name="Gcommaaccent" unicode="&#x122;" horiz-adv-x="1685" 
d="M909 -25q-228 0 -403 102.5t-267 276t-92 387.5v4q0 153 56 294t153.5 246.5t239.5 168t305 62.5q181 0 310 -49t251 -150l-125 -150q-98 83 -199.5 125.5t-244.5 42.5q-152 0 -277 -80t-194.5 -214t-69.5 -291v-5q0 -169 69 -303.5t198.5 -212t298.5 -77.5
q117 0 223.5 38t183.5 101v342h-430v174h621v-604q-116 -101 -271.5 -164.5t-335.5 -63.5zM754 -539l-15 70q144 24 135 133h-94v189h209v-162q0 -109 -58 -164t-177 -66z" />
    <glyph glyph-name="gcommaaccent" unicode="&#x123;" horiz-adv-x="1435" 
d="M676 -344q-275 0 -502 145l82 150q189 -133 418 -133q183 0 284 95.5t101 281.5v116q-167 -225 -420 -225q-99 0 -192 36.5t-165 102t-115.5 165t-43.5 216.5v4q0 118 43.5 218t116 165.5t165 102.5t191.5 37q255 0 420 -215v190h190v-903q0 -264 -141 -402
q-147 -147 -432 -147zM682 254q154 0 267.5 100t113.5 252v4q0 103 -54 185.5t-140.5 126t-186.5 43.5q-153 0 -258 -97.5t-105 -255.5v-4q0 -155 106 -254.5t257 -99.5zM856 1659l14 -70q-144 -24 -135 -133h94v-188h-211v162q0 109 59 163.5t179 65.5z" />
    <glyph glyph-name="Hbar" unicode="&#x126;" horiz-adv-x="1712" 
d="M96 1087v146h156v258h197v-258h815v258h196v-258h156v-146h-156v-1087h-196v651h-815v-651h-197v1087h-156zM449 834h815v253h-815v-253z" />
    <glyph glyph-name="hbar" unicode="&#x127;" horiz-adv-x="1331" 
d="M745 1294h-368v-372q132 211 368 211q195 0 305.5 -120.5t110.5 -318.5v-694h-192v641q0 148 -75 231.5t-210 83.5q-133 0 -220 -89t-87 -236v-631h-193v1294h-147v131h147v129h193v-129h368v-131z" />
    <glyph glyph-name="Imacron" unicode="&#x12a;" horiz-adv-x="653" 
d="M227 0v1491h199v-1491h-199zM-33 1659v153h721v-153h-721z" />
    <glyph glyph-name="imacron" unicode="&#x12b;" horiz-adv-x="591" 
d="M201 0v1108h190v-1108h-190zM-45 1305v149h684v-149h-684z" />
    <glyph glyph-name="Ibreve" unicode="&#x12c;" horiz-adv-x="653" 
d="M227 0v1491h199v-1491h-199zM328 1616q-142 0 -232 67.5t-100 188.5h145q40 -109 187 -109q146 0 186 109h145q-10 -121 -99.5 -188.5t-231.5 -67.5z" />
    <glyph glyph-name="ibreve" unicode="&#x12d;" horiz-adv-x="591" 
d="M201 0v1108h190v-1108h-190zM297 1264q-142 0 -231 73t-99 205h137q42 -133 193 -133q150 0 192 133h138q-10 -132 -99 -205t-231 -73z" />
    <glyph glyph-name="Iogonek" unicode="&#x12e;" horiz-adv-x="653" 
d="M227 0v1491h199v-1491h-33q-90 -81 -90 -150q0 -45 37.5 -68.5t118.5 -27.5v-104q-8 0 -20.5 -1t-16.5 -1q-133 4 -205 51.5t-72 124.5q0 88 97 176h-15z" />
    <glyph glyph-name="iogonek" unicode="&#x12f;" horiz-adv-x="591" 
d="M201 0v1108h190v-1108h-29q-90 -81 -90 -150q0 -45 37.5 -68.5t118.5 -27.5v-104q-8 0 -20 -1t-17 -1q-132 4 -204 51.5t-72 124.5q0 89 96 176h-10zM188 1329v201h215v-201h-215z" />
    <glyph glyph-name="Idotaccent" unicode="&#x130;" horiz-adv-x="653" 
d="M227 0v1491h199v-1491h-199zM215 1620v207h225v-207h-225z" />
    <glyph glyph-name="dotlessi" unicode="&#x131;" horiz-adv-x="591" 
d="M201 0v1108h190v-1108h-190z" />
    <glyph glyph-name="Kcommaaccent" unicode="&#x136;" horiz-adv-x="1552" 
d="M213 0v1491h197v-848l811 848h252l-635 -647l661 -844h-244l-553 707l-292 -297v-410h-197zM651 -526l-14 69q144 24 135 133h-94v189h209v-162q0 -108 -58.5 -163t-177.5 -66z" />
    <glyph glyph-name="kcommaaccent" unicode="&#x137;" horiz-adv-x="1236" 
d="M516 -537l-14 70q144 24 135 133h-94v189h209v-162q0 -109 -58.5 -164t-177.5 -66zM184 0v1554h193v-1030l555 584h239l-458 -469l473 -639h-230l-374 506l-205 -209v-297h-193z" />
    <glyph glyph-name="Lacute" unicode="&#x139;" horiz-adv-x="1329" 
d="M260 1620l223 285l187 -84l-252 -201h-158zM213 0v1491h197v-1311h823v-180h-1020z" />
    <glyph glyph-name="lacute" unicode="&#x13a;" horiz-adv-x="591" 
d="M221 1663l223 285l187 -84l-252 -201h-158zM201 0v1554h190v-1554h-190z" />
    <glyph glyph-name="Lcommaaccent" unicode="&#x13b;" horiz-adv-x="1329" 
d="M213 0v1491h197v-1311h823v-180h-1020zM584 -537l-15 70q145 24 136 133h-95v189h209v-162q0 -109 -58 -164t-177 -66z" />
    <glyph glyph-name="lcommaaccent" unicode="&#x13c;" horiz-adv-x="591" 
d="M166 -537l-14 70q144 24 135 133h-94v189h208v-162q0 -109 -58 -164t-177 -66zM201 0v1554h190v-1554h-190z" />
    <glyph glyph-name="Lcaron" unicode="&#x13d;" horiz-adv-x="1329" 
d="M213 0v1491h197v-1311h823v-180h-1020zM598 1126l31 367h172v-6l-113 -361h-90z" />
    <glyph glyph-name="lcaron" unicode="&#x13e;" horiz-adv-x="591" 
d="M522 1190l31 366h172v-6l-113 -360h-90zM201 0v1554h190v-1554h-190z" />
    <glyph glyph-name="Ldot" unicode="&#x13f;" horiz-adv-x="1329" 
d="M893 680v219h215v-219h-215zM213 0v1491h197v-1311h823v-180h-1020z" />
    <glyph glyph-name="ldot" unicode="&#x140;" horiz-adv-x="745" 
d="M565 684v211h193v-211h-193zM201 0v1554h190v-1554h-190z" />
    <glyph glyph-name="Lslash" unicode="&#x141;" horiz-adv-x="1392" 
d="M840 844l-369 -170v-494h825v-180h-1020v584l-159 -72v190l159 72v717h195v-629l369 172v-190z" />
    <glyph glyph-name="lslash" unicode="&#x142;" horiz-adv-x="718" 
d="M616 829l-161 -86v-743h-191v643l-162 -86v191l162 83v723h191v-622l161 86v-189z" />
    <glyph glyph-name="Nacute" unicode="&#x143;" horiz-adv-x="1699" 
d="M770 1616l223 285l187 -84l-252 -201h-158zM213 0v1491h182l897 -1145v1145h195v-1491h-162l-919 1174v-1174h-193z" />
    <glyph glyph-name="nacute" unicode="&#x144;" horiz-adv-x="1331" 
d="M596 1268l207 319l188 -86l-248 -233h-147zM184 0v1108h193v-186q132 211 368 211q195 0 305.5 -120.5t110.5 -318.5v-694h-192v641q0 148 -75 231.5t-210 83.5q-133 0 -220 -89t-87 -236v-631h-193z" />
    <glyph glyph-name="Ncommaaccent" unicode="&#x145;" horiz-adv-x="1699" 
d="M717 -526l-15 69q145 24 136 133h-95v189h209v-162q0 -109 -58 -163.5t-177 -65.5zM213 0v1491h182l897 -1145v1145h195v-1491h-162l-919 1174v-1174h-193z" />
    <glyph glyph-name="ncommaaccent" unicode="&#x146;" horiz-adv-x="1331" 
d="M541 -537l-15 70q145 24 136 133h-95v189h209v-162q0 -109 -58 -164t-177 -66zM184 0v1108h193v-186q132 211 368 211q195 0 305.5 -120.5t110.5 -318.5v-694h-192v641q0 148 -75 231.5t-210 83.5q-133 0 -220 -89t-87 -236v-631h-193z" />
    <glyph glyph-name="Ncaron" unicode="&#x147;" horiz-adv-x="1699" 
d="M1182 1878l-242 -262h-180l-242 262h174l160 -125l160 125h170zM213 0v1491h182l897 -1145v1145h195v-1491h-162l-919 1174v-1174h-193z" />
    <glyph glyph-name="ncaron" unicode="&#x148;" horiz-adv-x="1331" 
d="M991 1556l-233 -288h-172l-234 288h160l162 -143l162 143h155zM184 0v1108h193v-186q132 211 368 211q195 0 305.5 -120.5t110.5 -318.5v-694h-192v641q0 148 -75 231.5t-210 83.5q-133 0 -220 -89t-87 -236v-631h-193z" />
    <glyph glyph-name="Omacron" unicode="&#x14c;" horiz-adv-x="1826" 
d="M553 1679v154h721v-154h-721zM911 -25q-222 0 -398 105t-271 279t-95 382v4q0 154 57 295t156.5 246t244 167.5t310.5 62.5q222 0 398 -105t271 -279t95 -382v-5q0 -154 -57 -294.5t-156.5 -245.5t-244 -167.5t-310.5 -62.5zM915 156q160 0 289 79t200 212.5t71 293.5v4
q0 119 -42.5 227.5t-116.5 188.5t-179.5 127t-225.5 47q-160 0 -289 -79t-199.5 -212.5t-70.5 -293.5v-5q0 -160 72 -294.5t202 -214.5t289 -80z" />
    <glyph glyph-name="omacron" unicode="&#x14d;" horiz-adv-x="1400" 
d="M358 1305v149h684v-149h-684zM698 -25q-164 0 -297.5 78t-207.5 209.5t-74 286.5v4q0 155 75 288t209.5 212.5t298.5 79.5q163 0 297 -78t208.5 -210t74.5 -288v-4q0 -155 -75 -287.5t-210 -211.5t-299 -79zM702 145q168 0 275.5 117.5t107.5 286.5v4q0 169 -111.5 289.5
t-275.5 120.5q-168 0 -276.5 -119t-108.5 -287v-4q0 -168 112.5 -288t276.5 -120z" />
    <glyph glyph-name="Obreve" unicode="&#x14e;" horiz-adv-x="1826" 
d="M913 1636q-142 0 -231.5 67.5t-99.5 188.5h145q40 -108 186 -108q147 0 187 108h145q-10 -121 -100 -188.5t-232 -67.5zM911 -25q-222 0 -398 105t-271 279t-95 382v4q0 154 57 295t156.5 246t244 167.5t310.5 62.5q222 0 398 -105t271 -279t95 -382v-5
q0 -154 -57 -294.5t-156.5 -245.5t-244 -167.5t-310.5 -62.5zM915 156q160 0 289 79t200 212.5t71 293.5v4q0 119 -42.5 227.5t-116.5 188.5t-179.5 127t-225.5 47q-160 0 -289 -79t-199.5 -212.5t-70.5 -293.5v-5q0 -160 72 -294.5t202 -214.5t289 -80z" />
    <glyph glyph-name="obreve" unicode="&#x14f;" horiz-adv-x="1400" 
d="M698 -25q-164 0 -297.5 78t-207.5 209.5t-74 286.5v4q0 155 75 288t209.5 212.5t298.5 79.5q163 0 297 -78t208.5 -210t74.5 -288v-4q0 -155 -75 -287.5t-210 -211.5t-299 -79zM702 145q168 0 275.5 117.5t107.5 286.5v4q0 169 -111.5 289.5t-275.5 120.5
q-168 0 -276.5 -119t-108.5 -287v-4q0 -168 112.5 -288t276.5 -120zM700 1264q-141 0 -230 73t-99 205h137q42 -133 192 -133q151 0 193 133h137q-10 -132 -99 -205t-231 -73z" />
    <glyph glyph-name="Ohungarumlaut" unicode="&#x150;" horiz-adv-x="1826" 
d="M911 -25q-222 0 -398 105t-271 279t-95 382v4q0 154 57 295t156.5 246t244 167.5t310.5 62.5q222 0 398 -105t271 -279t95 -382v-5q0 -154 -57 -294.5t-156.5 -245.5t-244 -167.5t-310.5 -62.5zM915 156q160 0 289 79t200 212.5t71 293.5v4q0 119 -42.5 227.5
t-116.5 188.5t-179.5 127t-225.5 47q-160 0 -289 -79t-199.5 -212.5t-70.5 -293.5v-5q0 -160 72 -294.5t202 -214.5t289 -80zM645 1640l223 285l183 -84l-252 -201h-154zM987 1640l221 285l183 -84l-252 -201h-152z" />
    <glyph glyph-name="ohungarumlaut" unicode="&#x151;" horiz-adv-x="1400" 
d="M772 1268l209 319l180 -84l-241 -235h-148zM442 1268l205 319l180 -84l-239 -235h-146zM698 -25q-164 0 -297.5 78t-207.5 209.5t-74 286.5v4q0 155 75 288t209.5 212.5t298.5 79.5q163 0 297 -78t208.5 -210t74.5 -288v-4q0 -155 -75 -287.5t-210 -211.5t-299 -79z
M702 145q168 0 275.5 117.5t107.5 286.5v4q0 169 -111.5 289.5t-275.5 120.5q-168 0 -276.5 -119t-108.5 -287v-4q0 -168 112.5 -288t276.5 -120z" />
    <glyph glyph-name="OE" unicode="&#x152;" horiz-adv-x="2404" 
d="M2271 0h-1333q-173 0 -321 57t-251 156t-161 235.5t-58 292.5v4q0 156 58 293.5t161 237.5t251 157.5t321 57.5h1321v-178h-848v-473h754v-178h-754v-484h860v-178zM938 180h276v1131h-276q-131 0 -241.5 -43t-185.5 -118t-117 -178t-42 -222v-5q0 -118 42 -222
t117 -179.5t185.5 -119.5t241.5 -44z" />
    <glyph glyph-name="oe" unicode="&#x153;" horiz-adv-x="2244" 
d="M688 -25q-156 0 -287.5 78t-206.5 209.5t-75 286.5v4q0 155 75 288t208.5 212.5t293.5 79.5q154 0 278 -75t193 -202q68 127 185 202t262 75q122 0 221.5 -47t164 -127.5t99.5 -187.5t35 -228q0 -37 -2 -60h-858q17 -162 119 -254t247 -92q103 0 182.5 38t151.5 112
l119 -105q-91 -101 -200 -154t-255 -53q-151 0 -276 73.5t-197 203.5q-69 -126 -195 -201.5t-282 -75.5zM1272 621h667q-13 152 -98 251t-231 99q-135 0 -228 -98t-110 -252zM698 145q109 0 196.5 55t135 147t47.5 202v4q0 111 -49 204.5t-137.5 149.5t-196.5 56
q-167 0 -274 -119t-107 -287v-4q0 -168 110.5 -288t274.5 -120z" />
    <glyph glyph-name="Racute" unicode="&#x154;" horiz-adv-x="1556" 
d="M213 0v1491h647q282 0 426 -150q119 -116 119 -301v-4q0 -179 -105 -290t-284 -150l440 -596h-237l-412 561h-397v-561h-197zM410 737h436q161 0 260.5 78.5t99.5 210.5v4q0 134 -94 207.5t-266 73.5h-436v-574zM678 1620l223 285l186 -84l-251 -201h-158z" />
    <glyph glyph-name="racute" unicode="&#x155;" horiz-adv-x="882" 
d="M395 1268l207 319l189 -86l-248 -233h-148zM184 0v1108h193v-277q59 139 173 220.5t261 74.5v-202h-12q-186 0 -304 -127.5t-118 -360.5v-436h-193z" />
    <glyph glyph-name="Rcommaaccent" unicode="&#x156;" horiz-adv-x="1556" 
d="M213 0v1491h647q282 0 426 -150q119 -116 119 -301v-4q0 -179 -105 -290t-284 -150l440 -596h-237l-412 561h-397v-561h-197zM410 737h436q161 0 260.5 78.5t99.5 210.5v4q0 134 -94 207.5t-266 73.5h-436v-574zM625 -526l-15 69q144 24 135 133h-94v189h209v-162
q0 -109 -58 -163.5t-177 -65.5z" />
    <glyph glyph-name="rcommaaccent" unicode="&#x157;" horiz-adv-x="882" 
d="M166 -537l-14 70q144 24 135 133h-94v189h208v-162q0 -109 -58 -164t-177 -66zM184 0v1108h193v-277q59 139 173 220.5t261 74.5v-202h-12q-186 0 -304 -127.5t-118 -360.5v-436h-193z" />
    <glyph glyph-name="Rcaron" unicode="&#x158;" horiz-adv-x="1556" 
d="M1090 1882l-242 -262h-180l-242 262h174l160 -125l160 125h170zM213 0v1491h647q282 0 426 -150q119 -116 119 -301v-4q0 -179 -105 -290t-284 -150l440 -596h-237l-412 561h-397v-561h-197zM410 737h436q161 0 260.5 78.5t99.5 210.5v4q0 134 -94 207.5t-266 73.5h-436
v-574z" />
    <glyph glyph-name="rcaron" unicode="&#x159;" horiz-adv-x="882" 
d="M795 1556l-234 -288h-172l-233 288h159l162 -143l162 143h156zM184 0v1108h193v-277q59 139 173 220.5t261 74.5v-202h-12q-186 0 -304 -127.5t-118 -360.5v-436h-193z" />
    <glyph glyph-name="Sacute" unicode="&#x15a;" horiz-adv-x="1380" 
d="M727 -20q-348 0 -612 237l121 143q119 -106 235 -155t262 -49q141 0 227.5 64.5t86.5 168.5v4q0 66 -29.5 110.5t-112 84t-231.5 71.5q-261 54 -380.5 153t-119.5 282v4q0 180 140.5 296.5t355.5 116.5q160 0 284.5 -44.5t243.5 -139.5l-111 -151q-196 159 -421 159
q-133 0 -214 -63t-81 -156v-4q0 -72 31.5 -117.5t115 -83t242.5 -73.5q252 -57 367.5 -155t115.5 -271v-4q0 -195 -143 -311.5t-373 -116.5zM623 1640l223 285l186 -84l-252 -201h-157z" />
    <glyph glyph-name="sacute" unicode="&#x15b;" horiz-adv-x="1079" 
d="M469 1268l207 319l188 -86l-248 -233h-147zM555 -20q-120 0 -243 42t-220 119l94 135q190 -139 377 -139q94 0 152.5 43t58.5 115v4q0 22 -8.5 41t-19 33t-34 28.5t-40 23.5t-51 21.5t-53 18t-60.5 18.5q-45 13 -74.5 22.5t-71 26t-68.5 32t-57.5 40t-48 52t-29.5 64
t-12 79.5v4q0 147 107.5 236t275.5 89q102 0 208.5 -33t193.5 -91l-84 -142q-169 107 -324 107q-90 0 -143 -41t-53 -105v-4q0 -18 5 -34t18.5 -30t25 -24.5t36.5 -22.5t39.5 -19t48 -18t48.5 -15.5t53 -16.5q60 -17 103 -33t94 -43t82.5 -58.5t53 -78.5t21.5 -104v-5
q0 -160 -112.5 -248.5t-288.5 -88.5z" />
    <glyph glyph-name="Scedilla" unicode="&#x15e;" horiz-adv-x="1380" 
d="M643 -336l-178 78l164 244q-287 27 -514 231l121 143q119 -106 235 -155t262 -49q141 0 227.5 64.5t86.5 168.5v4q0 66 -29.5 110.5t-112 84t-231.5 71.5q-261 54 -380.5 153t-119.5 282v4q0 180 140.5 296.5t355.5 116.5q160 0 284.5 -44.5t243.5 -139.5l-111 -151
q-196 159 -421 159q-133 0 -214 -63t-81 -156v-4q0 -72 31.5 -117.5t115 -83t242.5 -73.5q252 -57 367.5 -155t115.5 -271v-4q0 -181 -126 -294.5t-331 -131.5z" />
    <glyph glyph-name="scedilla" unicode="&#x15f;" horiz-adv-x="1079" 
d="M463 -336l-178 78l166 246q-200 28 -359 153l94 135q190 -139 377 -139q94 0 152.5 43t58.5 115v4q0 22 -8.5 41t-19 33t-34 28.5t-40 23.5t-51 21.5t-53 18t-60.5 18.5q-45 13 -74.5 22.5t-71 26t-68.5 32t-57.5 40t-48 52t-29.5 64t-12 79.5v4q0 147 107.5 236
t275.5 89q102 0 208.5 -33t193.5 -91l-84 -142q-169 107 -324 107q-90 0 -143 -41t-53 -105v-4q0 -18 5 -34t18.5 -30t25 -24.5t36.5 -22.5t39.5 -19t48 -18t48.5 -15.5t53 -16.5q60 -17 103 -33t94 -43t82.5 -58.5t53 -78.5t21.5 -104v-5q0 -146 -97 -234.5t-253 -100.5z
" />
    <glyph glyph-name="Scaron" unicode="&#x160;" horiz-adv-x="1380" 
d="M727 -20q-348 0 -612 237l121 143q119 -106 235 -155t262 -49q141 0 227.5 64.5t86.5 168.5v4q0 66 -29.5 110.5t-112 84t-231.5 71.5q-261 54 -380.5 153t-119.5 282v4q0 180 140.5 296.5t355.5 116.5q160 0 284.5 -44.5t243.5 -139.5l-111 -151q-196 159 -421 159
q-133 0 -214 -63t-81 -156v-4q0 -72 31.5 -117.5t115 -83t242.5 -73.5q252 -57 367.5 -155t115.5 -271v-4q0 -195 -143 -311.5t-373 -116.5zM1034 1903l-241 -263h-181l-241 263h174l160 -125l159 125h170z" />
    <glyph glyph-name="scaron" unicode="&#x161;" horiz-adv-x="1079" 
d="M866 1556l-233 -288h-172l-234 288h160l162 -143l162 143h155zM555 -20q-120 0 -243 42t-220 119l94 135q190 -139 377 -139q94 0 152.5 43t58.5 115v4q0 22 -8.5 41t-19 33t-34 28.5t-40 23.5t-51 21.5t-53 18t-60.5 18.5q-45 13 -74.5 22.5t-71 26t-68.5 32t-57.5 40
t-48 52t-29.5 64t-12 79.5v4q0 147 107.5 236t275.5 89q102 0 208.5 -33t193.5 -91l-84 -142q-169 107 -324 107q-90 0 -143 -41t-53 -105v-4q0 -18 5 -34t18.5 -30t25 -24.5t36.5 -22.5t39.5 -19t48 -18t48.5 -15.5t53 -16.5q60 -17 103 -33t94 -43t82.5 -58.5t53 -78.5
t21.5 -104v-5q0 -160 -112.5 -248.5t-288.5 -88.5z" />
    <glyph glyph-name="Tcommaaccent" unicode="&#x162;" horiz-adv-x="1384" 
d="M594 0v1309h-494v182h1184v-182h-493v-1309h-197zM559 -537l-14 70q144 24 135 133h-94v189h209v-162q0 -109 -58.5 -164t-177.5 -66z" />
    <glyph glyph-name="Tcommaaccent" unicode="&#x21a;" horiz-adv-x="1384" 
d="M594 0v1309h-494v182h1184v-182h-493v-1309h-197zM559 -537l-14 70q144 24 135 133h-94v189h209v-162q0 -109 -58.5 -164t-177.5 -66z" />
    <glyph glyph-name="tcommaaccent" unicode="&#x163;" horiz-adv-x="880" 
d="M356 -537l-14 70q144 24 135 133h-94v189h209v-162q0 -109 -58.5 -164t-177.5 -66zM557 -18q-145 0 -230 76t-85 239v643h-150v168h150v326h190v-326h336v-168h-336v-616q0 -170 172 -170q81 0 160 39v-162q-88 -49 -207 -49z" />
    <glyph glyph-name="tcommaaccent" unicode="&#x21b;" horiz-adv-x="880" 
d="M356 -537l-14 70q144 24 135 133h-94v189h209v-162q0 -109 -58.5 -164t-177.5 -66zM557 -18q-145 0 -230 76t-85 239v643h-150v168h150v326h190v-326h336v-168h-336v-616q0 -170 172 -170q81 0 160 39v-162q-88 -49 -207 -49z" />
    <glyph glyph-name="Tcaron" unicode="&#x164;" horiz-adv-x="1384" 
d="M1024 1882l-242 -262h-180l-242 262h175l159 -125l160 125h170zM594 0v1309h-494v182h1184v-182h-493v-1309h-197z" />
    <glyph glyph-name="tcaron" unicode="&#x165;" horiz-adv-x="880" 
d="M606 1247l31 367h172v-6l-113 -361h-90zM557 -18q-145 0 -230 76t-85 239v643h-150v168h150v326h190v-326h336v-168h-336v-616q0 -170 172 -170q81 0 160 39v-162q-88 -49 -207 -49z" />
    <glyph glyph-name="Umacron" unicode="&#x16a;" horiz-adv-x="1632" 
d="M455 1655v153h721v-153h-721zM815 -23q-289 0 -458 168.5t-169 481.5v864h199v-854q0 -230 113.5 -354.5t318.5 -124.5q199 0 312.5 120t113.5 349v864h197v-852q0 -320 -169 -491t-458 -171z" />
    <glyph glyph-name="umacron" unicode="&#x16b;" horiz-adv-x="1331" 
d="M584 -25q-194 0 -305 120.5t-111 318.5v694h192v-641q0 -148 75.5 -231.5t211.5 -83.5q133 0 220 89.5t87 235.5v631h191v-1108h-191v186q-136 -211 -370 -211zM313 1305v149h684v-149h-684z" />
    <glyph glyph-name="Ubreve" unicode="&#x16c;" horiz-adv-x="1632" 
d="M815 1604q-142 0 -232 67.5t-100 188.5h146q40 -109 186 -109t186 109h146q-10 -121 -100 -188.5t-232 -67.5zM815 -23q-289 0 -458 168.5t-169 481.5v864h199v-854q0 -230 113.5 -354.5t318.5 -124.5q199 0 312.5 120t113.5 349v864h197v-852q0 -320 -169 -491
t-458 -171z" />
    <glyph glyph-name="ubreve" unicode="&#x16d;" horiz-adv-x="1331" 
d="M584 -25q-194 0 -305 120.5t-111 318.5v694h192v-641q0 -148 75.5 -231.5t211.5 -83.5q133 0 220 89.5t87 235.5v631h191v-1108h-191v186q-136 -211 -370 -211zM655 1264q-141 0 -230 73t-99 205h137q42 -133 192 -133q151 0 193 133h137q-10 -132 -99 -205t-231 -73z
" />
    <glyph glyph-name="Uring" unicode="&#x16e;" horiz-adv-x="1632" 
d="M815 -23q-289 0 -458 168.5t-169 481.5v864h199v-854q0 -230 113.5 -354.5t318.5 -124.5q199 0 312.5 120t113.5 349v864h197v-852q0 -320 -169 -491t-458 -171zM815 1577q-100 0 -171 62t-71 153t71 153t171 62t171 -62t71 -153t-71 -153t-171 -62zM815 1665
q61 0 101 36.5t40 90.5q0 56 -40 92.5t-101 36.5t-101 -36.5t-40 -92.5q0 -54 40 -90.5t101 -36.5z" />
    <glyph glyph-name="uring" unicode="&#x16f;" horiz-adv-x="1331" 
d="M655 1241q-97 0 -166 66t-69 161q0 93 69.5 160.5t165.5 67.5t166 -67.5t70 -160.5q0 -95 -69.5 -161t-166.5 -66zM655 1323q60 0 103 42.5t43 102.5t-43 103t-103 43t-102.5 -43t-42.5 -103t42.5 -102.5t102.5 -42.5zM584 -25q-194 0 -305 120.5t-111 318.5v694h192
v-641q0 -148 75.5 -231.5t211.5 -83.5q133 0 220 89.5t87 235.5v631h191v-1108h-191v186q-136 -211 -370 -211z" />
    <glyph glyph-name="Uhungarumlaut" unicode="&#x170;" horiz-adv-x="1632" 
d="M815 -23q-289 0 -458 168.5t-169 481.5v864h199v-854q0 -230 113.5 -354.5t318.5 -124.5q199 0 312.5 120t113.5 349v864h197v-852q0 -320 -169 -491t-458 -171zM547 1616l223 285l182 -84l-252 -201h-153zM889 1616l221 285l182 -84l-252 -201h-151z" />
    <glyph glyph-name="uhungarumlaut" unicode="&#x171;" horiz-adv-x="1331" 
d="M584 -25q-194 0 -305 120.5t-111 318.5v694h192v-641q0 -148 75.5 -231.5t211.5 -83.5q133 0 220 89.5t87 235.5v631h191v-1108h-191v186q-136 -211 -370 -211zM729 1268l209 319l180 -84l-241 -235h-148zM399 1268l205 319l180 -84l-239 -235h-146z" />
    <glyph glyph-name="Uogonek" unicode="&#x172;" horiz-adv-x="1632" 
d="M965 -246v-104q-7 0 -19.5 -1t-17.5 -1q-133 4 -205 51.5t-72 124.5t78 158q-253 25 -397 190t-144 455v864h199v-854q0 -230 113.5 -354.5t318.5 -124.5q199 0 312.5 120t113.5 349v864h197v-852q0 -301 -150.5 -470t-412.5 -187q-70 -70 -70 -132q0 -45 37.5 -68.5
t118.5 -27.5z" />
    <glyph glyph-name="uogonek" unicode="&#x173;" horiz-adv-x="1331" 
d="M584 -25q-194 0 -305 120.5t-111 318.5v694h192v-641q0 -148 75.5 -231.5t211.5 -83.5q133 0 220 89.5t87 235.5v631h191v-1108h-37q-90 -81 -90 -150q0 -45 37.5 -68.5t118.5 -27.5v-104q-8 0 -20 -1t-17 -1q-133 4 -205 51.5t-72 124.5q0 89 96 176h-2v186
q-136 -211 -370 -211z" />
    <glyph glyph-name="Wcircumflex" unicode="&#x174;" horiz-adv-x="2379" 
d="M627 -10l-529 1501h215l404 -1200l395 1204h164l395 -1204l406 1200h207l-529 -1501h-168l-397 1167l-395 -1167h-168zM858 1620l242 262h180l242 -262h-174l-160 127l-160 -127h-170z" />
    <glyph glyph-name="wcircumflex" unicode="&#x175;" horiz-adv-x="1849" 
d="M604 1268l234 288h172l233 -288h-160l-161 143l-162 -143h-156zM471 -8l-379 1116h201l270 -850l283 854h162l282 -854l273 850h196l-381 -1116h-170l-282 837l-285 -837h-170z" />
    <glyph glyph-name="Ycircumflex" unicode="&#x176;" horiz-adv-x="1542" 
d="M672 0v590l-613 901h236l477 -721l481 721h230l-613 -897v-594h-198zM438 1616l242 262h180l242 -262h-174l-160 127l-160 -127h-170z" />
    <glyph glyph-name="ycircumflex" unicode="&#x177;" horiz-adv-x="1280" 
d="M659 215l336 893h203l-457 -1143q-68 -170 -153 -241.5t-215 -71.5q-119 0 -244 61l66 148q77 -41 165 -41q69 0 116.5 40.5t90.5 141.5l-491 1106h209zM324 1268l233 288h172l234 -288h-160l-162 143l-162 -143h-155z" />
    <glyph glyph-name="Ydieresis" unicode="&#x178;" horiz-adv-x="1542" 
d="M672 0v590l-613 901h236l477 -721l481 721h230l-613 -897v-594h-198zM868 1616v207h217v-207h-217zM457 1616v207h219v-207h-219z" />
    <glyph glyph-name="Zacute" unicode="&#x179;" horiz-adv-x="1499" 
d="M150 0v137l940 1180h-910v174h1172v-137l-940 -1180h940v-174h-1202zM686 1620l223 285l187 -84l-252 -201h-158z" />
    <glyph glyph-name="zacute" unicode="&#x17a;" horiz-adv-x="1204" 
d="M532 1268l207 319l189 -86l-248 -233h-148zM125 0v127l706 821h-681v160h935v-127l-706 -819h706v-162h-960z" />
    <glyph glyph-name="Zdotaccent" unicode="&#x17b;" horiz-adv-x="1499" 
d="M653 1620v207h226v-207h-226zM150 0v137l940 1180h-910v174h1172v-137l-940 -1180h940v-174h-1202z" />
    <glyph glyph-name="zdotaccent" unicode="&#x17c;" horiz-adv-x="1204" 
d="M125 0v127l706 821h-681v160h935v-127l-706 -819h706v-162h-960zM500 1268v219h221v-219h-221z" />
    <glyph glyph-name="Zcaron" unicode="&#x17d;" horiz-adv-x="1499" 
d="M1098 1882l-242 -262h-180l-242 262h174l160 -125l160 125h170zM150 0v137l940 1180h-910v174h1172v-137l-940 -1180h940v-174h-1202z" />
    <glyph glyph-name="zcaron" unicode="&#x17e;" horiz-adv-x="1204" 
d="M930 1556l-234 -288h-172l-233 288h160l161 -143l162 143h156zM125 0v127l706 821h-681v160h935v-127l-706 -819h706v-162h-960z" />
    <glyph glyph-name="uni018F" unicode="&#x18f;" horiz-adv-x="1714" 
d="M334 1106l-131 127q254 283 628 283q213 0 381 -98t261.5 -272.5t93.5 -395.5v-7q0 -160 -54.5 -302t-148.5 -244.5t-228.5 -162t-287.5 -59.5q-165 0 -300 62.5t-222 170t-134 249t-47 303.5v2q0 47 2 74h1211q-25 223 -167.5 361t-359.5 138q-147 0 -267.5 -55.5
t-229.5 -173.5zM848 154q212 0 348.5 141t161.5 369h-1004q18 -228 151.5 -369t342.5 -141z" />
    <glyph glyph-name="florin" unicode="&#x192;" horiz-adv-x="1120" 
d="M209 -10q-77 0 -113 8v162q36 -8 90 -8q134 0 164 157l86 475h-196v164h225l45 236q31 164 112 240.5t232 76.5q110 0 180 -22v-164q-73 20 -147 20q-80 0 -124 -43t-61 -141l-38 -203h297v-164h-326l-92 -499q-29 -155 -108.5 -225t-225.5 -70z" />
    <glyph glyph-name="Aringacute" unicode="&#x1fa;" horiz-adv-x="1699" 
d="M84 0l633 1413q-109 64 -109 182q0 91 71 153t171 62t171 -62t71 -153q0 -116 -111 -182l633 -1413h-209l-170 385h-778l-170 -385h-203zM530 561h631l-315 711zM850 1466q60 0 99.5 36.5t39.5 92.5q0 54 -39.5 90.5t-99.5 36.5q-61 0 -101 -36.5t-40 -90.5
q0 -56 40 -92.5t101 -36.5zM762 1872l225 254l184 -84l-253 -170h-156z" />
    <glyph glyph-name="aringacute" unicode="&#x1fb;" horiz-adv-x="1253" 
d="M512 -25q-106 0 -197.5 38.5t-151 118.5t-59.5 187v5q0 174 127.5 266t341.5 92q182 0 328 -47v37q0 138 -81 210t-232 72q-166 0 -330 -77l-55 153q104 47 197.5 70.5t209.5 23.5q238 0 361 -123q114 -114 114 -329v-672h-186v158q-145 -183 -387 -183zM555 125
q149 0 248.5 79t99.5 202v96q-143 47 -303 47q-146 0 -225.5 -57.5t-79.5 -157.5v-4q0 -94 75 -149.5t185 -55.5zM629 1264q-97 0 -166.5 66t-69.5 161q0 92 69.5 159.5t166.5 67.5q96 0 165.5 -67t69.5 -160q0 -95 -69 -161t-166 -66zM629 1346q60 0 102.5 42.5t42.5 102.5
t-42.5 102.5t-102.5 42.5t-103 -42.5t-43 -102.5t43 -102.5t103 -42.5zM549 1782l215 276l184 -88l-248 -188h-151z" />
    <glyph glyph-name="AEacute" unicode="&#x1fc;" horiz-adv-x="2242" 
d="M1264 1620l223 285l186 -84l-252 -201h-157zM41 0l864 1491h1192v-178h-848v-473h752v-178h-752v-484h858v-178h-1054v385h-584l-223 -385h-205zM565 561h488v756h-49z" />
    <glyph glyph-name="aeacute" unicode="&#x1fd;" horiz-adv-x="2045" 
d="M942 1268l207 319l188 -86l-247 -233h-148zM522 -25q-112 0 -205.5 38.5t-153 118.5t-59.5 187v5q0 174 126 266t337 92q170 0 316 -47v37q0 139 -77.5 210.5t-225.5 71.5q-158 0 -322 -77l-55 153q103 48 193 71t206 23q313 0 402 -221q68 107 175 168.5t238 61.5
q121 0 220.5 -47t163.5 -127.5t99 -187.5t35 -228q0 -37 -2 -60h-860q17 -161 121 -253.5t248 -92.5q103 0 182.5 38t151.5 112l116 -105q-87 -100 -196.5 -153.5t-257.5 -53.5q-134 0 -249 55.5t-190 155.5q-218 -211 -477 -211zM1073 621h668q-8 98 -46 175.5t-111.5 126
t-172.5 48.5q-135 0 -228 -98t-110 -252zM549 127q212 0 377 180q-34 87 -43 197q-157 45 -289 45q-141 0 -220 -58t-79 -157v-4q0 -94 73 -148.5t181 -54.5z" />
    <glyph glyph-name="Oslashacute" unicode="&#x1fe;" horiz-adv-x="1826" 
d="M1495 1501h203l-211 -233q93 -105 142.5 -238t49.5 -280v-5q0 -154 -57 -294.5t-156.5 -245.5t-244 -167.5t-310.5 -62.5q-258 0 -458 146l-121 -131h-203l211 233q-93 105 -143 238t-50 280v4q0 154 57 295t156.5 246t244 167.5t310.5 62.5q258 0 459 -148zM348 750v-2
q0 -218 125 -381l776 858q-146 114 -338 114q-161 0 -290.5 -78.5t-201 -213t-71.5 -297.5zM915 152q161 0 290.5 78.5t201.5 213t72 297.5v2q0 217 -125 379l-779 -858q143 -112 340 -112zM834 1640l223 285l186 -84l-252 -201h-157z" />
    <glyph glyph-name="oslashacute" unicode="&#x1ff;" horiz-adv-x="1400" 
d="M1128 1122h187l-172 -188q139 -158 139 -377v-4q0 -155 -75 -287.5t-210 -211.5t-299 -79q-187 0 -340 105l-86 -90h-186l170 184q-137 156 -137 375v4q0 155 75 288t209.5 212.5t298.5 79.5q187 0 338 -107zM702 139q169 0 279.5 120t110.5 290v2q0 132 -76 248
l-541 -588q97 -72 227 -72zM309 557v-2q0 -139 74 -248l543 586q-99 74 -228 74q-173 0 -281 -119t-108 -291zM623 1268l206 319l189 -86l-248 -233h-147z" />
    <glyph glyph-name="Scommaaccent" unicode="&#x218;" horiz-adv-x="1380" 
d="M727 -20q-348 0 -612 237l121 143q119 -106 235 -155t262 -49q141 0 227.5 64.5t86.5 168.5v4q0 66 -29.5 110.5t-112 84t-231.5 71.5q-261 54 -380.5 153t-119.5 282v4q0 180 140.5 296.5t355.5 116.5q160 0 284.5 -44.5t243.5 -139.5l-111 -151q-196 159 -421 159
q-133 0 -214 -63t-81 -156v-4q0 -72 31.5 -117.5t115 -83t242.5 -73.5q252 -57 367.5 -155t115.5 -271v-4q0 -195 -143 -311.5t-373 -116.5zM571 -539l-14 70q144 24 135 133h-94v189h209v-162q0 -109 -58.5 -164t-177.5 -66z" />
    <glyph glyph-name="scommaaccent" unicode="&#x219;" horiz-adv-x="1079" 
d="M414 -537l-15 70q145 24 136 133h-95v189h209v-162q0 -109 -58 -164t-177 -66zM555 -20q-120 0 -243 42t-220 119l94 135q190 -139 377 -139q94 0 152.5 43t58.5 115v4q0 22 -8.5 41t-19 33t-34 28.5t-40 23.5t-51 21.5t-53 18t-60.5 18.5q-45 13 -74.5 22.5t-71 26
t-68.5 32t-57.5 40t-48 52t-29.5 64t-12 79.5v4q0 147 107.5 236t275.5 89q102 0 208.5 -33t193.5 -91l-84 -142q-169 107 -324 107q-90 0 -143 -41t-53 -105v-4q0 -18 5 -34t18.5 -30t25 -24.5t36.5 -22.5t39.5 -19t48 -18t48.5 -15.5t53 -16.5q60 -17 103 -33t94 -43
t82.5 -58.5t53 -78.5t21.5 -104v-5q0 -160 -112.5 -248.5t-288.5 -88.5z" />
    <glyph glyph-name="schwa" unicode="&#x259;" horiz-adv-x="1284" 
d="M608 1135q154 0 281 -72t202.5 -205t75.5 -301v-4q0 -158 -68.5 -290.5t-191.5 -210t-274 -77.5q-123 0 -223 47t-164.5 127.5t-99.5 187t-35 228.5q0 37 2 60h858q-17 161 -120.5 253.5t-246.5 92.5q-103 0 -182.5 -38t-151.5 -112l-116 105q182 209 454 209zM973 487
h-668q8 -98 46 -175.5t111.5 -126t172.5 -48.5q135 0 228 98t110 252z" />
    <glyph glyph-name="circumflex" unicode="&#x2c6;" horiz-adv-x="1081" 
d="M221 1268l234 288h172l233 -288h-160l-161 143l-162 -143h-156z" />
    <glyph glyph-name="caron" unicode="&#x2c7;" horiz-adv-x="1081" 
d="M860 1556l-233 -288h-172l-234 288h160l162 -143l162 143h155z" />
    <glyph glyph-name="breve" unicode="&#x2d8;" horiz-adv-x="1081" 
d="M541 1264q-142 0 -231 73t-99 205h137q42 -133 193 -133q150 0 192 133h137q-10 -132 -99 -205t-230 -73z" />
    <glyph glyph-name="dotaccent" unicode="&#x2d9;" horiz-adv-x="1081" 
d="M430 1268v219h221v-219h-221z" />
    <glyph glyph-name="ring" unicode="&#x2da;" horiz-adv-x="1081" 
d="M541 1264q-97 0 -166.5 66t-69.5 161q0 92 69.5 159.5t166.5 67.5q96 0 165.5 -67t69.5 -160q0 -95 -69 -161t-166 -66zM541 1346q60 0 102.5 42.5t42.5 102.5t-42.5 102.5t-102.5 42.5t-103 -42.5t-43 -102.5t43 -102.5t103 -42.5z" />
    <glyph glyph-name="ogonek" unicode="&#x2db;" horiz-adv-x="1081" 
d="M721 -246v-104q-7 0 -20 -1t-17 -1q-132 4 -204 51.5t-72 124.5q0 53 31.5 100.5t97.5 106.5l131 -21q-55 -48 -79 -85t-24 -75q0 -45 37.5 -68.5t118.5 -27.5z" />
    <glyph glyph-name="tilde" unicode="&#x2dc;" horiz-adv-x="1081" 
d="M692 1268q-57 0 -160 43q-92 43 -131 43q-41 0 -64.5 -23.5t-47.5 -83.5l-113 33q33 125 81.5 180.5t131.5 55.5q57 0 160 -43q87 -41 131 -41q42 0 65.5 22.5t47.5 81.5l112 -33q-33 -125 -81.5 -180t-131.5 -55z" />
    <glyph glyph-name="hungarumlaut" unicode="&#x2dd;" horiz-adv-x="1081" 
d="M516 1268l209 319l180 -84l-241 -235h-148zM186 1268l205 319l180 -84l-239 -235h-146z" />
    <glyph glyph-name="commaaccent" unicode="&#x326;" horiz-adv-x="1081" 
d="M410 -537l-15 70q144 24 135 133h-94v189h209v-162q0 -109 -58 -164t-177 -66z" />
    <glyph glyph-name="uni0384" unicode="&#x384;" horiz-adv-x="1081" 
d="M408 1268l139 338l188 -80l-194 -258h-133z" />
    <glyph glyph-name="uni0385" unicode="&#x385;" horiz-adv-x="1081" 
d="M719 1268v215h196v-215h-196zM166 1268v215h196v-215h-196zM434 1268l86 381l185 -43l-152 -338h-119z" />
    <glyph glyph-name="uni0386" unicode="&#x386;" horiz-adv-x="1699" 
d="M84 0l674 1501h184l672 -1501h-209l-170 385h-778l-170 -385h-203zM530 561h631l-315 711zM188 1100l33 391h203l-131 -391h-105z" />
    <glyph glyph-name="uni0387" unicode="&#x387;" horiz-adv-x="575" 
d="M176 864v244h223v-244h-223z" />
    <glyph glyph-name="uni0388" unicode="&#x388;" horiz-adv-x="1443" 
d="M-135 1100l33 391h202l-131 -391h-104zM213 0v1491h1085v-178h-888v-473h792v-178h-792v-484h899v-178h-1096z" />
    <glyph glyph-name="uni0389" unicode="&#x389;" horiz-adv-x="1634" 
d="M213 0v1491h197v-649h815v649h198v-1491h-198v659h-815v-659h-197zM-135 1100l33 391h202l-131 -391h-104z" />
    <glyph glyph-name="uni038A" unicode="&#x38a;" horiz-adv-x="653" 
d="M227 0v1491h199v-1491h-199zM-131 1100l33 391h202l-131 -391h-104z" />
    <glyph glyph-name="uni038C" unicode="&#x38c;" horiz-adv-x="1826" 
d="M-63 1100l32 391h203l-131 -391h-104zM911 -25q-222 0 -398 105t-271 279t-95 382v4q0 154 57 295t156.5 246t244 167.5t310.5 62.5q222 0 398 -105t271 -279t95 -382v-5q0 -154 -57 -294.5t-156.5 -245.5t-244 -167.5t-310.5 -62.5zM915 156q160 0 289 79t200 212.5
t71 293.5v4q0 119 -42.5 227.5t-116.5 188.5t-179.5 127t-225.5 47q-160 0 -289 -79t-199.5 -212.5t-70.5 -293.5v-5q0 -160 72 -294.5t202 -214.5t289 -80z" />
    <glyph glyph-name="uni038E" unicode="&#x38e;" horiz-adv-x="1542" 
d="M672 0v590l-613 901h236l477 -721l481 721h230l-613 -897v-594h-198zM-240 1100l33 391h203l-131 -391h-105z" />
    <glyph glyph-name="uni038F" unicode="&#x38f;" horiz-adv-x="1867" 
d="M934 1516q169 0 310 -54t236.5 -148t148 -223.5t52.5 -279.5v-2q0 -380 -372 -639l417 2v-172h-641v166q73 49 128 94.5t106.5 103.5t84 119.5t52 140.5t19.5 169v2q0 239 -149.5 389.5t-393.5 150.5q-243 0 -392 -149.5t-149 -388.5v-2q0 -204 100 -352t291 -277v-166
h-643v172l420 -2q-181 129 -277 284t-96 357v2q0 144 53 272t148 223.5t237 151.5t310 56zM-59 1100l32 391h203l-131 -391h-104z" />
    <glyph glyph-name="uni0390" unicode="&#x390;" horiz-adv-x="643" 
d="M481 1268v215h197v-215h-197zM-72 1268v215h197v-215h-197zM197 1268l86 381l184 -43l-152 -338h-118zM180 293v815h193v-807q0 -151 137 -151q54 0 78 8v-158q-58 -14 -127 -14q-142 0 -211.5 74.5t-69.5 232.5z" />
    <glyph glyph-name="uni0391" unicode="&#x391;" horiz-adv-x="1699" 
d="M84 0l674 1501h184l672 -1501h-209l-170 385h-778l-170 -385h-203zM530 561h631l-315 711z" />
    <glyph glyph-name="uni0392" unicode="&#x392;" horiz-adv-x="1554" 
d="M213 0v1491h645q255 0 389 -131q99 -104 99 -244v-4q0 -230 -230 -340q314 -99 314 -360v-4q0 -190 -148 -299t-397 -109h-672zM1147 1083v4q0 106 -81 167t-228 61h-430v-477h415q150 0 237 62.5t87 182.5zM1231 424v4q0 114 -93.5 177t-275.5 63h-454v-492h479
q161 0 252.5 65t91.5 183z" />
    <glyph glyph-name="uni0393" unicode="&#x393;" horiz-adv-x="1329" 
d="M213 0v1491h1020v-180h-823v-1311h-197z" />
    <glyph glyph-name="uni0394" unicode="&#x394;" horiz-adv-x="1695" 
d="M127 0l-16 145l637 1356h200l637 -1356l-16 -145h-1442zM846 1282l-514 -1104h1022z" />
    <glyph glyph-name="uni0395" unicode="&#x395;" horiz-adv-x="1443" 
d="M213 0v1491h1085v-178h-888v-473h792v-178h-792v-484h899v-178h-1096z" />
    <glyph glyph-name="uni0396" unicode="&#x396;" horiz-adv-x="1499" 
d="M150 0v137l940 1180h-910v174h1172v-137l-940 -1180h940v-174h-1202z" />
    <glyph glyph-name="uni0397" unicode="&#x397;" horiz-adv-x="1634" 
d="M213 0v1491h197v-649h815v649h198v-1491h-198v659h-815v-659h-197z" />
    <glyph glyph-name="uni0398" unicode="&#x398;" horiz-adv-x="1826" 
d="M911 -25q-222 0 -398 105t-271 279t-95 382v4q0 154 57 295t156.5 246t244 167.5t310.5 62.5q222 0 398 -105t271 -279t95 -382v-5q0 -154 -57 -294.5t-156.5 -245.5t-244 -167.5t-310.5 -62.5zM915 154q164 0 293.5 78t200 211.5t70.5 297.5v4q0 164 -72 299t-202.5 214
t-293.5 79q-164 0 -293 -78t-199.5 -211.5t-70.5 -297.5v-5q0 -164 71.5 -299t201.5 -213.5t294 -78.5zM1286 842v-185h-745v185h745z" />
    <glyph glyph-name="uni0399" unicode="&#x399;" horiz-adv-x="653" 
d="M227 0v1491h199v-1491h-199z" />
    <glyph glyph-name="uni039A" unicode="&#x39a;" horiz-adv-x="1552" 
d="M213 0v1491h197v-848l811 848h252l-635 -647l661 -844h-244l-553 707l-292 -297v-410h-197z" />
    <glyph glyph-name="uni039B" unicode="&#x39b;" horiz-adv-x="1658" 
d="M918 1501l657 -1501h-219l-531 1235l-528 -1235h-213l657 1501h177z" />
    <glyph glyph-name="uni039C" unicode="&#x39c;" horiz-adv-x="1865" 
d="M213 0v1491h203l516 -780l516 780h205v-1491h-197v1167l-522 -770h-8l-520 766v-1163h-193z" />
    <glyph glyph-name="uni039D" unicode="&#x39d;" horiz-adv-x="1699" 
d="M213 0v1491h182l897 -1145v1145h195v-1491h-162l-919 1174v-1174h-193z" />
    <glyph glyph-name="uni039E" unicode="&#x39e;" horiz-adv-x="1435" 
d="M1292 1309h-1147v182h1147v-182zM1235 659h-1034v183h1034v-183zM1303 0h-1170v182h1170v-182z" />
    <glyph glyph-name="uni039F" unicode="&#x39f;" horiz-adv-x="1826" 
d="M911 -25q-222 0 -398 105t-271 279t-95 382v4q0 154 57 295t156.5 246t244 167.5t310.5 62.5q222 0 398 -105t271 -279t95 -382v-5q0 -154 -57 -294.5t-156.5 -245.5t-244 -167.5t-310.5 -62.5zM915 156q160 0 289 79t200 212.5t71 293.5v4q0 119 -42.5 227.5
t-116.5 188.5t-179.5 127t-225.5 47q-160 0 -289 -79t-199.5 -212.5t-70.5 -293.5v-5q0 -160 72 -294.5t202 -214.5t289 -80z" />
    <glyph glyph-name="uni03A0" unicode="&#x3a0;" horiz-adv-x="1630" 
d="M213 0v1491h1204v-1491h-196v1311h-811v-1311h-197z" />
    <glyph glyph-name="uni03A1" unicode="&#x3a1;" horiz-adv-x="1439" 
d="M213 0v1491h567q255 0 408 -129.5t153 -349.5v-4q0 -119 -47 -214.5t-128 -156.5t-187 -93t-227 -32h-342v-512h-197zM410 690h350q172 0 277.5 86t105.5 225v5q0 149 -101.5 227t-277.5 78h-354v-621z" />
    <glyph glyph-name="uni03A3" unicode="&#x3a3;" horiz-adv-x="1458" 
d="M987 745l-559 -569h905v-176h-1183v147l585 598l-581 598v148h1167v-176h-889z" />
    <glyph glyph-name="uni03A4" unicode="&#x3a4;" horiz-adv-x="1384" 
d="M594 0v1309h-494v182h1184v-182h-493v-1309h-197z" />
    <glyph glyph-name="uni03A5" unicode="&#x3a5;" horiz-adv-x="1542" 
d="M672 0v590l-613 901h236l477 -721l481 721h230l-613 -897v-594h-198z" />
    <glyph glyph-name="uni03A6" unicode="&#x3a6;" horiz-adv-x="1990" 
d="M897 -27v177q-240 3 -416 80t-266 211t-90 309v2q0 129 52 238.5t149 189.5t243.5 126t327.5 48v164h197v-164q361 -7 565.5 -170t204.5 -432v-2q0 -128 -51.5 -237t-148 -189t-243 -126t-327.5 -48v-177h-197zM332 752v-2q0 -191 145.5 -308.5t423.5 -117.5v856
q-141 -2 -250.5 -34.5t-178.5 -89.5t-104.5 -134t-35.5 -170zM1659 752v2q0 91 -35.5 167t-104.5 133.5t-178.5 90.5t-250.5 35v-856q280 4 424.5 118.5t144.5 309.5z" />
    <glyph glyph-name="uni03A7" unicode="&#x3a7;" horiz-adv-x="1562" 
d="M1214 1491h228l-541 -729l561 -762h-231l-453 621l-450 -621h-228l562 760l-541 731h233l430 -592z" />
    <glyph glyph-name="uni03A8" unicode="&#x3a8;" horiz-adv-x="1837" 
d="M1671 1491v-518q0 -309 -171.5 -462.5t-481.5 -158.5v-352h-197v352q-309 5 -482 157.5t-173 457.5v524h196v-520q0 -223 116 -327t345 -109v956h193v-956q229 5 345 107.5t116 322.5v526h194z" />
    <glyph glyph-name="uni03A9" unicode="&#x3a9;" horiz-adv-x="1867" 
d="M934 1516q169 0 310 -54t236.5 -148t148 -223.5t52.5 -279.5v-2q0 -380 -372 -639l417 2v-172h-641v166q73 49 128 94.5t106.5 103.5t84 119.5t52 140.5t19.5 169v2q0 239 -149.5 389.5t-393.5 150.5q-243 0 -392 -149.5t-149 -388.5v-2q0 -204 100 -352t291 -277v-166
h-643v172l420 -2q-181 129 -277 284t-96 357v2q0 144 53 272t148 223.5t237 151.5t310 56z" />
    <glyph glyph-name="uni03AA" unicode="&#x3aa;" horiz-adv-x="653" 
d="M227 0v1491h199v-1491h-199zM426 1620v207h217v-207h-217zM14 1620v207h219v-207h-219z" />
    <glyph glyph-name="uni03AB" unicode="&#x3ab;" horiz-adv-x="1542" 
d="M672 0v590l-613 901h236l477 -721l481 721h230l-613 -897v-594h-198zM868 1616v207h217v-207h-217zM457 1616v207h219v-207h-219z" />
    <glyph glyph-name="uni03AC" unicode="&#x3ac;" horiz-adv-x="1517" 
d="M672 1268l139 338l188 -80l-194 -258h-133zM1464 158v-158q-58 -14 -125 -14q-118 0 -183.5 50.5t-84.5 158.5q-164 -220 -418 -220q-102 0 -197 39.5t-169.5 111t-119 182.5t-44.5 243v4q0 133 44 244.5t117.5 183t167.5 111t195 39.5q249 0 412 -226v201h190v-823
q4 -71 38.5 -103t101.5 -32q44 0 75 8zM686 145q152 0 264.5 115.5t112.5 292.5v4q0 175 -113 290.5t-264 115.5q-157 0 -262 -110.5t-105 -295.5v-4q0 -180 107.5 -294t259.5 -114z" />
    <glyph glyph-name="uni03AD" unicode="&#x3ad;" horiz-adv-x="1206" 
d="M547 1268l139 338l188 -80l-194 -258h-133zM850 483h-246q-143 0 -215 -45t-72 -121v-2q0 -81 80.5 -129.5t225.5 -48.5q213 0 409 121l86 -135q-227 -148 -502 -148q-238 0 -364.5 89t-126.5 233v2q0 101 64.5 168t164.5 94q-198 72 -198 252v2q0 134 123.5 224.5
t345.5 90.5q146 0 260 -37.5t219 -109.5l-98 -137q-176 125 -377 125q-136 0 -209.5 -48.5t-73.5 -123.5v-2q0 -79 65.5 -120.5t190.5 -41.5h248v-152z" />
    <glyph glyph-name="uni03AE" unicode="&#x3ae;" horiz-adv-x="1331" 
d="M598 1268l139 338l189 -80l-195 -258h-133zM1161 -340h-192v981q0 148 -75 231.5t-210 83.5q-133 0 -220 -89t-87 -236v-631h-193v1108h193v-186q132 211 368 211q195 0 305.5 -120.5t110.5 -318.5v-1034z" />
    <glyph glyph-name="uni03AF" unicode="&#x3af;" horiz-adv-x="643" 
d="M209 1268l139 338l189 -80l-195 -258h-133zM180 293v815h193v-807q0 -151 137 -151q54 0 78 8v-158q-58 -14 -127 -14q-142 0 -211.5 74.5t-69.5 232.5z" />
    <glyph glyph-name="uni03B0" unicode="&#x3b0;" horiz-adv-x="1335" 
d="M846 1268v215h196v-215h-196zM293 1268v215h196v-215h-196zM561 1268l86 381l184 -43l-151 -338h-119zM666 -25q-230 0 -363 127.5t-133 366.5v639h192v-633q0 -163 81 -247.5t225 -84.5q145 0 226 83.5t81 246.5v635h192v-635q0 -241 -135 -369.5t-366 -128.5z" />
    <glyph glyph-name="uni03B1" unicode="&#x3b1;" horiz-adv-x="1517" 
d="M1464 158v-158q-58 -14 -125 -14q-118 0 -183.5 50.5t-84.5 158.5q-164 -220 -418 -220q-102 0 -197 39.5t-169.5 111t-119 182.5t-44.5 243v4q0 133 44 244.5t117.5 183t167.5 111t195 39.5q249 0 412 -226v201h190v-823q4 -71 38.5 -103t101.5 -32q44 0 75 8zM686 145
q152 0 264.5 115.5t112.5 292.5v4q0 175 -113 290.5t-264 115.5q-157 0 -262 -110.5t-105 -295.5v-4q0 -180 107.5 -294t259.5 -114z" />
    <glyph glyph-name="uni03B2" unicode="&#x3b2;" horiz-adv-x="1404" 
d="M377 -340h-193v1366q0 254 143.5 398.5t395.5 144.5q233 0 366.5 -115t133.5 -299v-2q0 -145 -83.5 -241t-234.5 -132q181 -40 281 -133t100 -262v-2q0 -174 -126 -291t-343 -117q-286 0 -440 226v-541zM606 698h-231v-131q0 -200 113.5 -312t291.5 -112q144 0 227 72.5
t83 183.5q0 299 -484 299zM375 1026v-180h229q199 0 311.5 78.5t112.5 218.5q0 117 -82 189.5t-223 72.5q-164 0 -256 -101t-92 -278z" />
    <glyph glyph-name="uni03B3" unicode="&#x3b3;" horiz-adv-x="1271" 
d="M1194 1108l-463 -1083v-365h-192v369l-461 1079h211l348 -877l350 877h207z" />
    <glyph glyph-name="uni03B4" unicode="&#x3b4;" horiz-adv-x="1370" 
d="M1102 1393l-582 4l340 -271q136 -104 217 -191.5t125.5 -190t44.5 -222.5q0 -110 -40.5 -209.5t-113 -174.5t-181 -119t-236.5 -44q-166 0 -294.5 73t-195.5 194.5t-67 269.5q0 108 28 193t89.5 157.5t147.5 132t214 123.5l-348 295v141h852v-161zM733 1008h-2
q-233 -113 -328.5 -227.5t-95.5 -268.5q0 -157 103.5 -264t267.5 -107q168 0 273.5 108.5t105.5 264.5q0 132 -71 237t-253 257z" />
    <glyph glyph-name="uni03B5" unicode="&#x3b5;" horiz-adv-x="1206" 
d="M850 483h-246q-143 0 -215 -45t-72 -121v-2q0 -81 80.5 -129.5t225.5 -48.5q213 0 409 121l86 -135q-227 -148 -502 -148q-238 0 -364.5 89t-126.5 233v2q0 101 64.5 168t164.5 94q-198 72 -198 252v2q0 134 123.5 224.5t345.5 90.5q146 0 260 -37.5t219 -109.5l-98 -137
q-176 125 -377 125q-136 0 -209.5 -48.5t-73.5 -123.5v-2q0 -79 65.5 -120.5t190.5 -41.5h248v-152z" />
    <glyph glyph-name="uni03B6" unicode="&#x3b6;" horiz-adv-x="1169" 
d="M901 -272v247l-248 29q-534 68 -534 434q0 136 65 245.5t250 299.5l402 408h-633v163h882v-149l-520 -541q-150 -155 -201 -234t-51 -175q0 -231 377 -277l391 -49v-401h-180z" />
    <glyph glyph-name="uni03B7" unicode="&#x3b7;" horiz-adv-x="1331" 
d="M1161 -340h-192v981q0 148 -75 231.5t-210 83.5q-133 0 -220 -89t-87 -236v-631h-193v1108h193v-186q132 211 368 211q195 0 305.5 -120.5t110.5 -318.5v-1034z" />
    <glyph glyph-name="uni03B8" unicode="&#x3b8;" horiz-adv-x="1429" 
d="M713 -25q-175 0 -307.5 103.5t-200.5 277t-68 387.5v54q0 214 69 387.5t202.5 277t308.5 103.5q106 0 198 -39t160.5 -109t117.5 -165.5t74 -211t25 -243.5v-54q0 -214 -68.5 -387.5t-202 -277t-308.5 -103.5zM717 141q173 0 275 152.5t110 396.5h-772q5 -241 111 -395
t276 -154zM713 1397q-172 0 -275 -152t-108 -393h772q-8 240 -114 392.5t-275 152.5z" />
    <glyph glyph-name="uni03B9" unicode="&#x3b9;" horiz-adv-x="643" 
d="M180 293v815h193v-807q0 -151 137 -151q54 0 78 8v-158q-58 -14 -127 -14q-142 0 -211.5 74.5t-69.5 232.5z" />
    <glyph glyph-name="uni03BA" unicode="&#x3ba;" horiz-adv-x="1236" 
d="M377 1108v-610l561 610h240l-459 -481l467 -627h-230l-366 494l-213 -220v-274h-193v1108h193z" />
    <glyph glyph-name="uni03BB" unicode="&#x3bb;" horiz-adv-x="1298" 
d="M207 1370v162q79 31 166 31q69 0 118 -16.5t89 -57.5t70 -96t67 -146l506 -1247h-209l-357 905l-372 -905h-205l487 1122l-26 70q-47 114 -89 159.5t-114 45.5q-60 0 -131 -27z" />
    <glyph glyph-name="uni03BC" unicode="&#x3bc;" horiz-adv-x="1433" 
d="M1382 158v-158q-58 -14 -125 -14q-216 0 -262 180q-114 -186 -315 -186q-107 0 -193.5 52t-132.5 152h-4q25 -170 25 -268v-256h-191v1448h193v-635q0 -142 84 -234t215 -92q129 0 214 92.5t85 233.5v635h192v-823q4 -71 37.5 -103t100.5 -32q53 0 77 8z" />
    <glyph glyph-name="uni03BD" unicode="&#x3bd;" horiz-adv-x="1271" 
d="M551 -8l-473 1116h209l350 -887l352 887h205l-473 -1116h-170z" />
    <glyph glyph-name="uni03BE" unicode="&#x3be;" horiz-adv-x="1189" 
d="M1141 1403l-103 -148q-171 144 -352 144q-140 0 -221.5 -71.5t-81.5 -194.5q0 -127 100 -201t254 -74h195v-162h-232q-182 0 -283.5 -70.5t-101.5 -189.5q0 -121 100 -179.5t294 -80.5l381 -49v-399h-183v247l-237 29q-101 10 -183.5 30t-152 53t-116.5 78.5t-73 109
t-26 141.5q0 146 91 237.5t236 132.5q-43 17 -82.5 43t-82 68.5t-68 107.5t-25.5 142q0 178 136 300t362 122q139 0 246.5 -43t208.5 -123z" />
    <glyph glyph-name="uni03BF" unicode="&#x3bf;" horiz-adv-x="1400" 
d="M698 -25q-164 0 -297.5 78t-207.5 209.5t-74 286.5v4q0 155 75 288t209.5 212.5t298.5 79.5q163 0 297 -78t208.5 -210t74.5 -288v-4q0 -155 -75 -287.5t-210 -211.5t-299 -79zM702 145q168 0 275.5 117.5t107.5 286.5v4q0 169 -111.5 289.5t-275.5 120.5
q-168 0 -276.5 -119t-108.5 -287v-4q0 -168 112.5 -288t276.5 -120z" />
    <glyph glyph-name="uni03C0" unicode="&#x3c0;" horiz-adv-x="1497" 
d="M63 1108h1332v-172h-213v-635q0 -151 139 -151q52 0 76 8v-158q-58 -14 -125 -14q-142 0 -211.5 74.5t-69.5 232.5v643h-524v-936h-193v936h-211v172z" />
    <glyph glyph-name="uni03C1" unicode="&#x3c1;" horiz-adv-x="1411" 
d="M160 -340v881q0 259 157 425.5t408 166.5q156 0 284 -71.5t203.5 -204t75.5 -300.5v-4q0 -130 -44.5 -240.5t-118 -183.5t-166.5 -113.5t-191 -40.5q-266 0 -416 232v-547h-192zM727 145q155 0 260 110.5t105 295.5v4q0 182 -106 295t-259 113q-159 0 -266 -114
t-107 -292v-4q0 -178 111 -293t262 -115z" />
    <glyph glyph-name="uni03C2" unicode="&#x3c2;" horiz-adv-x="1232" 
d="M909 -272v249l-190 23q-292 37 -446 181.5t-154 393.5v3q0 111 41 212.5t114 177t179 120.5t229 45q154 0 259 -53t196 -154l-129 -135q-69 82 -147.5 127t-180.5 45q-158 0 -262.5 -110t-104.5 -271v-2q0 -353 449 -408l330 -43v-401h-183z" />
    <glyph glyph-name="uni03C3" unicode="&#x3c3;" horiz-adv-x="1458" 
d="M1391 940l-353 2q113 -68 173.5 -173t60.5 -239v-2q0 -151 -73.5 -277.5t-207 -201t-297.5 -74.5t-296 75.5t-205.5 204t-73.5 282.5v2q0 117 43.5 221t121 181t191 122t246.5 45h670v-168zM698 145q169 0 275 111t106 279v4q0 169 -108.5 284t-276.5 115
q-169 0 -275 -113.5t-106 -281.5v-2q0 -170 109 -283t276 -113z" />
    <glyph glyph-name="uni03C4" unicode="&#x3c4;" horiz-adv-x="1210" 
d="M1124 936h-446v-584q0 -114 46.5 -159.5t143.5 -45.5q70 0 152 23v-158q-92 -30 -186 -30q-178 0 -263.5 83.5t-85.5 278.5v592h-424v172h1063v-172z" />
    <glyph glyph-name="uni03C5" unicode="&#x3c5;" horiz-adv-x="1335" 
d="M666 -25q-230 0 -363 127.5t-133 366.5v639h192v-633q0 -163 81 -247.5t225 -84.5q145 0 226 83.5t81 246.5v635h192v-635q0 -241 -135 -369.5t-366 -128.5z" />
    <glyph glyph-name="uni03C6" unicode="&#x3c6;" horiz-adv-x="1787" 
d="M989 -340h-190v334q-163 4 -293.5 47.5t-215 118.5t-129 175t-44.5 218v2q0 115 45 214.5t129.5 175.5t215 120.5t292.5 48.5v440h190v-440q162 -4 292.5 -48t215 -118.5t129.5 -174.5t45 -216v-2q0 -116 -45 -216.5t-129.5 -176.5t-215 -121t-292.5 -47v-334zM1479 553
v2q0 172 -127 280.5t-365 112.5v-786q239 4 365.5 111t126.5 280zM311 555v-2q0 -176 125.5 -281.5t366.5 -109.5v786q-242 -4 -367 -110.5t-125 -282.5z" />
    <glyph glyph-name="uni03C7" unicode="&#x3c7;" horiz-adv-x="1296" 
d="M315 1108l334 -547l338 547h215l-444 -684l497 -764h-223l-387 621l-389 -621h-215l494 760l-443 688h223z" />
    <glyph glyph-name="uni03C8" unicode="&#x3c8;" horiz-adv-x="1742" 
d="M967 -340h-191v334q-292 4 -450 151t-158 410v553h190v-549q0 -184 109 -287.5t311 -107.5v1390h189v-1390q199 1 308 106t109 287v551h193v-547q0 -265 -160.5 -413.5t-449.5 -153.5v-334z" />
    <glyph glyph-name="uni03C9" unicode="&#x3c9;" horiz-adv-x="1892" 
d="M852 895h188v-338q0 -191 69.5 -300.5t201.5 -109.5q119 0 187.5 94.5t68.5 268.5q0 168 -69 310.5t-198 287.5h220q107 -120 173 -273t66 -329q0 -246 -116 -388.5t-314 -142.5q-150 0 -247.5 86t-137.5 222q-40 -135 -137 -221.5t-250 -86.5q-196 0 -310 142.5
t-114 388.5q0 319 240 602h215q-127 -140 -194.5 -284t-67.5 -314q0 -171 69 -267t183 -96q134 0 204 109.5t70 300.5v338z" />
    <glyph glyph-name="uni03CA" unicode="&#x3ca;" horiz-adv-x="643" 
d="M369 1268v217h213v-217h-213zM-16 1268v217h213v-217h-213zM180 293v815h193v-807q0 -151 137 -151q54 0 78 8v-158q-58 -14 -127 -14q-142 0 -211.5 74.5t-69.5 232.5z" />
    <glyph glyph-name="uni03CB" unicode="&#x3cb;" horiz-adv-x="1335" 
d="M754 1268v217h213v-217h-213zM369 1268v217h213v-217h-213zM666 -25q-230 0 -363 127.5t-133 366.5v639h192v-633q0 -163 81 -247.5t225 -84.5q145 0 226 83.5t81 246.5v635h192v-635q0 -241 -135 -369.5t-366 -128.5z" />
    <glyph glyph-name="uni03CC" unicode="&#x3cc;" horiz-adv-x="1400" 
d="M625 1268l139 338l188 -80l-194 -258h-133zM698 -25q-164 0 -297.5 78t-207.5 209.5t-74 286.5v4q0 155 75 288t209.5 212.5t298.5 79.5q163 0 297 -78t208.5 -210t74.5 -288v-4q0 -155 -75 -287.5t-210 -211.5t-299 -79zM702 145q168 0 275.5 117.5t107.5 286.5v4
q0 169 -111.5 289.5t-275.5 120.5q-168 0 -276.5 -119t-108.5 -287v-4q0 -168 112.5 -288t276.5 -120z" />
    <glyph glyph-name="uni03CD" unicode="&#x3cd;" horiz-adv-x="1335" 
d="M594 1268l139 338l189 -80l-195 -258h-133zM666 -25q-230 0 -363 127.5t-133 366.5v639h192v-633q0 -163 81 -247.5t225 -84.5q145 0 226 83.5t81 246.5v635h192v-635q0 -241 -135 -369.5t-366 -128.5z" />
    <glyph glyph-name="uni03CE" unicode="&#x3ce;" horiz-adv-x="1892" 
d="M870 1268l140 338l188 -80l-194 -258h-134zM852 895h188v-338q0 -191 69.5 -300.5t201.5 -109.5q119 0 187.5 94.5t68.5 268.5q0 168 -69 310.5t-198 287.5h220q107 -120 173 -273t66 -329q0 -246 -116 -388.5t-314 -142.5q-150 0 -247.5 86t-137.5 222
q-40 -135 -137 -221.5t-250 -86.5q-196 0 -310 142.5t-114 388.5q0 319 240 602h215q-127 -140 -194.5 -284t-67.5 -314q0 -171 69 -267t183 -96q134 0 204 109.5t70 300.5v338z" />
    <glyph glyph-name="uni0400" unicode="&#x400;" horiz-adv-x="1443" 
d="M840 1620h-156l-254 201l188 84zM213 0v1491h1085v-178h-888v-473h792v-178h-792v-484h899v-178h-1096z" />
    <glyph glyph-name="uni0401" unicode="&#x401;" horiz-adv-x="1443" 
d="M858 1620v207h217v-207h-217zM446 1620v207h220v-207h-220zM213 0v1491h1085v-178h-888v-473h792v-178h-792v-484h899v-178h-1096z" />
    <glyph glyph-name="uni0402" unicode="&#x402;" horiz-adv-x="1804" 
d="M1270 1491v-182h-504v-428q191 51 373 51q273 0 416 -121.5t143 -343.5q0 -216 -149 -343.5t-412 -127.5h-43v176h24q191 0 286 77t95 212q0 139 -92.5 216t-288.5 77q-168 0 -352 -47v-707h-199v1309h-473v182h1176z" />
    <glyph glyph-name="uni0403" unicode="&#x403;" horiz-adv-x="1329" 
d="M616 1620l224 285l186 -84l-252 -201h-158zM213 0v1491h1020v-180h-823v-1311h-197z" />
    <glyph glyph-name="uni0404" unicode="&#x404;" horiz-adv-x="1593" 
d="M893 -25q-211 0 -382.5 102t-267.5 277t-96 387v4q0 156 56.5 297.5t155 246t240.5 166t304 61.5q130 0 239.5 -31.5t186 -79.5t156.5 -123l-127 -143q-101 96 -209 147t-246 51q-217 0 -370.5 -141t-178.5 -358h793v-172h-793q25 -224 177 -368t372 -144q141 0 248.5 52
t214.5 159l127 -127q-132 -132 -269 -197.5t-331 -65.5z" />
    <glyph glyph-name="uni0405" unicode="&#x405;" horiz-adv-x="1380" 
d="M727 -20q-348 0 -612 237l121 143q119 -106 235 -155t262 -49q141 0 227.5 64.5t86.5 168.5v4q0 66 -29.5 110.5t-112 84t-231.5 71.5q-261 54 -380.5 153t-119.5 282v4q0 180 140.5 296.5t355.5 116.5q160 0 284.5 -44.5t243.5 -139.5l-111 -151q-196 159 -421 159
q-133 0 -214 -63t-81 -156v-4q0 -72 31.5 -117.5t115 -83t242.5 -73.5q252 -57 367.5 -155t115.5 -271v-4q0 -195 -143 -311.5t-373 -116.5z" />
    <glyph glyph-name="uni0406" unicode="&#x406;" horiz-adv-x="653" 
d="M227 0v1491h199v-1491h-199z" />
    <glyph glyph-name="uni0407" unicode="&#x407;" horiz-adv-x="653" 
d="M227 0v1491h199v-1491h-199zM426 1620v207h217v-207h-217zM14 1620v207h219v-207h-219z" />
    <glyph glyph-name="uni0408" unicode="&#x408;" horiz-adv-x="1198" 
d="M532 -20q-293 0 -464 256l137 126q71 -103 147.5 -152.5t182.5 -49.5q123 0 198.5 88t75.5 250v993h201v-993q0 -258 -140 -392q-126 -126 -338 -126z" />
    <glyph glyph-name="uni0409" unicode="&#x409;" horiz-adv-x="2211" 
d="M1004 0v1325h-9l-745 -1325h-207l842 1491h315v-526h342q259 0 413 -124t154 -349v-3q0 -152 -76.5 -264t-208.5 -168.5t-302 -56.5h-518zM1200 180h328q173 0 278 82t105 223v2q0 145 -100 222t-275 77h-336v-606z" />
    <glyph glyph-name="uni040A" unicode="&#x40a;" horiz-adv-x="2412" 
d="M1204 0v659h-794v-659h-197v1491h197v-649h794v649h197v-526h342q259 0 413 -124t154 -349v-3q0 -228 -163.5 -358.5t-426.5 -130.5h-516zM1401 180h325q175 0 280 82t105 223v2q0 145 -99.5 222t-274.5 77h-336v-606z" />
    <glyph glyph-name="uni040B" unicode="&#x40b;" horiz-adv-x="1871" 
d="M1270 1491v-182h-504v-428q189 53 375 53q559 0 559 -504v-430h-199v401q0 188 -92 271.5t-287 83.5q-177 0 -356 -51v-705h-199v1309h-473v182h1176z" />
    <glyph glyph-name="uni040C" unicode="&#x40c;" horiz-adv-x="1560" 
d="M694 1616l224 285l186 -84l-252 -201h-158zM213 0v1491h197v-643h221l600 643h254l-694 -719l727 -772h-258l-625 672h-225v-672h-197z" />
    <glyph glyph-name="uni040D" unicode="&#x40d;" horiz-adv-x="1699" 
d="M930 1616h-156l-254 201l189 84zM1487 0h-199v1184l-909 -1184h-166v1491h197v-1155l888 1155h189v-1491z" />
    <glyph glyph-name="uni040E" unicode="&#x40e;" horiz-adv-x="1531" 
d="M791 1612q-142 0 -232 67.5t-100 188.5h145q40 -109 187 -109q146 0 186 109h145q-10 -121 -99.5 -188.5t-231.5 -67.5zM608 0h-221l305 516l-618 975h225l504 -803l452 803h222z" />
    <glyph glyph-name="uni040F" unicode="&#x40f;" horiz-adv-x="1640" 
d="M723 -309v309h-510v1491h197v-1311h811v1311h196v-1491h-508v-309h-186z" />
    <glyph glyph-name="uni0410" unicode="&#x410;" horiz-adv-x="1699" 
d="M84 0l674 1501h184l672 -1501h-209l-170 385h-778l-170 -385h-203zM530 561h631l-315 711z" />
    <glyph glyph-name="uni0411" unicode="&#x411;" horiz-adv-x="1513" 
d="M213 0v1491h1063v-178h-868v-447h450q251 0 397 -108t146 -312v-2q0 -143 -75 -245t-200.5 -150.5t-287.5 -48.5h-625zM408 178h436q162 0 261 67t99 191v4q0 126 -95 189t-257 63h-444v-514z" />
    <glyph glyph-name="uni0412" unicode="&#x412;" horiz-adv-x="1554" 
d="M213 0v1491h645q255 0 389 -131q99 -104 99 -244v-4q0 -230 -230 -340q314 -99 314 -360v-4q0 -190 -148 -299t-397 -109h-672zM1147 1083v4q0 106 -81 167t-228 61h-430v-477h415q150 0 237 62.5t87 182.5zM1231 424v4q0 114 -93.5 177t-275.5 63h-454v-492h479
q161 0 252.5 65t91.5 183z" />
    <glyph glyph-name="uni0413" unicode="&#x413;" horiz-adv-x="1329" 
d="M213 0v1491h1020v-180h-823v-1311h-197z" />
    <glyph glyph-name="uni0414" unicode="&#x414;" horiz-adv-x="1818" 
d="M84 180h143l580 1321h205l579 -1321h144v-489h-189v309h-1274v-309h-188v489zM907 1280l-473 -1104h944z" />
    <glyph glyph-name="uni0415" unicode="&#x415;" horiz-adv-x="1443" 
d="M213 0v1491h1085v-178h-888v-473h792v-178h-792v-484h899v-178h-1096z" />
    <glyph glyph-name="uni0416" unicode="&#x416;" horiz-adv-x="2287" 
d="M74 1491h239l568 -645h168l-2 645h194v-645h166l569 645h238l-641 -721l668 -770h-240l-584 674h-176v-674h-194l2 674h-187l-579 -674h-236l670 770z" />
    <glyph glyph-name="uni0417" unicode="&#x417;" horiz-adv-x="1423" 
d="M240 1151l-121 133q121 107 264 169.5t330 62.5q242 0 389 -109.5t147 -288.5v-2q0 -133 -74.5 -223t-216.5 -133q151 -33 238.5 -123.5t87.5 -228.5v-2q0 -188 -161 -309.5t-433 -121.5q-343 0 -594 213l117 142q108 -86 222.5 -132t258.5 -46q172 0 280.5 72.5
t108.5 189.5v4q0 121 -105 185.5t-294 64.5h-260v168h262q165 0 264 67t99 191v2q0 111 -91.5 177t-248.5 66q-247 0 -469 -188z" />
    <glyph glyph-name="uni0418" unicode="&#x418;" horiz-adv-x="1699" 
d="M1487 0h-199v1184l-909 -1184h-166v1491h197v-1155l888 1155h189v-1491z" />
    <glyph glyph-name="uni0419" unicode="&#x419;" horiz-adv-x="1699" 
d="M850 1612q-142 0 -232 67.5t-100 188.5h146q40 -109 186 -109t186 109h146q-10 -121 -100 -188.5t-232 -67.5zM1487 0h-199v1184l-909 -1184h-166v1491h197v-1155l888 1155h189v-1491z" />
    <glyph glyph-name="uni041A" unicode="&#x41a;" horiz-adv-x="1560" 
d="M213 0v1491h197v-643h221l600 643h254l-694 -719l727 -772h-258l-625 672h-225v-672h-197z" />
    <glyph glyph-name="uni041B" unicode="&#x41b;" horiz-adv-x="1658" 
d="M918 1501l657 -1501h-219l-531 1235l-528 -1235h-213l657 1501h177z" />
    <glyph glyph-name="uni041C" unicode="&#x41c;" horiz-adv-x="1865" 
d="M213 0v1491h203l516 -780l516 780h205v-1491h-197v1167l-522 -770h-8l-520 766v-1163h-193z" />
    <glyph glyph-name="uni041D" unicode="&#x41d;" horiz-adv-x="1634" 
d="M213 0v1491h197v-649h815v649h198v-1491h-198v659h-815v-659h-197z" />
    <glyph glyph-name="uni041E" unicode="&#x41e;" horiz-adv-x="1826" 
d="M911 -25q-222 0 -398 105t-271 279t-95 382v4q0 154 57 295t156.5 246t244 167.5t310.5 62.5q222 0 398 -105t271 -279t95 -382v-5q0 -154 -57 -294.5t-156.5 -245.5t-244 -167.5t-310.5 -62.5zM915 156q160 0 289 79t200 212.5t71 293.5v4q0 119 -42.5 227.5
t-116.5 188.5t-179.5 127t-225.5 47q-160 0 -289 -79t-199.5 -212.5t-70.5 -293.5v-5q0 -160 72 -294.5t202 -214.5t289 -80z" />
    <glyph glyph-name="uni041F" unicode="&#x41f;" horiz-adv-x="1630" 
d="M213 0v1491h1204v-1491h-196v1311h-811v-1311h-197z" />
    <glyph glyph-name="uni0420" unicode="&#x420;" horiz-adv-x="1439" 
d="M213 0v1491h567q255 0 408 -129.5t153 -349.5v-4q0 -119 -47 -214.5t-128 -156.5t-187 -93t-227 -32h-342v-512h-197zM410 690h350q172 0 277.5 86t105.5 225v5q0 149 -101.5 227t-277.5 78h-354v-621z" />
    <glyph glyph-name="uni0421" unicode="&#x421;" horiz-adv-x="1595" 
d="M897 -25q-212 0 -384.5 102t-269 277t-96.5 387v4q0 156 57 297.5t156 246t241 166t304 61.5q130 0 239.5 -31.5t186 -79.5t156.5 -123l-129 -145q-103 96 -210.5 147t-244.5 51q-155 0 -281.5 -77.5t-198 -211.5t-71.5 -296v-5q0 -162 71.5 -297t198 -213.5t281.5 -78.5
q141 0 247.5 51.5t217.5 157.5l129 -127q-132 -132 -269 -197.5t-331 -65.5z" />
    <glyph glyph-name="uni0422" unicode="&#x422;" horiz-adv-x="1384" 
d="M594 0v1309h-494v182h1184v-182h-493v-1309h-197z" />
    <glyph glyph-name="uni0423" unicode="&#x423;" horiz-adv-x="1531" 
d="M608 0h-221l305 516l-618 975h225l504 -803l452 803h222z" />
    <glyph glyph-name="uni0424" unicode="&#x424;" horiz-adv-x="1990" 
d="M897 -27v177q-240 3 -416 80t-266 211t-90 309v2q0 129 52 238.5t149 189.5t243.5 126t327.5 48v164h197v-164q361 -7 565.5 -170t204.5 -432v-2q0 -128 -51.5 -237t-148 -189t-243 -126t-327.5 -48v-177h-197zM332 752v-2q0 -191 145.5 -308.5t423.5 -117.5v856
q-141 -2 -250.5 -34.5t-178.5 -89.5t-104.5 -134t-35.5 -170zM1659 752v2q0 91 -35.5 167t-104.5 133.5t-178.5 90.5t-250.5 35v-856q280 4 424.5 118.5t144.5 309.5z" />
    <glyph glyph-name="uni0425" unicode="&#x425;" horiz-adv-x="1562" 
d="M1214 1491h228l-541 -729l561 -762h-231l-453 621l-450 -621h-228l562 760l-541 731h233l430 -592z" />
    <glyph glyph-name="uni0426" unicode="&#x426;" horiz-adv-x="1669" 
d="M1391 -309v309h-1178v1491h197v-1311h811v1311h196v-1311h160v-489h-186z" />
    <glyph glyph-name="uni0427" unicode="&#x427;" horiz-adv-x="1527" 
d="M1118 0v565q-189 -53 -385 -53q-269 0 -414 122t-145 380v477h199v-447q0 -187 92 -269.5t287 -82.5q180 0 366 53v746h197v-1491h-197z" />
    <glyph glyph-name="uni0428" unicode="&#x428;" horiz-adv-x="2369" 
d="M213 0v1491h197v-1311h675v1311h199v-1311h676v1311h199v-1491h-1946z" />
    <glyph glyph-name="uni0429" unicode="&#x429;" horiz-adv-x="2410" 
d="M213 0v1491h197v-1311h675v1311h199v-1311h676v1311h199v-1311h159v-489h-186v309h-1919z" />
    <glyph glyph-name="uni042A" unicode="&#x42a;" horiz-adv-x="1810" 
d="M580 0v1313h-486v178h682v-526h365q258 0 412.5 -124t154.5 -347v-5q0 -228 -163.5 -358.5t-426.5 -130.5h-538zM776 180h348q174 0 279.5 81.5t105.5 221.5v4q0 145 -99.5 222t-274.5 77h-359v-606z" />
    <glyph glyph-name="uni042B" unicode="&#x42b;" horiz-adv-x="2025" 
d="M213 0v1491h197v-526h364q259 0 413 -124t154 -349v-3q0 -228 -163.5 -358.5t-425.5 -130.5h-539zM410 180h348q175 0 280 82t105 223v2q0 145 -100 222t-275 77h-358v-606zM1616 0v1491h196v-1491h-196z" />
    <glyph glyph-name="uni042C" unicode="&#x42c;" horiz-adv-x="1443" 
d="M213 0v1491h197v-526h364q258 0 412.5 -124t154.5 -347v-5q0 -228 -163.5 -358.5t-425.5 -130.5h-539zM410 180h348q174 0 279.5 81.5t105.5 221.5v4q0 145 -100 222t-275 77h-358v-606z" />
    <glyph glyph-name="uni042D" unicode="&#x42d;" horiz-adv-x="1595" 
d="M233 1141l-118 133q126 115 268.5 178.5t333.5 63.5q211 0 378.5 -99t261 -273.5t93.5 -393.5v-5q0 -159 -55 -300t-152 -245t-238.5 -164.5t-306.5 -60.5q-185 0 -328.5 64t-267.5 184l127 137q108 -105 219.5 -155.5t247.5 -50.5q223 0 371.5 143t173.5 369h-792v172
h790q-25 221 -170.5 360t-359.5 139q-141 0 -255.5 -50t-220.5 -146z" />
    <glyph glyph-name="uni042E" unicode="&#x42e;" horiz-adv-x="2351" 
d="M213 0v1491h197v-649h323q16 137 76.5 259.5t154.5 214.5t225 146t279 54q159 0 298 -62.5t234 -168t149.5 -245t54.5 -290.5v-5q0 -150 -55 -290t-150.5 -246t-235.5 -170t-299 -64q-151 0 -282.5 54.5t-224.5 148t-152 218t-74 263.5h-321v-659h-197zM1468 156
q153 0 275.5 79t189 212.5t66.5 293.5v4q0 159 -68 293.5t-191.5 215.5t-275.5 81q-153 0 -276 -80t-189.5 -213.5t-66.5 -291.5v-5q0 -159 68 -293.5t191.5 -215t276.5 -80.5z" />
    <glyph glyph-name="uni042F" unicode="&#x42f;" horiz-adv-x="1556" 
d="M152 1028v2q0 217 153.5 339t419.5 122h618v-1491h-196v561h-381l-426 -561h-240l449 584q-180 39 -288.5 152t-108.5 292zM1147 737v574h-438q-169 0 -264 -75.5t-95 -205.5v-4q0 -138 103.5 -213.5t273.5 -75.5h420z" />
    <glyph glyph-name="uni0430" unicode="&#x430;" horiz-adv-x="1253" 
d="M512 -25q-106 0 -197.5 38.5t-151 118.5t-59.5 187v5q0 174 127.5 266t341.5 92q182 0 328 -47v37q0 138 -81 210t-232 72q-166 0 -330 -77l-55 153q104 47 197.5 70.5t209.5 23.5q238 0 361 -123q114 -114 114 -329v-672h-186v158q-145 -183 -387 -183zM555 125
q149 0 248.5 79t99.5 202v96q-143 47 -303 47q-146 0 -225.5 -57.5t-79.5 -157.5v-4q0 -94 75 -149.5t185 -55.5z" />
    <glyph glyph-name="uni0431" unicode="&#x431;" horiz-adv-x="1396" 
d="M707 -25q-245 0 -392 150q-178 178 -178 522v2q0 280 66 459t195.5 273.5t340.5 131.5l377 64l33 -178l-381 -62q-221 -37 -322.5 -147t-126.5 -338q71 97 184.5 153t252.5 56q239 0 380.5 -145t141.5 -375v-2q0 -155 -70.5 -283.5t-202 -204.5t-298.5 -76zM709 141
q164 0 269 112.5t105 281.5v2q0 163 -98.5 266.5t-261.5 103.5q-174 0 -282.5 -104t-108.5 -266q0 -176 107.5 -286t269.5 -110z" />
    <glyph glyph-name="uni0432" unicode="&#x432;" horiz-adv-x="1288" 
d="M184 0v1108h561q175 0 276 -75.5t101 -209.5q0 -99 -49 -159.5t-141 -94.5q235 -65 235 -266q0 -146 -113.5 -224.5t-308.5 -78.5h-561zM932 803q0 73 -55 115.5t-158 42.5h-346v-330h334q108 0 166.5 46t58.5 126zM977 311q0 85 -65 130.5t-189 45.5h-350v-337h366
q114 0 176 43t62 118z" />
    <glyph glyph-name="uni0433" unicode="&#x433;" horiz-adv-x="1071" 
d="M184 0v1108h813v-174h-620v-934h-193z" />
    <glyph glyph-name="uni0434" unicode="&#x434;" horiz-adv-x="1419" 
d="M608 1116h201l422 -942h127v-461h-176v287h-944v-287h-177v461h125zM709 922l-324 -752h643z" />
    <glyph glyph-name="uni0435" unicode="&#x435;" horiz-adv-x="1284" 
d="M676 -25q-114 0 -216 42t-177 116.5t-119.5 183t-44.5 234.5v4q0 158 68.5 290.5t191.5 210t274 77.5q163 0 283.5 -81t180 -213.5t59.5 -295.5q0 -3 -5 -60h-858q17 -161 120.5 -253.5t246.5 -92.5q105 0 184.5 38t151.5 112l117 -105q-88 -100 -197.5 -153.5
t-259.5 -53.5zM311 621h670q-13 151 -99 250.5t-231 99.5q-136 0 -229.5 -98t-110.5 -252z" />
    <glyph glyph-name="uni0436" unicode="&#x436;" horiz-adv-x="1880" 
d="M1034 1108l-2 -465h168l387 465h230l-469 -543l485 -565h-231l-400 475h-170l2 -475h-188l2 475h-174l-398 -475h-229l485 557l-469 551h234l385 -465h166l-2 465h188z" />
    <glyph glyph-name="uni0437" unicode="&#x437;" horiz-adv-x="1202" 
d="M92 127l98 137q182 -127 396 -127q141 0 222 49t81 131v2q0 78 -76.5 122t-210.5 42h-248v152h244q126 0 193 44.5t67 123.5v2q0 76 -69.5 121t-196.5 45q-198 0 -387 -133l-101 129q227 166 496 166q205 0 328 -86t123 -224v-2q0 -97 -59.5 -160t-155.5 -96
q108 -25 175.5 -91.5t67.5 -170.5v-2q0 -140 -130.5 -233t-360.5 -93q-283 0 -496 152z" />
    <glyph glyph-name="uni0438" unicode="&#x438;" horiz-adv-x="1374" 
d="M184 0v1108h193v-813l629 813h184v-1108h-191v821l-637 -821h-178z" />
    <glyph glyph-name="uni0439" unicode="&#x439;" horiz-adv-x="1374" 
d="M184 0v1108h193v-813l629 813h184v-1108h-191v821l-637 -821h-178zM686 1264q-142 0 -231 73t-99 205h138q42 -133 192 -133q151 0 193 133h137q-10 -132 -99 -205t-231 -73z" />
    <glyph glyph-name="uni043A" unicode="&#x43a;" horiz-adv-x="1247" 
d="M377 1108v-465h178l397 465h238l-481 -541l493 -567h-237l-406 475h-182v-475h-193v1108h193z" />
    <glyph glyph-name="uni043B" unicode="&#x43b;" horiz-adv-x="1323" 
d="M752 1116l495 -1116h-213l-375 879l-376 -879h-207l495 1116h181z" />
    <glyph glyph-name="uni043C" unicode="&#x43c;" horiz-adv-x="1560" 
d="M184 0v1108h201l397 -588l394 588h200v-1108h-190v815l-404 -588h-6l-403 584v-811h-189z" />
    <glyph glyph-name="uni043D" unicode="&#x43d;" horiz-adv-x="1370" 
d="M184 0v1108h193v-461h616v461h191v-1108h-191v471h-616v-471h-193z" />
    <glyph glyph-name="uni043E" unicode="&#x43e;" horiz-adv-x="1400" 
d="M698 -25q-164 0 -297.5 78t-207.5 209.5t-74 286.5v4q0 155 75 288t209.5 212.5t298.5 79.5q163 0 297 -78t208.5 -210t74.5 -288v-4q0 -155 -75 -287.5t-210 -211.5t-299 -79zM702 145q168 0 275.5 117.5t107.5 286.5v4q0 169 -111.5 289.5t-275.5 120.5
q-168 0 -276.5 -119t-108.5 -287v-4q0 -168 112.5 -288t276.5 -120z" />
    <glyph glyph-name="uni043F" unicode="&#x43f;" horiz-adv-x="1368" 
d="M184 0v1108h998v-1108h-193v934h-612v-934h-193z" />
    <glyph glyph-name="uni0440" unicode="&#x440;" horiz-adv-x="1435" 
d="M184 -340v1448h193v-211q157 236 411 236q99 0 192.5 -39.5t168 -111t119.5 -182.5t45 -243v-4q0 -133 -45 -244.5t-119.5 -183t-168 -111t-192.5 -39.5q-258 0 -411 226v-541h-193zM748 145q158 0 263 110t105 296v4q0 181 -107 294.5t-261 113.5q-151 0 -264 -115.5
t-113 -290.5v-4q0 -177 112.5 -292.5t264.5 -115.5z" />
    <glyph glyph-name="uni0441" unicode="&#x441;" horiz-adv-x="1232" 
d="M688 -25q-159 0 -290.5 78t-205 209.5t-73.5 286.5v4q0 155 73.5 288t205.5 212.5t292 79.5q145 0 249.5 -52t193.5 -145l-123 -131q-78 78 -150.5 118t-171.5 40q-104 0 -190.5 -54.5t-135.5 -148t-49 -203.5v-4q0 -172 110 -290t275 -118q96 0 173.5 40.5t150.5 115.5
l119 -115q-90 -101 -198 -156t-255 -55z" />
    <glyph glyph-name="uni0442" unicode="&#x442;" horiz-adv-x="1196" 
d="M502 0v936h-430v172h1050v-172h-428v-936h-192z" />
    <glyph glyph-name="uni0443" unicode="&#x443;" horiz-adv-x="1280" 
d="M659 215l336 893h203l-457 -1143q-68 -170 -153 -241.5t-215 -71.5q-119 0 -244 61l66 148q77 -41 165 -41q69 0 116.5 40.5t90.5 141.5l-491 1106h209z" />
    <glyph glyph-name="uni0444" unicode="&#x444;" horiz-adv-x="1787" 
d="M989 -340h-190v334q-163 4 -293.5 47.5t-215 118.5t-129 175t-44.5 218v2q0 115 45 214.5t129.5 175.5t215 120.5t292.5 48.5v440h190v-440q162 -4 292.5 -48t215 -118.5t129.5 -174.5t45 -216v-2q0 -116 -45 -216.5t-129.5 -176.5t-215 -121t-292.5 -47v-334zM1479 553
v2q0 172 -127 280.5t-365 112.5v-786q239 4 365.5 111t126.5 280zM311 555v-2q0 -176 125.5 -281.5t366.5 -109.5v786q-242 -4 -367 -110.5t-125 -282.5z" />
    <glyph glyph-name="uni0445" unicode="&#x445;" horiz-adv-x="1243" 
d="M317 1108l306 -416l307 416h211l-412 -541l428 -567h-217l-322 438l-321 -438h-211l424 563l-408 545h215z" />
    <glyph glyph-name="uni0446" unicode="&#x446;" horiz-adv-x="1402" 
d="M1141 -287v287h-957v1108h193v-934h612v934h193v-934h135v-461h-176z" />
    <glyph glyph-name="uni0447" unicode="&#x447;" horiz-adv-x="1271" 
d="M895 0v379q-153 -43 -301 -43q-220 0 -334.5 100t-114.5 314v358h191v-342q0 -137 68 -195.5t214 -58.5q137 0 277 43v553h192v-1108h-192z" />
    <glyph glyph-name="uni0448" unicode="&#x448;" horiz-adv-x="1992" 
d="M184 0v1108h193v-934h524v934h193v-934h522v934h192v-1108h-1624z" />
    <glyph glyph-name="uni0449" unicode="&#x449;" horiz-adv-x="2029" 
d="M184 0v1108h193v-934h524v934h193v-934h522v934h192v-934h136v-461h-177v287h-1583z" />
    <glyph glyph-name="uni044A" unicode="&#x44a;" horiz-adv-x="1454" 
d="M61 1108h551v-369h316q203 0 319.5 -97.5t116.5 -268.5v-2q0 -170 -117.5 -270.5t-328.5 -100.5h-496v938h-361v170zM612 578v-416h301q127 0 192.5 54.5t65.5 154.5v2q0 95 -65.5 150.5t-190.5 54.5h-303z" />
    <glyph glyph-name="uni044B" unicode="&#x44b;" horiz-adv-x="1699" 
d="M377 1108v-369h313q204 0 321 -97.5t117 -268.5v-2q0 -170 -118 -270.5t-330 -100.5h-496v1108h193zM375 578v-416h303q127 0 191.5 54.5t64.5 154.5v2q0 96 -64.5 151t-189.5 54h-305zM1323 0v1108h193v-1108h-193z" />
    <glyph glyph-name="uni044C" unicode="&#x44c;" horiz-adv-x="1218" 
d="M377 1108v-369h313q204 0 321 -97.5t117 -268.5v-2q0 -170 -118 -270.5t-330 -100.5h-496v1108h193zM375 578v-416h303q127 0 191.5 54.5t64.5 154.5v2q0 96 -64.5 151t-189.5 54h-305z" />
    <glyph glyph-name="uni044D" unicode="&#x44d;" horiz-adv-x="1239" 
d="M90 160l109 129q156 -150 356 -150q150 0 251.5 96t119.5 246l-570 -2v160h568q-21 146 -119.5 237t-249.5 91q-107 0 -189 -37.5t-163 -108.5l-105 129q203 183 465 183q245 0 401 -162.5t156 -415.5v-4q0 -118 -42 -223.5t-115 -183.5t-178.5 -123.5t-225.5 -45.5
q-145 0 -257 45.5t-212 139.5z" />
    <glyph glyph-name="uni044E" unicode="&#x44e;" horiz-adv-x="1878" 
d="M377 471v-471h-193v1108h193v-461h252q35 208 190 347t375 139q121 0 227 -46t179.5 -124t116 -183.5t42.5 -222.5v-4q0 -116 -42.5 -222t-116.5 -184.5t-181 -125t-229 -46.5q-223 0 -378 141t-185 355h-250zM1194 145q164 0 267.5 117t103.5 287v4q0 170 -106.5 290
t-268.5 120q-163 0 -267 -118.5t-104 -287.5v-4q0 -110 47.5 -203t134 -149t193.5 -56z" />
    <glyph glyph-name="uni044F" unicode="&#x44f;" horiz-adv-x="1308" 
d="M932 401h-301l-297 -401h-225l317 422q-130 31 -203 116.5t-73 213.5v2q0 165 118.5 259.5t321.5 94.5h532v-1108h-190v401zM932 952h-340q-117 0 -184.5 -53.5t-67.5 -144.5v-2q0 -93 67 -147t185 -54h340v401z" />
    <glyph glyph-name="uni0450" unicode="&#x450;" horiz-adv-x="1284" 
d="M676 -25q-114 0 -216 42t-177 116.5t-119.5 183t-44.5 234.5v4q0 158 68.5 290.5t191.5 210t274 77.5q163 0 283.5 -81t180 -213.5t59.5 -295.5q0 -3 -5 -60h-858q17 -161 120.5 -253.5t246.5 -92.5q105 0 184.5 38t151.5 112l117 -105q-88 -100 -197.5 -153.5
t-259.5 -53.5zM311 621h670q-13 151 -99 250.5t-231 99.5q-136 0 -229.5 -98t-110.5 -252zM582 1268l-248 233l188 86l207 -319h-147z" />
    <glyph glyph-name="uni0451" unicode="&#x451;" horiz-adv-x="1284" 
d="M737 1268v217h213v-217h-213zM352 1268v217h213v-217h-213zM676 -25q-114 0 -216 42t-177 116.5t-119.5 183t-44.5 234.5v4q0 158 68.5 290.5t191.5 210t274 77.5q163 0 283.5 -81t180 -213.5t59.5 -295.5q0 -3 -5 -60h-858q17 -161 120.5 -253.5t246.5 -92.5
q105 0 184.5 38t151.5 112l117 -105q-88 -100 -197.5 -153.5t-259.5 -53.5zM311 621h670q-13 151 -99 250.5t-231 99.5q-136 0 -229.5 -98t-110.5 -252z" />
    <glyph glyph-name="uni0452" unicode="&#x452;" horiz-adv-x="1290" 
d="M762 1210h-383v-313q157 43 301 43q450 0 450 -414v-452q0 -422 -376 -422q-61 0 -136 16v160q61 -14 109 -14q104 0 156.5 59.5t56.5 200.5v438q0 135 -68.5 193.5t-216.5 58.5q-133 0 -276 -43v-721h-191v1210h-231v158h231v186h191v-186h383v-158z" />
    <glyph glyph-name="uni0453" unicode="&#x453;" horiz-adv-x="1071" 
d="M487 1268l207 319l189 -86l-248 -233h-148zM184 0v1108h813v-174h-620v-934h-193z" />
    <glyph glyph-name="uni0454" unicode="&#x454;" horiz-adv-x="1239" 
d="M1137 956l-109 -137q-76 73 -154 110.5t-180 37.5q-147 0 -254 -92.5t-127 -235.5h570v-160l-572 2q17 -151 125.5 -246.5t263.5 -95.5q188 0 338 150l109 -123q-94 -94 -203.5 -142.5t-255.5 -48.5q-161 0 -292 77t-204 208.5t-73 288.5v4q0 118 43.5 225t118.5 185
t182 124t229 46q144 0 249.5 -46t195.5 -131z" />
    <glyph glyph-name="uni0455" unicode="&#x455;" horiz-adv-x="1079" 
d="M555 -20q-120 0 -243 42t-220 119l94 135q190 -139 377 -139q94 0 152.5 43t58.5 115v4q0 22 -8.5 41t-19 33t-34 28.5t-40 23.5t-51 21.5t-53 18t-60.5 18.5q-45 13 -74.5 22.5t-71 26t-68.5 32t-57.5 40t-48 52t-29.5 64t-12 79.5v4q0 147 107.5 236t275.5 89
q102 0 208.5 -33t193.5 -91l-84 -142q-169 107 -324 107q-90 0 -143 -41t-53 -105v-4q0 -18 5 -34t18.5 -30t25 -24.5t36.5 -22.5t39.5 -19t48 -18t48.5 -15.5t53 -16.5q60 -17 103 -33t94 -43t82.5 -58.5t53 -78.5t21.5 -104v-5q0 -160 -112.5 -248.5t-288.5 -88.5z" />
    <glyph glyph-name="uni0456" unicode="&#x456;" horiz-adv-x="591" 
d="M188 1329v201h215v-201h-215zM201 0v1108h190v-1108h-190z" />
    <glyph glyph-name="uni0457" unicode="&#x457;" horiz-adv-x="591" 
d="M383 1268v217h213v-217h-213zM-2 1268v217h213v-217h-213zM201 0v1108h190v-1108h-190z" />
    <glyph glyph-name="uni0458" unicode="&#x458;" horiz-adv-x="591" 
d="M188 1329v201h215v-201h-215zM106 -348q-43 0 -108 10v158q25 -6 78 -6q58 0 91.5 35.5t33.5 107.5v1151h190v-1157q0 -151 -73.5 -225t-211.5 -74z" />
    <glyph glyph-name="uni0459" unicode="&#x459;" horiz-adv-x="1800" 
d="M788 0v954h-4l-553 -954h-204l639 1108h315v-369h293q204 0 320 -97t116 -269v-2q0 -170 -117 -270.5t-329 -100.5h-476zM979 162h281q127 0 192.5 54.5t65.5 154.5v2q0 95 -65.5 150.5t-190.5 54.5h-283v-416z" />
    <glyph glyph-name="uni045A" unicode="&#x45a;" horiz-adv-x="1988" 
d="M1167 1108v-369h293q204 0 321 -97.5t117 -268.5v-2q0 -170 -118 -270.5t-330 -100.5h-473v471h-600v-471h-193v1108h193v-461h600v461h190zM1167 578v-416h281q127 0 191.5 54.5t64.5 154.5v2q0 96 -64.5 151t-189.5 54h-283z" />
    <glyph glyph-name="uni045B" unicode="&#x45b;" horiz-adv-x="1290" 
d="M379 1554v-186h383v-158h-383v-313q157 43 301 43q450 0 450 -414v-526h-190v512q0 135 -68.5 193.5t-216.5 58.5q-133 0 -276 -43v-721h-191v1210h-231v158h231v186h191z" />
    <glyph glyph-name="uni045C" unicode="&#x45c;" horiz-adv-x="1247" 
d="M559 1268l207 319l188 -86l-247 -233h-148zM377 1108v-465h178l397 465h238l-481 -541l493 -567h-237l-406 475h-182v-475h-193v1108h193z" />
    <glyph glyph-name="uni045D" unicode="&#x45d;" horiz-adv-x="1374" 
d="M616 1268l-247 233l188 86l207 -319h-148zM184 0v1108h193v-813l629 813h184v-1108h-191v821l-637 -821h-178z" />
    <glyph glyph-name="uni045E" unicode="&#x45e;" horiz-adv-x="1280" 
d="M659 215l336 893h203l-457 -1143q-68 -170 -153 -241.5t-215 -71.5q-119 0 -244 61l66 148q77 -41 165 -41q69 0 116.5 40.5t90.5 141.5l-491 1106h209zM643 1264q-142 0 -231 73t-99 205h138q42 -133 192 -133q151 0 193 133h137q-10 -132 -99 -205t-231 -73z" />
    <glyph glyph-name="uni045F" unicode="&#x45f;" horiz-adv-x="1368" 
d="M184 0v1108h193v-934h612v934h193v-1108h-410v-287h-176v287h-412z" />
    <glyph glyph-name="uni0462" unicode="&#x462;" horiz-adv-x="1806" 
d="M772 825h420q242 0 377 -103.5t135 -299.5v-2q0 -192 -142 -306t-380 -114h-607v1120h-481v168h481v230h197v-230h533v-166h-533v-297zM1190 651h-418v-475h416q147 0 233 65t86 175v2q0 114 -79.5 173.5t-237.5 59.5z" />
    <glyph glyph-name="uni0463" unicode="&#x463;" horiz-adv-x="1454" 
d="M612 702h328q199 0 311.5 -91t112.5 -255v-4q0 -162 -114.5 -257t-319.5 -95h-508v942h-361v166h361v446h190v-446h449v-164h-449v-242zM612 547v-389h316q121 0 182 50t61 144v2q0 92 -61 142.5t-182 50.5h-316z" />
    <glyph glyph-name="uni0472" unicode="&#x472;" horiz-adv-x="1822" 
d="M909 -25q-166 0 -309.5 61.5t-242 165.5t-154.5 244t-56 295v4q0 154 57 295t156.5 246t243.5 167.5t309 62.5q166 0 309.5 -61.5t242 -165.5t154.5 -244t56 -295v-5q0 -154 -57 -294.5t-156.5 -245.5t-243.5 -167.5t-309 -62.5zM913 150q226 0 380.5 144.5t179.5 367.5
h-1125q25 -222 183 -367t382 -145zM909 1341q-225 0 -378 -141t-183 -362h1122q-30 218 -184.5 360.5t-376.5 142.5z" />
    <glyph glyph-name="uni0473" unicode="&#x473;" horiz-adv-x="1394" 
d="M696 -25q-164 0 -297 78t-206.5 209t-73.5 287v4q0 116 44.5 222.5t120.5 185t185 125.5t231 47q163 0 296 -78t206.5 -210t73.5 -288v-4q0 -155 -74.5 -287.5t-208.5 -211.5t-297 -79zM700 137q153 0 259.5 96t127.5 246h-780q25 -151 133 -246.5t260 -95.5zM696 971
q-153 0 -258.5 -94.5t-130.5 -241.5h778q-25 147 -133.5 241.5t-255.5 94.5z" />
    <glyph glyph-name="uni0474" unicode="&#x474;" horiz-adv-x="1697" 
d="M715 -10l-631 1501h219l504 -1243l350 872q85 213 191.5 295t285.5 82h29v-178h-12q-110 0 -181 -56t-131 -198l-450 -1075h-174z" />
    <glyph glyph-name="uni0475" unicode="&#x475;" horiz-adv-x="1298" 
d="M532 -8l-454 1116h209l334 -887l219 557q73 190 160.5 264t234.5 74h27v-166h-5q-82 0 -137.5 -47t-105.5 -172l-312 -739h-170z" />
    <glyph glyph-name="uni0490" unicode="&#x490;" horiz-adv-x="1329" 
d="M213 1491h831v295h189v-475h-823v-1311h-197v1491z" />
    <glyph glyph-name="uni0491" unicode="&#x491;" horiz-adv-x="1071" 
d="M184 0v1108h635v278h178v-452h-620v-934h-193z" />
    <glyph glyph-name="uni0492" unicode="&#x492;" horiz-adv-x="1392" 
d="M276 0v647h-159v152h159v692h1020v-180h-823v-512h404v-152h-404v-647h-197z" />
    <glyph glyph-name="uni0493" unicode="&#x493;" horiz-adv-x="1112" 
d="M225 0v459h-147v129h147v520h813v-174h-620v-346h295v-129h-295v-459h-193z" />
    <glyph glyph-name="uni0496" unicode="&#x496;" horiz-adv-x="2312" 
d="M2214 1491l-641 -721l512 -590h190v-489h-186v309h-88l-584 674h-176v-674h-194l2 674h-187l-579 -674h-236l670 770l-643 721h239l568 -645h168l-2 645h194v-645h166l569 645h238z" />
    <glyph glyph-name="uni0497" unicode="&#x497;" horiz-adv-x="1900" 
d="M1817 1108l-469 -543l335 -391h191v-461h-176v287h-96l-400 475h-170l2 -475h-188l2 475h-174l-398 -475h-229l485 557l-469 551h234l385 -465h166l-2 465h188l-2 -465h168l387 465h230z" />
    <glyph glyph-name="uni0498" unicode="&#x498;" horiz-adv-x="1419" 
d="M238 1151l-121 133q121 107 264 169.5t330 62.5q242 0 389 -109.5t147 -288.5v-2q0 -133 -74.5 -223t-216.5 -133q151 -33 238.5 -123.5t87.5 -228.5v-2q0 -171 -136 -288.5t-366 -137.5l6 -289h-192l6 289q-288 24 -506 208l117 142q108 -86 222.5 -132t258.5 -46
q172 0 280.5 72.5t108.5 189.5v4q0 121 -105 185.5t-294 64.5h-260v168h262q165 0 264 67t99 191v2q0 111 -91.5 177t-248.5 66q-247 0 -469 -188z" />
    <glyph glyph-name="uni0499" unicode="&#x499;" horiz-adv-x="1202" 
d="M92 127l98 137q182 -127 396 -127q141 0 222 49t81 131v2q0 78 -76.5 122t-210.5 42h-248v152h244q126 0 193 44.5t67 123.5v2q0 76 -69.5 121t-196.5 45q-198 0 -387 -133l-101 129q227 166 496 166q205 0 328 -86t123 -224v-2q0 -97 -59.5 -160t-155.5 -96
q108 -25 175.5 -91.5t67.5 -170.5v-2q0 -126 -108.5 -215t-300.5 -106l6 -267h-180l6 267q-237 20 -410 147z" />
    <glyph glyph-name="uni049A" unicode="&#x49a;" horiz-adv-x="1581" 
d="M213 0v1491h197v-643h221l600 643h254l-694 -719l557 -592h200v-489h-186v309h-102l-625 672h-225v-672h-197z" />
    <glyph glyph-name="uni049B" unicode="&#x49b;" horiz-adv-x="1255" 
d="M377 1108v-465h178l397 465h238l-481 -541l342 -393h176v-461h-176v287h-86l-406 475h-182v-475h-193v1108h193z" />
    <glyph glyph-name="uni049C" unicode="&#x49c;" horiz-adv-x="1624" 
d="M1534 1491l-576 -717l603 -774h-240l-520 674h-2l2 -457h-142l3 451h-252v-668h-197v1491h197v-649h252l-3 456h142l-2 -456h2l497 649h236z" />
    <glyph glyph-name="uni049D" unicode="&#x49d;" horiz-adv-x="1345" 
d="M1274 1108l-430 -528l432 -580h-223l-357 492h-39v-330h-120l2 330h-162v-492h-193v1108h193v-461h162l-2 324h120v-324h39l357 461h221z" />
    <glyph glyph-name="uni04A0" unicode="&#x4a0;" horiz-adv-x="1927" 
d="M94 1313v178h682v-643h221l600 643h254l-694 -719l727 -772h-258l-625 672h-225v-672h-196v1313h-486z" />
    <glyph glyph-name="uni04A1" unicode="&#x4a1;" horiz-adv-x="1482" 
d="M612 1108v-465h179l397 465h237l-481 -541l494 -567h-238l-405 475h-183v-475h-192v938h-359v170h551z" />
    <glyph glyph-name="uni04A2" unicode="&#x4a2;" horiz-adv-x="1675" 
d="M213 0v1491h197v-649h815v649h198v-1311h160v-489h-186v309h-172v659h-815v-659h-197z" />
    <glyph glyph-name="uni04A3" unicode="&#x4a3;" horiz-adv-x="1404" 
d="M182 0v1108h193v-461h616v461h191v-934h139v-461h-176v287h-154v471h-616v-471h-193z" />
    <glyph glyph-name="uni04A4" unicode="&#x4a4;" horiz-adv-x="2193" 
d="M1149 0v659h-793v-659h-196v1491h196v-649h793v649h948v-180h-749v-1311h-199z" />
    <glyph glyph-name="uni04A5" unicode="&#x4a5;" horiz-adv-x="1841" 
d="M977 0v471h-600v-471h-193v1108h193v-461h600v461h790v-174h-600v-934h-190z" />
    <glyph glyph-name="uni04AA" unicode="&#x4aa;" horiz-adv-x="1595" 
d="M795 -309l6 291q-188 21 -338 127t-233 271.5t-83 360.5v4q0 156 57 297.5t156 246t241 166t304 61.5q130 0 239.5 -31.5t186 -79.5t156.5 -123l-129 -145q-103 96 -210.5 147t-244.5 51q-155 0 -281.5 -77.5t-198 -211.5t-71.5 -296v-5q0 -162 71.5 -297t198 -213.5
t281.5 -78.5q141 0 247.5 51.5t217.5 157.5l129 -127q-110 -115 -231.5 -178t-284.5 -80l6 -289h-192z" />
    <glyph glyph-name="uni04AB" unicode="&#x4ab;" horiz-adv-x="1232" 
d="M588 -287l6 271q-209 32 -342 191.5t-133 373.5v4q0 155 73.5 288t205.5 212.5t292 79.5q145 0 249.5 -52t193.5 -145l-123 -131q-78 78 -150.5 118t-171.5 40q-104 0 -190.5 -54.5t-135.5 -148t-49 -203.5v-4q0 -172 110 -290t275 -118q96 0 173.5 40.5t150.5 115.5
l119 -115q-80 -89 -169.5 -141t-209.5 -65l6 -267h-180z" />
    <glyph glyph-name="uni04AE" unicode="&#x4ae;" horiz-adv-x="1542" 
d="M672 0v590l-613 901h236l477 -721l481 721h230l-613 -897v-594h-198z" />
    <glyph glyph-name="uni04AF" unicode="&#x4af;" horiz-adv-x="1271" 
d="M1194 1108l-463 -1083v-365h-192v369l-461 1079h211l348 -877l350 877h207z" />
    <glyph glyph-name="uni04B0" unicode="&#x4b0;" horiz-adv-x="1542" 
d="M672 0v457h-383v151h370l-600 883h236l477 -721l481 721h230l-602 -883h370v-151h-381v-457h-198z" />
    <glyph glyph-name="uni04B1" unicode="&#x4b1;" horiz-adv-x="1271" 
d="M1071 129v-129h-340v-340h-192v340h-338v129h295l-418 979h211l348 -877l350 877h207l-420 -979h297z" />
    <glyph glyph-name="uni04B2" unicode="&#x4b2;" horiz-adv-x="1593" 
d="M1214 1491h228l-541 -729l428 -582h199v-489h-187v309h-110l-453 621l-450 -621h-228l562 760l-541 731h233l430 -592z" />
    <glyph glyph-name="uni04B3" unicode="&#x4b3;" horiz-adv-x="1255" 
d="M317 1108l306 -416l307 416h211l-412 -541l297 -393h182v-461h-176v287h-92l-322 438l-321 -438h-211l424 563l-408 545h215z" />
    <glyph glyph-name="uni04B6" unicode="&#x4b6;" horiz-adv-x="1566" 
d="M1118 0v565q-189 -53 -385 -53q-269 0 -414 122t-145 380v477h199v-447q0 -187 92 -269.5t287 -82.5q180 0 366 53v746h197v-1311h160v-489h-187v309h-170z" />
    <glyph glyph-name="uni04B7" unicode="&#x4b7;" horiz-adv-x="1308" 
d="M895 0v379q-153 -43 -301 -43q-220 0 -334.5 100t-114.5 314v358h191v-342q0 -137 68 -195.5t214 -58.5q137 0 277 43v553h192v-934h136v-461h-176v287h-152z" />
    <glyph glyph-name="uni04B8" unicode="&#x4b8;" horiz-adv-x="1519" 
d="M1110 0v565q-133 -37 -297 -51l2 -346h-143l2 344q-508 26 -508 502v477h199v-447q0 -171 74.5 -253.5t234.5 -96.5l-2 457h143l-2 -457q169 11 297 51v746h199v-1491h-199z" />
    <glyph glyph-name="uni04B9" unicode="&#x4b9;" horiz-adv-x="1271" 
d="M895 0v379q-124 -32 -219 -41v-229h-121v227q-92 4 -164.5 28t-128.5 71t-86.5 125.5t-30.5 184.5v363h191v-336q0 -130 53.5 -188.5t167.5 -69.5l-2 320h121v-322q110 8 219 43v553h192v-1108h-192z" />
    <glyph glyph-name="uni04BA" unicode="&#x4ba;" horiz-adv-x="1519" 
d="M395 1491v-567q193 55 385 55q269 0 414 -122t145 -380v-477h-198v446q0 188 -92 270.5t-287 82.5q-190 0 -367 -56v-743h-198v1491h198z" />
    <glyph glyph-name="uni04BB" unicode="&#x4bb;" horiz-adv-x="1331" 
d="M184 0v1554h193v-632q132 211 368 211q195 0 305.5 -120.5t110.5 -318.5v-694h-192v641q0 148 -75 231.5t-210 83.5q-133 0 -220 -89t-87 -236v-631h-193z" />
    <glyph glyph-name="uni04C0" unicode="&#x4c0;" horiz-adv-x="653" 
d="M227 0v1491h199v-1491h-199z" />
    <glyph glyph-name="uni04C1" unicode="&#x4c1;" horiz-adv-x="2287" 
d="M1145 1616q-142 0 -232 67.5t-100 188.5h145q40 -109 187 -109q146 0 186 109h146q-10 -121 -100 -188.5t-232 -67.5zM74 1491h239l568 -645h168l-2 645h194v-645h166l569 645h238l-641 -721l668 -770h-240l-584 674h-176v-674h-194l2 674h-187l-579 -674h-236l670 770z
" />
    <glyph glyph-name="uni04C2" unicode="&#x4c2;" horiz-adv-x="1880" 
d="M1034 1108l-2 -465h168l387 465h230l-469 -543l485 -565h-231l-400 475h-170l2 -475h-188l2 475h-174l-398 -475h-229l485 557l-469 551h234l385 -465h166l-2 465h188zM940 1264q-142 0 -231 73t-99 205h138q42 -133 192 -133q151 0 193 133h137q-10 -132 -99 -205
t-231 -73z" />
    <glyph glyph-name="uni04CF" unicode="&#x4cf;" horiz-adv-x="591" 
d="M201 0v1554h190v-1554h-190z" />
    <glyph glyph-name="uni04D0" unicode="&#x4d0;" horiz-adv-x="1699" 
d="M84 0l674 1501h184l672 -1501h-209l-170 385h-778l-170 -385h-203zM530 561h631l-315 711zM850 1636q-142 0 -232 67.5t-100 188.5h146q40 -108 186 -108t186 108h146q-10 -121 -100 -188.5t-232 -67.5z" />
    <glyph glyph-name="uni04D1" unicode="&#x4d1;" horiz-adv-x="1253" 
d="M512 -25q-106 0 -197.5 38.5t-151 118.5t-59.5 187v5q0 174 127.5 266t341.5 92q182 0 328 -47v37q0 138 -81 210t-232 72q-166 0 -330 -77l-55 153q104 47 197.5 70.5t209.5 23.5q238 0 361 -123q114 -114 114 -329v-672h-186v158q-145 -183 -387 -183zM555 125
q149 0 248.5 79t99.5 202v96q-143 47 -303 47q-146 0 -225.5 -57.5t-79.5 -157.5v-4q0 -94 75 -149.5t185 -55.5zM629 1264q-142 0 -231 73t-99 205h137q42 -133 193 -133q150 0 192 133h137q-10 -132 -99 -205t-230 -73z" />
    <glyph glyph-name="uni04D2" unicode="&#x4d2;" horiz-adv-x="1699" 
d="M84 0l674 1501h184l672 -1501h-209l-170 385h-778l-170 -385h-203zM530 561h631l-315 711zM946 1640v207h217v-207h-217zM535 1640v207h219v-207h-219z" />
    <glyph glyph-name="uni04D3" unicode="&#x4d3;" horiz-adv-x="1253" 
d="M512 -25q-106 0 -197.5 38.5t-151 118.5t-59.5 187v5q0 174 127.5 266t341.5 92q182 0 328 -47v37q0 138 -81 210t-232 72q-166 0 -330 -77l-55 153q104 47 197.5 70.5t209.5 23.5q238 0 361 -123q114 -114 114 -329v-672h-186v158q-145 -183 -387 -183zM555 125
q149 0 248.5 79t99.5 202v96q-143 47 -303 47q-146 0 -225.5 -57.5t-79.5 -157.5v-4q0 -94 75 -149.5t185 -55.5zM715 1268v217h213v-217h-213zM330 1268v217h213v-217h-213z" />
    <glyph glyph-name="uni04D4" unicode="&#x4d4;" horiz-adv-x="2242" 
d="M41 0l864 1491h1192v-178h-848v-473h752v-178h-752v-484h858v-178h-1054v385h-584l-223 -385h-205zM565 561h488v756h-49z" />
    <glyph glyph-name="uni04D5" unicode="&#x4d5;" horiz-adv-x="2045" 
d="M522 -25q-112 0 -205.5 38.5t-153 118.5t-59.5 187v5q0 174 126 266t337 92q170 0 316 -47v37q0 139 -77.5 210.5t-225.5 71.5q-158 0 -322 -77l-55 153q103 48 193 71t206 23q313 0 402 -221q68 107 175 168.5t238 61.5q121 0 220.5 -47t163.5 -127.5t99 -187.5t35 -228
q0 -37 -2 -60h-860q17 -161 121 -253.5t248 -92.5q103 0 182.5 38t151.5 112l116 -105q-87 -100 -196.5 -153.5t-257.5 -53.5q-134 0 -249 55.5t-190 155.5q-218 -211 -477 -211zM1073 621h668q-8 98 -46 175.5t-111.5 126t-172.5 48.5q-135 0 -228 -98t-110 -252zM549 127
q212 0 377 180q-34 87 -43 197q-157 45 -289 45q-141 0 -220 -58t-79 -157v-4q0 -94 73 -148.5t181 -54.5z" />
    <glyph glyph-name="uni04D6" unicode="&#x4d6;" horiz-adv-x="1443" 
d="M760 1616q-142 0 -232 67.5t-100 188.5h145q40 -109 187 -109q146 0 186 109h146q-10 -121 -100 -188.5t-232 -67.5zM213 0v1491h1085v-178h-888v-473h792v-178h-792v-484h899v-178h-1096z" />
    <glyph glyph-name="uni04D7" unicode="&#x4d7;" horiz-adv-x="1284" 
d="M676 -25q-114 0 -216 42t-177 116.5t-119.5 183t-44.5 234.5v4q0 158 68.5 290.5t191.5 210t274 77.5q163 0 283.5 -81t180 -213.5t59.5 -295.5q0 -3 -5 -60h-858q17 -161 120.5 -253.5t246.5 -92.5q105 0 184.5 38t151.5 112l117 -105q-88 -100 -197.5 -153.5
t-259.5 -53.5zM311 621h670q-13 151 -99 250.5t-231 99.5q-136 0 -229.5 -98t-110.5 -252zM651 1264q-141 0 -230 73t-99 205h137q42 -133 192 -133q151 0 193 133h137q-10 -132 -99 -205t-231 -73z" />
    <glyph glyph-name="uni04D8" unicode="&#x4d8;" horiz-adv-x="1714" 
d="M334 1106l-131 127q254 283 628 283q213 0 381 -98t261.5 -272.5t93.5 -395.5v-7q0 -160 -54.5 -302t-148.5 -244.5t-228.5 -162t-287.5 -59.5q-165 0 -300 62.5t-222 170t-134 249t-47 303.5v2q0 47 2 74h1211q-25 223 -167.5 361t-359.5 138q-147 0 -267.5 -55.5
t-229.5 -173.5zM848 154q212 0 348.5 141t161.5 369h-1004q18 -228 151.5 -369t342.5 -141z" />
    <glyph glyph-name="uni04D9" unicode="&#x4d9;" horiz-adv-x="1284" 
d="M608 1135q154 0 281 -72t202.5 -205t75.5 -301v-4q0 -158 -68.5 -290.5t-191.5 -210t-274 -77.5q-123 0 -223 47t-164.5 127.5t-99.5 187t-35 228.5q0 37 2 60h858q-17 161 -120.5 253.5t-246.5 92.5q-103 0 -182.5 -38t-151.5 -112l-116 105q182 209 454 209zM973 487
h-668q8 -98 46 -175.5t111.5 -126t172.5 -48.5q135 0 228 98t110 252z" />
    <glyph glyph-name="uni04DC" unicode="&#x4dc;" horiz-adv-x="2287" 
d="M1241 1620v207h217v-207h-217zM829 1620v207h220v-207h-220zM74 1491h239l568 -645h168l-2 645h194v-645h166l569 645h238l-641 -721l668 -770h-240l-584 674h-176v-674h-194l2 674h-187l-579 -674h-236l670 770z" />
    <glyph glyph-name="uni04DD" unicode="&#x4dd;" horiz-adv-x="1880" 
d="M1026 1268v217h213v-217h-213zM641 1268v217h213v-217h-213zM1034 1108l-2 -465h168l387 465h230l-469 -543l485 -565h-231l-400 475h-170l2 -475h-188l2 475h-174l-398 -475h-229l485 557l-469 551h234l385 -465h166l-2 465h188z" />
    <glyph glyph-name="uni04DE" unicode="&#x4de;" horiz-adv-x="1419" 
d="M795 1632v207h217v-207h-217zM383 1632v207h219v-207h-219zM240 1151l-121 133q121 107 264 169.5t330 62.5q242 0 389 -109.5t147 -288.5v-2q0 -133 -74.5 -223t-216.5 -133q151 -33 238.5 -123.5t87.5 -228.5v-2q0 -188 -161 -309.5t-433 -121.5q-343 0 -594 213
l117 142q108 -86 222.5 -132t258.5 -46q172 0 280.5 72.5t108.5 189.5v4q0 121 -105 185.5t-294 64.5h-260v168h262q165 0 264 67t99 191v2q0 111 -91.5 177t-248.5 66q-247 0 -469 -188z" />
    <glyph glyph-name="uni04DF" unicode="&#x4df;" horiz-adv-x="1202" 
d="M680 1268v217h213v-217h-213zM295 1268v217h213v-217h-213zM92 127l98 137q182 -127 396 -127q141 0 222 49t81 131v2q0 78 -76.5 122t-210.5 42h-248v152h244q126 0 193 44.5t67 123.5v2q0 76 -69.5 121t-196.5 45q-198 0 -387 -133l-101 129q227 166 496 166
q205 0 328 -86t123 -224v-2q0 -97 -59.5 -160t-155.5 -96q108 -25 175.5 -91.5t67.5 -170.5v-2q0 -140 -130.5 -233t-360.5 -93q-283 0 -496 152z" />
    <glyph glyph-name="uni04E2" unicode="&#x4e2;" horiz-adv-x="1699" 
d="M489 1655v153h721v-153h-721zM1487 0h-199v1184l-909 -1184h-166v1491h197v-1155l888 1155h189v-1491z" />
    <glyph glyph-name="uni04E3" unicode="&#x4e3;" horiz-adv-x="1374" 
d="M344 1305v149h684v-149h-684zM184 0v1108h193v-813l629 813h184v-1108h-191v821l-637 -821h-178z" />
    <glyph glyph-name="uni04E4" unicode="&#x4e4;" horiz-adv-x="1699" 
d="M946 1616v207h217v-207h-217zM535 1616v207h219v-207h-219zM1487 0h-199v1184l-909 -1184h-166v1491h197v-1155l888 1155h189v-1491z" />
    <glyph glyph-name="uni04E5" unicode="&#x4e5;" horiz-adv-x="1374" 
d="M772 1268v217h213v-217h-213zM387 1268v217h213v-217h-213zM184 0v1108h193v-813l629 813h184v-1108h-191v821l-637 -821h-178z" />
    <glyph glyph-name="uni04E6" unicode="&#x4e6;" horiz-adv-x="1826" 
d="M1012 1640v207h217v-207h-217zM600 1640v207h219v-207h-219zM911 -25q-222 0 -398 105t-271 279t-95 382v4q0 154 57 295t156.5 246t244 167.5t310.5 62.5q222 0 398 -105t271 -279t95 -382v-5q0 -154 -57 -294.5t-156.5 -245.5t-244 -167.5t-310.5 -62.5zM915 156
q160 0 289 79t200 212.5t71 293.5v4q0 119 -42.5 227.5t-116.5 188.5t-179.5 127t-225.5 47q-160 0 -289 -79t-199.5 -212.5t-70.5 -293.5v-5q0 -160 72 -294.5t202 -214.5t289 -80z" />
    <glyph glyph-name="uni04E7" unicode="&#x4e7;" horiz-adv-x="1400" 
d="M786 1268v217h213v-217h-213zM401 1268v217h213v-217h-213zM698 -25q-164 0 -297.5 78t-207.5 209.5t-74 286.5v4q0 155 75 288t209.5 212.5t298.5 79.5q163 0 297 -78t208.5 -210t74.5 -288v-4q0 -155 -75 -287.5t-210 -211.5t-299 -79zM702 145q168 0 275.5 117.5
t107.5 286.5v4q0 169 -111.5 289.5t-275.5 120.5q-168 0 -276.5 -119t-108.5 -287v-4q0 -168 112.5 -288t276.5 -120z" />
    <glyph glyph-name="uni04E8" unicode="&#x4e8;" horiz-adv-x="1822" 
d="M909 -25q-166 0 -309.5 61.5t-242 165.5t-154.5 244t-56 295v4q0 154 57 295t156.5 246t243.5 167.5t309 62.5q166 0 309.5 -61.5t242 -165.5t154.5 -244t56 -295v-5q0 -154 -57 -294.5t-156.5 -245.5t-243.5 -167.5t-309 -62.5zM913 150q226 0 380.5 144.5t179.5 367.5
h-1125q25 -222 183 -367t382 -145zM909 1341q-225 0 -378 -141t-183 -362h1122q-30 218 -184.5 360.5t-376.5 142.5z" />
    <glyph glyph-name="uni04E9" unicode="&#x4e9;" horiz-adv-x="1394" 
d="M696 -25q-164 0 -297 78t-206.5 209t-73.5 287v4q0 116 44.5 222.5t120.5 185t185 125.5t231 47q163 0 296 -78t206.5 -210t73.5 -288v-4q0 -155 -74.5 -287.5t-208.5 -211.5t-297 -79zM700 137q153 0 259.5 96t127.5 246h-780q25 -151 133 -246.5t260 -95.5zM696 971
q-153 0 -258.5 -94.5t-130.5 -241.5h778q-25 147 -133.5 241.5t-255.5 94.5z" />
    <glyph glyph-name="uni04EE" unicode="&#x4ee;" horiz-adv-x="1531" 
d="M430 1655v153h721v-153h-721zM608 0h-221l305 516l-618 975h225l504 -803l452 803h222z" />
    <glyph glyph-name="uni04EF" unicode="&#x4ef;" horiz-adv-x="1280" 
d="M659 215l336 893h203l-457 -1143q-68 -170 -153 -241.5t-215 -71.5q-119 0 -244 61l66 148q77 -41 165 -41q69 0 116.5 40.5t90.5 141.5l-491 1106h209zM301 1305v149h684v-149h-684z" />
    <glyph glyph-name="uni04F0" unicode="&#x4f0;" horiz-adv-x="1531" 
d="M889 1616v207h217v-207h-217zM477 1616v207h219v-207h-219zM608 0h-221l305 516l-618 975h225l504 -803l452 803h222z" />
    <glyph glyph-name="uni04F1" unicode="&#x4f1;" horiz-adv-x="1280" 
d="M659 215l336 893h203l-457 -1143q-68 -170 -153 -241.5t-215 -71.5q-119 0 -244 61l66 148q77 -41 165 -41q69 0 116.5 40.5t90.5 141.5l-491 1106h209zM729 1268v217h213v-217h-213zM344 1268v217h213v-217h-213z" />
    <glyph glyph-name="uni04F2" unicode="&#x4f2;" horiz-adv-x="1531" 
d="M608 0h-221l305 516l-618 975h225l504 -803l452 803h222zM522 1616l223 285l183 -84l-252 -201h-154zM864 1616l221 285l183 -84l-252 -201h-152z" />
    <glyph glyph-name="uni04F3" unicode="&#x4f3;" horiz-adv-x="1280" 
d="M659 215l336 893h203l-457 -1143q-68 -170 -153 -241.5t-215 -71.5q-119 0 -244 61l66 148q77 -41 165 -41q69 0 116.5 40.5t90.5 141.5l-491 1106h209zM717 1268l209 319l180 -84l-242 -235h-147zM387 1268l205 319l180 -84l-240 -235h-145z" />
    <glyph glyph-name="uni04F4" unicode="&#x4f4;" horiz-adv-x="1527" 
d="M1118 0v565q-189 -53 -385 -53q-269 0 -414 122t-145 380v477h199v-447q0 -187 92 -269.5t287 -82.5q180 0 366 53v746h197v-1491h-197zM842 1616v207h217v-207h-217zM430 1616v207h219v-207h-219z" />
    <glyph glyph-name="uni04F5" unicode="&#x4f5;" horiz-adv-x="1271" 
d="M702 1268v217h213v-217h-213zM317 1268v217h213v-217h-213zM895 0v379q-153 -43 -301 -43q-220 0 -334.5 100t-114.5 314v358h191v-342q0 -137 68 -195.5t214 -58.5q137 0 277 43v553h192v-1108h-192z" />
    <glyph glyph-name="uni04F8" unicode="&#x4f8;" horiz-adv-x="2025" 
d="M213 0v1491h197v-526h364q259 0 413 -124t154 -349v-3q0 -228 -163.5 -358.5t-425.5 -130.5h-539zM410 180h348q175 0 280 82t105 223v2q0 145 -100 222t-275 77h-358v-606zM1616 0v1491h196v-1491h-196zM1108 1616v207h217v-207h-217zM696 1616v207h219v-207h-219z" />
    <glyph glyph-name="uni04F9" unicode="&#x4f9;" horiz-adv-x="1699" 
d="M936 1268v217h213v-217h-213zM551 1268v217h213v-217h-213zM377 1108v-369h313q204 0 321 -97.5t117 -268.5v-2q0 -170 -118 -270.5t-330 -100.5h-496v1108h193zM375 578v-416h303q127 0 191.5 54.5t64.5 154.5v2q0 96 -64.5 151t-189.5 54h-305zM1323 0v1108h193v-1108
h-193z" />
    <glyph glyph-name="baht" unicode="&#xe3f;" horiz-adv-x="1376" 
d="M727 1661h141l-26 -176q170 -24 270 -121t100 -248v-2q0 -248 -251 -346q303 -96 303 -358v-2q0 -192 -143 -300t-380 -108h-110l-35 -252h-139l32 252h-299v1491h510h2zM733 678h-16l-72 -514h100q159 0 247.5 67.5t88.5 190.5v2q0 123 -89 189t-259 65zM371 825h245
l72 502h-2h-315v-502zM1030 1085v2q0 94 -58.5 155.5t-164.5 78.5l-70 -496q137 5 215 72t78 188zM371 164h151l72 514h-223v-514z" />
    <glyph glyph-name="Wgrave" unicode="&#x1e80;" horiz-adv-x="2379" 
d="M1270 1620h-156l-254 201l189 84zM627 -10l-529 1501h215l404 -1200l395 1204h164l395 -1204l406 1200h207l-529 -1501h-168l-397 1167l-395 -1167h-168z" />
    <glyph glyph-name="wgrave" unicode="&#x1e81;" horiz-adv-x="1849" 
d="M471 -8l-379 1116h201l270 -850l283 854h162l282 -854l273 850h196l-381 -1116h-170l-282 837l-285 -837h-170zM854 1268l-248 233l189 86l206 -319h-147z" />
    <glyph glyph-name="Wacute" unicode="&#x1e82;" horiz-adv-x="2379" 
d="M1110 1620l223 285l187 -84l-252 -201h-158zM627 -10l-529 1501h215l404 -1200l395 1204h164l395 -1204l406 1200h207l-529 -1501h-168l-397 1167l-395 -1167h-168z" />
    <glyph glyph-name="wacute" unicode="&#x1e83;" horiz-adv-x="1849" 
d="M848 1268l207 319l188 -86l-248 -233h-147zM471 -8l-379 1116h201l270 -850l283 854h162l282 -854l273 850h196l-381 -1116h-170l-282 837l-285 -837h-170z" />
    <glyph glyph-name="Wdieresis" unicode="&#x1e84;" horiz-adv-x="2379" 
d="M1288 1620v207h217v-207h-217zM877 1620v207h219v-207h-219zM627 -10l-529 1501h215l404 -1200l395 1204h164l395 -1204l406 1200h207l-529 -1501h-168l-397 1167l-395 -1167h-168z" />
    <glyph glyph-name="wdieresis" unicode="&#x1e85;" horiz-adv-x="1849" 
d="M1010 1268v217h213v-217h-213zM625 1268v217h213v-217h-213zM471 -8l-379 1116h201l270 -850l283 854h162l282 -854l273 850h196l-381 -1116h-170l-282 837l-285 -837h-170z" />
    <glyph glyph-name="Ygrave" unicode="&#x1ef2;" horiz-adv-x="1542" 
d="M672 0v590l-613 901h236l477 -721l481 721h230l-613 -897v-594h-198zM850 1616h-156l-254 201l189 84z" />
    <glyph glyph-name="ygrave" unicode="&#x1ef3;" horiz-adv-x="1280" 
d="M659 215l336 893h203l-457 -1143q-68 -170 -153 -241.5t-215 -71.5q-119 0 -244 61l66 148q77 -41 165 -41q69 0 116.5 40.5t90.5 141.5l-491 1106h209zM573 1268l-247 233l188 86l207 -319h-148z" />
    <glyph glyph-name="enspace" unicode="&#x2002;" horiz-adv-x="1024" 
 />
    <glyph glyph-name="emspace" unicode="&#x2003;" horiz-adv-x="2048" 
 />
    <glyph glyph-name="threeperemspace" unicode="&#x2004;" horiz-adv-x="681" 
 />
    <glyph glyph-name="fourperemspace" unicode="&#x2005;" horiz-adv-x="512" 
 />
    <glyph glyph-name="figurespace" unicode="&#x2007;" horiz-adv-x="1290" 
 />
    <glyph glyph-name="thinspace" unicode="&#x2009;" horiz-adv-x="272" 
 />
    <glyph glyph-name="hairspace" unicode="&#x200a;" horiz-adv-x="153" 
 />
    <glyph glyph-name="endash" unicode="&#x2013;" horiz-adv-x="1140" 
d="M139 551v186h862v-186h-862z" />
    <glyph glyph-name="emdash" unicode="&#x2014;" horiz-adv-x="1929" 
d="M139 551v186h1649v-186h-1649z" />
    <glyph glyph-name="quoteleft" unicode="&#x2018;" horiz-adv-x="552" 
d="M156 981v211q0 141 63.5 213t200.5 96l24 -86q-165 -49 -153 -188h86v-246h-221z" />
    <glyph glyph-name="quoteright" unicode="&#x2019;" horiz-adv-x="552" 
d="M135 971l-26 86q87 26 124 71t31 117h-88v246h223v-209q0 -144 -63 -215.5t-201 -95.5z" />
    <glyph glyph-name="quotesinglbase" unicode="&#x201a;" horiz-adv-x="552" 
d="M125 -274l-27 86q168 49 156 188h-88v246h223v-211q0 -141 -63.5 -213t-200.5 -96z" />
    <glyph glyph-name="quotedblleft" unicode="&#x201c;" horiz-adv-x="999" 
d="M602 981v211q0 140 63 212.5t199 96.5l27 -86q-166 -49 -154 -188h86v-246h-221zM156 981v211q0 141 63.5 213t200.5 96l24 -86q-165 -49 -153 -188h86v-246h-221z" />
    <glyph glyph-name="quotedblright" unicode="&#x201d;" horiz-adv-x="999" 
d="M582 971l-27 86q87 26 124.5 71t31.5 117h-88v246h223v-209q0 -144 -63 -215.5t-201 -95.5zM135 971l-26 86q87 26 124 71t31 117h-88v246h223v-209q0 -144 -63 -215.5t-201 -95.5z" />
    <glyph glyph-name="quotedblbase" unicode="&#x201e;" horiz-adv-x="999" 
d="M571 -274l-26 86q167 49 155 188h-88v246h224v-211q0 -140 -64 -212.5t-201 -96.5zM125 -274l-27 86q168 49 156 188h-88v246h223v-211q0 -141 -63.5 -213t-200.5 -96z" />
    <glyph glyph-name="dagger" unicode="&#x2020;" horiz-adv-x="888" 
d="M381 508l14 594l-262 -17v127l260 -16l-20 295h143l-20 -295l260 16v-127l-262 17l14 -594h-127z" />
    <glyph glyph-name="daggerdbl" unicode="&#x2021;" horiz-adv-x="931" 
d="M395 0l21 295l-260 -16v127l260 -17l-15 356l15 357l-260 -17v127l260 -16l-21 295h142l-19 -295l258 16v-127l-260 17l14 -357l-14 -356l260 17v-127l-258 16l19 -295h-142z" />
    <glyph glyph-name="bullet" unicode="&#x2022;" horiz-adv-x="1042" 
d="M522 465q-119 0 -202.5 82.5t-83.5 200.5v4q0 117 84.5 199.5t201.5 82.5q115 0 200 -82.5t85 -199.5v-4q0 -118 -83.5 -200.5t-201.5 -82.5z" />
    <glyph glyph-name="ellipsis" unicode="&#x2026;" horiz-adv-x="1601" 
d="M1219 0v240h217v-240h-217zM692 0v240h217v-240h-217zM166 0v240h217v-240h-217z" />
    <glyph glyph-name="perthousand" unicode="&#x2030;" horiz-adv-x="2607" 
d="M461 879q80 0 132 70.5t52 172.5v4q0 105 -54.5 177.5t-133.5 72.5q-80 0 -132.5 -72t-52.5 -174v-4q0 -105 54.5 -176t134.5 -71zM457 745q-150 0 -245 110t-95 267v4q0 158 96 269.5t248 111.5q99 0 177.5 -52.5t120.5 -138t42 -186.5v-4q0 -158 -97 -269.5
t-247 -111.5zM1532 1491l-580 -784l-512 -707h-170l578 780l514 711h170zM1346 115q80 0 132 71t52 174v5q0 104 -54.5 175.5t-134.5 71.5t-132 -70.5t-52 -172.5v-4q0 -104 55 -177t134 -73zM1341 -16q-149 0 -244.5 110t-95.5 266v5q0 157 97 268.5t248 111.5
q150 0 245 -110.5t95 -265.5v-4q0 -158 -96.5 -269.5t-248.5 -111.5zM2150 115q80 0 131.5 71t51.5 174v5q0 104 -54.5 175.5t-132.5 71.5q-84 0 -134 -70t-50 -173v-4q0 -105 54.5 -177.5t133.5 -72.5zM2146 -16q-150 0 -245 110t-95 266v5q0 158 96 269t248 111
q149 0 244.5 -110.5t95.5 -265.5v-4q0 -158 -97 -269.5t-247 -111.5z" />
    <glyph glyph-name="guilsinglleft" unicode="&#x2039;" horiz-adv-x="731" 
d="M465 90l-356 455v18l356 457l137 -76l-276 -387l276 -391z" />
    <glyph glyph-name="guilsinglright" unicode="&#x203a;" horiz-adv-x="731" 
d="M266 90l-137 74l279 389l-279 389l137 78l357 -457v-18z" />
    <glyph glyph-name="fraction" unicode="&#x2044;" horiz-adv-x="229" 
d="M-455 0l531 768l483 723h125l-530 -768l-484 -723h-125z" />
    <glyph glyph-name="zero.sup" unicode="&#x2070;" 
d="M428 883q-141 0 -229 119t-88 309v6q0 192 89 313t230 121t230.5 -120t89.5 -310v-6q0 -190 -90.5 -311t-231.5 -121zM428 1636q-87 0 -138.5 -86.5t-51.5 -228.5v-10q0 -142 52.5 -228t139.5 -86t140 86.5t53 227.5v10q0 141 -53.5 228t-141.5 87z" />
    <glyph glyph-name="four.sup" unicode="&#x2074;" 
d="M649 1085v-186h-117v186h-401l-22 111l407 545h133v-553h115v-103h-115zM535 1186v407l-308 -407h308z" />
    <glyph glyph-name="five.sup" unicode="&#x2075;" 
d="M422 883q-173 0 -309 133l80 90q111 -111 233 -111q81 0 131.5 45t50.5 115q0 68 -51 109t-133 41q-93 0 -176 -39l-82 47l31 416h497v-117h-395l-16 -226q76 29 161 29q125 0 208 -68t83 -186q0 -122 -88.5 -200t-224.5 -78z" />
    <glyph glyph-name="six.sup" unicode="&#x2076;" 
d="M430 883q-129 0 -211 82q-50 50 -77 123.5t-27 197.5v4q0 206 94 333.5t252 127.5q77 0 131 -23t108 -71l-67 -94q-81 75 -176 75q-87 0 -149 -83.5t-66 -211.5q42 44 90.5 67.5t120.5 23.5q115 0 192.5 -71.5t77.5 -195.5q0 -122 -84 -203t-209 -81zM426 991
q78 0 127 47.5t49 122.5q0 78 -46 123t-124 45q-80 0 -130 -46.5t-50 -121.5v-2q0 -72 51.5 -120t122.5 -48z" />
    <glyph glyph-name="seven.sup" unicode="&#x2077;" 
d="M356 899h-141l367 711h-435v119h578v-95z" />
    <glyph glyph-name="eight.sup" unicode="&#x2078;" 
d="M430 883q-136 0 -221.5 66.5t-85.5 174.5q0 139 147 207q-125 61 -125 189q0 100 83.5 165.5t203.5 65.5q121 0 202 -66t81 -165q0 -121 -125 -189q69 -31 109 -82.5t40 -120.5q0 -111 -86.5 -178t-222.5 -67zM432 1647q-74 0 -121 -37t-47 -97q0 -61 47 -100t121 -39
q72 0 119 39t47 100q0 60 -46.5 97t-119.5 37zM432 1276q-86 0 -138 -41t-52 -107q0 -64 51.5 -103.5t138.5 -39.5q86 0 137.5 38.5t51.5 104.5t-52 107t-137 41z" />
    <glyph glyph-name="nine.sup" unicode="&#x2079;" 
d="M430 1749q129 0 211 -82q50 -50 77 -123.5t27 -197.5v-5q0 -210 -93.5 -334t-252.5 -124q-146 0 -252 98l68 94q46 -41 89 -61.5t99 -20.5q87 0 148 79.5t65 205.5q-41 -42 -87.5 -65t-118.5 -23q-114 0 -193.5 73t-79.5 197t84 206.5t209 82.5zM428 1294q80 0 130 47
t50 125v2q0 74 -50.5 124t-123.5 48q-78 0 -127 -48t-49 -126q0 -79 46 -125.5t124 -46.5z" />
    <glyph glyph-name="zero.inf" unicode="&#x2080;" 
d="M428 -299q-141 0 -229 119t-88 309v6q0 192 89 313t230 121t230.5 -120t89.5 -310v-6q0 -190 -90.5 -311t-231.5 -121zM428 455q-87 0 -138.5 -87t-51.5 -229v-10q0 -141 52.5 -227t139.5 -86q88 0 140.5 86t52.5 227v10q0 141 -53.5 228.5t-141.5 87.5z" />
    <glyph glyph-name="one.inf" unicode="&#x2081;" horiz-adv-x="700" 
d="M461 -279h-123v709l-178 -68l-35 107l240 92h96v-840z" />
    <glyph glyph-name="two.inf" unicode="&#x2082;" 
d="M127 -279v107l303 260q89 76 124.5 124.5t35.5 106.5q0 59 -43 97.5t-107 38.5q-116 0 -213 -138l-92 66q61 93 134 139.5t180 46.5q117 0 193.5 -68t76.5 -171q0 -83 -44 -149t-147 -152l-231 -195h428v-113h-598z" />
    <glyph glyph-name="three.inf" unicode="&#x2083;" 
d="M424 -299q-190 0 -315 145l79 86q104 -120 238 -120q69 0 116.5 40t47.5 105q0 68 -56 105.5t-149 37.5h-76l-20 78l258 256h-389v113h547v-98l-259 -252q118 -8 194.5 -69t76.5 -169q0 -115 -83.5 -186.5t-209.5 -71.5z" />
    <glyph glyph-name="four.inf" unicode="&#x2084;" 
d="M649 -96v-187h-117v187h-401l-22 110l407 545h133v-553h115v-102h-115zM535 4v408l-308 -408h308z" />
    <glyph glyph-name="five.inf" unicode="&#x2085;" 
d="M422 -299q-173 0 -309 133l80 90q110 -110 233 -110q81 0 131.5 44.5t50.5 114.5q0 68 -51 109t-133 41q-93 0 -176 -39l-82 47l31 416h497v-117h-395l-16 -225q73 28 161 28q125 0 208 -67.5t83 -185.5q0 -122 -88.5 -200.5t-224.5 -78.5z" />
    <glyph glyph-name="six.inf" unicode="&#x2086;" 
d="M430 -299q-129 0 -211 82q-50 50 -77 123.5t-27 197.5v5q0 206 94 333t252 127q77 0 131 -23t108 -71l-67 -94q-82 76 -176 76q-87 0 -149 -83.5t-66 -211.5q42 43 90.5 66.5t120.5 23.5q115 0 192.5 -71t77.5 -195q0 -123 -84 -204t-209 -81zM426 -190q78 0 127 47.5
t49 122.5q0 78 -46 122.5t-124 44.5q-80 0 -130 -46t-50 -121v-3q0 -72 51.5 -119.5t122.5 -47.5z" />
    <glyph glyph-name="seven.inf" unicode="&#x2087;" 
d="M356 -283h-141l367 711h-435v119h578v-94z" />
    <glyph glyph-name="eight.inf" unicode="&#x2088;" 
d="M430 -299q-136 0 -221.5 67t-85.5 175q0 139 147 207q-125 61 -125 188q0 100 83.5 165.5t203.5 65.5q121 0 202 -66t81 -165q0 -120 -125 -188q69 -31 109 -82.5t40 -120.5q0 -111 -87 -178.5t-222 -67.5zM432 465q-74 0 -121 -36.5t-47 -96.5q0 -61 47 -100t121 -39
q72 0 119 39t47 100q0 59 -46.5 96t-119.5 37zM432 94q-86 0 -138 -40.5t-52 -106.5q0 -64 51.5 -104t138.5 -40q86 0 137.5 39t51.5 105t-52 106.5t-137 40.5z" />
    <glyph glyph-name="nine.inf" unicode="&#x2089;" 
d="M430 567q129 0 211 -82q50 -50 77 -123.5t27 -197.5v-4q0 -210 -93.5 -334.5t-252.5 -124.5q-146 0 -252 98l68 95q46 -41 89 -61.5t99 -20.5q87 0 148 79t65 205q-41 -42 -87.5 -65t-118.5 -23q-114 0 -193.5 73.5t-79.5 197.5t84 206t209 82zM428 113q80 0 130 47
t50 125v2q0 74 -50.5 124t-123.5 48q-78 0 -127 -48t-49 -126q0 -79 46 -125.5t124 -46.5z" />
    <glyph glyph-name="colonmonetary" unicode="&#x20a1;" horiz-adv-x="1310" 
d="M997 1661h115l-37 -238q77 -42 135 -92l-82 -157q-51 44 -88 69l-168 -1075q68 16 126 52t124 97l99 -127q-83 -78 -170 -125t-197 -63l-39 -254h-115l37 250q-114 4 -182 31l-43 -281h-115l49 328q-156 88 -244.5 258.5t-88.5 400.5v19q0 301 155 498t400 235l26 174
h115l-25 -166q101 -3 183 -29zM754 1333l-179 -1136q82 -39 193 -39l178 1136q-86 39 -182 39h-10zM295 750v-17q0 -320 186 -475l164 1059q-157 -41 -253.5 -192t-96.5 -375z" />
    <glyph glyph-name="naira" unicode="&#x20a6;" horiz-adv-x="1779" 
d="M1683 473h-213v-473h-215l-292 473h-469v-473h-185v473h-213v131h213v291h-213v131h213v465h234l284 -465h459v465h184v-465h213v-131h-213v-291h213v-131zM492 1239v-637h399l-395 637h-4zM1284 276h4v621h-389z" />
    <glyph glyph-name="rupee" unicode="&#x20a8;" horiz-adv-x="2328" 
d="M180 0v1491h520q238 0 377.5 -123t139.5 -332v-6q0 -165 -93 -279t-243 -157l385 -594h-222l-358 559h-319v-559h-187zM367 725h321q156 0 248 79t92 218v6q0 141 -89.5 216t-250.5 75h-321v-594zM1825 -20q-246 0 -445 153l88 133q177 -133 363 -133q92 0 151.5 42.5
t59.5 113.5v6q0 59 -51.5 98.5t-198.5 87.5q-193 65 -275.5 136t-82.5 192v4q0 140 106 227.5t266 87.5q198 0 383 -118l-75 -142q-170 107 -312 107q-89 0 -142.5 -42.5t-53.5 -105.5v-4q0 -62 54.5 -101.5t207.5 -88.5q185 -59 266.5 -132.5t81.5 -193.5v-4
q0 -150 -112 -236.5t-279 -86.5z" />
    <glyph glyph-name="won" unicode="&#x20a9;" horiz-adv-x="2375" 
d="M2193 1491l-131 -473h226v-135h-265l-73 -271h338v-135h-377l-133 -483h-226l-139 483h-450l-138 -483h-225l-135 483h-375v135h338l-76 271h-262v135h223l-131 473h213l119 -473h430l133 477h232l131 -477h430l121 473h202zM715 203h10l184 684h-366zM1184 1274
l-187 -666h381l-184 666h-10zM1661 203h10l168 684h-366z" />
    <glyph glyph-name="sheqel" unicode="&#x20aa;" horiz-adv-x="1345" 
d="M510 297l-66 424h121l60 -361q17 -103 69.5 -150.5t151.5 -47.5h188v946h156v-1108h-346q-151 0 -231 72t-103 225zM750 401v344q0 103 -52 152t-157 49h-230v-946h-155v1108h405q155 0 232 -73t77 -226v-408h-120z" />
    <glyph glyph-name="Euro" unicode="&#x20ac;" horiz-adv-x="1550" 
d="M1432 1229l-150 -111q-80 114 -164.5 168.5t-206.5 54.5q-135 0 -236 -89.5t-149 -243.5h523v-148h-553q-7 -65 -7 -112v-3q0 -73 5 -100h555v-147h-527q45 -161 153.5 -254.5t256.5 -93.5q115 0 198 57.5t164 175.5l142 -100q-39 -56 -76.5 -99.5t-85.5 -84t-98.5 -67
t-114 -42t-133.5 -15.5q-228 0 -389.5 142.5t-219.5 380.5h-194v147h170q-4 22 -4 98v2q0 57 6 115h-172v148h199q63 228 220 368t371 140q125 0 224.5 -39t164.5 -98t128 -150z" />
    <glyph glyph-name="peso" unicode="&#x20b1;" horiz-adv-x="1572" 
d="M293 0v928h-213v129h213v434h457q237 0 386 -118t169 -316h208v-129h-208q-20 -209 -186 -327t-400 -118h-230v-483h-196zM485 653h240q164 0 267 75.5t120 205.5h-627v-281zM485 1319v-266h625q-19 129 -119 197.5t-262 68.5h-244z" />
    <glyph glyph-name="hryvnia" unicode="&#x20b4;" horiz-adv-x="1372" 
d="M129 915l14 107l650 -78q86 70 119 119t32 106q0 82 -62.5 129.5t-170.5 47.5q-181 0 -363 -150l-106 137q216 183 483 183q198 0 314 -97t116 -243q0 -73 -31.5 -134.5t-99.5 -126.5l268 -30l-14 -107l-369 43l-200 -166l542 -63l-14 -107l-645 76q-98 -82 -132 -131.5
t-34 -107.5q0 -86 67 -131.5t179 -45.5q196 0 395 152l104 -139q-240 -183 -512 -183q-216 0 -331 95.5t-115 240.5q0 140 145 279l-270 33l14 106l371 -45l203 166z" />
    <glyph glyph-name="numero" unicode="&#x2116;" horiz-adv-x="2412" 
d="M182 0v1491h174l744 -1118v1118h182v-1491h-158l-759 1149v-1149h-183zM1892 604q-169 0 -276 125.5t-107 314.5v13q0 190 109 316t278 126q170 0 277.5 -125.5t107.5 -316.5v-13q0 -189 -109.5 -314.5t-279.5 -125.5zM1894 735q104 0 171 88.5t67 218.5v13
q0 131 -67 221t-171 90q-103 0 -169 -88.5t-66 -218.5v-12q0 -131 66 -221.5t169 -90.5zM1520 299v125h749v-125h-749z" />
    <glyph glyph-name="published" unicode="&#x2117;" horiz-adv-x="1783" 
d="M891 -25q-213 0 -390.5 103.5t-278.5 279.5t-101 383v4q0 155 60.5 297t163.5 246t247 166t303 62q212 0 389 -103.5t278 -279.5t101 -383v-5q0 -207 -101.5 -384t-279.5 -281.5t-391 -104.5zM891 45q195 0 355.5 94.5t251.5 255t91 350.5v5q0 142 -53.5 270.5
t-145.5 222t-221 148.5t-274 55q-195 0 -356.5 -94.5t-252.5 -255.5t-91 -351v-4q0 -190 90.5 -349.5t250.5 -253t355 -93.5zM627 362v797h315q142 0 225.5 -69t83.5 -191v-4q0 -129 -93 -198.5t-232 -69.5h-170v-265h-129zM756 741h172q88 0 139 40.5t51 109.5v4
q0 72 -49 109.5t-137 37.5h-176v-301z" />
    <glyph glyph-name="servicemark" unicode="&#x2120;" horiz-adv-x="1519" 
d="M762 836v655h110l222 -344l223 344h106v-655h-100v491l-225 -344h-11l-225 344v-491h-100zM362 823q-160 0 -286 107l59 74q111 -93 232 -93q65 0 102 27.5t37 71.5q0 39 -35.5 63t-130.5 47q-120 27 -177 68.5t-57 122.5q0 86 66 139t172 53q140 0 246 -86l-58 -74
q-88 70 -192 70q-60 0 -95.5 -26.5t-35.5 -65.5q0 -41 35 -64.5t133 -46.5q116 -26 173.5 -70t57.5 -120q0 -90 -69.5 -143.5t-176.5 -53.5z" />
    <glyph glyph-name="trademark" unicode="&#x2122;" horiz-adv-x="1486" 
d="M727 836v655h111l223 -344l221 344h109v-655h-103v491l-223 -344h-12l-224 344v-491h-102zM270 836v559h-207v96h521v-96h-209v-559h-105z" />
    <glyph glyph-name="Omega" unicode="&#x2126;" horiz-adv-x="1867" 
d="M934 1516q169 0 310 -54t236.5 -148t148 -223.5t52.5 -279.5v-2q0 -380 -372 -639l417 2v-172h-641v166q73 49 128 94.5t106.5 103.5t84 119.5t52 140.5t19.5 169v2q0 239 -149.5 389.5t-393.5 150.5q-243 0 -392 -149.5t-149 -388.5v-2q0 -204 100 -352t291 -277v-166
h-643v172l420 -2q-181 129 -277 284t-96 357v2q0 144 53 272t148 223.5t237 151.5t310 56z" />
    <glyph glyph-name="onethird" unicode="&#x2153;" horiz-adv-x="1775" 
d="M1354 -20q-191 0 -316 145l80 86q105 -121 238 -121q69 0 116.5 40.5t47.5 105.5q0 68 -56 105.5t-149 37.5h-76l-20 78l258 256h-390v112h547v-98l-258 -252q118 -8 194.5 -68.5t76.5 -168.5q0 -115 -83.5 -186.5t-209.5 -71.5zM461 666h-123v708l-178 -67l-35 106
l240 90h96v-837zM244 0l530 768l483 723h125l-530 -768l-483 -723h-125z" />
    <glyph glyph-name="twothirds" unicode="&#x2154;" horiz-adv-x="1935" 
d="M1513 -20q-190 0 -315 145l80 86q105 -121 238 -121q69 0 116 40.5t47 105.5q0 68 -55.5 105.5t-148.5 37.5h-76l-21 78l258 256h-389v112h547v-98l-258 -252q118 -8 194 -68.5t76 -168.5q0 -115 -83 -186.5t-210 -71.5zM113 666v106l303 260q86 73 122.5 123.5
t36.5 108.5q0 59 -42.5 97t-106.5 38q-117 0 -213 -137l-92 65q61 92 133.5 138t179.5 46q117 0 194 -67.5t77 -169.5q0 -83 -44 -149t-147 -152l-231 -195h428v-112h-598zM397 0l531 768l483 723h125l-530 -768l-484 -723h-125z" />
    <glyph glyph-name="onefifth" unicode="&#x2155;" horiz-adv-x="1775" 
d="M1352 -20q-174 0 -310 133l80 90q111 -111 234 -111q81 0 131.5 45t50.5 115q0 68 -50.5 108.5t-133.5 40.5q-93 0 -176 -39l-82 48l30 415h498v-116h-395l-17 -226q76 29 162 29q125 0 208 -68t83 -186q0 -122 -88.5 -200t-224.5 -78zM461 666h-123v708l-178 -67
l-35 106l240 90h96v-837zM256 0l530 768l484 723h125l-531 -768l-483 -723h-125z" />
    <glyph glyph-name="twofifths" unicode="&#x2156;" horiz-adv-x="1935" 
d="M1511 -20q-173 0 -309 133l80 90q111 -111 234 -111q81 0 131.5 45t50.5 115q0 68 -51 108.5t-134 40.5q-93 0 -176 -39l-82 48l31 415h498v-116h-395l-17 -226q76 29 162 29q125 0 208 -68t83 -186q0 -122 -89 -200t-225 -78zM418 0l530 768l484 723h124l-530 -768
l-483 -723h-125zM113 666v106l303 260q86 73 122.5 123.5t36.5 108.5q0 59 -42.5 97t-106.5 38q-117 0 -213 -137l-92 65q61 92 133.5 138t179.5 46q117 0 194 -67.5t77 -169.5q0 -83 -44 -149t-147 -152l-231 -195h428v-112h-598z" />
    <glyph glyph-name="threefifths" unicode="&#x2157;" horiz-adv-x="1935" 
d="M1511 -20q-173 0 -309 133l80 90q111 -111 234 -111q81 0 131.5 45t50.5 115q0 68 -51 108.5t-134 40.5q-93 0 -176 -39l-82 48l31 415h498v-116h-395l-17 -226q76 29 162 29q125 0 208 -68t83 -186q0 -122 -89 -200t-225 -78zM387 0l531 768l483 723h125l-531 -768
l-483 -723h-125zM410 643q-188 0 -316 148l80 86q105 -121 238 -121q69 0 116 40t47 105q0 68 -55.5 105.5t-148.5 37.5h-76l-21 76l258 256h-389v115h547v-98l-258 -252q118 -8 194 -69t76 -169q0 -114 -83 -187t-209 -73z" />
    <glyph glyph-name="fourfifths" unicode="&#x2158;" horiz-adv-x="1935" 
d="M635 848v-186h-117v186h-401l-23 110l408 543h133v-551h115v-102h-115zM520 948v408l-307 -408h307zM1511 -20q-173 0 -309 133l80 90q111 -111 234 -111q81 0 131.5 45t50.5 115q0 68 -51 108.5t-134 40.5q-93 0 -176 -39l-82 48l31 415h498v-116h-395l-17 -226
q76 29 162 29q125 0 208 -68t83 -186q0 -122 -89 -200t-225 -78zM418 0l530 768l484 723h124l-530 -768l-483 -723h-125z" />
    <glyph glyph-name="onesixth" unicode="&#x2159;" horiz-adv-x="1775" 
d="M1360 -20q-130 0 -211 81q-50 50 -77.5 124t-27.5 198v4q0 206 94.5 333.5t252.5 127.5q77 0 131 -23t108 -71l-67 -95q-82 76 -177 76q-87 0 -149 -83.5t-66 -211.5q42 43 90.5 66.5t120.5 23.5q115 0 193 -71t78 -195q0 -122 -84 -203t-209 -81zM1356 88q78 0 127 47.5
t49 122.5q0 78 -46 123t-124 45q-80 0 -130 -46.5t-50 -121.5v-2q0 -72 51.5 -120t122.5 -48zM461 666h-123v708l-178 -67l-35 106l240 90h96v-837zM270 0l531 768l483 723h125l-530 -768l-484 -723h-125z" />
    <glyph glyph-name="fivesixths" unicode="&#x215a;" horiz-adv-x="1935" 
d="M1520 -20q-130 0 -211 81q-50 50 -77.5 124t-27.5 198v4q0 206 94 333.5t252 127.5q77 0 132 -23t108 -71l-68 -95q-82 76 -176 76q-87 0 -149 -83.5t-66 -211.5q42 43 90.5 66.5t120.5 23.5q115 0 192.5 -71t77.5 -195q0 -123 -83.5 -203.5t-208.5 -80.5zM1516 88
q78 0 127 47.5t49 122.5q0 78 -46 123t-124 45q-80 0 -130.5 -46.5t-50.5 -121.5v-2q0 -72 52 -120t123 -48zM397 0l531 768l483 723h125l-530 -768l-484 -723h-125zM408 643q-172 0 -310 135l80 90q110 -110 234 -110q81 0 131.5 45t50.5 115q0 68 -50.5 108.5t-133.5 40.5
q-97 0 -177 -41l-81 49l30 416h498v-117h-395l-17 -225q71 27 162 27q125 0 208 -67.5t83 -184.5q0 -125 -88.5 -203t-224.5 -78z" />
    <glyph glyph-name="oneeighth" unicode="&#x215b;" horiz-adv-x="1775" 
d="M1360 -20q-136 0 -221.5 66.5t-85.5 174.5q0 139 147 207q-125 61 -125 188q0 100 83.5 166t203.5 66t201.5 -66.5t81.5 -165.5q0 -120 -125 -188q69 -31 109 -82.5t40 -120.5q0 -111 -86.5 -178t-222.5 -67zM1362 743q-74 0 -121 -36.5t-47 -96.5q0 -61 47 -100t121 -39
q72 0 119 39t47 100q0 59 -46.5 96t-119.5 37zM1362 373q-86 0 -138.5 -41t-52.5 -107q0 -64 52 -103.5t139 -39.5q86 0 137 38.5t51 104.5t-51.5 107t-136.5 41zM461 666h-123v708l-178 -67l-35 106l240 90h96v-837zM266 0l531 768l483 723h125l-531 -768l-483 -723h-125z
" />
    <glyph glyph-name="threeeighths" unicode="&#x215c;" horiz-adv-x="1935" 
d="M1520 -20q-136 0 -222 66.5t-86 174.5q0 138 148 207q-125 61 -125 188q0 100 83.5 166t203.5 66t201 -66t81 -166q0 -120 -125 -188q69 -31 109.5 -82.5t40.5 -120.5q0 -111 -86.5 -178t-222.5 -67zM1522 743q-74 0 -121 -36.5t-47 -96.5q0 -61 47 -100t121 -39
q72 0 119 39t47 100q0 59 -46.5 96t-119.5 37zM1522 373q-86 0 -138.5 -41t-52.5 -107q0 -64 52 -103.5t139 -39.5q86 0 137 38.5t51 104.5t-51.5 107t-136.5 41zM397 0l531 768l483 723h125l-530 -768l-484 -723h-125zM410 643q-188 0 -316 148l80 86q105 -121 238 -121
q69 0 116 40t47 105q0 68 -55.5 105.5t-148.5 37.5h-76l-21 76l258 256h-389v115h547v-98l-258 -252q118 -8 194 -69t76 -169q0 -114 -83 -187t-209 -73z" />
    <glyph glyph-name="fiveeighths" unicode="&#x215d;" horiz-adv-x="1935" 
d="M1520 -20q-136 0 -222 66.5t-86 174.5q0 138 148 207q-125 61 -125 188q0 100 83.5 166t203.5 66t201 -66t81 -166q0 -120 -125 -188q69 -31 109.5 -82.5t40.5 -120.5q0 -111 -86.5 -178t-222.5 -67zM1522 743q-74 0 -121 -36.5t-47 -96.5q0 -61 47 -100t121 -39
q72 0 119 39t47 100q0 59 -46.5 96t-119.5 37zM1522 373q-86 0 -138.5 -41t-52.5 -107q0 -64 52 -103.5t139 -39.5q86 0 137 38.5t51 104.5t-51.5 107t-136.5 41zM397 0l531 768l483 723h125l-530 -768l-484 -723h-125zM408 643q-172 0 -310 135l80 90q110 -110 234 -110
q81 0 131.5 45t50.5 115q0 68 -50.5 108.5t-133.5 40.5q-97 0 -177 -41l-81 49l30 416h498v-117h-395l-17 -225q71 27 162 27q125 0 208 -67.5t83 -184.5q0 -125 -88.5 -203t-224.5 -78z" />
    <glyph glyph-name="seveneighths" unicode="&#x215e;" horiz-adv-x="1935" 
d="M1520 -20q-136 0 -222 66.5t-86 174.5q0 138 148 207q-125 61 -125 188q0 100 83.5 166t203.5 66t201 -66t81 -166q0 -120 -125 -188q69 -31 109.5 -82.5t40.5 -120.5q0 -111 -86.5 -178t-222.5 -67zM1522 743q-74 0 -121 -36.5t-47 -96.5q0 -61 47 -100t121 -39
q72 0 119 39t47 100q0 59 -46.5 96t-119.5 37zM1522 373q-86 0 -138.5 -41t-52.5 -107q0 -64 52 -103.5t139 -39.5q86 0 137 38.5t51 104.5t-51.5 107t-136.5 41zM360 662h-141l367 710h-434v119h577v-94zM334 0l530 768l484 723h125l-531 -768l-483 -723h-125z" />
    <glyph glyph-name="Delta" unicode="&#x2206;" horiz-adv-x="1695" 
d="M127 0l-16 145l637 1356h200l637 -1356l-16 -145h-1442zM846 1282l-514 -1104h1022z" />
    <glyph glyph-name="minus" unicode="&#x2212;" horiz-adv-x="1353" 
d="M1200 657h-1046v185h1046v-185z" />
    <glyph glyph-name="NUL" horiz-adv-x="0" 
 />
    <glyph glyph-name="CR" horiz-adv-x="655" 
 />
    <glyph glyph-name="Q.alt" horiz-adv-x="1826" 
d="M1491 -215l-268 252q-153 -62 -312 -62q-222 0 -398 105t-271 279t-95 382v4q0 154 57 295t156.5 246t244 167.5t310.5 62.5q222 0 398 -105t271 -279t95 -382v-5q0 -176 -70 -329t-198 -262l375 -361v-8h-295zM915 156q160 0 289 79t200 212.5t71 293.5v4
q0 119 -42.5 227.5t-116.5 188.5t-179.5 127t-225.5 47q-160 0 -289 -79t-199.5 -212.5t-70.5 -293.5v-5q0 -160 72 -294.5t202 -214.5t289 -80z" />
    <glyph glyph-name="a.alt" horiz-adv-x="1435" 
d="M647 -25q-99 0 -192.5 39.5t-167.5 111t-119 182.5t-45 243v4q0 133 44 244.5t117.5 183t167.5 111t195 39.5q249 0 412 -226v201h190v-1108h-190v211q-164 -236 -412 -236zM686 145q152 0 264.5 115.5t112.5 292.5v4q0 175 -113 290.5t-264 115.5q-157 0 -262 -110.5
t-105 -295.5v-4q0 -180 107.5 -294t259.5 -114z" />
    <glyph glyph-name="uni039E.alt" horiz-adv-x="1601" 
d="M1468 178v-178h-1335v178h572v486h-504v176h504v473h-560v178h1313v-178h-561v-473h504v-176h-504v-486h571z" />
    <glyph glyph-name="uni0424.bgr" horiz-adv-x="2023" 
d="M913 -213v211q-225 8 -400.5 107.5t-270.5 265.5t-95 370v4q0 151 55.5 285t154.5 233t243 160.5t313 69.5v211h197v-211q169 -6 313 -66.5t243 -160t154.5 -233t55.5 -283.5v-5q0 -151 -55.5 -284.5t-154.5 -232.5t-243 -160.5t-313 -69.5v-211h-197zM350 750v-5
q0 -241 158 -400t410 -171v1143q-253 -12 -410.5 -170t-157.5 -397zM1671 741v4q0 239 -157 398.5t-408 171.5v-1141q252 12 408.5 170t156.5 397z" />
    <glyph glyph-name="uni0432.bgr" horiz-adv-x="1386" 
d="M164 541v485q0 254 143 398.5t395 144.5q228 0 364 -116t136 -302v-2q0 -144 -85 -238t-232 -131q183 -40 282 -129.5t99 -255.5v-2q0 -180 -145.5 -299t-391.5 -119q-271 0 -418 139.5t-147 426.5zM586 698h-230v-155q0 -404 375 -404q156 0 247 76t91 195
q0 139 -118.5 213.5t-364.5 74.5zM356 1026v-180h228q199 0 311.5 78.5t112.5 218.5q0 117 -82.5 189.5t-223.5 72.5q-164 0 -255 -100.5t-91 -278.5z" />
    <glyph glyph-name="uni0433.bgr" horiz-adv-x="1107" 
d="M504 -20q-183 0 -284 80t-101 223v4q0 129 91 206t292 142q126 42 187.5 71t84.5 56.5t23 68.5v5q0 59 -47.5 96t-145.5 37q-180 0 -364 -117l-84 141q210 135 450 135q180 0 276.5 -81t96.5 -218v-4q0 -126 -91 -198t-298 -138q-169 -57 -229 -97t-60 -107v-2
q0 -146 209 -146q193 0 410 146l88 -136q-241 -167 -504 -167z" />
    <glyph glyph-name="uni0434.bgr" horiz-adv-x="1435" 
d="M676 -344q-275 0 -502 145l82 150q189 -133 418 -133q183 0 284 95.5t101 281.5v116q-167 -225 -420 -225q-99 0 -192 36.5t-165 102t-115.5 165t-43.5 216.5v4q0 118 43.5 218t116 165.5t165 102.5t191.5 37q255 0 420 -215v190h190v-903q0 -264 -141 -402
q-147 -147 -432 -147zM682 254q154 0 267.5 100t113.5 252v4q0 103 -54 185.5t-140.5 126t-186.5 43.5q-153 0 -258 -97.5t-105 -255.5v-4q0 -155 106 -254.5t257 -99.5z" />
    <glyph glyph-name="uni0436.bgr" horiz-adv-x="1880" 
d="M1034 1554l-2 -911h168l387 465h230l-469 -543l485 -565h-231l-400 475h-170l2 -475h-188l2 475h-174l-398 -475h-229l485 557l-469 551h234l385 -465h166l-2 911h188z" />
    <glyph glyph-name="uni0438.bgr" horiz-adv-x="1331" 
d="M584 -25q-194 0 -305 120.5t-111 318.5v694h192v-641q0 -148 75.5 -231.5t211.5 -83.5q133 0 220 89.5t87 235.5v631h191v-1108h-191v186q-136 -211 -370 -211z" />
    <glyph glyph-name="uni0439.bgr" horiz-adv-x="1331" 
d="M584 -25q-194 0 -305 120.5t-111 318.5v694h192v-641q0 -148 75.5 -231.5t211.5 -83.5q133 0 220 89.5t87 235.5v631h191v-1108h-191v186q-136 -211 -370 -211zM655 1264q-141 0 -230 73t-99 205h137q42 -133 192 -133q151 0 193 133h137q-10 -132 -99 -205t-231 -73z
" />
    <glyph glyph-name="uni043A.bgr" horiz-adv-x="1247" 
d="M377 1554v-911h178l397 465h238l-481 -541l493 -567h-237l-406 475h-182v-475h-193v1554h193z" />
    <glyph glyph-name="uni043F.bgr" horiz-adv-x="1331" 
d="M184 0v1108h193v-186q132 211 368 211q195 0 305.5 -120.5t110.5 -318.5v-694h-192v641q0 148 -75 231.5t-210 83.5q-133 0 -220 -89t-87 -236v-631h-193z" />
    <glyph glyph-name="uni0442.bgr" horiz-adv-x="2041" 
d="M184 0v1108h193v-180q42 61 83 102t111.5 72t157.5 31q125 0 213 -57.5t135 -155.5q144 213 385 213q191 0 298.5 -117t107.5 -324v-692h-193v641q0 153 -70 234t-198 81q-124 0 -204.5 -86t-80.5 -235v-635h-192v645q0 147 -70.5 229t-195.5 82q-124 0 -205.5 -91
t-81.5 -234v-631h-193z" />
    <glyph glyph-name="uni0446.bgr" horiz-adv-x="1366" 
d="M584 -25q-194 0 -305 120.5t-111 318.5v694h192v-641q0 -148 75.5 -231.5t211.5 -83.5q133 0 220 89.5t87 235.5v631h191v-934h135v-461h-176v287h-150v186q-136 -211 -370 -211z" />
    <glyph glyph-name="uni0448.bgr" horiz-adv-x="2041" 
d="M1855 1108v-1108h-192v180q-42 -60 -83.5 -101t-111.5 -72.5t-155 -31.5q-125 0 -213 57.5t-135 155.5q-148 -213 -385 -213q-190 0 -298 118t-108 323v692h193v-641q0 -153 70 -234t198 -81q123 0 204 86.5t81 236.5v633h192v-645q0 -147 70.5 -229t195.5 -82
q124 0 204.5 90.5t80.5 234.5v631h192z" />
    <glyph glyph-name="uni0449.bgr" horiz-adv-x="2076" 
d="M1815 -287v287h-152v180q-42 -60 -83.5 -101t-111.5 -72.5t-155 -31.5q-125 0 -213 57.5t-135 155.5q-148 -213 -385 -213q-190 0 -298 118t-108 323v692h193v-641q0 -153 70 -234t198 -81q123 0 204 86.5t81 236.5v633h192v-645q0 -147 70.5 -229t195.5 -82
q124 0 204.5 90.5t80.5 234.5v631h192v-934h136v-461h-176z" />
    <glyph glyph-name="uni044E.bgr" horiz-adv-x="1878" 
d="M1190 -25q-223 0 -378 141t-185 355h-250v-471h-193v1554h193v-907h252q35 208 190 347t375 139q121 0 227 -46t179.5 -124t116 -183.5t42.5 -222.5v-4q0 -116 -42.5 -222t-116.5 -184.5t-181 -125t-229 -46.5zM1194 145q164 0 267.5 117t103.5 287v4q0 170 -106.5 290
t-268.5 120q-163 0 -267 -118.5t-104 -287.5v-4q0 -110 47.5 -203t134 -149t193.5 -56z" />
    <glyph glyph-name="aacute.alt" horiz-adv-x="1435" 
d="M649 1268l207 319l188 -86l-247 -233h-148zM647 -25q-99 0 -192.5 39.5t-167.5 111t-119 182.5t-45 243v4q0 133 44 244.5t117.5 183t167.5 111t195 39.5q249 0 412 -226v201h190v-1108h-190v211q-164 -236 -412 -236zM686 145q152 0 264.5 115.5t112.5 292.5v4
q0 175 -113 290.5t-264 115.5q-157 0 -262 -110.5t-105 -295.5v-4q0 -180 107.5 -294t259.5 -114z" />
    <glyph glyph-name="abreve.alt" horiz-adv-x="1435" 
d="M647 -25q-99 0 -192.5 39.5t-167.5 111t-119 182.5t-45 243v4q0 133 44 244.5t117.5 183t167.5 111t195 39.5q249 0 412 -226v201h190v-1108h-190v211q-164 -236 -412 -236zM686 145q152 0 264.5 115.5t112.5 292.5v4q0 175 -113 290.5t-264 115.5q-157 0 -262 -110.5
t-105 -295.5v-4q0 -180 107.5 -294t259.5 -114zM727 1264q-142 0 -231 73t-99 205h138q42 -133 192 -133q151 0 193 133h137q-10 -132 -99 -205t-231 -73z" />
    <glyph glyph-name="acircumflex.alt" horiz-adv-x="1435" 
d="M408 1268l233 288h172l234 -288h-160l-162 143l-162 -143h-155zM647 -25q-99 0 -192.5 39.5t-167.5 111t-119 182.5t-45 243v4q0 133 44 244.5t117.5 183t167.5 111t195 39.5q249 0 412 -226v201h190v-1108h-190v211q-164 -236 -412 -236zM686 145q152 0 264.5 115.5
t112.5 292.5v4q0 175 -113 290.5t-264 115.5q-157 0 -262 -110.5t-105 -295.5v-4q0 -180 107.5 -294t259.5 -114z" />
    <glyph glyph-name="adieresis.alt" horiz-adv-x="1435" 
d="M813 1268v217h213v-217h-213zM428 1268v217h213v-217h-213zM647 -25q-99 0 -192.5 39.5t-167.5 111t-119 182.5t-45 243v4q0 133 44 244.5t117.5 183t167.5 111t195 39.5q249 0 412 -226v201h190v-1108h-190v211q-164 -236 -412 -236zM686 145q152 0 264.5 115.5
t112.5 292.5v4q0 175 -113 290.5t-264 115.5q-157 0 -262 -110.5t-105 -295.5v-4q0 -180 107.5 -294t259.5 -114z" />
    <glyph glyph-name="agrave.alt" horiz-adv-x="1435" 
d="M647 -25q-99 0 -192.5 39.5t-167.5 111t-119 182.5t-45 243v4q0 133 44 244.5t117.5 183t167.5 111t195 39.5q249 0 412 -226v201h190v-1108h-190v211q-164 -236 -412 -236zM686 145q152 0 264.5 115.5t112.5 292.5v4q0 175 -113 290.5t-264 115.5q-157 0 -262 -110.5
t-105 -295.5v-4q0 -180 107.5 -294t259.5 -114zM655 1268l-247 233l188 86l207 -319h-148z" />
    <glyph glyph-name="amacron.alt" horiz-adv-x="1435" 
d="M647 -25q-99 0 -192.5 39.5t-167.5 111t-119 182.5t-45 243v4q0 133 44 244.5t117.5 183t167.5 111t195 39.5q249 0 412 -226v201h190v-1108h-190v211q-164 -236 -412 -236zM686 145q152 0 264.5 115.5t112.5 292.5v4q0 175 -113 290.5t-264 115.5q-157 0 -262 -110.5
t-105 -295.5v-4q0 -180 107.5 -294t259.5 -114zM385 1305v149h684v-149h-684z" />
    <glyph glyph-name="aogonek.alt" horiz-adv-x="1435" 
d="M1278 -246v-104q-8 0 -20 -1t-17 -1q-132 4 -204 51.5t-72 124.5q0 89 96 176h-2v211q-164 -236 -412 -236q-99 0 -192.5 39.5t-167.5 111t-119 182.5t-45 243v4q0 133 44 244.5t117.5 183t167.5 111t195 39.5q249 0 412 -226v201h190v-1108h-37q-90 -81 -90 -150
q0 -45 37.5 -68.5t118.5 -27.5zM686 145q152 0 264.5 115.5t112.5 292.5v4q0 175 -113 290.5t-264 115.5q-157 0 -262 -110.5t-105 -295.5v-4q0 -180 107.5 -294t259.5 -114z" />
    <glyph glyph-name="aring.alt" horiz-adv-x="1435" 
d="M727 1264q-97 0 -166 66t-69 161q0 93 69.5 160t165.5 67q97 0 166.5 -67.5t69.5 -159.5q0 -95 -69.5 -161t-166.5 -66zM727 1346q60 0 102.5 42.5t42.5 102.5t-42.5 102.5t-102.5 42.5t-102.5 -42.5t-42.5 -102.5t42.5 -102.5t102.5 -42.5zM647 -25q-99 0 -192.5 39.5
t-167.5 111t-119 182.5t-45 243v4q0 133 44 244.5t117.5 183t167.5 111t195 39.5q249 0 412 -226v201h190v-1108h-190v211q-164 -236 -412 -236zM686 145q152 0 264.5 115.5t112.5 292.5v4q0 175 -113 290.5t-264 115.5q-157 0 -262 -110.5t-105 -295.5v-4
q0 -180 107.5 -294t259.5 -114z" />
    <glyph glyph-name="aring.alt2" horiz-adv-x="1253" 
d="M512 -25q-106 0 -197.5 38.5t-151 118.5t-59.5 187v5q0 174 127.5 266t341.5 92q182 0 328 -47v37q0 138 -81 210t-232 72q-166 0 -330 -77l-55 153q131 62 262 84q-72 63 -72 156q0 95 69.5 161t166.5 66t166 -66t69 -161q0 -102 -84 -166q109 -25 191 -103
q114 -114 114 -329v-672h-186v158q-145 -183 -387 -183zM555 125q149 0 248.5 79t99.5 202v96q-143 47 -303 47q-146 0 -225.5 -57.5t-79.5 -157.5v-4q0 -94 75 -149.5t185 -55.5zM483 1270q0 -60 43 -103t103 -43t102.5 43t42.5 103t-42.5 102.5t-102.5 42.5t-103 -42.5
t-43 -102.5z" />
    <glyph glyph-name="aringacute.alt" horiz-adv-x="1435" 
d="M727 1264q-97 0 -166 66t-69 161q0 93 69.5 160t165.5 67q97 0 166.5 -67.5t69.5 -159.5q0 -95 -69.5 -161t-166.5 -66zM727 1346q60 0 102.5 42.5t42.5 102.5t-42.5 102.5t-102.5 42.5t-102.5 -42.5t-42.5 -102.5t42.5 -102.5t102.5 -42.5zM647 -25q-99 0 -192.5 39.5
t-167.5 111t-119 182.5t-45 243v4q0 133 44 244.5t117.5 183t167.5 111t195 39.5q249 0 412 -226v201h190v-1108h-190v211q-164 -236 -412 -236zM686 145q152 0 264.5 115.5t112.5 292.5v4q0 175 -113 290.5t-264 115.5q-157 0 -262 -110.5t-105 -295.5v-4
q0 -180 107.5 -294t259.5 -114zM647 1782l215 276l185 -88l-248 -188h-152z" />
    <glyph glyph-name="aringacute.alt2" horiz-adv-x="1253" 
d="M512 -25q-106 0 -197.5 38.5t-151 118.5t-59.5 187v5q0 174 127.5 266t341.5 92q182 0 328 -47v37q0 138 -81 210t-232 72q-166 0 -330 -77l-55 153q131 62 262 84q-72 63 -72 156q0 95 69.5 161t166.5 66t166 -66t69 -161q0 -102 -84 -166q109 -25 191 -103
q114 -114 114 -329v-672h-186v158q-145 -183 -387 -183zM555 125q149 0 248.5 79t99.5 202v96q-143 47 -303 47q-146 0 -225.5 -57.5t-79.5 -157.5v-4q0 -94 75 -149.5t185 -55.5zM483 1270q0 -60 43 -103t103 -43t102.5 43t42.5 103t-42.5 102.5t-102.5 42.5t-103 -42.5
t-43 -102.5zM549 1575l215 276l184 -88l-248 -188h-151z" />
    <glyph glyph-name="atilde.alt" horiz-adv-x="1435" 
d="M647 -25q-99 0 -192.5 39.5t-167.5 111t-119 182.5t-45 243v4q0 133 44 244.5t117.5 183t167.5 111t195 39.5q249 0 412 -226v201h190v-1108h-190v211q-164 -236 -412 -236zM686 145q152 0 264.5 115.5t112.5 292.5v4q0 175 -113 290.5t-264 115.5q-157 0 -262 -110.5
t-105 -295.5v-4q0 -180 107.5 -294t259.5 -114zM887 1268q-57 0 -160 43q-92 43 -131 43q-41 0 -65 -23.5t-48 -83.5l-112 33q33 125 81.5 180.5t131.5 55.5q56 0 159 -43q87 -41 131 -41q42 0 65.5 22.5t47.5 81.5l113 -33q-33 -125 -81.5 -180t-131.5 -55z" />
    <glyph glyph-name="i.dot" horiz-adv-x="591" 
d="M188 1329v201h215v-201h-215zM201 0v1108h190v-1108h-190z" />
    <glyph glyph-name="uni0386.calt" horiz-adv-x="1699" 
d="M84 0l674 1501h184l672 -1501h-209l-170 385h-778l-170 -385h-203zM530 561h631l-315 711z" />
    <glyph glyph-name="uni0388.calt" horiz-adv-x="1443" 
d="M213 0v1491h1085v-178h-888v-473h792v-178h-792v-484h899v-178h-1096z" />
    <glyph glyph-name="uni0389.calt" horiz-adv-x="1634" 
d="M213 0v1491h197v-649h815v649h198v-1491h-198v659h-815v-659h-197z" />
    <glyph glyph-name="uni038A.calt" horiz-adv-x="653" 
d="M227 0v1491h199v-1491h-199z" />
    <glyph glyph-name="uni038C.calt" horiz-adv-x="1826" 
d="M911 -25q-222 0 -398 105t-271 279t-95 382v4q0 154 57 295t156.5 246t244 167.5t310.5 62.5q222 0 398 -105t271 -279t95 -382v-5q0 -154 -57 -294.5t-156.5 -245.5t-244 -167.5t-310.5 -62.5zM915 156q160 0 289 79t200 212.5t71 293.5v4q0 119 -42.5 227.5
t-116.5 188.5t-179.5 127t-225.5 47q-160 0 -289 -79t-199.5 -212.5t-70.5 -293.5v-5q0 -160 72 -294.5t202 -214.5t289 -80z" />
    <glyph glyph-name="uni038E.calt" horiz-adv-x="1542" 
d="M672 0v590l-613 901h236l477 -721l481 721h230l-613 -897v-594h-198z" />
    <glyph glyph-name="uni038F.calt" horiz-adv-x="1867" 
d="M934 1516q169 0 310 -54t236.5 -148t148 -223.5t52.5 -279.5v-2q0 -380 -372 -639l417 2v-172h-641v166q73 49 128 94.5t106.5 103.5t84 119.5t52 140.5t19.5 169v2q0 239 -149.5 389.5t-393.5 150.5q-243 0 -392 -149.5t-149 -388.5v-2q0 -204 100 -352t291 -277v-166
h-643v172l420 -2q-181 129 -277 284t-96 357v2q0 144 53 272t148 223.5t237 151.5t310 56z" />
    <glyph glyph-name="uni0399.calt" horiz-adv-x="653" 
d="M227 0v1491h199v-1491h-199zM426 1620v207h217v-207h-217zM14 1620v207h219v-207h-219z" />
    <glyph glyph-name="uni03A5.calt" horiz-adv-x="1542" 
d="M672 0v590l-613 901h236l477 -721l481 721h230l-613 -897v-594h-198zM868 1616v207h217v-207h-217zM457 1616v207h219v-207h-219z" />
    <glyph glyph-name="uni0431.srb" horiz-adv-x="1372" 
d="M1130 1554v-168l-589 3q-52 0 -79.5 -19t-27.5 -51q0 -30 23 -53t84 -56l362 -196q168 -88 259 -208t91 -290v-2q0 -109 -41 -207t-114.5 -171.5t-182 -117t-235.5 -43.5q-163 0 -292.5 70t-201 191.5t-71.5 269.5v2q0 203 132.5 344.5t354.5 161.5l-141 82
q-117 63 -165 119t-48 137q0 90 73 146t220 56h589zM684 141q166 0 271.5 107t105.5 268v2q0 159 -107 264t-266 105q-167 0 -273 -109.5t-106 -269.5v-2q0 -156 106 -260.5t269 -104.5z" />
    <glyph glyph-name="three.alt" horiz-adv-x="1306" 
d="M664 -25q-176 0 -320.5 71.5t-247.5 195.5l144 123q172 -213 428 -213q142 0 228.5 71t86.5 189v4q0 121 -98.5 186.5t-278.5 65.5h-155v168h159q149 0 240.5 69.5t91.5 186.5v4q0 106 -82 174.5t-219 68.5q-114 0 -203.5 -52t-167.5 -154l-141 108q99 134 222 204.5
t294 70.5q218 0 356 -112.5t138 -285.5v-4q0 -248 -248 -350q133 -45 211 -130.5t78 -217.5v-4q0 -186 -143.5 -311.5t-372.5 -125.5z" />
    <glyph glyph-name="registered.alt" horiz-adv-x="1783" 
d="M891 -25q-213 0 -390.5 103.5t-278.5 279.5t-101 383v4q0 155 60.5 297t163.5 246t247 166t303 62q212 0 389 -103.5t278 -279.5t101 -383v-5q0 -207 -101.5 -384t-279.5 -281.5t-391 -104.5zM891 45q195 0 355.5 94.5t251.5 255t91 350.5v5q0 142 -53.5 270.5
t-145.5 222t-221 148.5t-274 55q-195 0 -356.5 -94.5t-252.5 -255.5t-91 -351v-4q0 -190 90.5 -349.5t250.5 -253t355 -93.5zM588 369v796h354q156 0 240 -84q61 -61 61 -157v-4q0 -185 -199 -236l238 -315h-156l-219 295h-192v-295h-127zM715 776h219q81 0 130.5 36
t49.5 101v5q0 61 -47 96t-129 35h-223v-273z" />
    <glyph glyph-name="one.sup_alt" 
d="M750 903h-588v109h241v600l-210 -78l-33 106l270 103h96v-731h224v-109z" />
    <glyph glyph-name="one.inf_alt" 
d="M750 -279h-588v109h241v600l-210 -78l-33 107l270 102h96v-731h224v-109z" />
    <glyph glyph-name="zero.num" 
d="M428 643q-141 0 -229 119.5t-88 310.5v6q0 191 89 311.5t230 120.5t230.5 -119t89.5 -309v-6q0 -192 -90.5 -313t-231.5 -121zM428 1397q-87 0 -138.5 -86t-51.5 -228v-10q0 -142 52.5 -228.5t139.5 -86.5t140 86.5t53 228.5v10q0 141 -53.5 227.5t-141.5 86.5z" />
    <glyph glyph-name="one.num" horiz-adv-x="700" 
d="M461 666h-123v708l-178 -67l-35 106l240 90h96v-837z" />
    <glyph glyph-name="one.num_alt" 
d="M750 666h-588v108h241v600l-210 -78l-33 107l270 100h96v-729h224v-108z" />
    <glyph glyph-name="two.num" 
d="M127 666v106l303 260q87 73 123.5 124t36.5 108q0 59 -43 97t-107 38q-117 0 -213 -137l-92 65q61 92 134 138t180 46q117 0 193.5 -67.5t76.5 -169.5q0 -83 -44 -149t-147 -152l-231 -195h428v-112h-598z" />
    <glyph glyph-name="three.num" 
d="M424 643q-187 0 -315 148l79 86q105 -121 238 -121q69 0 116.5 40t47.5 105q0 68 -56 105.5t-149 37.5h-76l-20 76l258 256h-389v115h547v-98l-259 -252q118 -8 194.5 -69t76.5 -169q0 -114 -83.5 -187t-209.5 -73z" />
    <glyph glyph-name="four.num" 
d="M649 848v-186h-117v186h-401l-22 110l407 543h133v-551h115v-102h-115zM535 948v408l-308 -408h308z" />
    </font>
</defs>
</svg>
