<?xml version="1.0" standalone="no"?>
<!DOCTYPE svg PUBLIC "-//W3C//DTD SVG 1.1//EN" "http://www.w3.org/Graphics/SVG/1.1/DTD/svg11.dtd" >
<svg xmlns="http://www.w3.org/2000/svg" xmlns:xlink="http://www.w3.org/1999/xlink" version="1.1">
<metadata>
Created by FontForge 20201107 at Mon Apr  7 19:28:50 2025
 By 
Copyright (C) 2001, 2010 Hoefler &#38; Co. http://www.typography.com |DCNT
</metadata>
<defs>
<font id="GothamSSm-BookItalic" horiz-adv-x="860" >
  <font-face 
    font-family="GothamSSm"
    font-weight="400"
    font-style="italic"
    font-stretch="normal"
    units-per-em="2048"
    panose-1="0 0 0 0 0 0 0 0 0 0"
    ascent="1638"
    descent="-410"
    x-height="1108"
    cap-height="1491"
    bbox="-657 -539 2556 2126"
    underline-thickness="102"
    underline-position="-204"
    slope="-15"
    unicode-range="U+0020-FB04"
  />
<missing-glyph horiz-adv-x="1024" 
d="M0 -410v2048h1024v-2048h-1024zM102 -156l353 770l-353 770v-1540zM145 -307h734l-367 799zM512 737l367 799h-734zM922 -156v1540l-353 -770z" />
    <glyph glyph-name="f_f" unicode="ff" horiz-adv-x="1646" 
d="M100 0l252 940h-147l45 168h147l31 113q37 150 123 239q101 101 272 101q128 0 219 -43l-45 -164q-90 41 -174 41q-158 0 -209 -193l-26 -94h346l-45 -168h-344l-252 -940h-193zM913 0l252 940h-147l45 168h147l31 113q37 150 123 239q101 101 272 101q128 0 219 -43
l-45 -164q-90 41 -174 41q-158 0 -209 -193l-26 -94h346l-45 -168h-344l-252 -940h-193z" />
    <glyph glyph-name="fi" unicode="fi" horiz-adv-x="1409" 
d="M866 0l299 1108h191l-297 -1108h-193zM1212 1329l56 201h215l-56 -201h-215zM100 0l252 940h-147l45 168h147l31 113q37 150 123 239q101 101 272 101q128 0 219 -43l-45 -164q-90 41 -174 41q-158 0 -209 -193l-26 -94h346l-45 -168h-344l-252 -940h-193z" />
    <glyph glyph-name="fl" unicode="fl" horiz-adv-x="1409" 
d="M866 0l418 1554h193l-418 -1554h-193zM100 0l252 940h-147l45 168h147l31 113q37 150 123 239q101 101 272 101q128 0 219 -43l-45 -164q-90 41 -174 41q-158 0 -209 -193l-26 -94h346l-45 -168h-344l-252 -940h-193z" />
    <glyph glyph-name="f_f_i" unicode="ffi" horiz-adv-x="2222" 
d="M1679 0l299 1108h191l-297 -1108h-193zM2025 1329l56 201h215l-55 -201h-216zM100 0l252 940h-147l45 168h147l31 113q37 150 123 239q101 101 272 101q128 0 219 -43l-45 -164q-90 41 -174 41q-158 0 -209 -193l-26 -94h346l-45 -168h-344l-252 -940h-193zM913 0
l252 940h-147l45 168h147l31 113q37 150 123 239q101 101 272 101q128 0 219 -43l-45 -164q-90 41 -174 41q-158 0 -209 -193l-26 -94h346l-45 -168h-344l-252 -940h-193z" />
    <glyph glyph-name="f_f_l" unicode="ffl" horiz-adv-x="2222" 
d="M1679 0l418 1554h193l-418 -1554h-193zM100 0l252 940h-147l45 168h147l31 113q37 150 123 239q101 101 272 101q128 0 219 -43l-45 -164q-90 41 -174 41q-158 0 -209 -193l-26 -94h346l-45 -168h-344l-252 -940h-193zM913 0l252 940h-147l45 168h147l31 113
q37 150 123 239q101 101 272 101q128 0 219 -43l-45 -164q-90 41 -174 41q-158 0 -209 -193l-26 -94h346l-45 -168h-344l-252 -940h-193z" />
    <glyph glyph-name=".notdef" horiz-adv-x="1024" 
d="M0 -410v2048h1024v-2048h-1024zM102 -156l353 770l-353 770v-1540zM145 -307h734l-367 799zM512 737l367 799h-734zM922 -156v1540l-353 -770z" />
    <glyph glyph-name=".null" horiz-adv-x="0" 
 />
    <glyph glyph-name="nonmarkingreturn" horiz-adv-x="682" 
 />
    <glyph glyph-name="space" unicode=" " horiz-adv-x="651" 
 />
    <glyph glyph-name="exclam" unicode="!" horiz-adv-x="618" 
d="M223 436l195 948l28 107h228l-31 -107l-313 -948h-107zM49 0l66 246h223l-68 -246h-221z" />
    <glyph glyph-name="quotedbl" unicode="&#x22;" horiz-adv-x="993" 
d="M223 895l191 596h225l-2 -10l-309 -586h-105zM659 895l191 596h225l-2 -10l-309 -586h-105z" />
    <glyph glyph-name="numbersign" unicode="#" horiz-adv-x="1476" 
d="M160 0l129 367h-226l46 170h237l150 426h-248l43 170h264l125 358h174l-125 -358h387l127 358h172l-125 -358h226l-46 -170h-237l-150 -426h250l-45 -170h-264l-127 -367h-174l127 367h-389l-127 -367h-174zM522 537h387l150 426h-389z" />
    <glyph glyph-name="dollar" unicode="$" horiz-adv-x="1351" 
d="M911 1614h152l-41 -146q202 -45 350 -190l-135 -133q-116 113 -272 153l-134 -475q185 -69 272 -157t87 -226q0 -192 -159 -316t-406 -124h-25l-59 -209h-150l64 223q-141 25 -257 89.5t-194 162.5l146 121q145 -167 362 -205l139 502q-192 68 -281 154t-89 227
q0 182 153 304t379 122q38 0 61 -2zM483 1085q0 -73 49 -120t173 -95l126 449h-34q-143 0 -228.5 -67.5t-85.5 -166.5zM989 420q0 69 -48.5 120t-164.5 97l-131 -465h2q157 0 249.5 68.5t92.5 179.5z" />
    <glyph glyph-name="percent" unicode="%" horiz-adv-x="1818" 
d="M508 737q-137 0 -222 89t-85 225q0 97 37 186t104 156q114 114 268 114q134 0 219.5 -88.5t85.5 -224.5q0 -98 -36.5 -187t-102.5 -155q-115 -115 -268 -115zM518 866q82 0 150 68q47 47 74.5 114.5t27.5 135.5q0 91 -45 142.5t-125 51.5q-84 0 -151 -67
q-47 -47 -75 -115t-28 -135q0 -91 45.5 -143t126.5 -52zM145 0l721 745l723 746h189l-723 -746l-723 -745h-187zM1311 -16q-134 0 -219.5 88.5t-85.5 224.5q0 98 36.5 187t102.5 155q115 115 270 115q134 0 219.5 -89t85.5 -225q0 -97 -37 -186t-104 -156
q-114 -114 -268 -114zM1321 113q85 0 152 67q47 47 74.5 114.5t27.5 135.5q0 91 -45.5 143t-124.5 52q-84 0 -152 -68q-47 -47 -74.5 -114.5t-27.5 -135.5q0 -91 45 -142.5t125 -51.5z" />
    <glyph glyph-name="ampersand" unicode="&#x26;" horiz-adv-x="1495" 
d="M1278 739l129 -84q-127 -208 -256 -348l176 -241l-147 -97l-156 217q-120 -105 -242 -155.5t-268 -50.5q-194 0 -319 102.5t-125 279.5q0 167 120.5 295t360.5 195q-92 145 -92 274q0 163 122.5 276.5t303.5 113.5q169 0 272 -90t103 -238q0 -277 -453 -412l248 -346
q117 129 223 309zM537 145q195 0 395 166l-297 420q-189 -55 -282 -147.5t-93 -206.5q0 -105 74.5 -168.5t202.5 -63.5zM639 1124q0 -106 84 -229q195 58 274.5 128t79.5 155q0 77 -54.5 128.5t-145.5 51.5q-99 0 -168.5 -68.5t-69.5 -165.5z" />
    <glyph glyph-name="quotesingle" unicode="'" horiz-adv-x="557" 
d="M223 895l191 596h225l-2 -10l-309 -586h-105z" />
    <glyph glyph-name="parenleft" unicode="(" horiz-adv-x="948" 
d="M682 -180l-117 -121q-379 321 -379 758q0 417 316 733q201 204 526 336l70 -144q-265 -114 -439 -288q-139 -139 -207.5 -300.5t-68.5 -330.5q0 -193 78 -344t221 -299z" />
    <glyph glyph-name="parenright" unicode=")" horiz-adv-x="948" 
d="M299 1411l117 121q174 -149 276.5 -339.5t102.5 -418.5q0 -419 -316 -735q-208 -208 -526 -336l-70 145q263 113 439 289q274 274 274 631q0 191 -78.5 344.5t-218.5 298.5z" />
    <glyph glyph-name="asterisk" unicode="*" horiz-adv-x="935" 
d="M592 831l-119 31l92 250l-250 -92l-34 121l268 43l-211 172l90 88l170 -207l45 262l121 -31l-94 -249l252 92l32 -119l-266 -45l209 -172l-90 -88l-170 207z" />
    <glyph glyph-name="plus" unicode="+" horiz-adv-x="1357" 
d="M500 231l116 428h-432l47 181h433l114 428h187l-117 -428h432l-47 -181h-432l-115 -428h-186z" />
    <glyph glyph-name="comma" unicode="," horiz-adv-x="587" 
d="M-74 -274l-18 86q188 38 213 188h-86l65 246h222l-56 -211q-39 -148 -118.5 -218t-221.5 -91z" />
    <glyph glyph-name="hyphen" unicode="-" horiz-adv-x="894" 
d="M141 545l54 196h604l-51 -196h-607z" />
    <glyph glyph-name="period" unicode="." horiz-adv-x="587" 
d="M35 0l65 246h222l-66 -246h-221z" />
    <glyph glyph-name="slash" unicode="/" horiz-adv-x="1110" 
d="M-260 -272l1495 1972h192l-1495 -1972h-192z" />
    <glyph glyph-name="zero" unicode="0" horiz-adv-x="1548" 
d="M948 1516q248 0 390.5 -160.5t142.5 -421.5q0 -210 -79.5 -410t-219.5 -340q-206 -209 -482 -209q-248 0 -390 160.5t-142 421.5q0 208 79 409.5t218 340.5q209 209 483 209zM715 154q167 0 313 143q113 113 180.5 287t67.5 350q0 183 -90 293t-252 110q-167 0 -313 -143
q-115 -115 -182.5 -287.5t-67.5 -349.5q0 -182 90.5 -292.5t253.5 -110.5z" />
    <glyph glyph-name="one" unicode="1" horiz-adv-x="817" 
d="M211 0l344 1286l-297 -84l-4 172l414 127h141l-403 -1501h-195z" />
    <glyph glyph-name="two" unicode="2" horiz-adv-x="1294" 
d="M-39 0l39 158l827 622q127 99 185.5 175.5t58.5 162.5q0 98 -71.5 157.5t-194.5 59.5q-113 0 -208.5 -53t-190.5 -149l-127 124q237 254 534 254q204 0 332.5 -104.5t128.5 -271.5q0 -131 -77 -238t-249 -235l-637 -484h768l-47 -178h-1071z" />
    <glyph glyph-name="three" unicode="3" horiz-adv-x="1308" 
d="M537 -25q-191 0 -325 76.5t-204 210.5l152 103q128 -213 385 -213q166 0 277.5 88.5t111.5 220.5q0 118 -98.5 178.5t-270.5 60.5h-73l-19 117l574 500h-705l49 174h977l-39 -145l-586 -502q84 -10 153 -36.5t123.5 -70t85 -110t30.5 -150.5q0 -189 -136 -325
q-87 -83 -206 -130t-256 -47z" />
    <glyph glyph-name="four" unicode="4" horiz-adv-x="1406" 
d="M750 0l94 348h-762l-23 146l1094 1007h188l-266 -989h228l-46 -164h-225l-94 -348h-188zM317 512h570l190 709z" />
    <glyph glyph-name="five" unicode="5" horiz-adv-x="1308" 
d="M545 -25q-171 0 -307 74.5t-215 192.5l147 112q150 -202 391 -202q179 0 294.5 101t115.5 241q0 124 -89 197t-237 73q-138 0 -287 -76l-108 86l235 717h844l-49 -178h-668l-143 -430q44 19 113 34t123 15q212 0 340.5 -114.5t128.5 -305.5q0 -204 -150 -354
q-183 -183 -479 -183z" />
    <glyph glyph-name="six" unicode="6" horiz-adv-x="1386" 
d="M682 -25q-231 0 -367 136q-149 149 -149 413q0 230 79.5 433t217.5 341q218 218 502 218q272 0 444 -187l-123 -137q-140 147 -336 147q-191 0 -348 -151q-80 -86 -140 -205.5t-77 -239.5q68 86 176 143.5t240 57.5q210 0 339.5 -121t129.5 -307q0 -102 -41.5 -196.5
t-116.5 -169.5q-81 -83 -191.5 -129t-238.5 -46zM686 143q169 0 279 113q102 102 102 244q0 114 -81.5 195t-227.5 81q-181 0 -293 -112q-98 -98 -98 -228q0 -123 79 -205q88 -88 240 -88z" />
    <glyph glyph-name="seven" unicode="7" horiz-adv-x="1277" 
d="M121 0l973 1313h-791l49 178h1022l-41 -148l-983 -1343h-229z" />
    <glyph glyph-name="eight" unicode="8" horiz-adv-x="1402" 
d="M643 -20q-239 0 -397 114.5t-158 286.5q0 167 118.5 274.5t307.5 141.5q-94 39 -151.5 120t-57.5 185q0 168 152 288.5t391 120.5q222 0 365 -109.5t143 -279.5q0 -145 -101 -246.5t-262 -134.5q108 -40 179 -125.5t71 -201.5q0 -184 -169 -309t-431 -125zM653 145
q174 0 282.5 77t108.5 200q0 108 -100 183t-264 75q-174 0 -284.5 -82t-110.5 -199q0 -113 101.5 -183.5t266.5 -70.5zM811 840q160 0 256 78.5t96 185.5q0 105 -88 173.5t-233 68.5q-152 0 -249 -75.5t-97 -187.5q0 -106 87 -174.5t228 -68.5z" />
    <glyph glyph-name="nine" unicode="9" horiz-adv-x="1386" 
d="M528 -25q-137 0 -256 53t-209 148l125 137q79 -79 162.5 -120t188.5 -41q193 0 346 153q83 80 140.5 195t74.5 237q-67 -86 -174 -146.5t-244 -60.5q-208 0 -337.5 123t-129.5 314q0 214 160 374q175 175 430 175q111 0 207.5 -35.5t158.5 -100.5q75 -75 112.5 -176
t37.5 -250q0 -225 -80.5 -425.5t-218.5 -338.5q-215 -215 -494 -215zM733 698q165 0 285 113q48 48 75 112.5t27 131.5q0 122 -80 202q-91 91 -239 91q-166 0 -277 -111q-106 -106 -106 -254q0 -122 81.5 -203.5t233.5 -81.5z" />
    <glyph glyph-name="colon" unicode=":" horiz-adv-x="600" 
d="M41 0l65 246h224l-68 -246h-221zM272 864l66 244h223l-67 -244h-222z" />
    <glyph glyph-name="semicolon" unicode=";" horiz-adv-x="600" 
d="M-68 -274l-18 86q188 38 213 188h-86l65 246h224l-58 -211q-39 -148 -118.5 -218t-221.5 -91zM272 864l66 244h223l-67 -244h-222z" />
    <glyph glyph-name="less" unicode="&#x3c;" horiz-adv-x="1357" 
d="M1051 176l-875 490l45 168l1139 489l-55 -203l-906 -381l701 -385z" />
    <glyph glyph-name="equal" unicode="=" horiz-adv-x="1357" 
d="M147 403l50 183h983l-50 -183h-983zM285 913l47 183h985l-49 -183h-983z" />
    <glyph glyph-name="greater" unicode="&#x3e;" horiz-adv-x="1357" 
d="M100 176l54 203l905 381l-701 385l50 178l874 -489l-45 -168z" />
    <glyph glyph-name="question" unicode="?" horiz-adv-x="1167" 
d="M410 436l55 346l14 11q227 18 358.5 100.5t131.5 220.5q0 102 -73 159.5t-194 57.5q-195 0 -370 -164l-111 131q99 97 228 154t278 57q204 0 325.5 -108t121.5 -271q0 -193 -152.5 -314.5t-405.5 -160.5l-79 -219h-127zM248 0l65 246h222l-66 -246h-221z" />
    <glyph glyph-name="at" unicode="@" horiz-adv-x="2107" 
d="M1032 -338q-197 0 -363 60.5t-282 169t-181 263.5t-65 339q0 203 82.5 391.5t221.5 328t333 223t406 83.5q194 0 355 -59t267.5 -161t165 -237.5t58.5 -288.5q0 -122 -28 -226.5t-75 -176t-108 -122.5t-126 -75t-130 -24q-109 0 -179.5 50t-93.5 142q-167 -197 -375 -197
q-144 0 -240.5 96.5t-96.5 260.5q0 118 45.5 225.5t119 183t169 120t192.5 44.5q116 0 192.5 -54.5t114.5 -143.5l55 178l154 -43l-160 -510q-20 -70 -20 -113q0 -70 41 -111.5t114 -41.5q45 0 92.5 20.5t94.5 65t83.5 106t59.5 152t23 194.5q0 138 -53 259.5t-149.5 213
t-242 144.5t-319.5 53q-195 0 -374 -77.5t-307.5 -206.5t-205 -304t-76.5 -362q0 -223 101 -395.5t285.5 -267.5t424.5 -95q227 0 441 96l30 -68q-221 -102 -471 -102zM971 291q143 0 262 122t119 279q0 105 -64.5 170.5t-173.5 65.5q-143 0 -249.5 -121.5t-106.5 -286.5
q0 -108 58.5 -168.5t154.5 -60.5z" />
    <glyph glyph-name="A" unicode="A" horiz-adv-x="1642" 
d="M-82 0l1075 1501h191l268 -1501h-203l-63 385h-780l-273 -385h-215zM528 561h629l-123 713z" />
    <glyph glyph-name="B" unicode="B" horiz-adv-x="1548" 
d="M66 0l401 1491h563q225 0 347 -94.5t122 -255.5q0 -154 -99.5 -254.5t-262.5 -134.5q254 -88 254 -308q0 -198 -169.5 -321t-459.5 -123h-696zM307 176h479q187 0 296.5 74.5t109.5 202.5q0 103 -86.5 159t-231.5 56h-436zM485 838h408q189 0 298 73.5t109 200.5
q0 98 -74.5 150.5t-213.5 52.5h-400z" />
    <glyph glyph-name="C" unicode="C" horiz-adv-x="1583" 
d="M831 -27q-181 0 -327 74.5t-233 217.5t-87 331q0 183 74 354.5t205 302.5q124 124 283 193.5t335 69.5q202 0 343.5 -85.5t224.5 -234.5l-166 -106q-74 121 -172 183t-248 62q-248 0 -447 -192q-106 -106 -165.5 -246.5t-59.5 -292.5q0 -202 125.5 -325t323.5 -123
q134 0 235 47.5t207 144.5l129 -129q-116 -116 -255.5 -181t-324.5 -65z" />
    <glyph glyph-name="D" unicode="D" horiz-adv-x="1667" 
d="M66 0l401 1491h375q378 0 581 -197q162 -162 162 -430q0 -344 -237 -581q-137 -137 -332 -210t-434 -73h-516zM1262 1167q-144 144 -435 144h-211l-305 -1131h293q370 0 596 226q180 180 180 448q0 195 -118 313z" />
    <glyph glyph-name="E" unicode="E" horiz-adv-x="1417" 
d="M66 0l401 1491h1075l-47 -178h-879l-127 -473h783l-49 -176h-783l-129 -486h889l-47 -178h-1087z" />
    <glyph glyph-name="F" unicode="F" horiz-adv-x="1423" 
d="M66 0l401 1491h1083l-49 -180h-885l-133 -494h791l-49 -180h-791l-170 -637h-198z" />
    <glyph glyph-name="G" unicode="G" horiz-adv-x="1689" 
d="M852 -27q-136 0 -256 42.5t-211.5 121.5t-145 200.5t-53.5 270.5q0 178 71.5 343.5t201.5 295.5q127 127 291.5 198t353.5 71q113 0 206 -21.5t161 -61.5t115.5 -84.5t88.5 -101.5l-149 -121q-75 100 -176 154.5t-263 54.5q-138 0 -260 -52.5t-217 -147.5
q-104 -104 -161.5 -239t-57.5 -280q0 -216 131 -339t342 -123q206 0 367 96l108 383h-430l47 174h623l-195 -682q-247 -152 -532 -152z" />
    <glyph glyph-name="H" unicode="H" horiz-adv-x="1630" 
d="M66 0l401 1491h197l-175 -649h805l174 649h199l-401 -1491h-197l176 659h-805l-176 -659h-198z" />
    <glyph glyph-name="I" unicode="I" horiz-adv-x="657" 
d="M82 0l399 1491h199l-401 -1491h-197z" />
    <glyph glyph-name="J" unicode="J" horiz-adv-x="1210" 
d="M422 -20q-166 0 -280.5 82t-170.5 223l152 100q51 -115 123 -170t180 -55q142 0 242 100q48 48 81.5 119.5t69.5 198.5l246 913h201l-256 -954q-39 -149 -86 -243.5t-121 -166.5q-147 -147 -381 -147z" />
    <glyph glyph-name="K" unicode="K" horiz-adv-x="1552" 
d="M66 0l401 1491h197l-226 -846l1010 846h276l-788 -649l412 -842h-222l-348 725l-409 -338l-105 -387h-198z" />
    <glyph glyph-name="L" unicode="L" horiz-adv-x="1320" 
d="M66 0l401 1491h197l-351 -1311h824l-50 -180h-1021z" />
    <glyph glyph-name="M" unicode="M" horiz-adv-x="1865" 
d="M66 0l401 1491h188l303 -780l723 780h222l-402 -1491h-196l311 1167l-725 -770h-8l-312 766l-313 -1163h-192z" />
    <glyph glyph-name="N" unicode="N" horiz-adv-x="1693" 
d="M66 0l401 1491h182l576 -1163l313 1163h195l-402 -1491h-160l-591 1192l-320 -1192h-194z" />
    <glyph glyph-name="O" unicode="O" horiz-adv-x="1810" 
d="M1063 1516q192 0 343 -85.5t233.5 -233.5t82.5 -329q0 -179 -71 -346t-199 -295q-120 -120 -274.5 -187t-329.5 -67q-142 0 -265.5 50t-209 137t-134.5 207t-49 256q0 177 71 343t198 296q120 120 274.5 187t329.5 67zM864 154q248 0 436 188q103 103 160.5 239.5
t57.5 278.5q0 207 -128 341t-341 134q-251 0 -439 -188q-102 -102 -158.5 -238t-56.5 -278q0 -208 128 -342.5t341 -134.5z" />
    <glyph glyph-name="P" unicode="P" horiz-adv-x="1445" 
d="M66 0l401 1491h467q296 0 434 -141q109 -106 109 -283q0 -212 -142 -354q-197 -197 -592 -197h-340l-139 -516h-198zM1208 1223q-88 88 -280 88h-312l-167 -621h305q295 0 428 133q90 90 90 232q0 104 -64 168z" />
    <glyph glyph-name="Q" unicode="Q" horiz-adv-x="1810" 
d="M1063 1516q192 0 343 -85.5t233.5 -233.5t82.5 -329q0 -184 -75.5 -355.5t-210.5 -301.5l141 -166l-156 -113l-127 170q-206 -129 -446 -129q-142 0 -265.5 50t-209 137t-134.5 207t-49 256q0 177 71 343t198 296q120 120 274.5 187t329.5 67zM864 154q170 0 318 92
l-226 274l156 115l205 -277q95 104 148 235.5t53 266.5q0 207 -128 341t-341 134q-251 0 -439 -188q-102 -102 -158.5 -238t-56.5 -278q0 -208 128 -342.5t341 -134.5z" />
    <glyph glyph-name="R" unicode="R" horiz-adv-x="1550" 
d="M1073 0l-282 561h-25h-350l-152 -561h-198l401 1491h539q289 0 428 -139q102 -99 102 -267q0 -188 -133 -327q-126 -126 -402 -178l299 -580h-227zM461 737h387q270 0 399 129q86 86 86 205q0 95 -59 154q-86 86 -279 86h-379z" />
    <glyph glyph-name="S" unicode="S" horiz-adv-x="1378" 
d="M643 -20q-412 0 -616 280l151 121q95 -116 208 -171.5t269 -55.5q151 0 251 73t100 185q0 80 -64.5 136t-232.5 122q-104 41 -173.5 78.5t-124 85t-79.5 105t-25 130.5q0 166 117 283q165 159 440 159q172 0 307.5 -60t225.5 -165l-142 -131q-164 182 -407 182
q-150 0 -242 -72t-92 -169q0 -83 70.5 -139t246.5 -123q98 -39 165 -76t117.5 -84t74.5 -104.5t24 -131.5q0 -167 -122 -295q-80 -78 -196 -120.5t-251 -42.5z" />
    <glyph glyph-name="T" unicode="T" horiz-adv-x="1335" 
d="M414 0l350 1309h-494l49 182h1184l-47 -182h-493l-353 -1309h-196z" />
    <glyph glyph-name="U" unicode="U" horiz-adv-x="1638" 
d="M748 -23q-259 0 -402 131t-143 351q0 116 30 233l213 799h199l-223 -842q-23 -77 -23 -166q0 -145 94.5 -235t272.5 -90q186 0 315 129q123 123 185 348l229 856h197l-238 -889q-76 -283 -233 -440q-188 -185 -473 -185z" />
    <glyph glyph-name="V" unicode="V" horiz-adv-x="1550" 
d="M524 -10l-225 1501h209l168 -1239l833 1239h224l-1033 -1501h-176z" />
    <glyph glyph-name="W" unicode="W" horiz-adv-x="2336" 
d="M438 -10l-125 1501h205l82 -1200l717 1204h164l75 -1204l725 1200h224l-930 -1501h-176l-82 1159l-705 -1159h-174z" />
    <glyph glyph-name="X" unicode="X" horiz-adv-x="1501" 
d="M-63 0l755 772l-364 719h219l289 -586l563 586h252l-729 -746l376 -745h-219l-301 612l-588 -612h-253z" />
    <glyph glyph-name="Y" unicode="Y" horiz-adv-x="1427" 
d="M453 0l161 598l-358 893h219l275 -727l669 727h248l-864 -922l-152 -569h-198z" />
    <glyph glyph-name="Z" unicode="Z" horiz-adv-x="1454" 
d="M-31 0l37 137l1233 1180h-885l47 174h1166l-37 -137l-1233 -1180h924l-47 -174h-1205z" />
    <glyph glyph-name="bracketleft" unicode="[" horiz-adv-x="966" 
d="M23 -276l475 1767h622l-41 -150h-440l-393 -1468h440l-39 -149h-624z" />
    <glyph glyph-name="backslash" unicode="\" horiz-adv-x="1110" 
d="M758 -272l-459 1972h164l459 -1972h-164z" />
    <glyph glyph-name="bracketright" unicode="]" horiz-adv-x="966" 
d="M971 1491l-475 -1767h-625l43 149h440l394 1468h-441l39 150h625z" />
    <glyph glyph-name="asciicircum" unicode="^" horiz-adv-x="1085" 
d="M246 1051l448 444h146l207 -444h-144l-158 313l-323 -313h-176z" />
    <glyph glyph-name="underscore" unicode="_" horiz-adv-x="1298" 
d="M-233 -340l40 154h1289l-41 -154h-1288z" />
    <glyph glyph-name="grave" unicode="`" horiz-adv-x="1085" 
d="M776 1268l-182 233l192 86l123 -319h-133z" />
    <glyph glyph-name="a" unicode="a" horiz-adv-x="1251" 
d="M391 -25q-145 0 -245.5 83t-100.5 223q0 159 107 266q135 135 385 135q187 0 378 -57l7 24q14 54 14 99q0 206 -283 206q-166 0 -311 -59l-31 160q181 69 375 69q212 0 325 -90.5t113 -253.5q0 -61 -24 -155l-166 -625h-186l43 166q-166 -191 -400 -191zM459 123
q133 0 251 87.5t154 221.5l21 70q-162 45 -332 45q-162 0 -248 -86q-63 -63 -63 -158q0 -82 59 -131t158 -49z" />
    <glyph glyph-name="b" unicode="b" horiz-adv-x="1429" 
d="M696 -25q-286 0 -403 258l-62 -233h-192l418 1554h192l-170 -622q182 201 400 201q190 0 314 -130t124 -341q0 -149 -55 -280t-150 -226q-181 -181 -416 -181zM676 143q166 0 289 123q72 72 110.5 170.5t38.5 208.5q0 147 -81.5 233.5t-215.5 86.5q-167 0 -307 -140
q-73 -70 -114.5 -163t-41.5 -195q0 -138 90.5 -231t231.5 -93z" />
    <glyph glyph-name="c" unicode="c" horiz-adv-x="1216" 
d="M606 -25q-101 0 -190.5 34t-157.5 95t-107.5 153.5t-39.5 203.5q0 137 52 260t146 217q92 92 209 143.5t244 51.5q163 0 273.5 -72t170.5 -187l-153 -100q-52 90 -123 139.5t-182 49.5q-160 0 -289 -129q-71 -71 -112.5 -168t-41.5 -201q0 -148 90 -235t219 -87
q88 0 162 35t152 103l108 -125q-95 -87 -197 -134t-233 -47z" />
    <glyph glyph-name="d" unicode="d" horiz-adv-x="1429" 
d="M903 0l47 176q-182 -201 -399 -201q-191 0 -313.5 129.5t-122.5 341.5q0 151 54 281.5t150 224.5q181 181 416 181q277 0 402 -259l182 680h192l-415 -1554h-193zM612 143q172 0 310 138q155 162 155 358q0 141 -90.5 233.5t-232.5 92.5q-167 0 -287 -123
q-73 -73 -112.5 -171t-39.5 -210q0 -145 81.5 -231.5t215.5 -86.5z" />
    <glyph glyph-name="e" unicode="e" horiz-adv-x="1282" 
d="M1149 487h-852v-30q0 -144 84 -233t231 -89q176 0 332 125l94 -125q-92 -78 -197 -119t-245 -41q-219 0 -353 131.5t-134 344.5q0 135 55 265t153 228q189 189 441 189q203 0 317.5 -121.5t114.5 -306.5q0 -112 -41 -218zM455 846q-93 -93 -133 -221h673q9 34 9 84
q0 113 -65.5 187.5t-193.5 74.5q-165 0 -290 -125z" />
    <glyph glyph-name="f" unicode="f" horiz-adv-x="833" 
d="M100 0l252 940h-147l45 168h147l31 113q37 150 123 239q101 101 272 101q128 0 219 -43l-45 -164q-90 41 -174 41q-158 0 -209 -193l-26 -94h346l-45 -168h-344l-252 -940h-193z" />
    <glyph glyph-name="g" unicode="g" horiz-adv-x="1427" 
d="M524 -344q-155 0 -299.5 48.5t-249.5 135.5l115 135q194 -159 428 -159q191 0 301 110q83 83 131 252l27 98q-93 -93 -191 -141.5t-221 -48.5q-87 0 -166 28t-141 79t-98.5 130.5t-36.5 174.5q0 262 188 450q86 88 199.5 136.5t232.5 48.5q278 0 394 -254l59 229h193
l-250 -938q-36 -133 -78 -214t-105 -144q-79 -79 -183.5 -117.5t-248.5 -38.5zM629 248q180 0 317 137q129 129 129 287q0 122 -88 207.5t-231 85.5q-174 0 -301 -127q-129 -129 -129 -312q0 -133 87 -205.5t216 -72.5z" />
    <glyph glyph-name="h" unicode="h" horiz-adv-x="1327" 
d="M39 0l418 1554h192l-166 -614q79 89 168 141t201 52q160 0 254 -92.5t94 -247.5q0 -57 -29 -179l-161 -614h-193l166 625q16 62 16 120q0 100 -60.5 156.5t-168.5 56.5q-123 0 -227.5 -93t-145.5 -240l-166 -625h-192z" />
    <glyph glyph-name="i" unicode="i" horiz-adv-x="598" 
d="M53 0l299 1108h191l-297 -1108h-193zM399 1329l56 201h215l-56 -201h-215z" />
    <glyph glyph-name="j" unicode="j" horiz-adv-x="595" 
d="M-96 -348q-83 0 -150 20l41 158q54 -14 92 -14q55 0 96.5 38t61.5 111l307 1143h191l-312 -1163q-79 -293 -327 -293zM399 1329l56 201h213l-54 -201h-215z" />
    <glyph glyph-name="k" unicode="k" horiz-adv-x="1239" 
d="M39 0l418 1554h192l-272 -1013l690 567h260l-584 -469l293 -639h-217l-237 516l-271 -217l-80 -299h-192z" />
    <glyph glyph-name="l" unicode="l" horiz-adv-x="598" 
d="M53 0l418 1554h193l-418 -1554h-193z" />
    <glyph glyph-name="m" unicode="m" horiz-adv-x="2043" 
d="M39 0l297 1108h192l-45 -168q44 47 75.5 75.5t76 58.5t95 44.5t108.5 14.5q125 0 204.5 -69t106.5 -173q161 242 436 242q150 0 243 -93.5t93 -246.5q0 -57 -33 -179l-162 -614h-192l166 625q16 62 16 120q0 99 -56.5 156t-158.5 57q-116 0 -218 -94t-138 -239l-166 -625
h-193l168 625q17 66 17 120q0 98 -57.5 155.5t-157.5 57.5q-118 0 -218.5 -93.5t-140.5 -239.5l-166 -625h-192z" />
    <glyph glyph-name="n" unicode="n" horiz-adv-x="1331" 
d="M39 0l297 1108h192l-45 -168q79 89 168 141t201 52q160 0 254 -92.5t94 -247.5q0 -57 -29 -179l-161 -614h-193l166 625q16 62 16 120q0 100 -60.5 156.5t-168.5 56.5q-123 0 -227.5 -93t-145.5 -240l-166 -625h-192z" />
    <glyph glyph-name="o" unicode="o" horiz-adv-x="1384" 
d="M762 1133q230 0 370 -141t140 -359q0 -129 -52 -249.5t-145 -213.5q-195 -195 -454 -195q-227 0 -368.5 140t-141.5 360q0 129 52 249t146 214q94 91 210.5 143t242.5 52zM633 143q166 0 295 129q72 72 110.5 165t38.5 190q0 158 -88.5 247t-238.5 89q-164 0 -293 -129
q-71 -68 -111.5 -163t-40.5 -190q0 -159 89 -248.5t239 -89.5z" />
    <glyph glyph-name="p" unicode="p" horiz-adv-x="1429" 
d="M696 -25q-286 0 -403 258l-154 -573h-192l389 1448h192l-49 -176q182 201 400 201q190 0 314 -130t124 -341q0 -149 -55 -280t-150 -226q-181 -181 -416 -181zM676 143q166 0 289 123q72 72 110.5 170.5t38.5 208.5q0 147 -81.5 233.5t-215.5 86.5q-167 0 -307 -140
q-73 -70 -114.5 -163t-41.5 -195q0 -138 90.5 -231t231.5 -93z" />
    <glyph glyph-name="q" unicode="q" horiz-adv-x="1429" 
d="M551 -25q-191 0 -313.5 129.5t-122.5 341.5q0 151 54 281.5t150 224.5q181 181 416 181q277 0 402 -259l63 234h193l-389 -1448h-193l139 516q-182 -201 -399 -201zM612 143q172 0 310 138q155 162 155 358q0 141 -90.5 233.5t-232.5 92.5q-167 0 -287 -123
q-73 -73 -112.5 -171t-39.5 -210q0 -145 81.5 -231.5t215.5 -86.5z" />
    <glyph glyph-name="r" unicode="r" horiz-adv-x="882" 
d="M39 0l297 1108h192l-73 -277q219 314 508 295l-56 -202h-10q-184 0 -336.5 -130t-214.5 -366l-115 -428h-192z" />
    <glyph glyph-name="s" unicode="s" horiz-adv-x="1079" 
d="M473 -25q-133 0 -260 49.5t-221 145.5l119 123q168 -162 378 -162q91 0 157.5 48t66.5 122q0 52 -43.5 92t-151.5 80q-163 63 -239 130.5t-76 178.5q0 151 116 249.5t308 98.5q118 0 229.5 -43t185.5 -108l-110 -129q-158 125 -322 125q-102 0 -159.5 -45.5t-57.5 -114.5
q0 -50 45 -88.5t162 -87.5q153 -61 228 -131t75 -174q0 -157 -124 -258t-306 -101z" />
    <glyph glyph-name="t" unicode="t" horiz-adv-x="880" 
d="M436 -18q-125 0 -198.5 57t-73.5 160q0 42 16 120l168 621h-149l45 168h149l86 326h193l-88 -326h334l-46 -168h-333l-162 -606q-10 -45 -10 -76q0 -106 141 -106q77 0 162 36l-47 -172q-81 -34 -187 -34z" />
    <glyph glyph-name="u" unicode="u" horiz-adv-x="1327" 
d="M475 -25q-160 0 -254 92.5t-94 247.5q0 59 29 181l163 612h193l-168 -623q-16 -62 -16 -123q0 -100 61 -156t170 -56q122 0 226 93t145 240l168 625h190l-295 -1108h-192l45 170q-83 -92 -171 -143.5t-200 -51.5z" />
    <glyph glyph-name="v" unicode="v" horiz-adv-x="1236" 
d="M367 -8l-170 1116h200l111 -885l579 885h218l-766 -1116h-172z" />
    <glyph glyph-name="w" unicode="w" horiz-adv-x="1830" 
d="M293 -8l-80 1116h195l47 -844l508 848h161l58 -848l501 844h197l-680 -1116h-172l-57 837l-510 -837h-168z" />
    <glyph glyph-name="x" unicode="x" horiz-adv-x="1226" 
d="M455 1108l194 -401l393 401h238l-555 -551l281 -557h-211l-203 428l-422 -428h-240l586 575l-272 533h211z" />
    <glyph glyph-name="y" unicode="y" horiz-adv-x="1251" 
d="M387 -2l-188 1110h198l135 -893l562 893h217l-748 -1143q-114 -170 -219 -241.5t-235 -71.5q-131 0 -246 78l104 141q83 -55 162 -55q68 0 127.5 40.5t130.5 141.5z" />
    <glyph glyph-name="z" unicode="z" horiz-adv-x="1191" 
d="M-35 0l35 127l907 821h-661l43 160h928l-35 -127l-906 -819h693l-43 -162h-961z" />
    <glyph glyph-name="braceleft" unicode="{" horiz-adv-x="1050" 
d="M731 -182l-59 -119q-188 39 -274.5 128.5t-86.5 215.5q0 44 10 90t37 137q25 87 25 131q0 68 -42 102t-151 34h-59l39 147h61q78 0 130.5 17t93.5 55q32 32 57 92t34 100t21 103q21 106 52 183t92 140q136 136 442 150l6 -135q-217 -14 -309 -111q-75 -75 -107 -252
q-1 -7 -7.5 -38t-8.5 -41.5t-8.5 -39t-11 -42t-12 -38t-15 -39.5t-17.5 -34.5t-22 -35t-25 -28.5q-70 -70 -210 -92q161 -37 161 -182q0 -50 -26 -137q-43 -118 -43 -207q0 -94 52 -154t181 -100z" />
    <glyph glyph-name="bar" unicode="|" horiz-adv-x="684" 
d="M43 -272l528 1972h158l-530 -1972h-156z" />
    <glyph glyph-name="braceright" unicode="}" horiz-adv-x="1050" 
d="M350 1405l60 119q360 -76 360 -344q0 -79 -45 -228q-27 -83 -27 -131q0 -70 41.5 -103.5t151.5 -33.5h59l-39 -147h-59q-79 0 -131.5 -16t-93.5 -54q-32 -32 -57 -91.5t-35 -101t-21 -102.5q-21 -107 -51.5 -184.5t-91.5 -139.5q-135 -135 -443 -149l-6 135
q114 7 187.5 34t121.5 77q75 75 107 252q14 78 24 122t38 109t67 104q71 71 209 93q-162 37 -162 182q0 52 29 137q41 144 41 207q0 92 -53 153t-181 101z" />
    <glyph glyph-name="asciitilde" unicode="~" horiz-adv-x="1042" 
d="M285 500l-117 53q57 118 120 178t144 60q46 0 78 -16.5t74 -53.5q58 -49 76 -56q14 -6 30 -6q38 0 66.5 29.5t68.5 97.5l117 -53q-56 -117 -119.5 -176t-142.5 -59q-34 0 -62.5 10t-44.5 21.5t-47 37.5q-40 35 -60.5 47.5t-45.5 12.5q-39 0 -67.5 -29.5t-67.5 -97.5z" />
    <glyph glyph-name="uni00A0" unicode="&#xa0;" horiz-adv-x="0" 
 />
    <glyph glyph-name="exclamdown" unicode="&#xa1;" horiz-adv-x="618" 
d="M498 1055l-197 -949l-29 -106h-225l29 106l313 949h109zM672 1491l-66 -246h-223l66 246h223z" />
    <glyph glyph-name="cent" unicode="&#xa2;" horiz-adv-x="1232" 
d="M946 1503h152l-80 -200q183 -57 270 -228l-151 -98q-73 125 -191 166l-311 -795q14 -2 43 -2q186 0 340 135l110 -129q-191 -176 -448 -176q-59 0 -100 8l-78 -196h-152l92 235q-130 58 -205 174.5t-75 268.5q0 279 196 475q192 192 463 192q9 0 29 -1t29 -1zM356 668
q0 -97 42 -170.5t116 -112.5l305 778h-4q-181 0 -309 -131q-70 -70 -110 -165t-40 -199z" />
    <glyph glyph-name="sterling" unicode="&#xa3;" horiz-adv-x="1366" 
d="M-4 0l33 119l186 45l123 452h-176l47 170h174l66 248q60 216 169 328q147 147 369 147q282 0 420 -243l-160 -105q-51 84 -113.5 125t-160.5 41q-123 0 -211 -88q-81 -81 -125 -238l-59 -215h579l-47 -170h-575l-119 -442h737l-47 -174h-1110z" />
    <glyph glyph-name="yen" unicode="&#xa5;" horiz-adv-x="1521" 
d="M510 0l63 238h-426l41 149h424l47 178h-426l41 150h365l-324 776h217l277 -700l657 700h244l-745 -776h358l-41 -150h-430l-47 -178h430l-39 -149h-430l-64 -238h-192z" />
    <glyph glyph-name="section" unicode="&#xa7;" horiz-adv-x="1366" 
d="M1280 741q0 -65 -32.5 -118t-85.5 -86.5t-115.5 -52.5t-128.5 -23q122 -73 122 -189q0 -131 -120.5 -211.5t-301.5 -80.5q-148 0 -276 51.5t-205 132.5l123 119q66 -64 165 -106t210 -42q94 0 154.5 36t60.5 95q0 52 -59 90.5t-205 87.5q-83 28 -137 49t-108.5 49
t-85.5 57t-50 68t-19 85q0 65 32 118t85 86t115.5 51.5t128.5 22.5q-121 74 -121 193q0 130 120 210t302 80q148 0 276 -51.5t205 -132.5l-123 -119q-67 65 -165.5 107.5t-209.5 42.5q-95 0 -155 -36.5t-60 -96.5q0 -53 60 -92t205 -84q81 -27 136.5 -49t109 -50.5t84.5 -58
t50 -68t19 -84.5zM373 780q0 -55 56 -94.5t187 -81.5q134 -45 236 -45q103 0 172.5 45t69.5 111q0 53 -56 92.5t-188 83.5q-139 45 -236 45q-102 0 -171.5 -46t-69.5 -110z" />
    <glyph glyph-name="dieresis" unicode="&#xa8;" horiz-adv-x="1085" 
d="M416 1268l59 217h213l-59 -217h-213zM807 1268l59 217h213l-59 -217h-213z" />
    <glyph glyph-name="copyright" unicode="&#xa9;" horiz-adv-x="1787" 
d="M887 344q-147 0 -244.5 90.5t-97.5 241.5q0 207 147 354q146 139 326 139q107 0 185 -45.5t122 -126.5l-108 -69q-79 121 -207 121q-127 0 -222 -95q-52 -52 -81 -122.5t-29 -147.5q0 -106 59.5 -162.5t155.5 -56.5q66 0 116.5 24.5t104.5 71.5l84 -86
q-131 -131 -311 -131zM1710 840q0 -174 -66 -335.5t-188 -283.5q-246 -246 -594 -246q-154 0 -283 52t-216.5 143t-136 215t-48.5 266q0 174 66 335.5t188 283.5q246 246 594 246q154 0 283 -52t216.5 -143t136 -215t48.5 -266zM256 653q0 -126 41.5 -236t118 -193
t192.5 -131t258 -48q312 0 531 219q235 235 235 576q0 168 -70.5 304t-211 219t-328.5 83q-311 0 -530 -219q-236 -236 -236 -574z" />
    <glyph glyph-name="ordfeminine" unicode="&#xaa;" horiz-adv-x="851" 
d="M414 864q-79 0 -130 45.5t-51 118.5q0 104 77 165.5t198 61.5q87 0 197 -32l4 14q6 14 6 49q0 107 -148 107q-78 0 -168 -33l-20 100q107 39 213 39q118 0 181 -49.5t63 -140.5q0 -28 -15 -86l-92 -346h-119l25 94q-97 -107 -221 -107zM459 954q71 0 135 49t84 119l6 25
q-81 24 -162 24q-73 0 -119.5 -36t-46.5 -93q0 -39 28 -63.5t75 -24.5zM127 610l29 107h538l-28 -107h-539z" />
    <glyph glyph-name="guillemotleft" unicode="&#xab;" horiz-adv-x="1226" 
d="M340 82l-234 457l5 16l487 465l111 -102l-387 -392l165 -374zM831 82l-233 457l4 16l485 465l113 -102l-387 -392l166 -374z" />
    <glyph glyph-name="registered" unicode="&#xae;" horiz-adv-x="866" 
d="M629 1511q149 0 240.5 -93.5t91.5 -231.5q0 -174 -123 -297q-117 -123 -287 -123q-148 0 -239 94t-91 234q0 176 121 297q117 120 287 120zM555 807q146 0 250 104q113 116 113 271q0 125 -79 208t-214 83q-143 0 -248 -105q-113 -113 -113 -270q0 -125 78 -208t213 -83z
M506 1085l-33 -129h-80l101 381h143q80 0 112.5 -33t32.5 -79q0 -49 -31 -85t-89 -48l61 -136h-84l-55 129h-78zM522 1149h78q59 0 84 25q16 16 16 43q0 51 -71 51h-74z" />
    <glyph glyph-name="macron" unicode="&#xaf;" horiz-adv-x="1085" 
d="M395 1305l41 149h697l-41 -149h-697z" />
    <glyph glyph-name="degree" unicode="&#xb0;" horiz-adv-x="868" 
d="M573 1503q129 0 211 -83t82 -208q0 -74 -29 -143t-81 -121q-108 -108 -260 -108q-130 0 -212.5 81.5t-82.5 206.5q0 74 30 143.5t82 121.5q110 110 260 110zM506 956q93 0 158 68q77 74 77 180q0 83 -49.5 131.5t-128.5 48.5q-93 0 -160 -67q-75 -75 -75 -180
q0 -83 49.5 -132t128.5 -49z" />
    <glyph glyph-name="plusminus" unicode="&#xb1;" horiz-adv-x="1357" 
d="M541 375l110 405h-418l48 174h417l107 406h180l-108 -406h417l-47 -174h-418l-108 -405h-180zM27 0l45 168h1011l-45 -168h-1011z" />
    <glyph glyph-name="two.sup" unicode="&#xb2;" 
d="M225 903l27 107l448 329q68 49 101 90.5t33 92.5q0 53 -39 83.5t-103 30.5q-109 0 -221 -112l-78 78q135 149 307 149q118 0 189.5 -60t71.5 -159q0 -75 -44 -138t-151 -137l-336 -241h422l-29 -113h-598z" />
    <glyph glyph-name="three.sup" unicode="&#xb3;" 
d="M553 883q-214 0 -299 147l88 74q80 -111 209 -111q90 0 147.5 45t57.5 113q0 129 -191 129h-45l-18 76l321 260h-385l31 113h551l-29 -97l-332 -264q102 -11 164 -61.5t62 -143.5q0 -120 -97.5 -200t-234.5 -80z" />
    <glyph glyph-name="acute" unicode="&#xb4;" horiz-adv-x="1085" 
d="M508 1268l297 319l186 -86l-309 -233h-174z" />
    <glyph glyph-name="mu" unicode="&#xb5;" horiz-adv-x="1437" 
d="M137 -340h-188l387 1448h192l-155 -576q-21 -74 -21 -145q0 -113 64 -176.5t180 -63.5q124 0 216 77t130 218l178 666h193l-209 -778q-14 -54 -14 -92q0 -88 110 -88q49 0 80 8l-43 -158q-46 -14 -113 -14q-97 0 -153 42.5t-68 121.5q-124 -170 -325 -170q-120 0 -203 59
t-115 174h-4q-14 -176 -55 -317z" />
    <glyph glyph-name="paragraph" unicode="&#xb6;" horiz-adv-x="1150" 
d="M590 0l137 516q-283 13 -410 143q-102 102 -102 273q0 225 143 368q188 191 574 191h256l-400 -1491h-198z" />
    <glyph glyph-name="periodcentered" unicode="&#xb7;" horiz-adv-x="587" 
d="M170 522l66 244h223l-68 -244h-221z" />
    <glyph glyph-name="cedilla" unicode="&#xb8;" horiz-adv-x="1085" 
d="M295 -336l-158 78l266 278h150z" />
    <glyph glyph-name="one.sup" unicode="&#xb9;" horiz-adv-x="700" 
d="M430 903l186 703l-194 -68l-6 111l264 94h96l-223 -840h-123z" />
    <glyph glyph-name="ordmasculine" unicode="&#xba;" horiz-adv-x="862" 
d="M131 610l27 107h579l-26 -107h-580zM369 1147q0 -81 47 -129.5t123 -48.5q91 0 153 65q76 76 76 183q0 79 -47.5 128.5t-122.5 49.5q-89 0 -154 -68q-75 -75 -75 -180zM891 1221q0 -145 -109 -254q-102 -107 -250 -107q-129 0 -207.5 79t-78.5 202q0 148 108 256
q104 104 250 104q129 0 208 -78.5t79 -201.5z" />
    <glyph glyph-name="guillemotright" unicode="&#xbb;" horiz-adv-x="1226" 
d="M883 1018l233 -457l-4 -16l-485 -465l-113 100l387 393l-166 373zM393 1018l234 -457l-6 -16l-486 -465l-112 100l387 393l-166 373z" />
    <glyph glyph-name="onequarter" unicode="&#xbc;" horiz-adv-x="1775" 
d="M317 666l187 702l-195 -68l-6 111l264 92h97l-224 -837h-123zM88 0l733 768l678 723h137l-733 -768l-676 -723h-139zM1245 -2l49 186h-403l8 115l547 539h139l-147 -551h114l-28 -103h-115l-49 -186h-115zM1024 285h297l109 405h-3z" />
    <glyph glyph-name="onehalf" unicode="&#xbd;" horiz-adv-x="1775" 
d="M864 0l27 106l448 330q68 49 101 90.5t33 91.5q0 53 -39 84t-103 31q-109 0 -221 -112l-78 77q136 150 307 150q118 0 189 -60t71 -159q0 -75 -43.5 -138t-150.5 -137l-336 -241h422l-29 -113h-598zM68 0l733 768l678 723h137l-733 -768l-676 -723h-139zM317 666l187 702
l-195 -68l-6 111l264 92h97l-224 -837h-123z" />
    <glyph glyph-name="threequarters" unicode="&#xbe;" horiz-adv-x="1935" 
d="M1405 -2l49 186h-403l8 115l547 539h139l-148 -551h115l-29 -103h-114l-49 -186h-115zM1184 285h297l108 405h-2zM238 0l733 768l678 723h137l-733 -768l-676 -723h-139zM444 643q-212 0 -299 150l86 73q83 -110 211 -110q88 0 146.5 45t58.5 112q0 64 -50 96.5
t-140 32.5h-45l-21 76l322 258h-385l32 115h549l-26 -96l-332 -265q100 -11 161.5 -61t61.5 -143q0 -120 -96.5 -201.5t-233.5 -81.5z" />
    <glyph glyph-name="questiondown" unicode="&#xbf;" horiz-adv-x="1167" 
d="M860 1055l-55 -346l-14 -11q-227 -18 -358.5 -100.5t-131.5 -220.5q0 -102 72.5 -159.5t191.5 -57.5q198 0 373 164l109 -131q-97 -97 -226 -154t-278 -57q-204 0 -325.5 107.5t-121.5 270.5q0 194 150.5 316t406.5 160l80 219h127zM1022 1491l-66 -246h-223l66 246h223z
" />
    <glyph glyph-name="Agrave" unicode="&#xc0;" horiz-adv-x="1642" 
d="M-82 0l1075 1501h191l268 -1501h-203l-63 385h-780l-273 -385h-215zM528 561h629l-123 713zM1032 1640l-198 201l190 84l145 -285h-137z" />
    <glyph glyph-name="Aacute" unicode="&#xc1;" horiz-adv-x="1642" 
d="M-82 0l1075 1501h191l268 -1501h-203l-63 385h-780l-273 -385h-215zM528 561h629l-123 713zM1032 1640l299 285l185 -84l-306 -201h-178z" />
    <glyph glyph-name="Acircumflex" unicode="&#xc2;" horiz-adv-x="1642" 
d="M-82 0l1075 1501h191l268 -1501h-203l-63 385h-780l-273 -385h-215zM528 561h629l-123 713zM778 1636l312 262h182l170 -262h-160l-125 127l-196 -127h-183z" />
    <glyph glyph-name="Atilde" unicode="&#xc3;" horiz-adv-x="1642" 
d="M-82 0l1075 1501h191l268 -1501h-203l-63 385h-780l-273 -385h-215zM528 561h629l-123 713zM887 1622l-115 37q56 120 111.5 173.5t134.5 53.5q64 0 156 -43q80 -39 122 -39q41 0 69 22t65 79l114 -37q-56 -121 -111.5 -174.5t-134.5 -53.5q-65 0 -157 43q-80 39 -123 39
q-42 0 -70 -22t-61 -78z" />
    <glyph glyph-name="Adieresis" unicode="&#xc4;" horiz-adv-x="1642" 
d="M-82 0l1075 1501h191l268 -1501h-203l-63 385h-780l-273 -385h-215zM528 561h629l-123 713zM815 1640l57 207h218l-56 -207h-219zM1225 1640l57 207h217l-55 -207h-219z" />
    <glyph glyph-name="Aring" unicode="&#xc5;" horiz-adv-x="1642" 
d="M-82 0l1020 1425q-70 54 -70 142q0 102 78 172.5t193 70.5q93 0 155 -55t62 -135q0 -72 -43 -131.5t-113 -89.5l252 -1399h-203l-63 385h-780l-273 -385h-215zM528 561h629l-123 713zM1094 1464q66 0 112.5 44t46.5 104q0 49 -32.5 80.5t-90.5 31.5q-66 0 -112.5 -43.5
t-46.5 -103.5q0 -51 33.5 -82t89.5 -31z" />
    <glyph glyph-name="AE" unicode="&#xc6;" horiz-adv-x="2267" 
d="M-82 0l1262 1491h1212l-47 -178h-850l-127 -473h754l-49 -176h-752l-131 -486h860l-47 -178h-1057l105 385h-586l-326 -385h-221zM608 561h488l202 756h-49z" />
    <glyph glyph-name="Ccedilla" unicode="&#xc7;" horiz-adv-x="1583" 
d="M596 -336l-158 78l236 248q-217 41 -353.5 204t-136.5 402q0 183 74 354.5t205 302.5q124 124 283 193.5t335 69.5q202 0 343.5 -85.5t224.5 -234.5l-166 -106q-74 121 -172 183t-248 62q-248 0 -447 -192q-106 -106 -165.5 -246.5t-59.5 -292.5q0 -202 125.5 -325
t323.5 -123q134 0 235 47.5t207 144.5l129 -129q-116 -116 -255.5 -181t-324.5 -65h-12z" />
    <glyph glyph-name="Egrave" unicode="&#xc8;" horiz-adv-x="1417" 
d="M936 1620l-199 201l191 84l145 -285h-137zM66 0l401 1491h1075l-47 -178h-879l-127 -473h783l-49 -176h-783l-129 -486h889l-47 -178h-1087z" />
    <glyph glyph-name="Eacute" unicode="&#xc9;" horiz-adv-x="1417" 
d="M936 1620l299 285l184 -84l-305 -201h-178zM66 0l401 1491h1075l-47 -178h-879l-127 -473h783l-49 -176h-783l-129 -486h889l-47 -178h-1087z" />
    <glyph glyph-name="Ecircumflex" unicode="&#xca;" horiz-adv-x="1417" 
d="M66 0l401 1491h1075l-47 -178h-879l-127 -473h783l-49 -176h-783l-129 -486h889l-47 -178h-1087zM682 1620l311 262h183l170 -262h-160l-125 127l-197 -127h-182z" />
    <glyph glyph-name="Edieresis" unicode="&#xcb;" horiz-adv-x="1417" 
d="M717 1620l57 207h217l-55 -207h-219zM1126 1620l58 207h217l-55 -207h-220zM66 0l401 1491h1075l-47 -178h-879l-127 -473h783l-49 -176h-783l-129 -486h889l-47 -178h-1087z" />
    <glyph glyph-name="Igrave" unicode="&#xcc;" horiz-adv-x="657" 
d="M82 0l399 1491h199l-401 -1491h-197zM522 1620l-198 201l190 84l145 -285h-137z" />
    <glyph glyph-name="Iacute" unicode="&#xcd;" horiz-adv-x="657" 
d="M82 0l399 1491h199l-401 -1491h-197zM520 1620l299 285l185 -84l-306 -201h-178z" />
    <glyph glyph-name="Icircumflex" unicode="&#xce;" horiz-adv-x="657" 
d="M82 0l399 1491h199l-401 -1491h-197zM268 1620l312 262h182l170 -262h-160l-125 127l-196 -127h-183z" />
    <glyph glyph-name="Idieresis" unicode="&#xcf;" horiz-adv-x="657" 
d="M82 0l399 1491h199l-401 -1491h-197zM301 1620l57 207h217l-55 -207h-219zM711 1620l57 207h217l-55 -207h-219z" />
    <glyph glyph-name="Eth" unicode="&#xd0;" horiz-adv-x="1722" 
d="M121 0l180 674h-166l43 151h164l180 666h375q379 0 582 -197q161 -161 161 -430q0 -344 -237 -581q-137 -137 -332 -210t-434 -73h-516zM918 674h-418l-133 -494h292q370 0 596 226q181 181 181 448q0 194 -119 313q-144 144 -434 144h-211l-131 -486h417z" />
    <glyph glyph-name="Ntilde" unicode="&#xd1;" horiz-adv-x="1693" 
d="M891 1597l-115 37q56 120 111.5 174t134.5 54q64 0 156 -43q80 -39 122 -39q41 0 69 22t65 78l114 -37q-56 -121 -111 -174t-134 -53q-66 0 -158 43q-80 39 -123 39q-41 0 -69.5 -22.5t-61.5 -78.5zM66 0l401 1491h182l576 -1163l313 1163h195l-402 -1491h-160l-591 1192
l-320 -1192h-194z" />
    <glyph glyph-name="Ograve" unicode="&#xd2;" horiz-adv-x="1810" 
d="M1077 1640l-198 201l190 84l145 -285h-137zM1063 1516q192 0 343 -85.5t233.5 -233.5t82.5 -329q0 -179 -71 -346t-199 -295q-120 -120 -274.5 -187t-329.5 -67q-142 0 -265.5 50t-209 137t-134.5 207t-49 256q0 177 71 343t198 296q120 120 274.5 187t329.5 67zM864 154
q248 0 436 188q103 103 160.5 239.5t57.5 278.5q0 207 -128 341t-341 134q-251 0 -439 -188q-102 -102 -158.5 -238t-56.5 -278q0 -208 128 -342.5t341 -134.5z" />
    <glyph glyph-name="Oacute" unicode="&#xd3;" horiz-adv-x="1810" 
d="M1071 1640l299 285l184 -84l-305 -201h-178zM1063 1516q192 0 343 -85.5t233.5 -233.5t82.5 -329q0 -179 -71 -346t-199 -295q-120 -120 -274.5 -187t-329.5 -67q-142 0 -265.5 50t-209 137t-134.5 207t-49 256q0 177 71 343t198 296q120 120 274.5 187t329.5 67z
M864 154q248 0 436 188q103 103 160.5 239.5t57.5 278.5q0 207 -128 341t-341 134q-251 0 -439 -188q-102 -102 -158.5 -238t-56.5 -278q0 -208 128 -342.5t341 -134.5z" />
    <glyph glyph-name="Ocircumflex" unicode="&#xd4;" horiz-adv-x="1810" 
d="M1063 1516q192 0 343 -85.5t233.5 -233.5t82.5 -329q0 -179 -71 -346t-199 -295q-120 -120 -274.5 -187t-329.5 -67q-142 0 -265.5 50t-209 137t-134.5 207t-49 256q0 177 71 343t198 296q120 120 274.5 187t329.5 67zM864 154q248 0 436 188q103 103 160.5 239.5
t57.5 278.5q0 207 -128 341t-341 134q-251 0 -439 -188q-102 -102 -158.5 -238t-56.5 -278q0 -208 128 -342.5t341 -134.5zM825 1640l312 263h182l170 -263h-160l-125 127l-196 -127h-183z" />
    <glyph glyph-name="Otilde" unicode="&#xd5;" horiz-adv-x="1810" 
d="M932 1622l-115 37q56 120 111.5 173.5t134.5 53.5q64 0 156 -43q80 -39 122 -39q41 0 69 22t65 79l114 -37q-56 -121 -111.5 -174.5t-134.5 -53.5q-65 0 -157 43q-80 39 -123 39q-42 0 -70 -22t-61 -78zM1063 1516q192 0 343 -85.5t233.5 -233.5t82.5 -329
q0 -179 -71 -346t-199 -295q-120 -120 -274.5 -187t-329.5 -67q-142 0 -265.5 50t-209 137t-134.5 207t-49 256q0 177 71 343t198 296q120 120 274.5 187t329.5 67zM864 154q248 0 436 188q103 103 160.5 239.5t57.5 278.5q0 207 -128 341t-341 134q-251 0 -439 -188
q-102 -102 -158.5 -238t-56.5 -278q0 -208 128 -342.5t341 -134.5z" />
    <glyph glyph-name="Odieresis" unicode="&#xd6;" horiz-adv-x="1810" 
d="M858 1640l57 207h218l-56 -207h-219zM1268 1640l57 207h217l-55 -207h-219zM1063 1516q192 0 343 -85.5t233.5 -233.5t82.5 -329q0 -179 -71 -346t-199 -295q-120 -120 -274.5 -187t-329.5 -67q-142 0 -265.5 50t-209 137t-134.5 207t-49 256q0 177 71 343t198 296
q120 120 274.5 187t329.5 67zM864 154q248 0 436 188q103 103 160.5 239.5t57.5 278.5q0 207 -128 341t-341 134q-251 0 -439 -188q-102 -102 -158.5 -238t-56.5 -278q0 -208 128 -342.5t341 -134.5z" />
    <glyph glyph-name="multiply" unicode="&#xd7;" horiz-adv-x="1357" 
d="M250 260l-103 137l467 363l-270 360l152 117l262 -365l463 369l100 -137l-465 -363l268 -358l-151 -119l-260 365z" />
    <glyph glyph-name="Oslash" unicode="&#xd8;" horiz-adv-x="1810" 
d="M1063 1516q285 0 473 -185l195 170h213l-320 -280q98 -156 98 -353q0 -179 -71 -346t-199 -295q-120 -120 -274.5 -187t-329.5 -67q-286 0 -471 185l-195 -170h-215l322 280q-99 157 -99 355q0 177 71 343t198 296q120 120 274.5 187t329.5 67zM391 629q0 -139 51 -238
l947 821q-132 129 -340 129q-251 0 -441 -190q-104 -104 -160.5 -241.5t-56.5 -280.5zM862 147q250 0 441 191q104 104 161.5 241.5t57.5 280.5q0 129 -52 236l-946 -820q126 -129 338 -129z" />
    <glyph glyph-name="Ugrave" unicode="&#xd9;" horiz-adv-x="1638" 
d="M989 1616l-198 201l190 84l145 -285h-137zM748 -23q-259 0 -402 131t-143 351q0 116 30 233l213 799h199l-223 -842q-23 -77 -23 -166q0 -145 94.5 -235t272.5 -90q186 0 315 129q123 123 185 348l229 856h197l-238 -889q-76 -283 -233 -440q-188 -185 -473 -185z" />
    <glyph glyph-name="Uacute" unicode="&#xda;" horiz-adv-x="1638" 
d="M989 1616l299 285l185 -84l-306 -201h-178zM748 -23q-259 0 -402 131t-143 351q0 116 30 233l213 799h199l-223 -842q-23 -77 -23 -166q0 -145 94.5 -235t272.5 -90q186 0 315 129q123 123 185 348l229 856h197l-238 -889q-76 -283 -233 -440q-188 -185 -473 -185z" />
    <glyph glyph-name="Ucircumflex" unicode="&#xdb;" horiz-adv-x="1638" 
d="M748 -23q-259 0 -402 131t-143 351q0 116 30 233l213 799h199l-223 -842q-23 -77 -23 -166q0 -145 94.5 -235t272.5 -90q186 0 315 129q123 123 185 348l229 856h197l-238 -889q-76 -283 -233 -440q-188 -185 -473 -185zM735 1616l312 262h182l170 -262h-160l-125 127
l-196 -127h-183z" />
    <glyph glyph-name="Udieresis" unicode="&#xdc;" horiz-adv-x="1638" 
d="M770 1616l57 207h217l-55 -207h-219zM1180 1616l57 207h217l-55 -207h-219zM748 -23q-259 0 -402 131t-143 351q0 116 30 233l213 799h199l-223 -842q-23 -77 -23 -166q0 -145 94.5 -235t272.5 -90q186 0 315 129q123 123 185 348l229 856h197l-238 -889
q-76 -283 -233 -440q-188 -185 -473 -185z" />
    <glyph glyph-name="Yacute" unicode="&#xdd;" horiz-adv-x="1427" 
d="M453 0l161 598l-358 893h219l275 -727l669 727h248l-864 -922l-152 -569h-198zM872 1616l299 285l185 -84l-305 -201h-179z" />
    <glyph glyph-name="Thorn" unicode="&#xde;" horiz-adv-x="1460" 
d="M66 0l401 1491h197l-66 -250h270q294 0 435 -141q106 -106 106 -281q0 -215 -141 -356q-197 -197 -590 -197h-340l-74 -266h-198zM383 440h305q296 0 428 135q90 90 90 230q0 103 -65 168q-87 90 -279 90h-313z" />
    <glyph glyph-name="germandbls" unicode="&#xdf;" horiz-adv-x="1351" 
d="M485 -4l43 156q123 0 216 23.5t148 65t82 93.5t27 112q0 199 -329 252l39 142q209 50 305 136t96 212q0 98 -66 156.5t-178 58.5q-129 0 -221 -94.5t-137 -266.5l-279 -1042h-192l287 1067q63 231 186 354q148 148 365 148q189 0 306 -103.5t117 -263.5
q0 -164 -109 -271.5t-292 -160.5q131 -41 212 -122t81 -206q0 -96 -46 -178.5t-132.5 -143.5t-222.5 -94.5t-306 -29.5z" />
    <glyph glyph-name="agrave" unicode="&#xe0;" horiz-adv-x="1251" 
d="M391 -25q-145 0 -245.5 83t-100.5 223q0 159 107 266q135 135 385 135q187 0 378 -57l7 24q14 54 14 99q0 206 -283 206q-166 0 -311 -59l-31 160q181 69 375 69q212 0 325 -90.5t113 -253.5q0 -61 -24 -155l-166 -625h-186l43 166q-166 -191 -400 -191zM459 123
q133 0 251 87.5t154 221.5l21 70q-162 45 -332 45q-162 0 -248 -86q-63 -63 -63 -158q0 -82 59 -131t158 -49zM700 1268l-182 233l193 86l123 -319h-134z" />
    <glyph glyph-name="aacute" unicode="&#xe1;" horiz-adv-x="1251" 
d="M391 -25q-145 0 -245.5 83t-100.5 223q0 159 107 266q135 135 385 135q187 0 378 -57l7 24q14 54 14 99q0 206 -283 206q-166 0 -311 -59l-31 160q181 69 375 69q212 0 325 -90.5t113 -253.5q0 -61 -24 -155l-166 -625h-186l43 166q-166 -191 -400 -191zM459 123
q133 0 251 87.5t154 221.5l21 70q-162 45 -332 45q-162 0 -248 -86q-63 -63 -63 -158q0 -82 59 -131t158 -49zM694 1268l297 319l187 -86l-310 -233h-174z" />
    <glyph glyph-name="acircumflex" unicode="&#xe2;" horiz-adv-x="1251" 
d="M391 -25q-145 0 -245.5 83t-100.5 223q0 159 107 266q135 135 385 135q187 0 378 -57l7 24q14 54 14 99q0 206 -283 206q-166 0 -311 -59l-31 160q181 69 375 69q212 0 325 -90.5t113 -253.5q0 -61 -24 -155l-166 -625h-186l43 166q-166 -191 -400 -191zM459 123
q133 0 251 87.5t154 221.5l21 70q-162 45 -332 45q-162 0 -248 -86q-63 -63 -63 -158q0 -82 59 -131t158 -49zM455 1268l311 288h174l154 -288h-150l-119 143l-204 -143h-166z" />
    <glyph glyph-name="atilde" unicode="&#xe3;" horiz-adv-x="1251" 
d="M391 -25q-145 0 -245.5 83t-100.5 223q0 159 107 266q135 135 385 135q187 0 378 -57l7 24q14 54 14 99q0 206 -283 206q-166 0 -311 -59l-31 160q181 69 375 69q212 0 325 -90.5t113 -253.5q0 -61 -24 -155l-166 -625h-186l43 166q-166 -191 -400 -191zM459 123
q133 0 251 87.5t154 221.5l21 70q-162 45 -332 45q-162 0 -248 -86q-63 -63 -63 -158q0 -82 59 -131t158 -49zM1083 1536l115 -35q-55 -126 -110 -179.5t-138 -53.5q-55 0 -155 45q-77 41 -121 41q-41 0 -69 -24t-62 -83l-113 35q56 127 110.5 180.5t137.5 53.5
q59 0 153 -46q78 -38 121 -38q42 0 70 23t61 81z" />
    <glyph glyph-name="adieresis" unicode="&#xe4;" horiz-adv-x="1251" 
d="M391 -25q-145 0 -245.5 83t-100.5 223q0 159 107 266q135 135 385 135q187 0 378 -57l7 24q14 54 14 99q0 206 -283 206q-166 0 -311 -59l-31 160q181 69 375 69q212 0 325 -90.5t113 -253.5q0 -61 -24 -155l-166 -625h-186l43 166q-166 -191 -400 -191zM459 123
q133 0 251 87.5t154 221.5l21 70q-162 45 -332 45q-162 0 -248 -86q-63 -63 -63 -158q0 -82 59 -131t158 -49zM481 1268l60 217h213l-60 -217h-213zM872 1268l60 217h213l-60 -217h-213z" />
    <glyph glyph-name="aring" unicode="&#xe5;" horiz-adv-x="1251" 
d="M391 -25q-145 0 -245.5 83t-100.5 223q0 159 107 266q135 135 385 135q187 0 378 -57l7 24q14 54 14 99q0 206 -283 206q-166 0 -311 -59l-31 160q181 69 375 69q212 0 325 -90.5t113 -253.5q0 -61 -24 -155l-166 -625h-186l43 166q-166 -191 -400 -191zM459 123
q133 0 251 87.5t154 221.5l21 70q-162 45 -332 45q-162 0 -248 -86q-63 -63 -63 -158q0 -82 59 -131t158 -49zM1085 1513q0 -100 -77.5 -174.5t-182.5 -74.5q-99 0 -160 57.5t-61 146.5q0 100 77.5 175t182.5 75q98 0 159.5 -58.5t61.5 -146.5zM698 1473q0 -56 35 -90.5
t94 -34.5q67 0 115.5 47.5t48.5 111.5q0 56 -35 91.5t-94 35.5q-67 0 -115.5 -48t-48.5 -113z" />
    <glyph glyph-name="ae" unicode="&#xe6;" horiz-adv-x="2056" 
d="M1382 -25q-156 0 -267 64t-167 182q-236 -246 -538 -246q-160 0 -262.5 81.5t-102.5 224.5q0 159 107 266q135 135 385 135q187 0 378 -57l7 24q14 54 14 99q0 206 -283 206q-166 0 -311 -59l-31 160q181 69 375 69q158 0 259.5 -58t137.5 -165q89 107 205 169.5
t248 62.5q102 0 184 -33.5t135 -92t81 -136t28 -166.5q0 -112 -41 -218h-850v-30q0 -148 84.5 -235t235.5 -87q95 0 170 30.5t155 94.5l94 -125q-185 -160 -430 -160zM471 123q233 0 438 217q-12 74 -6 154q-154 53 -350 53q-162 0 -248 -86q-63 -63 -63 -158
q0 -83 60.5 -131.5t168.5 -48.5zM1229 846q-91 -91 -131 -221h671q11 42 11 84q0 112 -66 187t-194 75q-166 0 -291 -125z" />
    <glyph glyph-name="ccedilla" unicode="&#xe7;" horiz-adv-x="1216" 
d="M383 -336l-158 78l240 252q-157 38 -255.5 162.5t-98.5 304.5q0 137 52 260t146 217q92 92 209 143.5t244 51.5q163 0 273.5 -72t170.5 -187l-153 -100q-52 90 -123 139.5t-182 49.5q-160 0 -289 -129q-71 -71 -112.5 -168t-41.5 -201q0 -148 90 -235t219 -87
q88 0 162 35t152 103l108 -125q-94 -86 -195.5 -133t-230.5 -48h-2z" />
    <glyph glyph-name="egrave" unicode="&#xe8;" horiz-adv-x="1282" 
d="M1149 487h-852v-30q0 -144 84 -233t231 -89q176 0 332 125l94 -125q-92 -78 -197 -119t-245 -41q-219 0 -353 131.5t-134 344.5q0 135 55 265t153 228q189 189 441 189q203 0 317.5 -121.5t114.5 -306.5q0 -112 -41 -218zM455 846q-93 -93 -133 -221h673q9 34 9 84
q0 113 -65.5 187.5t-193.5 74.5q-165 0 -290 -125zM756 1268l-183 233l193 86l123 -319h-133z" />
    <glyph glyph-name="eacute" unicode="&#xe9;" horiz-adv-x="1282" 
d="M750 1268l297 319l186 -86l-309 -233h-174zM1149 487h-852v-30q0 -144 84 -233t231 -89q176 0 332 125l94 -125q-92 -78 -197 -119t-245 -41q-219 0 -353 131.5t-134 344.5q0 135 55 265t153 228q189 189 441 189q203 0 317.5 -121.5t114.5 -306.5q0 -112 -41 -218z
M455 846q-93 -93 -133 -221h673q9 34 9 84q0 113 -65.5 187.5t-193.5 74.5q-165 0 -290 -125z" />
    <glyph glyph-name="ecircumflex" unicode="&#xea;" horiz-adv-x="1282" 
d="M510 1268l311 288h174l154 -288h-150l-118 143l-205 -143h-166zM1149 487h-852v-30q0 -144 84 -233t231 -89q176 0 332 125l94 -125q-92 -78 -197 -119t-245 -41q-219 0 -353 131.5t-134 344.5q0 135 55 265t153 228q189 189 441 189q203 0 317.5 -121.5t114.5 -306.5
q0 -112 -41 -218zM455 846q-93 -93 -133 -221h673q9 34 9 84q0 113 -65.5 187.5t-193.5 74.5q-165 0 -290 -125z" />
    <glyph glyph-name="edieresis" unicode="&#xeb;" horiz-adv-x="1282" 
d="M539 1268l59 217h213l-59 -217h-213zM930 1268l59 217h213l-59 -217h-213zM1149 487h-852v-30q0 -144 84 -233t231 -89q176 0 332 125l94 -125q-92 -78 -197 -119t-245 -41q-219 0 -353 131.5t-134 344.5q0 135 55 265t153 228q189 189 441 189q203 0 317.5 -121.5
t114.5 -306.5q0 -112 -41 -218zM455 846q-93 -93 -133 -221h673q9 34 9 84q0 113 -65.5 187.5t-193.5 74.5q-165 0 -290 -125z" />
    <glyph glyph-name="igrave" unicode="&#xec;" horiz-adv-x="598" 
d="M53 0l299 1108h191l-297 -1108h-193zM406 1268l-183 233l193 86l123 -319h-133z" />
    <glyph glyph-name="iacute" unicode="&#xed;" horiz-adv-x="598" 
d="M401 1268l297 319l187 -86l-310 -233h-174zM53 0l299 1108h191l-297 -1108h-193z" />
    <glyph glyph-name="icircumflex" unicode="&#xee;" horiz-adv-x="598" 
d="M162 1268l311 288h174l154 -288h-150l-119 143l-204 -143h-166zM53 0l299 1108h191l-297 -1108h-193z" />
    <glyph glyph-name="idieresis" unicode="&#xef;" horiz-adv-x="598" 
d="M190 1268l60 217h213l-60 -217h-213zM582 1268l59 217h213l-59 -217h-213zM53 0l299 1108h191l-297 -1108h-193z" />
    <glyph glyph-name="eth" unicode="&#xf0;" horiz-adv-x="1372" 
d="M561 1208l-47 117l256 94q-56 67 -117 135h242l53 -69l242 88l47 -115l-213 -80q244 -362 244 -684q0 -329 -209 -532q-187 -187 -451 -187q-224 0 -360.5 138.5t-136.5 361.5q0 133 49 251t137 206q83 83 188 128.5t220 45.5q121 0 208 -49t158 -142q-63 177 -221 400z
M625 141q172 0 303 131q141 141 141 338q0 149 -94 244.5t-246 95.5q-164 0 -285 -121q-67 -67 -104 -157t-37 -189q0 -156 85 -249t237 -93z" />
    <glyph glyph-name="ntilde" unicode="&#xf1;" horiz-adv-x="1331" 
d="M39 0l297 1108h192l-45 -168q79 89 168 141t201 52q160 0 254 -92.5t94 -247.5q0 -57 -29 -179l-161 -614h-193l166 625q16 62 16 120q0 100 -60.5 156.5t-168.5 56.5q-123 0 -227.5 -93t-145.5 -240l-166 -625h-192zM1145 1536l115 -35q-55 -126 -110 -179.5t-138 -53.5
q-56 0 -156 45q-77 41 -121 41q-41 0 -69 -24t-62 -83l-112 35q56 127 110.5 180.5t136.5 53.5q60 0 154 -46q78 -38 121 -38q42 0 70 23t61 81z" />
    <glyph glyph-name="ograve" unicode="&#xf2;" horiz-adv-x="1384" 
d="M762 1133q230 0 370 -141t140 -359q0 -129 -52 -249.5t-145 -213.5q-195 -195 -454 -195q-227 0 -368.5 140t-141.5 360q0 129 52 249t146 214q94 91 210.5 143t242.5 52zM633 143q166 0 295 129q72 72 110.5 165t38.5 190q0 158 -88.5 247t-238.5 89q-164 0 -293 -129
q-71 -68 -111.5 -163t-40.5 -190q0 -159 89 -248.5t239 -89.5zM786 1268l-182 233l193 86l123 -319h-134z" />
    <glyph glyph-name="oacute" unicode="&#xf3;" horiz-adv-x="1384" 
d="M774 1268l297 319l186 -86l-309 -233h-174zM762 1133q230 0 370 -141t140 -359q0 -129 -52 -249.5t-145 -213.5q-195 -195 -454 -195q-227 0 -368.5 140t-141.5 360q0 129 52 249t146 214q94 91 210.5 143t242.5 52zM633 143q166 0 295 129q72 72 110.5 165t38.5 190
q0 158 -88.5 247t-238.5 89q-164 0 -293 -129q-71 -68 -111.5 -163t-40.5 -190q0 -159 89 -248.5t239 -89.5z" />
    <glyph glyph-name="ocircumflex" unicode="&#xf4;" horiz-adv-x="1384" 
d="M541 1268l311 288h174l154 -288h-150l-119 143l-204 -143h-166zM762 1133q230 0 370 -141t140 -359q0 -129 -52 -249.5t-145 -213.5q-195 -195 -454 -195q-227 0 -368.5 140t-141.5 360q0 129 52 249t146 214q94 91 210.5 143t242.5 52zM633 143q166 0 295 129
q72 72 110.5 165t38.5 190q0 158 -88.5 247t-238.5 89q-164 0 -293 -129q-71 -68 -111.5 -163t-40.5 -190q0 -159 89 -248.5t239 -89.5z" />
    <glyph glyph-name="otilde" unicode="&#xf5;" horiz-adv-x="1384" 
d="M762 1133q230 0 370 -141t140 -359q0 -129 -52 -249.5t-145 -213.5q-195 -195 -454 -195q-227 0 -368.5 140t-141.5 360q0 129 52 249t146 214q94 91 210.5 143t242.5 52zM633 143q166 0 295 129q72 72 110.5 165t38.5 190q0 158 -88.5 247t-238.5 89q-164 0 -293 -129
q-71 -68 -111.5 -163t-40.5 -190q0 -159 89 -248.5t239 -89.5zM1171 1536l115 -35q-55 -126 -110 -179.5t-138 -53.5q-55 0 -155 45q-77 41 -121 41q-41 0 -69 -24t-62 -83l-113 35q56 127 110.5 180.5t137.5 53.5q60 0 154 -46q78 -38 120 -38t70 23t61 81z" />
    <glyph glyph-name="odieresis" unicode="&#xf6;" horiz-adv-x="1384" 
d="M569 1268l60 217h213l-60 -217h-213zM961 1268l59 217h213l-59 -217h-213zM762 1133q230 0 370 -141t140 -359q0 -129 -52 -249.5t-145 -213.5q-195 -195 -454 -195q-227 0 -368.5 140t-141.5 360q0 129 52 249t146 214q94 91 210.5 143t242.5 52zM633 143q166 0 295 129
q72 72 110.5 165t38.5 190q0 158 -88.5 247t-238.5 89q-164 0 -293 -129q-71 -68 -111.5 -163t-40.5 -190q0 -159 89 -248.5t239 -89.5z" />
    <glyph glyph-name="divide" unicode="&#xf7;" horiz-adv-x="1357" 
d="M469 203l61 235h236l-64 -235h-233zM184 664l47 172h1049l-47 -172h-1049zM698 1061l62 235h235l-61 -235h-236z" />
    <glyph glyph-name="oslash" unicode="&#xf8;" horiz-adv-x="1384" 
d="M762 1133q220 0 360 -134l140 121h198l-256 -223q68 -120 68 -264q0 -129 -52 -249.5t-145 -213.5q-195 -195 -454 -195q-224 0 -361 131l-139 -118h-199l256 219q-67 113 -67 268q0 129 52 249t146 214q94 91 210.5 143t242.5 52zM754 967q-170 0 -301 -131
q-72 -72 -112 -164.5t-40 -190.5q0 -86 25 -153l659 559q-86 80 -231 80zM1081 627q0 83 -26 151l-656 -561q90 -78 232 -78q168 0 299 131q72 72 111.5 165.5t39.5 191.5z" />
    <glyph glyph-name="ugrave" unicode="&#xf9;" horiz-adv-x="1327" 
d="M475 -25q-160 0 -254 92.5t-94 247.5q0 59 29 181l163 612h193l-168 -623q-16 -62 -16 -123q0 -100 61 -156t170 -56q122 0 226 93t145 240l168 625h190l-295 -1108h-192l45 170q-83 -92 -171 -143.5t-200 -51.5zM754 1268l-183 233l193 86l123 -319h-133z" />
    <glyph glyph-name="uacute" unicode="&#xfa;" horiz-adv-x="1327" 
d="M745 1268l297 319l187 -86l-309 -233h-175zM475 -25q-160 0 -254 92.5t-94 247.5q0 59 29 181l163 612h193l-168 -623q-16 -62 -16 -123q0 -100 61 -156t170 -56q122 0 226 93t145 240l168 625h190l-295 -1108h-192l45 170q-83 -92 -171 -143.5t-200 -51.5z" />
    <glyph glyph-name="ucircumflex" unicode="&#xfb;" horiz-adv-x="1327" 
d="M506 1268l311 288h174l154 -288h-150l-118 143l-205 -143h-166zM475 -25q-160 0 -254 92.5t-94 247.5q0 59 29 181l163 612h193l-168 -623q-16 -62 -16 -123q0 -100 61 -156t170 -56q122 0 226 93t145 240l168 625h190l-295 -1108h-192l45 170q-83 -92 -171 -143.5
t-200 -51.5z" />
    <glyph glyph-name="udieresis" unicode="&#xfc;" horiz-adv-x="1327" 
d="M535 1268l59 217h213l-59 -217h-213zM926 1268l59 217h213l-59 -217h-213zM475 -25q-160 0 -254 92.5t-94 247.5q0 59 29 181l163 612h193l-168 -623q-16 -62 -16 -123q0 -100 61 -156t170 -56q122 0 226 93t145 240l168 625h190l-295 -1108h-192l45 170
q-83 -92 -171 -143.5t-200 -51.5z" />
    <glyph glyph-name="yacute" unicode="&#xfd;" horiz-adv-x="1251" 
d="M387 -2l-188 1110h198l135 -893l562 893h217l-748 -1143q-114 -170 -219 -241.5t-235 -71.5q-131 0 -246 78l104 141q83 -55 162 -55q68 0 127.5 40.5t130.5 141.5zM680 1268l297 319l186 -86l-309 -233h-174z" />
    <glyph glyph-name="thorn" unicode="&#xfe;" horiz-adv-x="1429" 
d="M649 1554l-170 -622q182 201 400 201q190 0 314 -130t124 -341q0 -149 -55 -280t-150 -226q-181 -181 -416 -181q-286 0 -403 258l-154 -573h-190l508 1894h192zM676 143q166 0 289 123q72 72 110.5 170.5t38.5 208.5q0 147 -81.5 233.5t-215.5 86.5q-167 0 -307 -140
q-73 -70 -114.5 -163t-41.5 -195q0 -138 90.5 -231t231.5 -93z" />
    <glyph glyph-name="ydieresis" unicode="&#xff;" horiz-adv-x="1251" 
d="M387 -2l-188 1110h198l135 -893l562 893h217l-748 -1143q-114 -170 -219 -241.5t-235 -71.5q-131 0 -246 78l104 141q83 -55 162 -55q68 0 127.5 40.5t130.5 141.5zM469 1268l59 217h213l-59 -217h-213zM860 1268l60 217h213l-60 -217h-213z" />
    <glyph glyph-name="Amacron" unicode="&#x100;" horiz-adv-x="1642" 
d="M-82 0l1075 1501h191l268 -1501h-203l-63 385h-780l-273 -385h-215zM528 561h629l-123 713zM778 1679l41 154h721l-41 -154h-721z" />
    <glyph glyph-name="amacron" unicode="&#x101;" horiz-adv-x="1251" 
d="M391 -25q-145 0 -245.5 83t-100.5 223q0 159 107 266q135 135 385 135q187 0 378 -57l7 24q14 54 14 99q0 206 -283 206q-166 0 -311 -59l-31 160q181 69 375 69q212 0 325 -90.5t113 -253.5q0 -61 -24 -155l-166 -625h-186l43 166q-166 -191 -400 -191zM459 123
q133 0 251 87.5t154 221.5l21 70q-162 45 -332 45q-162 0 -248 -86q-63 -63 -63 -158q0 -82 59 -131t158 -49zM446 1305l41 149h697l-41 -149h-697z" />
    <glyph glyph-name="Abreve" unicode="&#x102;" horiz-adv-x="1642" 
d="M-82 0l1075 1501h191l268 -1501h-203l-63 385h-780l-273 -385h-215zM528 561h629l-123 713zM1130 1636q-140 0 -212 67.5t-52 188.5h138q5 -56 40.5 -82t118.5 -26q145 0 213 108h154q-42 -121 -150 -188.5t-250 -67.5z" />
    <glyph glyph-name="abreve" unicode="&#x103;" horiz-adv-x="1251" 
d="M391 -25q-145 0 -245.5 83t-100.5 223q0 159 107 266q135 135 385 135q187 0 378 -57l7 24q14 54 14 99q0 206 -283 206q-166 0 -311 -59l-31 160q181 69 375 69q212 0 325 -90.5t113 -253.5q0 -61 -24 -155l-166 -625h-186l43 166q-166 -191 -400 -191zM459 123
q133 0 251 87.5t154 221.5l21 70q-162 45 -332 45q-162 0 -248 -86q-63 -63 -63 -158q0 -82 59 -131t158 -49zM799 1264q-147 0 -219 76.5t-54 201.5h138q0 -133 153 -133q145 0 227 133h146q-43 -126 -147.5 -202t-243.5 -76z" />
    <glyph glyph-name="Aogonek" unicode="&#x104;" horiz-adv-x="1642" 
d="M1415 -246l-26 -104q-16 -2 -46 -2q-227 9 -227 141q0 99 150 211h-17l-63 385h-780l-273 -385h-215l1075 1501h191l268 -1501h-35q-135 -108 -135 -174q0 -35 30 -50.5t103 -21.5zM528 561h629l-123 713z" />
    <glyph glyph-name="aogonek" unicode="&#x105;" horiz-adv-x="1251" 
d="M907 -246l-26 -104q-16 -2 -45 -2q-228 9 -228 141q0 99 150 211h-10l43 166q-166 -191 -400 -191q-145 0 -245.5 83t-100.5 223q0 159 107 266q135 135 385 135q187 0 378 -57l7 24q14 54 14 99q0 206 -283 206q-166 0 -311 -59l-31 160q181 69 375 69q212 0 325 -90.5
t113 -253.5q0 -61 -24 -155l-166 -625h-25q-135 -108 -135 -174q0 -35 30 -50.5t103 -21.5zM459 123q133 0 251 87.5t154 221.5l21 70q-162 45 -332 45q-162 0 -248 -86q-63 -63 -63 -158q0 -82 59 -131t158 -49z" />
    <glyph glyph-name="Cacute" unicode="&#x106;" horiz-adv-x="1583" 
d="M831 -27q-181 0 -327 74.5t-233 217.5t-87 331q0 183 74 354.5t205 302.5q124 124 283 193.5t335 69.5q202 0 343.5 -85.5t224.5 -234.5l-166 -106q-74 121 -172 183t-248 62q-248 0 -447 -192q-106 -106 -165.5 -246.5t-59.5 -292.5q0 -202 125.5 -325t323.5 -123
q134 0 235 47.5t207 144.5l129 -129q-116 -116 -255.5 -181t-324.5 -65zM1036 1640l299 285l185 -84l-306 -201h-178z" />
    <glyph glyph-name="cacute" unicode="&#x107;" horiz-adv-x="1216" 
d="M723 1268l297 319l186 -86l-309 -233h-174zM606 -25q-101 0 -190.5 34t-157.5 95t-107.5 153.5t-39.5 203.5q0 137 52 260t146 217q92 92 209 143.5t244 51.5q163 0 273.5 -72t170.5 -187l-153 -100q-52 90 -123 139.5t-182 49.5q-160 0 -289 -129q-71 -71 -112.5 -168
t-41.5 -201q0 -148 90 -235t219 -87q88 0 162 35t152 103l108 -125q-95 -87 -197 -134t-233 -47z" />
    <glyph glyph-name="Cdotaccent" unicode="&#x10a;" horiz-adv-x="1583" 
d="M1018 1640l57 207h225l-57 -207h-225zM831 -27q-181 0 -327 74.5t-233 217.5t-87 331q0 183 74 354.5t205 302.5q124 124 283 193.5t335 69.5q202 0 343.5 -85.5t224.5 -234.5l-166 -106q-74 121 -172 183t-248 62q-248 0 -447 -192q-106 -106 -165.5 -246.5
t-59.5 -292.5q0 -202 125.5 -325t323.5 -123q134 0 235 47.5t207 144.5l129 -129q-116 -116 -255.5 -181t-324.5 -65z" />
    <glyph glyph-name="cdotaccent" unicode="&#x10b;" horiz-adv-x="1216" 
d="M606 -25q-101 0 -190.5 34t-157.5 95t-107.5 153.5t-39.5 203.5q0 137 52 260t146 217q92 92 209 143.5t244 51.5q163 0 273.5 -72t170.5 -187l-153 -100q-52 90 -123 139.5t-182 49.5q-160 0 -289 -129q-71 -71 -112.5 -168t-41.5 -201q0 -148 90 -235t219 -87
q88 0 162 35t152 103l108 -125q-95 -87 -197 -134t-233 -47zM707 1266l61 223h213l-61 -223h-213z" />
    <glyph glyph-name="Ccaron" unicode="&#x10c;" horiz-adv-x="1583" 
d="M831 -27q-181 0 -327 74.5t-233 217.5t-87 331q0 183 74 354.5t205 302.5q124 124 283 193.5t335 69.5q202 0 343.5 -85.5t224.5 -234.5l-166 -106q-74 121 -172 183t-248 62q-248 0 -447 -192q-106 -106 -165.5 -246.5t-59.5 -292.5q0 -202 125.5 -325t323.5 -123
q134 0 235 47.5t207 144.5l129 -129q-116 -116 -255.5 -181t-324.5 -65zM1550 1903l-311 -263h-182l-170 263h160l124 -125l197 125h182z" />
    <glyph glyph-name="ccaron" unicode="&#x10d;" horiz-adv-x="1216" 
d="M686 1268l-154 288h150l119 -143l205 143h165l-311 -288h-174zM606 -25q-101 0 -190.5 34t-157.5 95t-107.5 153.5t-39.5 203.5q0 137 52 260t146 217q92 92 209 143.5t244 51.5q163 0 273.5 -72t170.5 -187l-153 -100q-52 90 -123 139.5t-182 49.5q-160 0 -289 -129
q-71 -71 -112.5 -168t-41.5 -201q0 -148 90 -235t219 -87q88 0 162 35t152 103l108 -125q-95 -87 -197 -134t-233 -47z" />
    <glyph glyph-name="Dcaron" unicode="&#x10e;" horiz-adv-x="1667" 
d="M1458 1882l-311 -262h-182l-170 262h159l125 -125l197 125h182zM66 0l401 1491h375q378 0 581 -197q162 -162 162 -430q0 -344 -237 -581q-137 -137 -332 -210t-434 -73h-516zM1262 1167q-144 144 -435 144h-211l-305 -1131h293q370 0 596 226q180 180 180 448
q0 195 -118 313z" />
    <glyph glyph-name="dcaron" unicode="&#x10f;" horiz-adv-x="1429" 
d="M1569 1247l117 367h180v-6l-209 -361h-88zM903 0l47 176q-182 -201 -399 -201q-191 0 -313.5 129.5t-122.5 341.5q0 151 54 281.5t150 224.5q181 181 416 181q277 0 402 -259l182 680h192l-415 -1554h-193zM612 143q172 0 310 138q155 162 155 358q0 141 -90.5 233.5
t-232.5 92.5q-167 0 -287 -123q-73 -73 -112.5 -171t-39.5 -210q0 -145 81.5 -231.5t215.5 -86.5z" />
    <glyph glyph-name="Dcroat" unicode="&#x110;" horiz-adv-x="1722" 
d="M121 0l180 674h-166l43 151h164l180 666h375q379 0 582 -197q161 -161 161 -430q0 -344 -237 -581q-137 -137 -332 -210t-434 -73h-516zM918 674h-418l-133 -494h292q370 0 596 226q181 181 181 448q0 194 -119 313q-144 144 -434 144h-211l-131 -486h417z" />
    <glyph glyph-name="dcroat" unicode="&#x111;" horiz-adv-x="1429" 
d="M881 1294l34 131h369l35 129h192l-34 -129h145l-35 -131h-145l-346 -1294h-193l47 176q-182 -201 -399 -201q-191 0 -313.5 129.5t-122.5 341.5q0 151 54 281.5t150 224.5q181 181 416 181q277 0 402 -259l112 420h-368zM612 143q172 0 310 138q155 162 155 358
q0 141 -90.5 233.5t-232.5 92.5q-167 0 -287 -123q-73 -73 -112.5 -171t-39.5 -210q0 -145 81.5 -231.5t215.5 -86.5z" />
    <glyph glyph-name="Emacron" unicode="&#x112;" horiz-adv-x="1417" 
d="M682 1659l41 153h721l-41 -153h-721zM66 0l401 1491h1075l-47 -178h-879l-127 -473h783l-49 -176h-783l-129 -486h889l-47 -178h-1087z" />
    <glyph glyph-name="emacron" unicode="&#x113;" horiz-adv-x="1282" 
d="M1149 487h-852v-30q0 -144 84 -233t231 -89q176 0 332 125l94 -125q-92 -78 -197 -119t-245 -41q-219 0 -353 131.5t-134 344.5q0 135 55 265t153 228q189 189 441 189q203 0 317.5 -121.5t114.5 -306.5q0 -112 -41 -218zM455 846q-93 -93 -133 -221h673q9 34 9 84
q0 113 -65.5 187.5t-193.5 74.5q-165 0 -290 -125zM502 1305l41 149h696l-41 -149h-696z" />
    <glyph glyph-name="Ebreve" unicode="&#x114;" horiz-adv-x="1417" 
d="M1034 1616q-140 0 -212 67.5t-52 188.5h137q5 -56 41 -82.5t119 -26.5q144 0 213 109h154q-42 -121 -150 -188.5t-250 -67.5zM66 0l401 1491h1075l-47 -178h-879l-127 -473h783l-49 -176h-783l-129 -486h889l-47 -178h-1087z" />
    <glyph glyph-name="ebreve" unicode="&#x115;" horiz-adv-x="1282" 
d="M1149 487h-852v-30q0 -144 84 -233t231 -89q176 0 332 125l94 -125q-92 -78 -197 -119t-245 -41q-219 0 -353 131.5t-134 344.5q0 135 55 265t153 228q189 189 441 189q203 0 317.5 -121.5t114.5 -306.5q0 -112 -41 -218zM455 846q-93 -93 -133 -221h673q9 34 9 84
q0 113 -65.5 187.5t-193.5 74.5q-165 0 -290 -125zM854 1264q-146 0 -218 76t-54 202h137q0 -133 153 -133q146 0 228 133h145q-43 -126 -147.5 -202t-243.5 -76z" />
    <glyph glyph-name="Edotaccent" unicode="&#x116;" horiz-adv-x="1417" 
d="M918 1620l57 207h225l-57 -207h-225zM66 0l401 1491h1075l-47 -178h-879l-127 -473h783l-49 -176h-783l-129 -486h889l-47 -178h-1087z" />
    <glyph glyph-name="edotaccent" unicode="&#x117;" horiz-adv-x="1282" 
d="M1149 487h-852v-30q0 -144 84 -233t231 -89q176 0 332 125l94 -125q-92 -78 -197 -119t-245 -41q-219 0 -353 131.5t-134 344.5q0 135 55 265t153 228q189 189 441 189q203 0 317.5 -121.5t114.5 -306.5q0 -112 -41 -218zM455 846q-93 -93 -133 -221h673q9 34 9 84
q0 113 -65.5 187.5t-193.5 74.5q-165 0 -290 -125zM733 1266l62 223h213l-62 -223h-213z" />
    <glyph glyph-name="Eogonek" unicode="&#x118;" horiz-adv-x="1417" 
d="M66 0l401 1491h1075l-47 -178h-879l-127 -473h783l-49 -176h-783l-129 -486h889l-47 -178h-31q-135 -108 -135 -174q0 -35 30 -50.5t103 -21.5l-26 -104q-16 -2 -45 -2q-228 9 -228 141q0 99 150 211h-905z" />
    <glyph glyph-name="eogonek" unicode="&#x119;" horiz-adv-x="1282" 
d="M944 260l94 -123q-207 -158 -243 -194q-66 -66 -66 -117q0 -35 30.5 -50.5t104.5 -21.5l-26 -104q-16 -2 -47 -2q-228 9 -228 141q0 91 123 193q-1 0 -35.5 -3.5t-54.5 -3.5q-219 0 -353 131.5t-134 344.5q0 135 55 265t153 228q189 189 441 189q203 0 317.5 -121.5
t114.5 -306.5q0 -112 -41 -218h-852v-30q0 -144 84 -233t231 -89q176 0 332 125zM455 846q-93 -93 -133 -221h673q9 34 9 84q0 113 -65.5 187.5t-193.5 74.5q-165 0 -290 -125z" />
    <glyph glyph-name="Ecaron" unicode="&#x11a;" horiz-adv-x="1417" 
d="M1448 1882l-311 -262h-183l-170 262h160l125 -125l197 125h182zM66 0l401 1491h1075l-47 -178h-879l-127 -473h783l-49 -176h-783l-129 -486h889l-47 -178h-1087z" />
    <glyph glyph-name="ecaron" unicode="&#x11b;" horiz-adv-x="1282" 
d="M713 1268l-154 288h150l118 -143l205 143h166l-311 -288h-174zM1149 487h-852v-30q0 -144 84 -233t231 -89q176 0 332 125l94 -125q-92 -78 -197 -119t-245 -41q-219 0 -353 131.5t-134 344.5q0 135 55 265t153 228q189 189 441 189q203 0 317.5 -121.5t114.5 -306.5
q0 -112 -41 -218zM455 846q-93 -93 -133 -221h673q9 34 9 84q0 113 -65.5 187.5t-193.5 74.5q-165 0 -290 -125z" />
    <glyph glyph-name="Gbreve" unicode="&#x11e;" horiz-adv-x="1689" 
d="M1159 1636q-140 0 -212 67.5t-52 188.5h137q5 -56 40.5 -82t119.5 -26q145 0 213 108h154q-42 -121 -150 -188.5t-250 -67.5zM852 -27q-136 0 -256 42.5t-211.5 121.5t-145 200.5t-53.5 270.5q0 178 71.5 343.5t201.5 295.5q127 127 291.5 198t353.5 71q113 0 206 -21.5
t161 -61.5t115.5 -84.5t88.5 -101.5l-149 -121q-75 100 -176 154.5t-263 54.5q-138 0 -260 -52.5t-217 -147.5q-104 -104 -161.5 -239t-57.5 -280q0 -216 131 -339t342 -123q206 0 367 96l108 383h-430l47 174h623l-195 -682q-247 -152 -532 -152z" />
    <glyph glyph-name="gbreve" unicode="&#x11f;" horiz-adv-x="1427" 
d="M524 -344q-155 0 -299.5 48.5t-249.5 135.5l115 135q194 -159 428 -159q191 0 301 110q83 83 131 252l27 98q-93 -93 -191 -141.5t-221 -48.5q-87 0 -166 28t-141 79t-98.5 130.5t-36.5 174.5q0 262 188 450q86 88 199.5 136.5t232.5 48.5q278 0 394 -254l59 229h193
l-250 -938q-36 -133 -78 -214t-105 -144q-79 -79 -183.5 -117.5t-248.5 -38.5zM629 248q180 0 317 137q129 129 129 287q0 122 -88 207.5t-231 85.5q-174 0 -301 -127q-129 -129 -129 -312q0 -133 87 -205.5t216 -72.5zM913 1264q-146 0 -218 76t-54 202h137
q0 -133 154 -133q145 0 227 133h146q-43 -126 -148 -202t-244 -76z" />
    <glyph glyph-name="Gdotaccent" unicode="&#x120;" horiz-adv-x="1689" 
d="M1042 1640l58 207h225l-57 -207h-226zM852 -27q-136 0 -256 42.5t-211.5 121.5t-145 200.5t-53.5 270.5q0 178 71.5 343.5t201.5 295.5q127 127 291.5 198t353.5 71q113 0 206 -21.5t161 -61.5t115.5 -84.5t88.5 -101.5l-149 -121q-75 100 -176 154.5t-263 54.5
q-138 0 -260 -52.5t-217 -147.5q-104 -104 -161.5 -239t-57.5 -280q0 -216 131 -339t342 -123q206 0 367 96l108 383h-430l47 174h623l-195 -682q-247 -152 -532 -152z" />
    <glyph glyph-name="gdotaccent" unicode="&#x121;" horiz-adv-x="1427" 
d="M524 -344q-155 0 -299.5 48.5t-249.5 135.5l115 135q194 -159 428 -159q191 0 301 110q83 83 131 252l27 98q-93 -93 -191 -141.5t-221 -48.5q-87 0 -166 28t-141 79t-98.5 130.5t-36.5 174.5q0 262 188 450q86 88 199.5 136.5t232.5 48.5q278 0 394 -254l59 229h193
l-250 -938q-36 -133 -78 -214t-105 -144q-79 -79 -183.5 -117.5t-248.5 -38.5zM629 248q180 0 317 137q129 129 129 287q0 122 -88 207.5t-231 85.5q-174 0 -301 -127q-129 -129 -129 -312q0 -133 87 -205.5t216 -72.5zM793 1266l61 223h213l-61 -223h-213z" />
    <glyph glyph-name="Gcommaaccent" unicode="&#x122;" horiz-adv-x="1689" 
d="M852 -27q-136 0 -256 42.5t-211.5 121.5t-145 200.5t-53.5 270.5q0 178 71.5 343.5t201.5 295.5q127 127 291.5 198t353.5 71q113 0 206 -21.5t161 -61.5t115.5 -84.5t88.5 -101.5l-149 -121q-75 100 -176 154.5t-263 54.5q-138 0 -260 -52.5t-217 -147.5
q-104 -104 -161.5 -239t-57.5 -280q0 -216 131 -339t342 -123q206 0 367 96l108 383h-430l47 174h623l-195 -682q-247 -152 -532 -152zM506 -539l4 70q146 21 172 133h-96l51 189h209l-43 -162q-32 -117 -102 -169.5t-195 -60.5z" />
    <glyph glyph-name="gcommaaccent" unicode="&#x123;" horiz-adv-x="1427" 
d="M524 -344q-155 0 -299.5 48.5t-249.5 135.5l115 135q194 -159 428 -159q191 0 301 110q83 83 131 252l27 98q-93 -93 -191 -141.5t-221 -48.5q-87 0 -166 28t-141 79t-98.5 130.5t-36.5 174.5q0 262 188 450q86 88 199.5 136.5t232.5 48.5q278 0 394 -254l59 229h193
l-250 -938q-36 -133 -78 -214t-105 -144q-79 -79 -183.5 -117.5t-248.5 -38.5zM629 248q180 0 317 137q129 129 129 287q0 122 -88 207.5t-231 85.5q-174 0 -301 -127q-129 -129 -129 -312q0 -133 87 -205.5t216 -72.5zM1126 1657l-4 -70q-146 -21 -172 -133h97l-52 -188
h-209l43 161q32 116 102.5 169t194.5 61z" />
    <glyph glyph-name="Hbar" unicode="&#x126;" horiz-adv-x="1630" 
d="M203 1087l41 146h153l70 258h197l-70 -258h805l69 258h199l-70 -258h156l-39 -146h-155l-293 -1087h-197l176 651h-805l-176 -651h-198l292 1087h-155zM489 834h805l68 253h-805z" />
    <glyph glyph-name="hbar" unicode="&#x127;" horiz-adv-x="1329" 
d="M240 1294l32 131h150l35 129h192l-35 -129h367l-35 -131h-368l-95 -354q79 89 168 141t201 52q160 0 254 -92.5t94 -247.5q0 -57 -29 -179l-161 -614h-193l166 625q16 62 16 120q0 100 -60.5 156.5t-168.5 56.5q-123 0 -227.5 -93t-145.5 -240l-166 -625h-192l348 1294
h-147z" />
    <glyph glyph-name="Imacron" unicode="&#x12a;" horiz-adv-x="657" 
d="M82 0l399 1491h199l-401 -1491h-197zM268 1659l41 153h721l-41 -153h-721z" />
    <glyph glyph-name="imacron" unicode="&#x12b;" horiz-adv-x="598" 
d="M53 0l299 1108h191l-297 -1108h-193zM154 1305l41 149h696l-41 -149h-696z" />
    <glyph glyph-name="Ibreve" unicode="&#x12c;" horiz-adv-x="657" 
d="M82 0l399 1491h199l-401 -1491h-197zM618 1616q-140 0 -212 67.5t-52 188.5h138q5 -56 40.5 -82.5t118.5 -26.5q144 0 213 109h154q-42 -121 -150 -188.5t-250 -67.5z" />
    <glyph glyph-name="ibreve" unicode="&#x12d;" horiz-adv-x="598" 
d="M53 0l299 1108h191l-297 -1108h-193zM506 1264q-147 0 -219 76.5t-54 201.5h138q0 -133 153 -133q146 0 228 133h145q-43 -126 -147.5 -202t-243.5 -76z" />
    <glyph glyph-name="Iogonek" unicode="&#x12e;" horiz-adv-x="657" 
d="M82 0l399 1491h199l-401 -1491h-25q-135 -108 -135 -174q0 -35 30 -50.5t103 -21.5l-27 -104q-16 -2 -45 -2q-227 9 -227 141q0 99 149 211h-20z" />
    <glyph glyph-name="iogonek" unicode="&#x12f;" horiz-adv-x="598" 
d="M-82 -211q0 99 150 211h-15l299 1108h191l-297 -1108h-27q-135 -108 -135 -174q0 -35 30 -50.5t103 -21.5l-27 -104q-16 -2 -45 -2q-227 9 -227 141zM399 1329l56 201h215l-56 -201h-215z" />
    <glyph glyph-name="Idotaccent" unicode="&#x130;" horiz-adv-x="657" 
d="M82 0l399 1491h199l-401 -1491h-197zM504 1620l57 207h225l-57 -207h-225z" />
    <glyph glyph-name="dotlessi" unicode="&#x131;" horiz-adv-x="598" 
d="M53 0l299 1108h191l-297 -1108h-193z" />
    <glyph glyph-name="Kcommaaccent" unicode="&#x136;" horiz-adv-x="1552" 
d="M66 0l401 1491h197l-226 -846l1010 846h276l-788 -649l412 -842h-222l-348 725l-409 -338l-105 -387h-198zM403 -526l5 69q146 21 172 133h-97l52 189h208l-43 -162q-32 -116 -102 -168.5t-195 -60.5z" />
    <glyph glyph-name="kcommaaccent" unicode="&#x137;" horiz-adv-x="1239" 
d="M223 -537l4 70q146 21 172 133h-96l51 189h209l-43 -162q-32 -117 -102 -169.5t-195 -60.5zM39 0l418 1554h192l-272 -1013l690 567h260l-584 -469l293 -639h-217l-237 516l-271 -217l-80 -299h-192z" />
    <glyph glyph-name="Lacute" unicode="&#x139;" horiz-adv-x="1320" 
d="M543 1620l299 285l184 -84l-305 -201h-178zM66 0l401 1491h197l-351 -1311h824l-50 -180h-1021z" />
    <glyph glyph-name="lacute" unicode="&#x13a;" horiz-adv-x="598" 
d="M518 1663l299 285l184 -84l-305 -201h-178zM53 0l418 1554h193l-418 -1554h-193z" />
    <glyph glyph-name="Lcommaaccent" unicode="&#x13b;" horiz-adv-x="1320" 
d="M66 0l401 1491h197l-351 -1311h824l-50 -180h-1021zM285 -537l4 70q146 21 172 133h-96l51 189h209l-43 -162q-32 -117 -102 -169.5t-195 -60.5z" />
    <glyph glyph-name="lcommaaccent" unicode="&#x13c;" horiz-adv-x="598" 
d="M-109 -537l5 70q146 21 172 133h-97l52 189h208l-43 -162q-32 -117 -102 -169.5t-195 -60.5zM53 0l418 1554h193l-418 -1554h-193z" />
    <glyph glyph-name="Lcaron" unicode="&#x13d;" horiz-adv-x="1320" 
d="M66 0l401 1491h197l-351 -1311h824l-50 -180h-1021zM733 1126l117 367h180v-6l-209 -361h-88z" />
    <glyph glyph-name="lcaron" unicode="&#x13e;" horiz-adv-x="598" 
d="M721 1247l117 367h180v-6l-209 -361h-88zM53 0l418 1554h193l-418 -1554h-193z" />
    <glyph glyph-name="Ldot" unicode="&#x13f;" horiz-adv-x="1345" 
d="M934 680l59 219h215l-59 -219h-215zM68 0l401 1491h197l-351 -1311h824l-49 -180h-1022z" />
    <glyph glyph-name="ldot" unicode="&#x140;" horiz-adv-x="751" 
d="M602 684l55 211h195l-55 -211h-195zM53 0l418 1554h193l-418 -1554h-193z" />
    <glyph glyph-name="Lslash" unicode="&#x141;" horiz-adv-x="1411" 
d="M154 580l49 182l170 47l184 682h197l-166 -621l485 138l-49 -185l-485 -135l-136 -508h824l-49 -180h-1022l168 627z" />
    <glyph glyph-name="lslash" unicode="&#x142;" horiz-adv-x="720" 
d="M125 618l49 185l172 47l191 704h192l-174 -645l176 49l-51 -184l-174 -49l-195 -725h-192l178 666z" />
    <glyph glyph-name="Nacute" unicode="&#x143;" horiz-adv-x="1693" 
d="M1036 1616l299 285l185 -84l-306 -201h-178zM66 0l401 1491h182l576 -1163l313 1163h195l-402 -1491h-160l-591 1192l-320 -1192h-194z" />
    <glyph glyph-name="nacute" unicode="&#x144;" horiz-adv-x="1331" 
d="M756 1268l297 319l186 -86l-309 -233h-174zM39 0l297 1108h192l-45 -168q79 89 168 141t201 52q160 0 254 -92.5t94 -247.5q0 -57 -29 -179l-161 -614h-193l166 625q16 62 16 120q0 100 -60.5 156.5t-168.5 56.5q-123 0 -227.5 -93t-145.5 -240l-166 -625h-192z" />
    <glyph glyph-name="Ncommaaccent" unicode="&#x145;" horiz-adv-x="1693" 
d="M442 -526l4 69q146 21 172 133h-96l51 189h209l-43 -162q-32 -116 -102 -168.5t-195 -60.5zM66 0l401 1491h182l576 -1163l313 1163h195l-402 -1491h-160l-591 1192l-320 -1192h-194z" />
    <glyph glyph-name="ncommaaccent" unicode="&#x146;" horiz-adv-x="1331" 
d="M248 -537l4 70q146 21 172 133h-96l51 189h209l-43 -162q-32 -117 -102 -169.5t-195 -60.5zM39 0l297 1108h192l-45 -168q79 89 168 141t201 52q160 0 254 -92.5t94 -247.5q0 -57 -29 -179l-161 -614h-193l166 625q16 62 16 120q0 100 -60.5 156.5t-168.5 56.5
q-123 0 -227.5 -93t-145.5 -240l-166 -625h-192z" />
    <glyph glyph-name="Ncaron" unicode="&#x147;" horiz-adv-x="1693" 
d="M1548 1878l-311 -262h-182l-170 262h159l125 -125l197 125h182zM66 0l401 1491h182l576 -1163l313 1163h195l-402 -1491h-160l-591 1192l-320 -1192h-194z" />
    <glyph glyph-name="ncaron" unicode="&#x148;" horiz-adv-x="1331" 
d="M719 1268l-154 288h150l119 -143l204 143h166l-311 -288h-174zM39 0l297 1108h192l-45 -168q79 89 168 141t201 52q160 0 254 -92.5t94 -247.5q0 -57 -29 -179l-161 -614h-193l166 625q16 62 16 120q0 100 -60.5 156.5t-168.5 56.5q-123 0 -227.5 -93t-145.5 -240
l-166 -625h-192z" />
    <glyph glyph-name="Omacron" unicode="&#x14c;" horiz-adv-x="1810" 
d="M823 1679l41 154h721l-41 -154h-721zM1063 1516q192 0 343 -85.5t233.5 -233.5t82.5 -329q0 -179 -71 -346t-199 -295q-120 -120 -274.5 -187t-329.5 -67q-142 0 -265.5 50t-209 137t-134.5 207t-49 256q0 177 71 343t198 296q120 120 274.5 187t329.5 67zM864 154
q248 0 436 188q103 103 160.5 239.5t57.5 278.5q0 207 -128 341t-341 134q-251 0 -439 -188q-102 -102 -158.5 -238t-56.5 -278q0 -208 128 -342.5t341 -134.5z" />
    <glyph glyph-name="omacron" unicode="&#x14d;" horiz-adv-x="1384" 
d="M532 1305l41 149h697l-41 -149h-697zM762 1133q230 0 370 -141t140 -359q0 -129 -52 -249.5t-145 -213.5q-195 -195 -454 -195q-227 0 -368.5 140t-141.5 360q0 129 52 249t146 214q94 91 210.5 143t242.5 52zM633 143q166 0 295 129q72 72 110.5 165t38.5 190
q0 158 -88.5 247t-238.5 89q-164 0 -293 -129q-71 -68 -111.5 -163t-40.5 -190q0 -159 89 -248.5t239 -89.5z" />
    <glyph glyph-name="Obreve" unicode="&#x14e;" horiz-adv-x="1810" 
d="M1176 1636q-140 0 -212.5 67.5t-52.5 188.5h138q5 -56 40.5 -82t118.5 -26q145 0 213 108h154q-42 -121 -149.5 -188.5t-249.5 -67.5zM1063 1516q192 0 343 -85.5t233.5 -233.5t82.5 -329q0 -179 -71 -346t-199 -295q-120 -120 -274.5 -187t-329.5 -67q-142 0 -265.5 50
t-209 137t-134.5 207t-49 256q0 177 71 343t198 296q120 120 274.5 187t329.5 67zM864 154q248 0 436 188q103 103 160.5 239.5t57.5 278.5q0 207 -128 341t-341 134q-251 0 -439 -188q-102 -102 -158.5 -238t-56.5 -278q0 -208 128 -342.5t341 -134.5z" />
    <glyph glyph-name="obreve" unicode="&#x14f;" horiz-adv-x="1384" 
d="M762 1133q230 0 370 -141t140 -359q0 -129 -52 -249.5t-145 -213.5q-195 -195 -454 -195q-227 0 -368.5 140t-141.5 360q0 129 52 249t146 214q94 91 210.5 143t242.5 52zM633 143q166 0 295 129q72 72 110.5 165t38.5 190q0 158 -88.5 247t-238.5 89q-164 0 -293 -129
q-71 -68 -111.5 -163t-40.5 -190q0 -159 89 -248.5t239 -89.5zM887 1264q-147 0 -219 76.5t-54 201.5h138q0 -133 153 -133q146 0 228 133h145q-43 -126 -147.5 -202t-243.5 -76z" />
    <glyph glyph-name="Ohungarumlaut" unicode="&#x150;" horiz-adv-x="1810" 
d="M1063 1516q192 0 343 -85.5t233.5 -233.5t82.5 -329q0 -179 -71 -346t-199 -295q-120 -120 -274.5 -187t-329.5 -67q-142 0 -265.5 50t-209 137t-134.5 207t-49 256q0 177 71 343t198 296q120 120 274.5 187t329.5 67zM864 154q248 0 436 188q103 103 160.5 239.5
t57.5 278.5q0 207 -128 341t-341 134q-251 0 -439 -188q-102 -102 -158.5 -238t-56.5 -278q0 -208 128 -342.5t341 -134.5zM868 1640l299 285l181 -84l-306 -201h-174zM1214 1640l299 285l181 -84l-305 -201h-175z" />
    <glyph glyph-name="ohungarumlaut" unicode="&#x151;" horiz-adv-x="1384" 
d="M549 1268l295 319l155 -84l-301 -235h-149zM909 1268l297 319l156 -84l-303 -235h-150zM762 1133q230 0 370 -141t140 -359q0 -129 -52 -249.5t-145 -213.5q-195 -195 -454 -195q-227 0 -368.5 140t-141.5 360q0 129 52 249t146 214q94 91 210.5 143t242.5 52zM633 143
q166 0 295 129q72 72 110.5 165t38.5 190q0 158 -88.5 247t-238.5 89q-164 0 -293 -129q-71 -68 -111.5 -163t-40.5 -190q0 -159 89 -248.5t239 -89.5z" />
    <glyph glyph-name="OE" unicode="&#x152;" horiz-adv-x="2387" 
d="M2124 0h-1194q-385 0 -586 201q-160 160 -160 426q0 343 238 581q136 136 332.5 209.5t435.5 73.5h1323l-47 -178h-848l-127 -473h752l-50 -176h-751l-129 -486h858zM508 324q144 -144 436 -144h172l303 1131h-254q-180 0 -333 -58t-263 -168q-178 -178 -178 -448
q0 -193 117 -313z" />
    <glyph glyph-name="oe" unicode="&#x153;" horiz-adv-x="2236" 
d="M2101 487h-850v-30q0 -148 84.5 -235t235.5 -87q95 0 170 30.5t155 94.5l97 -125q-188 -160 -432 -160q-164 0 -280 75.5t-159 205.5q-88 -126 -217 -203.5t-287 -77.5q-226 0 -366.5 140t-140.5 360q0 129 52 249t146 214q94 91 210.5 143t242.5 52q171 0 286 -82
t158 -217q190 299 504 299q138 0 237.5 -58.5t147 -154t47.5 -215.5q0 -112 -41 -218zM633 143q166 0 295 129q72 72 110.5 165t38.5 190q0 158 -88.5 247t-238.5 89q-164 0 -293 -129q-71 -68 -111.5 -163t-40.5 -190q0 -159 89 -248.5t239 -89.5zM1407 846
q-91 -91 -131 -221h672q10 38 10 84q0 112 -66 187t-194 75q-166 0 -291 -125z" />
    <glyph glyph-name="Racute" unicode="&#x154;" horiz-adv-x="1550" 
d="M1073 0l-282 561h-25h-350l-152 -561h-198l401 1491h539q289 0 428 -139q102 -99 102 -267q0 -188 -133 -327q-126 -126 -402 -178l299 -580h-227zM461 737h387q270 0 399 129q86 86 86 205q0 95 -59 154q-86 86 -279 86h-379zM895 1620l299 285l184 -84l-305 -201h-178z
" />
    <glyph glyph-name="racute" unicode="&#x155;" horiz-adv-x="882" 
d="M541 1268l297 319l186 -86l-309 -233h-174zM39 0l297 1108h192l-73 -277q219 314 508 295l-56 -202h-10q-184 0 -336.5 -130t-214.5 -366l-115 -428h-192z" />
    <glyph glyph-name="Rcommaaccent" unicode="&#x156;" horiz-adv-x="1550" 
d="M1073 0l-282 561h-25h-350l-152 -561h-198l401 1491h539q289 0 428 -139q102 -99 102 -267q0 -188 -133 -327q-126 -126 -402 -178l299 -580h-227zM461 737h387q270 0 399 129q86 86 86 205q0 95 -59 154q-86 86 -279 86h-379zM369 -526l4 69q146 21 172 133h-96l51 189
h209l-43 -162q-32 -116 -102 -168.5t-195 -60.5z" />
    <glyph glyph-name="rcommaaccent" unicode="&#x157;" horiz-adv-x="882" 
d="M-109 -537l5 70q146 21 172 133h-97l52 189h208l-43 -162q-32 -117 -102 -169.5t-195 -60.5zM39 0l297 1108h192l-73 -277q219 314 508 295l-56 -202h-10q-184 0 -336.5 -130t-214.5 -366l-115 -428h-192z" />
    <glyph glyph-name="Rcaron" unicode="&#x158;" horiz-adv-x="1550" 
d="M1407 1882l-311 -262h-183l-170 262h160l125 -125l197 125h182zM1073 0l-282 561h-25h-350l-152 -561h-198l401 1491h539q289 0 428 -139q102 -99 102 -267q0 -188 -133 -327q-126 -126 -402 -178l299 -580h-227zM461 737h387q270 0 399 129q86 86 86 205q0 95 -59 154
q-86 86 -279 86h-379z" />
    <glyph glyph-name="rcaron" unicode="&#x159;" horiz-adv-x="882" 
d="M506 1268l-154 288h150l119 -143l204 143h166l-311 -288h-174zM39 0l297 1108h192l-73 -277q219 314 508 295l-56 -202h-10q-184 0 -336.5 -130t-214.5 -366l-115 -428h-192z" />
    <glyph glyph-name="Sacute" unicode="&#x15a;" horiz-adv-x="1378" 
d="M643 -20q-412 0 -616 280l151 121q95 -116 208 -171.5t269 -55.5q151 0 251 73t100 185q0 80 -64.5 136t-232.5 122q-104 41 -173.5 78.5t-124 85t-79.5 105t-25 130.5q0 166 117 283q165 159 440 159q172 0 307.5 -60t225.5 -165l-142 -131q-164 182 -407 182
q-150 0 -242 -72t-92 -169q0 -83 70.5 -139t246.5 -123q98 -39 165 -76t117.5 -84t74.5 -104.5t24 -131.5q0 -167 -122 -295q-80 -78 -196 -120.5t-251 -42.5zM854 1640l299 285l184 -84l-305 -201h-178z" />
    <glyph glyph-name="sacute" unicode="&#x15b;" horiz-adv-x="1079" 
d="M614 1268l297 319l187 -86l-310 -233h-174zM473 -25q-133 0 -260 49.5t-221 145.5l119 123q168 -162 378 -162q91 0 157.5 48t66.5 122q0 52 -43.5 92t-151.5 80q-163 63 -239 130.5t-76 178.5q0 151 116 249.5t308 98.5q118 0 229.5 -43t185.5 -108l-110 -129
q-158 125 -322 125q-102 0 -159.5 -45.5t-57.5 -114.5q0 -50 45 -88.5t162 -87.5q153 -61 228 -131t75 -174q0 -157 -124 -258t-306 -101z" />
    <glyph glyph-name="Scedilla" unicode="&#x15e;" horiz-adv-x="1378" 
d="M406 -336l-158 78l237 250q-299 47 -458 268l151 121q95 -116 208 -171.5t269 -55.5q151 0 251 73t100 185q0 80 -64.5 136t-232.5 122q-104 41 -173.5 78.5t-124 85t-79.5 105t-25 130.5q0 166 117 283q165 159 440 159q172 0 307.5 -60t225.5 -165l-142 -131
q-164 182 -407 182q-150 0 -242 -72t-92 -169q0 -83 70.5 -139t246.5 -123q98 -39 165 -76t117.5 -84t74.5 -104.5t24 -131.5q0 -167 -122 -295q-80 -78 -196 -120.5t-251 -42.5h-10z" />
    <glyph glyph-name="scedilla" unicode="&#x15f;" horiz-adv-x="1079" 
d="M246 -336l-158 78l238 250q-200 41 -334 178l119 123q168 -162 378 -162q91 0 157.5 48t66.5 122q0 52 -43.5 92t-151.5 80q-163 63 -239 130.5t-76 178.5q0 151 116 249.5t308 98.5q118 0 229.5 -43t185.5 -108l-110 -129q-158 125 -322 125q-102 0 -159.5 -45.5
t-57.5 -114.5q0 -50 45 -88.5t162 -87.5q153 -61 228 -131t75 -174q0 -157 -124 -258t-306 -101h-2z" />
    <glyph glyph-name="Scaron" unicode="&#x160;" horiz-adv-x="1378" 
d="M643 -20q-412 0 -616 280l151 121q95 -116 208 -171.5t269 -55.5q151 0 251 73t100 185q0 80 -64.5 136t-232.5 122q-104 41 -173.5 78.5t-124 85t-79.5 105t-25 130.5q0 166 117 283q165 159 440 159q172 0 307.5 -60t225.5 -165l-142 -131q-164 182 -407 182
q-150 0 -242 -72t-92 -169q0 -83 70.5 -139t246.5 -123q98 -39 165 -76t117.5 -84t74.5 -104.5t24 -131.5q0 -167 -122 -295q-80 -78 -196 -120.5t-251 -42.5zM1368 1903l-311 -263h-183l-169 263h159l125 -125l197 125h182z" />
    <glyph glyph-name="scaron" unicode="&#x161;" horiz-adv-x="1079" 
d="M582 1268l-154 288h150l118 -143l205 143h166l-311 -288h-174zM473 -25q-133 0 -260 49.5t-221 145.5l119 123q168 -162 378 -162q91 0 157.5 48t66.5 122q0 52 -43.5 92t-151.5 80q-163 63 -239 130.5t-76 178.5q0 151 116 249.5t308 98.5q118 0 229.5 -43t185.5 -108
l-110 -129q-158 125 -322 125q-102 0 -159.5 -45.5t-57.5 -114.5q0 -50 45 -88.5t162 -87.5q153 -61 228 -131t75 -174q0 -157 -124 -258t-306 -101z" />
    <glyph glyph-name="Tcommaaccent" unicode="&#x162;" horiz-adv-x="1335" 
d="M414 0l350 1309h-494l49 182h1184l-47 -182h-493l-353 -1309h-196zM252 -537l4 70q146 21 172 133h-96l51 189h209l-43 -162q-32 -117 -102 -169.5t-195 -60.5z" />
    <glyph glyph-name="Tcommaaccent" unicode="&#x21a;" horiz-adv-x="1335" 
d="M414 0l350 1309h-494l49 182h1184l-47 -182h-493l-353 -1309h-196zM252 -537l4 70q146 21 172 133h-96l51 189h209l-43 -162q-32 -117 -102 -169.5t-195 -60.5z" />
    <glyph glyph-name="tcommaaccent" unicode="&#x163;" horiz-adv-x="880" 
d="M94 -537l4 70q146 21 172 133h-96l51 189h209l-43 -162q-32 -117 -102 -169.5t-195 -60.5zM436 -18q-125 0 -198.5 57t-73.5 160q0 42 16 120l168 621h-149l45 168h149l86 326h193l-88 -326h334l-46 -168h-333l-162 -606q-10 -45 -10 -76q0 -106 141 -106q77 0 162 36
l-47 -172q-81 -34 -187 -34z" />
    <glyph glyph-name="tcommaaccent" unicode="&#x21b;" horiz-adv-x="880" 
d="M94 -537l4 70q146 21 172 133h-96l51 189h209l-43 -162q-32 -117 -102 -169.5t-195 -60.5zM436 -18q-125 0 -198.5 57t-73.5 160q0 42 16 120l168 621h-149l45 168h149l86 326h193l-88 -326h334l-46 -168h-333l-162 -606q-10 -45 -10 -76q0 -106 141 -106q77 0 162 36
l-47 -172q-81 -34 -187 -34z" />
    <glyph glyph-name="Tcaron" unicode="&#x164;" horiz-adv-x="1335" 
d="M1364 1882l-311 -262h-183l-170 262h160l125 -125l197 125h182zM414 0l350 1309h-494l49 182h1184l-47 -182h-493l-353 -1309h-196z" />
    <glyph glyph-name="tcaron" unicode="&#x165;" horiz-adv-x="880" 
d="M784 1247l117 367h180v-6l-209 -361h-88zM436 -18q-125 0 -198.5 57t-73.5 160q0 42 16 120l168 621h-149l45 168h149l86 326h193l-88 -326h334l-46 -168h-333l-162 -606q-10 -45 -10 -76q0 -106 141 -106q77 0 162 36l-47 -172q-81 -34 -187 -34z" />
    <glyph glyph-name="Umacron" unicode="&#x16a;" horiz-adv-x="1638" 
d="M735 1655l41 153h721l-41 -153h-721zM748 -23q-259 0 -402 131t-143 351q0 116 30 233l213 799h199l-223 -842q-23 -77 -23 -166q0 -145 94.5 -235t272.5 -90q186 0 315 129q123 123 185 348l229 856h197l-238 -889q-76 -283 -233 -440q-188 -185 -473 -185z" />
    <glyph glyph-name="umacron" unicode="&#x16b;" horiz-adv-x="1327" 
d="M475 -25q-160 0 -254 92.5t-94 247.5q0 59 29 181l163 612h193l-168 -623q-16 -62 -16 -123q0 -100 61 -156t170 -56q122 0 226 93t145 240l168 625h190l-295 -1108h-192l45 170q-83 -92 -171 -143.5t-200 -51.5zM500 1305l41 149h696l-41 -149h-696z" />
    <glyph glyph-name="Ubreve" unicode="&#x16c;" horiz-adv-x="1638" 
d="M1085 1604q-140 0 -212 67.5t-52 188.5h137q5 -56 41 -82.5t119 -26.5q144 0 213 109h154q-42 -121 -150 -188.5t-250 -67.5zM748 -23q-259 0 -402 131t-143 351q0 116 30 233l213 799h199l-223 -842q-23 -77 -23 -166q0 -145 94.5 -235t272.5 -90q186 0 315 129
q123 123 185 348l229 856h197l-238 -889q-76 -283 -233 -440q-188 -185 -473 -185z" />
    <glyph glyph-name="ubreve" unicode="&#x16d;" horiz-adv-x="1327" 
d="M475 -25q-160 0 -254 92.5t-94 247.5q0 59 29 181l163 612h193l-168 -623q-16 -62 -16 -123q0 -100 61 -156t170 -56q122 0 226 93t145 240l168 625h190l-295 -1108h-192l45 170q-83 -92 -171 -143.5t-200 -51.5zM852 1264q-146 0 -218 76t-54 202h137q0 -133 153 -133
q146 0 228 133h145q-43 -126 -147.5 -202t-243.5 -76z" />
    <glyph glyph-name="Uring" unicode="&#x16e;" horiz-adv-x="1638" 
d="M748 -23q-259 0 -402 131t-143 351q0 116 30 233l213 799h199l-223 -842q-23 -77 -23 -166q0 -145 94.5 -235t272.5 -90q186 0 315 129q123 123 185 348l229 856h197l-238 -889q-76 -283 -233 -440q-188 -185 -473 -185zM1161 2007q93 0 154 -54t61 -134
q0 -99 -78 -170.5t-192 -71.5q-93 0 -155 54t-62 134q0 103 77.5 172.5t194.5 69.5zM1114 1663q67 0 114.5 43.5t47.5 103.5q0 49 -33.5 80t-91.5 31q-66 0 -113 -43t-47 -104q0 -51 33.5 -81t89.5 -30z" />
    <glyph glyph-name="uring" unicode="&#x16f;" horiz-adv-x="1329" 
d="M1128 1497q0 -100 -77.5 -175t-182.5 -75q-99 0 -160 58t-61 147q0 100 77.5 175t182.5 75q98 0 159.5 -58.5t61.5 -146.5zM741 1456q0 -56 35 -90.5t94 -34.5q67 0 115.5 48t48.5 112q0 56 -35 91.5t-94 35.5q-67 0 -115.5 -48.5t-48.5 -113.5zM475 -25
q-160 0 -254 92.5t-94 247.5q0 59 29 181l163 612h193l-168 -623q-16 -62 -16 -123q0 -100 61 -156t170 -56q122 0 226 93t145 240l168 625h190l-295 -1108h-192l45 170q-83 -92 -171 -143.5t-200 -51.5z" />
    <glyph glyph-name="Uhungarumlaut" unicode="&#x170;" horiz-adv-x="1638" 
d="M748 -23q-259 0 -402 131t-143 351q0 116 30 233l213 799h199l-223 -842q-23 -77 -23 -166q0 -145 94.5 -235t272.5 -90q186 0 315 129q123 123 185 348l229 856h197l-238 -889q-76 -283 -233 -440q-188 -185 -473 -185zM780 1616l299 285l181 -84l-306 -201h-174z
M1126 1616l299 285l181 -84l-306 -201h-174z" />
    <glyph glyph-name="uhungarumlaut" unicode="&#x171;" horiz-adv-x="1327" 
d="M475 -25q-160 0 -254 92.5t-94 247.5q0 59 29 181l163 612h193l-168 -623q-16 -62 -16 -123q0 -100 61 -156t170 -56q122 0 226 93t145 240l168 625h190l-295 -1108h-192l45 170q-83 -92 -171 -143.5t-200 -51.5zM514 1268l295 319l156 -84l-301 -235h-150zM874 1268
l297 319l156 -84l-303 -235h-150z" />
    <glyph glyph-name="Uogonek" unicode="&#x172;" horiz-adv-x="1638" 
d="M774 -246l-26 -104q-16 -2 -46 -2q-227 9 -227 141q0 95 135 201q-196 32 -301.5 156.5t-105.5 312.5q0 116 30 233l213 799h199l-223 -842q-23 -77 -23 -166q0 -145 94.5 -235t272.5 -90q186 0 315 129q123 123 185 348l229 856h197l-238 -889q-76 -283 -233 -440
q-188 -185 -471 -185h-2q-59 -51 -83.5 -84.5t-23.5 -66.5q0 -35 30 -50.5t103 -21.5z" />
    <glyph glyph-name="uogonek" unicode="&#x173;" horiz-adv-x="1329" 
d="M475 -25q-160 0 -254 92.5t-94 247.5q0 59 29 181l163 612h193l-168 -623q-16 -62 -16 -123q0 -100 61 -156t170 -56q122 0 226 93t145 240l168 625h190l-295 -1108h-24q-135 -108 -135 -174q0 -35 30 -50.5t103 -21.5l-27 -104q-16 -2 -45 -2q-227 9 -227 141
q0 99 149 211h-16l45 170q-83 -92 -171 -143.5t-200 -51.5z" />
    <glyph glyph-name="Wcircumflex" unicode="&#x174;" horiz-adv-x="2336" 
d="M438 -10l-125 1501h205l82 -1200l717 1204h164l75 -1204l725 1200h224l-930 -1501h-176l-82 1159l-705 -1159h-174zM1081 1620l312 262h182l170 -262h-160l-125 127l-196 -127h-183z" />
    <glyph glyph-name="wcircumflex" unicode="&#x175;" horiz-adv-x="1830" 
d="M756 1268l311 288h174l154 -288h-150l-119 143l-204 -143h-166zM293 -8l-80 1116h195l47 -844l508 848h161l58 -848l501 844h197l-680 -1116h-172l-57 837l-510 -837h-168z" />
    <glyph glyph-name="Ycircumflex" unicode="&#x176;" horiz-adv-x="1427" 
d="M453 0l161 598l-358 893h219l275 -727l669 727h248l-864 -922l-152 -569h-198zM618 1616l312 262h182l170 -262h-160l-125 127l-196 -127h-183z" />
    <glyph glyph-name="ycircumflex" unicode="&#x177;" horiz-adv-x="1251" 
d="M387 -2l-188 1110h198l135 -893l562 893h217l-748 -1143q-114 -170 -219 -241.5t-235 -71.5q-131 0 -246 78l104 141q83 -55 162 -55q68 0 127.5 40.5t130.5 141.5zM440 1268l312 288h174l153 -288h-149l-119 143l-205 -143h-166z" />
    <glyph glyph-name="Ydieresis" unicode="&#x178;" horiz-adv-x="1427" 
d="M453 0l161 598l-358 893h219l275 -727l669 727h248l-864 -922l-152 -569h-198zM653 1616l58 207h217l-56 -207h-219zM1063 1616l57 207h217l-55 -207h-219z" />
    <glyph glyph-name="Zacute" unicode="&#x179;" horiz-adv-x="1454" 
d="M-31 0l37 137l1233 1180h-885l47 174h1166l-37 -137l-1233 -1180h924l-47 -174h-1205zM874 1620l300 285l184 -84l-305 -201h-179z" />
    <glyph glyph-name="zacute" unicode="&#x17a;" horiz-adv-x="1191" 
d="M657 1268l297 319l187 -86l-310 -233h-174zM-35 0l35 127l907 821h-661l43 160h928l-35 -127l-906 -819h693l-43 -162h-961z" />
    <glyph glyph-name="Zdotaccent" unicode="&#x17b;" horiz-adv-x="1454" 
d="M858 1620l57 207h226l-58 -207h-225zM-31 0l37 137l1233 1180h-885l47 174h1166l-37 -137l-1233 -1180h924l-47 -174h-1205z" />
    <glyph glyph-name="zdotaccent" unicode="&#x17c;" horiz-adv-x="1191" 
d="M-35 0l35 127l907 821h-661l43 160h928l-35 -127l-906 -819h693l-43 -162h-961zM641 1266l61 223h213l-61 -223h-213z" />
    <glyph glyph-name="Zcaron" unicode="&#x17d;" horiz-adv-x="1454" 
d="M1389 1882l-312 -262h-182l-170 262h160l125 -125l196 125h183zM-31 0l37 137l1233 1180h-885l47 174h1166l-37 -137l-1233 -1180h924l-47 -174h-1205z" />
    <glyph glyph-name="zcaron" unicode="&#x17e;" horiz-adv-x="1191" 
d="M625 1268l-154 288h150l118 -143l205 143h166l-311 -288h-174zM-35 0l35 127l907 821h-661l43 160h928l-35 -127l-906 -819h693l-43 -162h-961z" />
    <glyph glyph-name="uni018F" unicode="&#x18f;" horiz-adv-x="1728" 
d="M188 547q0 142 54 289h1200q2 16 2 49q0 205 -122 326.5t-337 121.5q-244 0 -491 -180l-101 154q282 209 600 209q293 0 470 -172.5t177 -462.5q0 -180 -72.5 -354.5t-201.5 -301.5q-259 -250 -598 -250q-140 0 -251.5 44t-182.5 121.5t-108.5 181t-37.5 225.5zM1217 336
q140 140 196 330h-1014q-14 -46 -14 -127q0 -79 23 -146.5t69.5 -122t126 -85.5t184.5 -31q125 0 236 51t193 131z" />
    <glyph glyph-name="florin" unicode="&#x192;" horiz-adv-x="1155" 
d="M104 -20q-84 0 -147 18l43 158q68 -15 100 -15q124 0 209 191l199 452h-199l45 164h226l108 244q138 319 402 319q122 0 208 -36l-47 -158q-78 29 -155 29t-134.5 -50.5t-105.5 -156.5l-86 -191h309l-45 -164h-336l-223 -508q-71 -160 -161 -228t-210 -68z" />
    <glyph glyph-name="Aringacute" unicode="&#x1fa;" horiz-adv-x="1642" 
d="M-82 0l1020 1425q-70 54 -70 142q0 102 78 172.5t193 70.5q93 0 155 -55t62 -135q0 -72 -43 -131.5t-113 -89.5l252 -1399h-203l-63 385h-780l-273 -385h-215zM528 561h629l-123 713zM1094 1464q66 0 112.5 44t46.5 104q0 49 -32.5 80.5t-90.5 31.5q-66 0 -112.5 -43.5
t-46.5 -103.5q0 -51 33.5 -82t89.5 -31zM1087 1872l295 254l181 -84l-299 -170h-177z" />
    <glyph glyph-name="aringacute" unicode="&#x1fb;" horiz-adv-x="1251" 
d="M391 -25q-145 0 -245.5 83t-100.5 223q0 159 107 266q135 135 385 135q187 0 378 -57l7 24q14 54 14 99q0 206 -283 206q-166 0 -311 -59l-31 160q181 69 375 69q212 0 325 -90.5t113 -253.5q0 -61 -24 -155l-166 -625h-186l43 166q-166 -191 -400 -191zM459 123
q133 0 251 87.5t154 221.5l21 70q-162 45 -332 45q-162 0 -248 -86q-63 -63 -63 -158q0 -82 59 -131t158 -49zM1090 1513q0 -100 -78 -174.5t-183 -74.5q-99 0 -160 57.5t-61 146.5q0 100 77.5 175t182.5 75q98 0 160 -58.5t62 -146.5zM702 1473q0 -56 35 -90.5t94 -34.5
q67 0 115.5 47.5t48.5 111.5q0 56 -35 91.5t-94 35.5q-67 0 -115.5 -48t-48.5 -113zM842 1782l291 276l176 -88l-299 -188h-168z" />
    <glyph glyph-name="AEacute" unicode="&#x1fc;" horiz-adv-x="2267" 
d="M1497 1620l299 285l184 -84l-305 -201h-178zM-82 0l1262 1491h1212l-47 -178h-850l-127 -473h754l-49 -176h-752l-131 -486h860l-47 -178h-1057l105 385h-586l-326 -385h-221zM608 561h488l202 756h-49z" />
    <glyph glyph-name="aeacute" unicode="&#x1fd;" horiz-adv-x="2056" 
d="M1079 1268l297 319l187 -86l-310 -233h-174zM1382 -25q-156 0 -267 64t-167 182q-236 -246 -538 -246q-160 0 -262.5 81.5t-102.5 224.5q0 159 107 266q135 135 385 135q187 0 378 -57l7 24q14 54 14 99q0 206 -283 206q-166 0 -311 -59l-31 160q181 69 375 69
q158 0 259.5 -58t137.5 -165q89 107 205 169.5t248 62.5q102 0 184 -33.5t135 -92t81 -136t28 -166.5q0 -112 -41 -218h-850v-30q0 -148 84.5 -235t235.5 -87q95 0 170 30.5t155 94.5l94 -125q-185 -160 -430 -160zM471 123q233 0 438 217q-12 74 -6 154q-154 53 -350 53
q-162 0 -248 -86q-63 -63 -63 -158q0 -83 60.5 -131.5t168.5 -48.5zM1229 846q-91 -91 -131 -221h671q11 42 11 84q0 112 -66 187t-194 75q-166 0 -291 -125z" />
    <glyph glyph-name="Oslashacute" unicode="&#x1fe;" horiz-adv-x="1810" 
d="M1063 1516q285 0 473 -185l195 170h213l-320 -280q98 -156 98 -353q0 -179 -71 -346t-199 -295q-120 -120 -274.5 -187t-329.5 -67q-286 0 -471 185l-195 -170h-215l322 280q-99 157 -99 355q0 177 71 343t198 296q120 120 274.5 187t329.5 67zM391 629q0 -139 51 -238
l947 821q-132 129 -340 129q-251 0 -441 -190q-104 -104 -160.5 -241.5t-56.5 -280.5zM862 147q250 0 441 191q104 104 161.5 241.5t57.5 280.5q0 129 -52 236l-946 -820q126 -129 338 -129zM1071 1640l299 285l184 -84l-305 -201h-178z" />
    <glyph glyph-name="oslashacute" unicode="&#x1ff;" horiz-adv-x="1384" 
d="M762 1133q220 0 360 -134l140 121h198l-256 -223q68 -120 68 -264q0 -129 -52 -249.5t-145 -213.5q-195 -195 -454 -195q-224 0 -361 131l-139 -118h-199l256 219q-67 113 -67 268q0 129 52 249t146 214q94 91 210.5 143t242.5 52zM754 967q-170 0 -301 -131
q-72 -72 -112 -164.5t-40 -190.5q0 -86 25 -153l659 559q-86 80 -231 80zM1081 627q0 83 -26 151l-656 -561q90 -78 232 -78q168 0 299 131q72 72 111.5 165.5t39.5 191.5zM774 1268l297 319l186 -86l-309 -233h-174z" />
    <glyph glyph-name="Scommaaccent" unicode="&#x218;" horiz-adv-x="1378" 
d="M643 -20q-412 0 -616 280l151 121q95 -116 208 -171.5t269 -55.5q151 0 251 73t100 185q0 80 -64.5 136t-232.5 122q-104 41 -173.5 78.5t-124 85t-79.5 105t-25 130.5q0 166 117 283q165 159 440 159q172 0 307.5 -60t225.5 -165l-142 -131q-164 182 -407 182
q-150 0 -242 -72t-92 -169q0 -83 70.5 -139t246.5 -123q98 -39 165 -76t117.5 -84t74.5 -104.5t24 -131.5q0 -167 -122 -295q-80 -78 -196 -120.5t-251 -42.5zM266 -539l4 70q146 21 172 133h-96l51 189h209l-43 -162q-32 -117 -102 -169.5t-195 -60.5z" />
    <glyph glyph-name="scommaaccent" unicode="&#x219;" horiz-adv-x="1079" 
d="M117 -537l4 70q146 21 172 133h-96l51 189h209l-43 -162q-32 -117 -102 -169.5t-195 -60.5zM473 -25q-133 0 -260 49.5t-221 145.5l119 123q168 -162 378 -162q91 0 157.5 48t66.5 122q0 52 -43.5 92t-151.5 80q-163 63 -239 130.5t-76 178.5q0 151 116 249.5t308 98.5
q118 0 229.5 -43t185.5 -108l-110 -129q-158 125 -322 125q-102 0 -159.5 -45.5t-57.5 -114.5q0 -50 45 -88.5t162 -87.5q153 -61 228 -131t75 -174q0 -157 -124 -258t-306 -101z" />
    <glyph glyph-name="schwa" unicode="&#x259;" horiz-adv-x="1282" 
d="M92 403q0 112 41 218h850q2 6 2 30q0 144 -84 233t-231 89q-171 0 -330 -123l-96 123q92 78 197.5 120t244.5 42q219 0 353.5 -132.5t134.5 -345.5q0 -135 -55 -264.5t-154 -228.5q-189 -189 -439 -189q-206 0 -320 121.5t-114 306.5zM829 262q88 88 129 221h-671
q-8 -24 -8 -82q0 -114 65.5 -189t192.5 -75q167 0 292 125z" />
    <glyph glyph-name="circumflex" unicode="&#x2c6;" horiz-adv-x="1085" 
d="M416 1268l311 288h174l154 -288h-150l-119 143l-204 -143h-166z" />
    <glyph glyph-name="caron" unicode="&#x2c7;" horiz-adv-x="1085" 
d="M643 1268l-154 288h150l119 -143l205 143h165l-311 -288h-174z" />
    <glyph glyph-name="breve" unicode="&#x2d8;" horiz-adv-x="1085" 
d="M745 1264q-146 0 -218 76t-54 202h137q0 -133 154 -133q145 0 227 133h146q-43 -126 -148 -202t-244 -76z" />
    <glyph glyph-name="dotaccent" unicode="&#x2d9;" horiz-adv-x="1085" 
d="M627 1266l61 223h213l-61 -223h-213z" />
    <glyph glyph-name="ring" unicode="&#x2da;" horiz-adv-x="1085" 
d="M1036 1513q0 -100 -77.5 -174.5t-182.5 -74.5q-99 0 -160 57.5t-61 146.5q0 100 77.5 175t182.5 75q98 0 159.5 -58.5t61.5 -146.5zM649 1473q0 -56 35 -90.5t94 -34.5q67 0 115.5 47.5t48.5 111.5q0 56 -35 91.5t-94 35.5q-67 0 -115.5 -48t-48.5 -113z" />
    <glyph glyph-name="ogonek" unicode="&#x2db;" horiz-adv-x="1085" 
d="M512 -246l-27 -104q-16 -2 -45 -2q-227 9 -227 141q0 62 51 120.5t144 121.5l120 -21q-79 -63 -114 -105t-35 -79q0 -35 30 -50.5t103 -21.5z" />
    <glyph glyph-name="tilde" unicode="&#x2dc;" horiz-adv-x="1085" 
d="M1032 1536l115 -35q-55 -126 -110 -179.5t-138 -53.5q-56 0 -156 45q-77 41 -120 41q-41 0 -69 -24t-62 -83l-113 35q56 127 110.5 180.5t137.5 53.5q59 0 153 -46q78 -38 121 -38q42 0 70 23t61 81z" />
    <glyph glyph-name="hungarumlaut" unicode="&#x2dd;" horiz-adv-x="1085" 
d="M360 1268l295 319l156 -84l-301 -235h-150zM721 1268l297 319l156 -84l-304 -235h-149z" />
    <glyph glyph-name="commaaccent" unicode="&#x326;" horiz-adv-x="1085" 
d="M123 -537l4 70q146 21 172 133h-96l51 189h209l-43 -162q-32 -117 -102 -169.5t-195 -60.5z" />
    <glyph glyph-name="uni0384" unicode="&#x384;" horiz-adv-x="1085" 
d="M600 1268l236 338l186 -80l-264 -258h-158z" />
    <glyph glyph-name="uni0385" unicode="&#x385;" horiz-adv-x="1085" 
d="M918 1268l59 215h197l-60 -215h-196zM352 1268l60 215h196l-57 -215h-199zM614 1268l183 381l192 -43l-239 -338h-136z" />
    <glyph glyph-name="uni0386" unicode="&#x386;" horiz-adv-x="1642" 
d="M-82 0l1075 1501h191l268 -1501h-203l-63 385h-780l-273 -385h-215zM528 561h629l-123 713zM274 1104l136 391h225l-236 -391h-125z" />
    <glyph glyph-name="uni0387" unicode="&#x387;" horiz-adv-x="579" 
d="M262 864l66 244h221l-64 -244h-223z" />
    <glyph glyph-name="uni0388" unicode="&#x388;" horiz-adv-x="1443" 
d="M-8 1100l135 391h225l-235 -391h-125zM66 0l401 1491h1075l-47 -178h-879l-127 -473h783l-49 -176h-783l-129 -486h889l-47 -178h-1087z" />
    <glyph glyph-name="uni0389" unicode="&#x389;" horiz-adv-x="1636" 
d="M74 0l401 1491h197l-174 -649h805l174 649h198l-401 -1491h-197l176 659h-804l-177 -659h-198zM-8 1100l135 391h225l-235 -391h-125z" />
    <glyph glyph-name="uni038A" unicode="&#x38a;" horiz-adv-x="657" 
d="M82 0l399 1491h199l-401 -1491h-197zM-8 1100l135 391h225l-235 -391h-125z" />
    <glyph glyph-name="uni038C" unicode="&#x38c;" horiz-adv-x="1816" 
d="M-12 1110l135 391h225l-235 -391h-125zM1063 1516q192 0 343 -85.5t233.5 -233.5t82.5 -329q0 -179 -71 -346t-199 -295q-120 -120 -274.5 -187t-329.5 -67q-142 0 -265.5 50t-209 137t-134.5 207t-49 256q0 177 71 343t198 296q120 120 274.5 187t329.5 67zM864 154
q248 0 436 188q103 103 160.5 239.5t57.5 278.5q0 207 -128 341t-341 134q-251 0 -439 -188q-102 -102 -158.5 -238t-56.5 -278q0 -208 128 -342.5t341 -134.5z" />
    <glyph glyph-name="uni038E" unicode="&#x38e;" horiz-adv-x="1427" 
d="M453 0l161 598l-358 893h219l275 -727l669 727h248l-864 -922l-152 -569h-198zM-156 1100l136 391h225l-236 -391h-125z" />
    <glyph glyph-name="uni038F" unicode="&#x38f;" horiz-adv-x="1861" 
d="M451 698q0 -154 60.5 -281t186.5 -253l-45 -164h-626l47 172l426 -2q-124 129 -188 264.5t-64 294.5q0 165 64 311t175.5 250.5t268.5 165t336 60.5q309 0 489 -164t180 -434q0 -222 -130.5 -405.5t-383.5 -342.5l412 2l-47 -172h-660l45 164q129 75 226.5 152.5
t173.5 167t116.5 192.5t42.5 215q5 197 -124.5 320.5t-354.5 123.5q-176 0 -318.5 -78.5t-225 -224.5t-82.5 -334zM-16 1110l135 391h225l-235 -391h-125z" />
    <glyph glyph-name="uni0390" unicode="&#x390;" horiz-adv-x="649" 
d="M676 1268l59 215h197l-60 -215h-196zM111 1268l59 215h197l-58 -215h-198zM373 1268l182 381l193 -43l-240 -338h-135zM494 158l-43 -158q-49 -14 -113 -14q-115 0 -173.5 54.5t-58.5 154.5q0 81 29 172l197 741h192l-209 -778q-14 -77 -14 -92q0 -88 113 -88q49 0 80 8z
" />
    <glyph glyph-name="uni0391" unicode="&#x391;" horiz-adv-x="1642" 
d="M-82 0l1075 1501h191l268 -1501h-203l-63 385h-780l-273 -385h-215zM528 561h629l-123 713z" />
    <glyph glyph-name="uni0392" unicode="&#x392;" horiz-adv-x="1548" 
d="M66 0l401 1491h563q225 0 347 -94.5t122 -255.5q0 -154 -99.5 -254.5t-262.5 -134.5q254 -88 254 -308q0 -198 -169.5 -321t-459.5 -123h-696zM307 176h479q187 0 296.5 74.5t109.5 202.5q0 103 -86.5 159t-231.5 56h-436zM485 838h408q189 0 298 73.5t109 200.5
q0 98 -74.5 150.5t-213.5 52.5h-400z" />
    <glyph glyph-name="uni0393" unicode="&#x393;" horiz-adv-x="1323" 
d="M66 0l401 1491h1020l-49 -180h-822l-352 -1311h-198z" />
    <glyph glyph-name="uni0394" unicode="&#x394;" horiz-adv-x="1652" 
d="M1188 1501l270 -1356l-53 -145h-1436l21 145l997 1356h201zM1038 1272l-794 -1094h1001z" />
    <glyph glyph-name="uni0395" unicode="&#x395;" horiz-adv-x="1417" 
d="M66 0l401 1491h1075l-47 -178h-879l-127 -473h783l-49 -176h-783l-129 -486h889l-47 -178h-1087z" />
    <glyph glyph-name="uni0396" unicode="&#x396;" horiz-adv-x="1454" 
d="M-31 0l37 137l1233 1180h-885l47 174h1166l-37 -137l-1233 -1180h924l-47 -174h-1205z" />
    <glyph glyph-name="uni0397" unicode="&#x397;" horiz-adv-x="1630" 
d="M66 0l401 1491h197l-175 -649h805l174 649h199l-401 -1491h-197l176 659h-805l-176 -659h-198z" />
    <glyph glyph-name="uni0398" unicode="&#x398;" horiz-adv-x="1816" 
d="M1348 842l-48 -183h-733l47 183h734zM391 631q0 -207 129.5 -343t343.5 -136q251 0 441 190q103 103 160 239t57 279q0 207 -129.5 342t-343.5 135q-251 0 -441 -190q-103 -103 -160 -239t-57 -277zM190 623q0 177 71 343t198 296q120 120 274.5 187t329.5 67
q192 0 343 -85.5t233.5 -233.5t82.5 -329q0 -179 -71 -346t-199 -295q-120 -120 -274.5 -187t-329.5 -67q-142 0 -265.5 50t-209 137t-134.5 207t-49 256z" />
    <glyph glyph-name="uni0399" unicode="&#x399;" horiz-adv-x="657" 
d="M82 0l399 1491h199l-401 -1491h-197z" />
    <glyph glyph-name="uni039A" unicode="&#x39a;" horiz-adv-x="1552" 
d="M66 0l401 1491h197l-226 -846l1010 846h276l-788 -649l412 -842h-222l-348 725l-409 -338l-105 -387h-198z" />
    <glyph glyph-name="uni039B" unicode="&#x39b;" horiz-adv-x="1601" 
d="M1153 1501l250 -1501h-209l-193 1231l-854 -1231h-223l1053 1501h176z" />
    <glyph glyph-name="uni039C" unicode="&#x39c;" horiz-adv-x="1865" 
d="M66 0l401 1491h188l303 -780l723 780h222l-402 -1491h-196l311 1167l-725 -770h-8l-312 766l-313 -1163h-192z" />
    <glyph glyph-name="uni039D" unicode="&#x39d;" horiz-adv-x="1693" 
d="M66 0l401 1491h182l576 -1163l313 1163h195l-402 -1491h-160l-591 1192l-320 -1192h-194z" />
    <glyph glyph-name="uni039E" unicode="&#x39e;" horiz-adv-x="1384" 
d="M1171 182l-49 -182h-1155l49 182h1155zM330 1309l49 182h1132l-49 -182h-1132zM1280 842l-47 -180h-1020l49 180h1018z" />
    <glyph glyph-name="uni039F" unicode="&#x39f;" horiz-adv-x="1816" 
d="M1063 1516q192 0 343 -85.5t233.5 -233.5t82.5 -329q0 -179 -71 -346t-199 -295q-120 -120 -274.5 -187t-329.5 -67q-142 0 -265.5 50t-209 137t-134.5 207t-49 256q0 177 71 343t198 296q120 120 274.5 187t329.5 67zM864 154q248 0 436 188q103 103 160.5 239.5
t57.5 278.5q0 207 -128 341t-341 134q-251 0 -439 -188q-102 -102 -158.5 -238t-56.5 -278q0 -208 128 -342.5t341 -134.5z" />
    <glyph glyph-name="uni03A0" unicode="&#x3a0;" horiz-adv-x="1628" 
d="M66 0l401 1491h1196l-399 -1491h-199l352 1311h-801l-352 -1311h-198z" />
    <glyph glyph-name="uni03A1" unicode="&#x3a1;" horiz-adv-x="1445" 
d="M66 0l401 1491h467q296 0 434 -141q109 -106 109 -283q0 -212 -142 -354q-197 -197 -592 -197h-340l-139 -516h-198zM1208 1223q-88 88 -280 88h-312l-167 -621h305q295 0 428 133q90 90 90 232q0 104 -64 168z" />
    <glyph glyph-name="uni03A3" unicode="&#x3a3;" horiz-adv-x="1431" 
d="M1022 735l-684 -559h883l-50 -176h-1181l39 147l749 613l-424 583l41 148h1151l-47 -176h-891z" />
    <glyph glyph-name="uni03A4" unicode="&#x3a4;" horiz-adv-x="1335" 
d="M414 0l350 1309h-494l49 182h1184l-47 -182h-493l-353 -1309h-196z" />
    <glyph glyph-name="uni03A5" unicode="&#x3a5;" horiz-adv-x="1427" 
d="M453 0l161 598l-358 893h219l275 -727l669 727h248l-864 -922l-152 -569h-198z" />
    <glyph glyph-name="uni03A6" unicode="&#x3a6;" horiz-adv-x="1984" 
d="M1151 1518h199l-45 -170q278 -25 442 -166.5t164 -360.5q0 -198 -114.5 -350t-325 -236.5t-488.5 -87.5l-47 -174h-199l47 179q-279 25 -442.5 166t-163.5 362q0 146 66.5 269.5t186.5 211.5t293.5 138.5t381.5 52.5zM381 690q0 -159 119.5 -257t333.5 -111l231 858
q-156 -2 -284.5 -39.5t-216 -102t-135.5 -154t-48 -194.5zM1708 811q0 159 -119.5 256.5t-335.5 110.5l-229 -859q315 4 497 138.5t187 353.5z" />
    <glyph glyph-name="uni03A7" unicode="&#x3a7;" horiz-adv-x="1501" 
d="M-63 0l755 772l-364 719h219l289 -586l563 586h252l-729 -746l376 -745h-219l-301 612l-588 -612h-253z" />
    <glyph glyph-name="uni03A8" unicode="&#x3a8;" horiz-adv-x="1841" 
d="M1927 1491l-155 -573q-65 -238 -195 -371q-106 -106 -255 -150.5t-355 -44.5h-2l-95 -352h-196l94 356q-237 21 -370.5 132t-133.5 313q0 132 47 284l109 406h196l-116 -430q-41 -157 -41 -240q0 -142 90.5 -207.5t271.5 -76.5l256 954h193l-258 -956h2q293 0 424 131
q96 96 147 284l146 541h196z" />
    <glyph glyph-name="uni03A9" unicode="&#x3a9;" horiz-adv-x="1861" 
d="M451 698q0 -154 60.5 -281t186.5 -253l-45 -164h-626l47 172l426 -2q-124 129 -188 264.5t-64 294.5q0 165 64 311t175.5 250.5t268.5 165t336 60.5q309 0 489 -164t180 -434q0 -222 -130.5 -405.5t-383.5 -342.5l412 2l-47 -172h-660l45 164q129 75 226.5 152.5
t173.5 167t116.5 192.5t42.5 215q5 197 -124.5 320.5t-354.5 123.5q-176 0 -318.5 -78.5t-225 -224.5t-82.5 -334z" />
    <glyph glyph-name="uni03AA" unicode="&#x3aa;" horiz-adv-x="657" 
d="M82 0l399 1491h199l-401 -1491h-197zM301 1620l57 207h217l-55 -207h-219zM711 1620l57 207h217l-55 -207h-219z" />
    <glyph glyph-name="uni03AB" unicode="&#x3ab;" horiz-adv-x="1427" 
d="M453 0l161 598l-358 893h219l275 -727l669 727h248l-864 -922l-152 -569h-198zM653 1616l58 207h217l-56 -207h-219zM1063 1616l57 207h217l-55 -207h-219z" />
    <glyph glyph-name="uni03AC" unicode="&#x3ac;" horiz-adv-x="1515" 
d="M782 1268l236 338l186 -80l-264 -258h-158zM1391 1108l-209 -778q-15 -62 -15 -92q0 -88 113 -88q49 0 80 8l-43 -158q-49 -14 -113 -14q-103 0 -161 48.5t-64 135.5q-185 -195 -424 -195q-193 0 -317.5 130t-124.5 341q0 150 54.5 280.5t149.5 225.5q181 181 416 181
q279 0 404 -259l61 234h193zM612 143q170 0 308 138q155 155 155 358q0 141 -90 233.5t-231 92.5q-166 0 -289 -123q-72 -72 -111 -170.5t-39 -210.5q0 -145 81.5 -231.5t215.5 -86.5z" />
    <glyph glyph-name="uni03AD" unicode="&#x3ad;" horiz-adv-x="1230" 
d="M682 1268l236 338l186 -80l-264 -258h-158zM377 575q-152 78 -152 228q0 136 130.5 233t353.5 97q290 0 493 -172l-112 -130q-168 142 -388 142q-137 0 -211.5 -49.5t-74.5 -130.5q0 -73 57 -115.5t176 -42.5h240l-39 -150h-277q-146 0 -222.5 -48t-76.5 -134
q0 -77 72 -122.5t211 -45.5q209 0 420 103l63 -148q-219 -115 -493 -115q-227 0 -349 85t-122 219q0 117 83.5 193.5t217.5 102.5z" />
    <glyph glyph-name="uni03AE" unicode="&#x3ae;" horiz-adv-x="1329" 
d="M791 1268l235 338l186 -80l-264 -258h-157zM39 0l297 1108h192l-45 -168q84 91 171.5 142t199.5 51q160 0 254 -92.5t94 -247.5q0 -65 -31 -179l-253 -954h-193l260 965q16 78 16 120q0 100 -61 156.5t-170 56.5q-123 0 -227.5 -93t-145.5 -240l-166 -625h-192z" />
    <glyph glyph-name="uni03AF" unicode="&#x3af;" horiz-adv-x="649" 
d="M373 1268l235 338l187 -80l-265 -258h-157zM494 158l-43 -158q-49 -14 -113 -14q-115 0 -173.5 54.5t-58.5 154.5q0 81 29 172l197 741h192l-209 -778q-14 -77 -14 -92q0 -88 113 -88q49 0 80 8z" />
    <glyph glyph-name="uni03B0" unicode="&#x3b0;" horiz-adv-x="1331" 
d="M1049 1268l59 215h197l-60 -215h-196zM483 1268l60 215h196l-57 -215h-199zM745 1268l183 381l192 -43l-239 -338h-136zM168 541l151 567h193l-160 -594q-22 -90 -22 -158q0 -105 62.5 -159t185.5 -54q77 0 135.5 22t111.5 75q80 80 123 241l168 627h193l-176 -657
q-55 -209 -168 -322q-84 -81 -181.5 -117.5t-220.5 -36.5q-195 0 -310.5 95t-115.5 270q0 104 31 201z" />
    <glyph glyph-name="uni03B1" unicode="&#x3b1;" horiz-adv-x="1515" 
d="M1391 1108l-209 -778q-15 -62 -15 -92q0 -88 113 -88q49 0 80 8l-43 -158q-49 -14 -113 -14q-103 0 -161 48.5t-64 135.5q-185 -195 -424 -195q-193 0 -317.5 130t-124.5 341q0 150 54.5 280.5t149.5 225.5q181 181 416 181q279 0 404 -259l61 234h193zM612 143
q170 0 308 138q155 155 155 358q0 141 -90 233.5t-231 92.5q-166 0 -289 -123q-72 -72 -111 -170.5t-39 -210.5q0 -145 81.5 -231.5t215.5 -86.5z" />
    <glyph glyph-name="uni03B2" unicode="&#x3b2;" horiz-adv-x="1423" 
d="M-51 -340l370 1387q64 234 193 366q159 156 412 156q210 0 332 -109t122 -278q0 -164 -108 -275.5t-299 -148.5q135 -45 209.5 -131t74.5 -215q0 -89 -37 -169t-102 -139t-159 -94t-203 -35q-173 0 -287 69.5t-172 188.5l-154 -573h-192zM637 700h-219l-35 -127
q-16 -82 -16 -114q0 -138 102 -227t268 -89q147 0 235.5 81t88.5 202q0 123 -106.5 198.5t-317.5 75.5zM506 1026l-49 -178h252q225 0 350 85.5t125 235.5q0 106 -70.5 171t-195.5 65q-162 0 -269 -107q-90 -96 -143 -272z" />
    <glyph glyph-name="uni03B3" unicode="&#x3b3;" horiz-adv-x="1241" 
d="M459 -340h-193l96 365l-165 1083h200l111 -883l579 883h218l-750 -1088z" />
    <glyph glyph-name="uni03B4" unicode="&#x3b4;" horiz-adv-x="1370" 
d="M735 1397l248 -279q92 -103 146.5 -184t88 -178.5t33.5 -204.5q0 -116 -44.5 -221t-122 -183.5t-190 -125t-241.5 -46.5q-127 0 -231 41t-170 111t-101.5 159.5t-35.5 188.5q0 477 630 641l-262 297l39 141h844l-43 -161zM1057 545q0 119 -47.5 221.5t-153.5 222.5
q-285 -71 -417 -195.5t-132 -312.5q0 -145 95 -242.5t251 -97.5q175 0 289.5 117t114.5 287z" />
    <glyph glyph-name="uni03B5" unicode="&#x3b5;" horiz-adv-x="1230" 
d="M377 575q-152 78 -152 228q0 136 130.5 233t353.5 97q290 0 493 -172l-112 -130q-168 142 -388 142q-137 0 -211.5 -49.5t-74.5 -130.5q0 -73 57 -115.5t176 -42.5h240l-39 -150h-277q-146 0 -222.5 -48t-76.5 -134q0 -77 72 -122.5t211 -45.5q209 0 420 103l63 -148
q-219 -115 -493 -115q-227 0 -349 85t-122 219q0 117 83.5 193.5t217.5 102.5z" />
    <glyph glyph-name="uni03B6" unicode="&#x3b6;" horiz-adv-x="1181" 
d="M1337 1405l-704 -555q-192 -150 -262 -235.5t-70 -174.5q0 -94 69 -150t242 -87l377 -74l-106 -401h-183l72 270l-235 45q-229 43 -334 136.5t-105 242.5q0 97 45 182.5t132.5 170.5t248.5 208l527 408h-600l43 163h880z" />
    <glyph glyph-name="uni03B7" unicode="&#x3b7;" horiz-adv-x="1329" 
d="M39 0l297 1108h192l-45 -168q84 91 171.5 142t199.5 51q160 0 254 -92.5t94 -247.5q0 -65 -31 -179l-253 -954h-193l260 965q16 78 16 120q0 100 -61 156.5t-170 56.5q-123 0 -227.5 -93t-145.5 -240l-166 -625h-192z" />
    <glyph glyph-name="uni03B8" unicode="&#x3b8;" horiz-adv-x="1429" 
d="M1368 1004q0 -221 -83.5 -456t-237.5 -386q-189 -189 -431 -189q-215 0 -329.5 147t-114.5 412q0 220 85 456t237 388q189 189 432 189q213 0 327.5 -147.5t114.5 -413.5zM360 530q0 -177 66 -284t201 -107q155 0 286 131q152 152 224 422h-764q-13 -93 -13 -162z
M627 1268q-148 -148 -221 -416h763q13 86 13 156q0 178 -66.5 283.5t-200.5 105.5q-159 0 -288 -129z" />
    <glyph glyph-name="uni03B9" unicode="&#x3b9;" horiz-adv-x="649" 
d="M494 158l-43 -158q-49 -14 -113 -14q-115 0 -173.5 54.5t-58.5 154.5q0 81 29 172l197 741h192l-209 -778q-14 -77 -14 -92q0 -88 113 -88q49 0 80 8z" />
    <glyph glyph-name="uni03BA" unicode="&#x3ba;" horiz-adv-x="1253" 
d="M528 1108l-157 -584l706 584h262l-596 -483l291 -625h-211l-235 506l-283 -227l-74 -279h-192l297 1108h192z" />
    <glyph glyph-name="uni03BB" unicode="&#x3bb;" horiz-adv-x="1280" 
d="M868 0l-112 901l-606 -901h-216l785 1135l-4 41q-20 140 -62 182q-39 39 -110 39q-67 0 -129 -21l32 166q70 21 150 21q125 0 195 -70q43 -43 68 -113.5t44 -197.5l164 -1182h-199z" />
    <glyph glyph-name="uni03BC" unicode="&#x3bc;" horiz-adv-x="1437" 
d="M137 -340h-188l387 1448h192l-155 -576q-21 -74 -21 -145q0 -113 64 -176.5t180 -63.5q124 0 216 77t130 218l178 666h193l-209 -778q-14 -54 -14 -92q0 -88 110 -88q49 0 80 8l-43 -158q-46 -14 -113 -14q-97 0 -153 42.5t-68 121.5q-124 -170 -325 -170q-120 0 -203 59
t-115 174h-4q-14 -176 -55 -317z" />
    <glyph glyph-name="uni03BD" unicode="&#x3bd;" horiz-adv-x="1236" 
d="M367 -8l-170 1116h200l111 -885l579 885h218l-766 -1116h-172z" />
    <glyph glyph-name="uni03BE" unicode="&#x3be;" horiz-adv-x="1181" 
d="M621 197l356 -70l-107 -399h-182l72 270l-195 35q-229 44 -347 135t-118 254q0 157 109.5 258.5t314.5 136.5q-178 112 -178 307q0 89 38 170t105 142t166.5 97t216.5 36q290 0 480 -203l-127 -133q-158 166 -357 166q-152 0 -238.5 -82.5t-86.5 -202.5q0 -128 84.5 -192
t246.5 -64h150l-45 -162h-258q-196 0 -307 -66.5t-111 -193.5q0 -97 77.5 -153t240.5 -86z" />
    <glyph glyph-name="uni03BF" unicode="&#x3bf;" horiz-adv-x="1384" 
d="M762 1133q230 0 370 -141t140 -359q0 -129 -52 -249.5t-145 -213.5q-195 -195 -454 -195q-227 0 -368.5 140t-141.5 360q0 129 52 249t146 214q94 91 210.5 143t242.5 52zM633 143q166 0 295 129q72 72 110.5 165t38.5 190q0 158 -88.5 247t-238.5 89q-164 0 -293 -129
q-71 -68 -111.5 -163t-40.5 -190q0 -159 89 -248.5t239 -89.5z" />
    <glyph glyph-name="uni03C0" unicode="&#x3c0;" horiz-adv-x="1511" 
d="M1311 158l-43 -158q-49 -14 -113 -14q-115 0 -173 54.5t-58 154.5q0 84 28 172l150 569h-516l-250 -936h-193l250 936h-215l47 172h1325l-47 -172h-209l-161 -606q-15 -82 -15 -92q0 -88 113 -88q49 0 80 8z" />
    <glyph glyph-name="uni03C1" unicode="&#x3c1;" horiz-adv-x="1404" 
d="M-76 -340l250 938q64 236 191 363q172 172 426 172q221 0 360 -133t139 -357q0 -139 -55 -267.5t-148 -221.5q-179 -179 -415 -179q-153 0 -252 71t-152 187l-151 -573h-193zM655 143q165 0 289 121q72 72 112 171t40 202q0 153 -84.5 240.5t-227.5 87.5
q-163 0 -284 -121q-73 -73 -115.5 -178t-42.5 -201q0 -143 86.5 -232.5t226.5 -89.5z" />
    <glyph glyph-name="uni03C2" unicode="&#x3c2;" horiz-adv-x="1210" 
d="M662 188l307 -59l-107 -401h-182l72 270l-183 35q-454 91 -454 473q0 128 48 242t136 202q183 183 438 183q299 0 463 -248l-151 -109q-124 187 -318 187q-167 0 -285 -121q-137 -137 -137 -324q0 -139 85.5 -216.5t267.5 -113.5z" />
    <glyph glyph-name="uni03C3" unicode="&#x3c3;" horiz-adv-x="1462" 
d="M1260 586q0 -239 -177 -422q-189 -189 -465 -189q-229 0 -368 138.5t-139 357.5q0 127 48 241.5t136 202.5q193 193 498 193h696l-45 -168l-357 2q80 -57 126.5 -152t46.5 -204zM631 143q182 0 305 129q135 135 135 330q0 158 -86 247t-229 89q-185 0 -316 -131
q-62 -64 -98.5 -150t-36.5 -180q0 -159 88 -246.5t238 -87.5z" />
    <glyph glyph-name="uni03C4" unicode="&#x3c4;" horiz-adv-x="1214" 
d="M1276 1108l-47 -172h-441l-145 -545q-22 -74 -22 -129q0 -119 153 -119q57 0 156 21l-41 -160q-86 -22 -170 -22q-142 0 -217.5 62.5t-75.5 178.5q0 66 31 180l139 533h-430l47 172h1063z" />
    <glyph glyph-name="uni03C5" unicode="&#x3c5;" horiz-adv-x="1331" 
d="M168 541l151 567h193l-160 -594q-22 -90 -22 -158q0 -105 62.5 -159t185.5 -54q77 0 135.5 22t111.5 75q80 80 123 241l168 627h193l-176 -657q-55 -209 -168 -322q-84 -81 -181.5 -117.5t-220.5 -36.5q-195 0 -310.5 95t-115.5 270q0 104 31 201z" />
    <glyph glyph-name="uni03C6" unicode="&#x3c6;" horiz-adv-x="1783" 
d="M1667 602q0 -225 -162 -381q-106 -109 -272.5 -168t-374.5 -59h-20l-90 -334h-191l92 344q-251 35 -391.5 169t-140.5 333q0 224 159 383q107 107 275 166t375 59h22l117 440h190l-120 -450q249 -32 390.5 -168t141.5 -334zM309 510q0 -140 100 -233t285 -113l211 784h-8
q-311 0 -473 -162q-115 -115 -115 -276zM1473 598q0 140 -99.5 232t-286.5 112l-208 -782h8q152 0 273 42.5t198 119.5q115 115 115 276z" />
    <glyph glyph-name="uni03C7" unicode="&#x3c7;" horiz-adv-x="1275" 
d="M438 1108l193 -547l459 547h239l-622 -705l288 -743h-207l-225 616l-528 -616h-240l694 776l-260 672h209z" />
    <glyph glyph-name="uni03C8" unicode="&#x3c8;" horiz-adv-x="1740" 
d="M1718 1108l-157 -596q-31 -109 -73.5 -189.5t-107.5 -144.5q-184 -184 -557 -184h-12l-88 -334h-191l91 340q-103 10 -187 41.5t-146.5 83.5t-97 128t-34.5 171q0 98 35 223l122 461h191l-133 -504q-23 -85 -23 -160q0 -249 320 -276l372 1386h189l-375 -1390h2
q135 0 227 31t160 98q85 85 137 268l146 547h190z" />
    <glyph glyph-name="uni03C9" unicode="&#x3c9;" horiz-adv-x="1904" 
d="M862 571l86 324h189l-80 -307q-27 -99 -27 -182q0 -115 55.5 -187t171.5 -72q137 0 229.5 131t92.5 347q0 247 -133 483h203q53 -101 88 -231t35 -256q0 -150 -42 -273.5t-113 -204t-165 -124.5t-199 -44q-159 0 -246.5 82t-107.5 224q-69 -142 -175.5 -224t-242.5 -82
q-175 0 -273.5 115.5t-98.5 298.5q0 196 103 385t267 334h238q-119 -101 -207 -207.5t-146.5 -237t-58.5 -255.5q0 -121 52.5 -191t154.5 -70q241 0 350 424z" />
    <glyph glyph-name="uni03CA" unicode="&#x3ca;" horiz-adv-x="649" 
d="M174 1268l59 217h213l-59 -217h-213zM565 1268l60 217h213l-60 -217h-213zM494 158l-43 -158q-49 -14 -113 -14q-115 0 -173.5 54.5t-58.5 154.5q0 81 29 172l197 741h192l-209 -778q-14 -77 -14 -92q0 -88 113 -88q49 0 80 8z" />
    <glyph glyph-name="uni03CB" unicode="&#x3cb;" horiz-adv-x="1331" 
d="M545 1268l59 217h213l-59 -217h-213zM936 1268l59 217h213l-59 -217h-213zM168 541l151 567h193l-160 -594q-22 -90 -22 -158q0 -105 62.5 -159t185.5 -54q77 0 135.5 22t111.5 75q80 80 123 241l168 627h193l-176 -657q-55 -209 -168 -322q-84 -81 -181.5 -117.5
t-220.5 -36.5q-195 0 -310.5 95t-115.5 270q0 104 31 201z" />
    <glyph glyph-name="uni03CC" unicode="&#x3cc;" horiz-adv-x="1384" 
d="M768 1268l236 338l186 -80l-264 -258h-158zM762 1133q230 0 370 -141t140 -359q0 -129 -52 -249.5t-145 -213.5q-195 -195 -454 -195q-227 0 -368.5 140t-141.5 360q0 129 52 249t146 214q94 91 210.5 143t242.5 52zM633 143q166 0 295 129q72 72 110.5 165t38.5 190
q0 158 -88.5 247t-238.5 89q-164 0 -293 -129q-71 -68 -111.5 -163t-40.5 -190q0 -159 89 -248.5t239 -89.5z" />
    <glyph glyph-name="uni03CD" unicode="&#x3cd;" horiz-adv-x="1331" 
d="M745 1268l236 338l186 -80l-264 -258h-158zM168 541l151 567h193l-160 -594q-22 -90 -22 -158q0 -105 62.5 -159t185.5 -54q77 0 135.5 22t111.5 75q80 80 123 241l168 627h193l-176 -657q-55 -209 -168 -322q-84 -81 -181.5 -117.5t-220.5 -36.5q-195 0 -310.5 95
t-115.5 270q0 104 31 201z" />
    <glyph glyph-name="uni03CE" unicode="&#x3ce;" horiz-adv-x="1904" 
d="M1038 1268l236 338l186 -80l-264 -258h-158zM862 571l86 324h189l-80 -307q-27 -99 -27 -182q0 -115 55.5 -187t171.5 -72q137 0 229.5 131t92.5 347q0 247 -133 483h203q53 -101 88 -231t35 -256q0 -150 -42 -273.5t-113 -204t-165 -124.5t-199 -44q-159 0 -246.5 82
t-107.5 224q-69 -142 -175.5 -224t-242.5 -82q-175 0 -273.5 115.5t-98.5 298.5q0 196 103 385t267 334h238q-119 -101 -207 -207.5t-146.5 -237t-58.5 -255.5q0 -121 52.5 -191t154.5 -70q241 0 350 424z" />
    <glyph glyph-name="uni0400" unicode="&#x400;" horiz-adv-x="1417" 
d="M936 1620l-199 201l191 84l145 -285h-137zM66 0l401 1491h1075l-47 -178h-879l-127 -473h783l-49 -176h-783l-129 -486h889l-47 -178h-1087z" />
    <glyph glyph-name="uni0401" unicode="&#x401;" horiz-adv-x="1417" 
d="M717 1620l57 207h217l-55 -207h-219zM1126 1620l58 207h217l-55 -207h-220zM66 0l401 1491h1075l-47 -178h-879l-127 -473h783l-49 -176h-783l-129 -486h889l-47 -178h-1087z" />
    <glyph glyph-name="uni0402" unicode="&#x402;" horiz-adv-x="1785" 
d="M1448 1309h-504l-108 -404q148 27 272 27q272 0 411.5 -106.5t139.5 -305.5q0 -238 -182.5 -381t-505.5 -143h-58l45 174h29q222 0 345.5 93.5t123.5 244.5q0 124 -93 186t-286 62q-126 0 -291 -31l-194 -725h-199l352 1309h-473l50 182h1175z" />
    <glyph glyph-name="uni0403" unicode="&#x403;" horiz-adv-x="1323" 
d="M872 1620l299 285l185 -84l-305 -201h-179zM66 0l401 1491h1020l-49 -180h-822l-352 -1311h-198z" />
    <glyph glyph-name="uni0404" unicode="&#x404;" horiz-adv-x="1597" 
d="M1073 1516q384 0 576 -314l-164 -108q-78 122 -178.5 182.5t-247.5 60.5q-262 0 -451 -192q-126 -125 -184 -307h784l-47 -172h-768q-2 -18 -2 -43q0 -222 125 -345.5t326 -123.5q134 0 237.5 48t204.5 142l125 -129q-119 -114 -256 -178t-319 -64q-135 0 -252.5 43.5
t-205.5 123.5t-138 203t-50 273q0 179 70 344.5t199 294.5q120 122 280 191.5t336 69.5z" />
    <glyph glyph-name="uni0405" unicode="&#x405;" horiz-adv-x="1378" 
d="M643 -20q-412 0 -616 280l151 121q95 -116 208 -171.5t269 -55.5q151 0 251 73t100 185q0 80 -64.5 136t-232.5 122q-104 41 -173.5 78.5t-124 85t-79.5 105t-25 130.5q0 166 117 283q165 159 440 159q172 0 307.5 -60t225.5 -165l-142 -131q-164 182 -407 182
q-150 0 -242 -72t-92 -169q0 -83 70.5 -139t246.5 -123q98 -39 165 -76t117.5 -84t74.5 -104.5t24 -131.5q0 -167 -122 -295q-80 -78 -196 -120.5t-251 -42.5z" />
    <glyph glyph-name="uni0406" unicode="&#x406;" horiz-adv-x="657" 
d="M82 0l399 1491h199l-401 -1491h-197z" />
    <glyph glyph-name="uni0407" unicode="&#x407;" horiz-adv-x="657" 
d="M82 0l399 1491h199l-401 -1491h-197zM301 1620l57 207h217l-55 -207h-219zM711 1620l57 207h217l-55 -207h-219z" />
    <glyph glyph-name="uni0408" unicode="&#x408;" horiz-adv-x="1210" 
d="M422 -20q-166 0 -280.5 82t-170.5 223l152 100q51 -115 123 -170t180 -55q142 0 242 100q48 48 81.5 119.5t69.5 198.5l246 913h201l-256 -954q-39 -149 -86 -243.5t-121 -166.5q-147 -147 -381 -147z" />
    <glyph glyph-name="uni0409" unicode="&#x409;" horiz-adv-x="2283" 
d="M922 0l354 1317h-16l-1110 -1317h-232l1262 1491h340l-142 -526h254q261 0 399 -110t138 -308q0 -211 -141 -352q-195 -195 -603 -195h-503zM1966 535q0 125 -89.5 189t-262.5 64h-283l-164 -610h285q293 0 424 131q90 90 90 226z" />
    <glyph glyph-name="uni040A" unicode="&#x40a;" horiz-adv-x="2408" 
d="M1047 0l176 659h-783l-176 -659h-198l401 1491h197l-175 -649h783l176 649h197l-142 -526h254q260 0 398.5 -110.5t138.5 -307.5q0 -210 -142 -352q-195 -195 -602 -195h-503zM2089 535q0 125 -88.5 189t-261.5 64h-285l-162 -610h285q291 0 422 131q90 90 90 226z" />
    <glyph glyph-name="uni040B" unicode="&#x40b;" horiz-adv-x="1837" 
d="M1448 1309h-504l-108 -406q170 31 309 31q105 0 192 -21.5t157 -66.5t109 -122.5t39 -180.5q0 -108 -32 -219l-86 -324h-197l90 340q29 116 29 182q0 119 -90 176.5t-250 57.5q-171 0 -320 -35l-194 -721h-199l352 1309h-473l50 182h1175z" />
    <glyph glyph-name="uni040C" unicode="&#x40c;" horiz-adv-x="1556" 
d="M952 1616l299 285l185 -84l-306 -201h-178zM66 0l401 1491h197l-175 -647h213l754 647h273l-885 -741l538 -750h-225l-479 676h-234l-180 -676h-198z" />
    <glyph glyph-name="uni040D" unicode="&#x40d;" horiz-adv-x="1699" 
d="M1024 1616l-199 201l191 84l145 -285h-137zM1538 1491h199l-400 -1491h-198l311 1167l-1208 -1167h-176l401 1491h197l-308 -1143z" />
    <glyph glyph-name="uni040E" unicode="&#x40e;" horiz-adv-x="1521" 
d="M1001 1612q-140 0 -212 67.5t-52 188.5h137q5 -56 41 -82.5t119 -26.5q144 0 213 109h154q-42 -121 -150 -188.5t-250 -67.5zM1712 1491l-1245 -1491h-231l434 520l-363 971h207l297 -815l668 815h233z" />
    <glyph glyph-name="uni040F" unicode="&#x40f;" horiz-adv-x="1628" 
d="M1663 1491l-399 -1491h-504l-82 -309h-189l84 309h-507l401 1491h197l-351 -1311h801l352 1311h197z" />
    <glyph glyph-name="uni0410" unicode="&#x410;" horiz-adv-x="1642" 
d="M-82 0l1075 1501h191l268 -1501h-203l-63 385h-780l-273 -385h-215zM528 561h629l-123 713z" />
    <glyph glyph-name="uni0411" unicode="&#x411;" horiz-adv-x="1540" 
d="M494 866h356q160 0 265 -31.5t171 -97.5q96 -93 96 -250q0 -185 -122 -307q-183 -180 -576 -180h-618l401 1491h1059l-47 -178h-865zM446 692l-139 -514h406q274 0 391 117q74 74 74 184q0 83 -52 135q-41 41 -112.5 59.5t-188.5 18.5h-379z" />
    <glyph glyph-name="uni0412" unicode="&#x412;" horiz-adv-x="1548" 
d="M66 0l401 1491h563q225 0 347 -94.5t122 -255.5q0 -154 -99.5 -254.5t-262.5 -134.5q254 -88 254 -308q0 -198 -169.5 -321t-459.5 -123h-696zM307 176h479q187 0 296.5 74.5t109.5 202.5q0 103 -86.5 159t-231.5 56h-436zM485 838h408q189 0 298 73.5t109 200.5
q0 98 -74.5 150.5t-213.5 52.5h-400z" />
    <glyph glyph-name="uni0413" unicode="&#x413;" horiz-adv-x="1323" 
d="M66 0l401 1491h1020l-49 -180h-822l-352 -1311h-198z" />
    <glyph glyph-name="uni0414" unicode="&#x414;" horiz-adv-x="1816" 
d="M-14 180h147l926 1321h207l219 -1321h151l-133 -489h-188l84 309h-1274l-84 -309h-186zM1112 1276l-762 -1100h932z" />
    <glyph glyph-name="uni0415" unicode="&#x415;" horiz-adv-x="1417" 
d="M66 0l401 1491h1075l-47 -178h-879l-127 -473h783l-49 -176h-783l-129 -486h889l-47 -178h-1087z" />
    <glyph glyph-name="uni0416" unicode="&#x416;" horiz-adv-x="2318" 
d="M1520 1491l-179 -647h170l717 647h260l-846 -746l486 -745h-219l-426 676h-187l-176 -676h-198l182 676h-170l-756 -676h-260l895 784l-455 707h222l399 -647h170l174 647h197z" />
    <glyph glyph-name="uni0417" unicode="&#x417;" horiz-adv-x="1447" 
d="M401 1190l-92 151q273 175 574 175q242 0 382 -108.5t140 -277.5q0 -80 -30.5 -147.5t-84 -115.5t-121 -80.5t-147.5 -49.5q114 -40 181 -119t67 -192q0 -104 -49.5 -190.5t-133.5 -142.5t-192 -87t-227 -31q-384 0 -637 248l129 133q110 -104 234 -154t280 -50
q170 0 282.5 75t112.5 205q0 109 -91.5 172.5t-275.5 63.5h-241l45 168h246q214 0 329 70.5t115 201.5q0 98 -84.5 165.5t-239.5 67.5q-238 0 -471 -151z" />
    <glyph glyph-name="uni0418" unicode="&#x418;" horiz-adv-x="1699" 
d="M1538 1491h199l-400 -1491h-198l311 1167l-1208 -1167h-176l401 1491h197l-308 -1143z" />
    <glyph glyph-name="uni0419" unicode="&#x419;" horiz-adv-x="1699" 
d="M1122 1612q-140 0 -212 67.5t-52 188.5h137q5 -56 41 -82.5t119 -26.5q144 0 213 109h154q-42 -121 -150 -188.5t-250 -67.5zM1538 1491h199l-400 -1491h-198l311 1167l-1208 -1167h-176l401 1491h197l-308 -1143z" />
    <glyph glyph-name="uni041A" unicode="&#x41a;" horiz-adv-x="1556" 
d="M66 0l401 1491h197l-175 -647h213l754 647h273l-885 -741l538 -750h-225l-479 676h-234l-180 -676h-198z" />
    <glyph glyph-name="uni041B" unicode="&#x41b;" horiz-adv-x="1595" 
d="M1151 1501l250 -1501h-209l-193 1231l-854 -1231h-223l1053 1501h176z" />
    <glyph glyph-name="uni041C" unicode="&#x41c;" horiz-adv-x="1865" 
d="M66 0l401 1491h188l303 -780l723 780h222l-402 -1491h-196l311 1167l-725 -770h-8l-312 766l-313 -1163h-192z" />
    <glyph glyph-name="uni041D" unicode="&#x41d;" horiz-adv-x="1630" 
d="M74 0l401 1491h197l-174 -649h805l174 649h198l-401 -1491h-197l176 659h-804l-177 -659h-198z" />
    <glyph glyph-name="uni041E" unicode="&#x41e;" horiz-adv-x="1810" 
d="M1063 1516q192 0 343 -85.5t233.5 -233.5t82.5 -329q0 -179 -71 -346t-199 -295q-120 -120 -274.5 -187t-329.5 -67q-142 0 -265.5 50t-209 137t-134.5 207t-49 256q0 177 71 343t198 296q120 120 274.5 187t329.5 67zM864 154q248 0 436 188q103 103 160.5 239.5
t57.5 278.5q0 207 -128 341t-341 134q-251 0 -439 -188q-102 -102 -158.5 -238t-56.5 -278q0 -208 128 -342.5t341 -134.5z" />
    <glyph glyph-name="uni041F" unicode="&#x41f;" horiz-adv-x="1628" 
d="M66 0l401 1491h1196l-399 -1491h-199l352 1311h-801l-352 -1311h-198z" />
    <glyph glyph-name="uni0420" unicode="&#x420;" horiz-adv-x="1445" 
d="M66 0l401 1491h467q296 0 434 -141q109 -106 109 -283q0 -212 -142 -354q-197 -197 -592 -197h-340l-139 -516h-198zM1208 1223q-88 88 -280 88h-312l-167 -621h305q295 0 428 133q90 90 90 232q0 104 -64 168z" />
    <glyph glyph-name="uni0421" unicode="&#x421;" horiz-adv-x="1583" 
d="M831 -27q-181 0 -327 74.5t-233 217.5t-87 331q0 183 74 354.5t205 302.5q124 124 283 193.5t335 69.5q202 0 343.5 -85.5t224.5 -234.5l-166 -106q-74 121 -172 183t-248 62q-248 0 -447 -192q-106 -106 -165.5 -246.5t-59.5 -292.5q0 -202 125.5 -325t323.5 -123
q134 0 235 47.5t207 144.5l129 -129q-116 -116 -255.5 -181t-324.5 -65z" />
    <glyph glyph-name="uni0422" unicode="&#x422;" horiz-adv-x="1335" 
d="M414 0l350 1309h-494l49 182h1184l-47 -182h-493l-353 -1309h-196z" />
    <glyph glyph-name="uni0423" unicode="&#x423;" horiz-adv-x="1521" 
d="M1712 1491l-1245 -1491h-231l434 520l-363 971h207l297 -815l668 815h233z" />
    <glyph glyph-name="uni0424" unicode="&#x424;" horiz-adv-x="1984" 
d="M1151 1518h199l-45 -170q278 -25 442 -166.5t164 -360.5q0 -198 -114.5 -350t-325 -236.5t-488.5 -87.5l-47 -174h-199l47 179q-279 25 -442.5 166t-163.5 362q0 146 66.5 269.5t186.5 211.5t293.5 138.5t381.5 52.5zM381 690q0 -159 119.5 -257t333.5 -111l231 858
q-156 -2 -284.5 -39.5t-216 -102t-135.5 -154t-48 -194.5zM1708 811q0 159 -119.5 256.5t-335.5 110.5l-229 -859q315 4 497 138.5t187 353.5z" />
    <glyph glyph-name="uni0425" unicode="&#x425;" horiz-adv-x="1501" 
d="M-63 0l755 772l-364 719h219l289 -586l563 586h252l-729 -746l376 -745h-219l-301 612l-588 -612h-253z" />
    <glyph glyph-name="uni0426" unicode="&#x426;" horiz-adv-x="1667" 
d="M1663 1491l-352 -1311h168l-131 -489h-189l84 309h-1177l401 1491h197l-351 -1311h801l352 1311h197z" />
    <glyph glyph-name="uni0427" unicode="&#x427;" horiz-adv-x="1497" 
d="M936 0l145 543q-165 -31 -315 -31q-109 0 -197.5 21.5t-158.5 66.5t-109 122.5t-39 182.5q0 104 33 219l98 367h199l-105 -385q-28 -112 -28 -178q0 -123 90 -180.5t250 -57.5q169 0 331 39l205 762h199l-401 -1491h-197z" />
    <glyph glyph-name="uni0428" unicode="&#x428;" horiz-adv-x="2416" 
d="M2454 1491l-402 -1491h-1986l401 1491h197l-351 -1311h697l352 1311h197l-353 -1311h699l350 1311h199z" />
    <glyph glyph-name="uni0429" unicode="&#x429;" horiz-adv-x="2457" 
d="M2454 1491l-355 -1311h168l-131 -489h-188l84 309h-1966l401 1491h197l-351 -1311h697l352 1311h197l-353 -1311h699l350 1311h199z" />
    <glyph glyph-name="uni042A" unicode="&#x42a;" horiz-adv-x="1779" 
d="M395 0l353 1313h-482l47 178h680l-139 -526h274q261 0 399 -110t138 -308q0 -211 -141 -352q-195 -195 -602 -195h-527zM1462 535q0 125 -89.5 189t-262.5 64h-305l-164 -610h307q293 0 424 131q90 93 90 226z" />
    <glyph glyph-name="uni042B" unicode="&#x42b;" horiz-adv-x="2021" 
d="M1473 0l401 1491h197l-400 -1491h-198zM66 0l401 1491h197l-140 -526h275q261 0 398.5 -110t137.5 -308q0 -211 -141 -352q-195 -195 -602 -195h-526zM1133 535q0 124 -90 188.5t-263 64.5h-305l-164 -610h307q293 0 424 131q91 94 91 226z" />
    <glyph glyph-name="uni042C" unicode="&#x42c;" horiz-adv-x="1449" 
d="M66 0l401 1491h197l-140 -526h275q261 0 398.5 -110t137.5 -308q0 -211 -141 -352q-195 -195 -602 -195h-526zM1133 535q0 124 -90 188.5t-263 64.5h-305l-164 -610h307q293 0 424 131q91 94 91 226z" />
    <glyph glyph-name="uni042D" unicode="&#x42d;" horiz-adv-x="1597" 
d="M647 -27q-195 0 -346.5 80.5t-247.5 222.5l150 119q175 -243 446 -243q264 0 451 190q129 129 182 324h-788l47 172h766q2 14 2 34q0 214 -120.5 338.5t-318.5 124.5q-249 0 -456 -182l-115 137q125 108 266 167t316 59q180 0 322.5 -76.5t225 -222t82.5 -336.5
q0 -190 -67.5 -358.5t-196.5 -297.5q-119 -120 -271.5 -186t-328.5 -66z" />
    <glyph glyph-name="uni042E" unicode="&#x42e;" horiz-adv-x="2336" 
d="M66 0l401 1491h197l-175 -649h310q66 253 241 428q240 246 580 246q187 0 331 -85t221 -232t77 -331q0 -180 -70 -350t-199 -299q-116 -116 -263.5 -181t-315.5 -65q-187 0 -331 85.5t-221 233t-77 331.5v36h-332l-176 -659h-198zM1415 154q236 0 414 178
q100 100 157.5 238.5t57.5 289.5q0 207 -119 341t-319 134q-241 0 -414 -178q-100 -100 -157.5 -237.5t-57.5 -288.5q0 -208 119 -342.5t319 -134.5z" />
    <glyph glyph-name="uni042F" unicode="&#x42f;" horiz-adv-x="1568" 
d="M1606 1491l-400 -1491h-198l151 561h-407h-2l-533 -561h-250l582 604q-126 44 -200.5 141.5t-74.5 235.5q0 192 134 326q181 184 557 184h641zM1360 1311h-424q-258 0 -375 -117q-82 -82 -82 -205q0 -119 89 -185.5t263 -66.5h375z" />
    <glyph glyph-name="uni0430" unicode="&#x430;" horiz-adv-x="1249" 
d="M391 -25q-145 0 -245.5 83t-100.5 223q0 159 107 266q135 135 385 135q187 0 378 -57l7 24q14 54 14 99q0 206 -283 206q-166 0 -311 -59l-31 160q181 69 375 69q212 0 325 -90.5t113 -253.5q0 -61 -24 -155l-166 -625h-186l43 166q-166 -191 -400 -191zM459 123
q133 0 251 87.5t154 221.5l21 70q-162 45 -332 45q-162 0 -248 -86q-63 -63 -63 -158q0 -82 59 -131t158 -49z" />
    <glyph glyph-name="uni0431" unicode="&#x431;" horiz-adv-x="1417" 
d="M1298 606q0 -166 -80 -310t-226.5 -232.5t-325.5 -88.5q-231 0 -365 134q-143 143 -143 403q0 210 77 427t224 364q105 105 239 161t340 76l344 35l7 -176l-342 -37q-177 -18 -290 -61.5t-186 -116.5q-59 -61 -102 -131.5t-82 -180.5q82 91 194.5 140t241.5 49
q224 0 349.5 -127t125.5 -328zM346 479q0 -151 85.5 -244.5t242.5 -93.5q123 0 222 61.5t153.5 164.5t54.5 225q0 145 -85 229t-241 84q-181 0 -306.5 -119t-125.5 -307z" />
    <glyph glyph-name="uni0432" unicode="&#x432;" horiz-adv-x="1290" 
d="M39 0l297 1108h477q184 0 276.5 -71t92.5 -193q0 -111 -73.5 -187t-186.5 -102q81 -24 130.5 -83t49.5 -142q0 -159 -135.5 -244.5t-354.5 -85.5h-573zM397 631h297q136 0 217.5 46.5t81.5 147.5q0 64 -50.5 100t-151.5 36h-308zM268 150h346q128 0 210.5 47.5
t82.5 144.5q0 145 -227 145h-322z" />
    <glyph glyph-name="uni0433" unicode="&#x433;" horiz-adv-x="1075" 
d="M39 0l297 1108h815l-47 -174h-623l-250 -934h-192z" />
    <glyph glyph-name="uni0434" unicode="&#x434;" horiz-adv-x="1415" 
d="M-39 174h123l678 942h199l165 -942h123l-123 -461h-174l76 287h-938l-76 -287h-174zM813 915l-520 -745h641z" />
    <glyph glyph-name="uni0435" unicode="&#x435;" horiz-adv-x="1282" 
d="M1149 487h-852v-30q0 -144 84 -233t231 -89q176 0 332 125l94 -125q-92 -78 -197 -119t-245 -41q-219 0 -353 131.5t-134 344.5q0 135 55 265t153 228q189 189 441 189q203 0 317.5 -121.5t114.5 -306.5q0 -112 -41 -218zM455 846q-93 -93 -133 -221h673q9 34 9 84
q0 113 -65.5 187.5t-193.5 74.5q-165 0 -290 -125z" />
    <glyph glyph-name="uni0436" unicode="&#x436;" horiz-adv-x="1863" 
d="M1176 1108l-127 -469h147l502 469h248l-617 -557l348 -551h-209l-292 479h-170l-125 -479h-193l131 479h-149l-520 -479h-246l645 578l-328 530h211l279 -469h151l121 469h193z" />
    <glyph glyph-name="uni0437" unicode="&#x437;" horiz-adv-x="1220" 
d="M1022 309q0 -143 -135.5 -237.5t-356.5 -94.5q-305 0 -528 175l104 129q185 -142 420 -142q140 0 222.5 51t82.5 136q0 74 -64.5 116.5t-203.5 42.5h-231l39 150h233q153 0 234.5 47.5t81.5 134.5q0 72 -64 113t-180 41q-188 0 -393 -105l-76 142q114 60 228.5 92.5
t252.5 32.5q204 0 317 -84t113 -213q0 -115 -81 -188.5t-206 -100.5q191 -68 191 -238z" />
    <glyph glyph-name="uni0438" unicode="&#x438;" horiz-adv-x="1376" 
d="M1143 1108h194l-297 -1108h-190l215 815l-838 -815h-188l297 1108h190l-215 -811z" />
    <glyph glyph-name="uni0439" unicode="&#x439;" horiz-adv-x="1376" 
d="M1143 1108h194l-297 -1108h-190l215 815l-838 -815h-188l297 1108h190l-215 -811zM883 1264q-147 0 -219 76.5t-54 201.5h138q0 -133 153 -133q145 0 227 133h146q-43 -126 -147.5 -202t-243.5 -76z" />
    <glyph glyph-name="uni043A" unicode="&#x43a;" horiz-adv-x="1251" 
d="M39 0l297 1108h192l-129 -467h162l518 467h258l-645 -563l371 -545h-213l-320 479h-174l-125 -479h-192z" />
    <glyph glyph-name="uni043B" unicode="&#x43b;" horiz-adv-x="1294" 
d="M897 1116l193 -1116h-201l-135 879l-609 -879h-217l789 1116h180z" />
    <glyph glyph-name="uni043C" unicode="&#x43c;" horiz-adv-x="1556" 
d="M686 227l-240 590l-219 -817h-188l297 1108h180l238 -588l538 588h226l-295 -1108h-193l219 825l-557 -598h-6z" />
    <glyph glyph-name="uni043D" unicode="&#x43d;" horiz-adv-x="1363" 
d="M1325 1108l-295 -1108h-192l127 471h-607l-127 -471h-192l297 1108h192l-125 -461h607l123 461h192z" />
    <glyph glyph-name="uni043E" unicode="&#x43e;" horiz-adv-x="1384" 
d="M762 1133q230 0 370 -141t140 -359q0 -129 -52 -249.5t-145 -213.5q-195 -195 -454 -195q-227 0 -368.5 140t-141.5 360q0 129 52 249t146 214q94 91 210.5 143t242.5 52zM633 143q166 0 295 129q72 72 110.5 165t38.5 190q0 158 -88.5 247t-238.5 89q-164 0 -293 -129
q-71 -68 -111.5 -163t-40.5 -190q0 -159 89 -248.5t239 -89.5z" />
    <glyph glyph-name="uni043F" unicode="&#x43f;" horiz-adv-x="1363" 
d="M1325 1108l-297 -1108h-192l249 934h-604l-250 -934h-192l297 1108h989z" />
    <glyph glyph-name="uni0440" unicode="&#x440;" horiz-adv-x="1429" 
d="M696 -25q-286 0 -403 258l-154 -573h-192l389 1448h192l-49 -176q182 201 400 201q190 0 314 -130t124 -341q0 -149 -55 -280t-150 -226q-181 -181 -416 -181zM676 143q166 0 289 123q72 72 110.5 170.5t38.5 208.5q0 147 -81.5 233.5t-215.5 86.5q-167 0 -307 -140
q-73 -70 -114.5 -163t-41.5 -195q0 -138 90.5 -231t231.5 -93z" />
    <glyph glyph-name="uni0441" unicode="&#x441;" horiz-adv-x="1216" 
d="M606 -25q-101 0 -190.5 34t-157.5 95t-107.5 153.5t-39.5 203.5q0 137 52 260t146 217q92 92 209 143.5t244 51.5q163 0 273.5 -72t170.5 -187l-153 -100q-52 90 -123 139.5t-182 49.5q-160 0 -289 -129q-71 -71 -112.5 -168t-41.5 -201q0 -148 90 -235t219 -87
q88 0 162 35t152 103l108 -125q-95 -87 -197 -134t-233 -47z" />
    <glyph glyph-name="uni0442" unicode="&#x442;" horiz-adv-x="1200" 
d="M225 1108h1051l-47 -172h-430l-250 -936h-193l250 936h-428z" />
    <glyph glyph-name="uni0443" unicode="&#x443;" horiz-adv-x="1251" 
d="M387 -2l-188 1110h198l135 -893l562 893h217l-748 -1143q-114 -170 -219 -241.5t-235 -71.5q-131 0 -246 78l104 141q83 -55 162 -55q68 0 127.5 40.5t130.5 141.5z" />
    <glyph glyph-name="uni0444" unicode="&#x444;" horiz-adv-x="1783" 
d="M1667 602q0 -225 -162 -381q-106 -109 -272.5 -168t-374.5 -59h-20l-90 -334h-191l92 344q-251 35 -391.5 169t-140.5 333q0 224 159 383q107 107 275 166t375 59h22l117 440h190l-120 -450q249 -32 390.5 -168t141.5 -334zM309 510q0 -140 100 -233t285 -113l211 784h-8
q-311 0 -473 -162q-115 -115 -115 -276zM1473 598q0 140 -99.5 232t-286.5 112l-208 -782h8q152 0 273 42.5t198 119.5q115 115 115 276z" />
    <glyph glyph-name="uni0445" unicode="&#x445;" horiz-adv-x="1226" 
d="M455 1108l194 -401l393 401h238l-555 -551l281 -557h-211l-203 428l-422 -428h-240l586 575l-272 533h211z" />
    <glyph glyph-name="uni0446" unicode="&#x446;" horiz-adv-x="1404" 
d="M39 0l297 1108h192l-249 -934h604l250 934h192l-250 -934h139l-122 -461h-177l78 287h-954z" />
    <glyph glyph-name="uni0447" unicode="&#x447;" horiz-adv-x="1253" 
d="M1214 1108l-296 -1108h-193l98 360q-115 -22 -235 -22q-203 0 -311.5 77.5t-108.5 235.5q0 60 33 199l71 258h191l-78 -289q-23 -90 -23 -137q0 -89 65.5 -130.5t197.5 -41.5q144 0 243 27l154 571h192z" />
    <glyph glyph-name="uni0448" unicode="&#x448;" horiz-adv-x="2027" 
d="M39 0l297 1108h192l-249 -934h538l248 934h192l-249 -934h538l250 934h193l-297 -1108h-1653z" />
    <glyph glyph-name="uni0449" unicode="&#x449;" horiz-adv-x="2070" 
d="M39 0l297 1108h192l-249 -934h538l248 934h192l-249 -934h538l250 934h193l-250 -934h141l-123 -461h-176l78 287h-1620z" />
    <glyph glyph-name="uni044A" unicode="&#x44a;" horiz-adv-x="1460" 
d="M666 739h221q217 0 326.5 -86t109.5 -237q0 -194 -154.5 -305t-410.5 -111h-482l252 938h-358l45 170h551zM874 580h-251l-111 -418h272q160 0 253 64.5t93 174.5q0 179 -256 179z" />
    <glyph glyph-name="uni044B" unicode="&#x44b;" horiz-adv-x="1714" 
d="M1186 0l297 1108h192l-297 -1108h-192zM641 580h-256l-111 -418h277q160 0 253 64.5t93 176.5q0 177 -256 177zM428 739h227q214 0 324.5 -87.5t110.5 -235.5q0 -193 -154 -304.5t-404 -111.5h-493l297 1108h192z" />
    <glyph glyph-name="uni044C" unicode="&#x44c;" horiz-adv-x="1222" 
d="M637 580h-252l-111 -418h273q160 0 253 64.5t93 174.5q0 179 -256 179zM428 739h221q217 0 326.5 -86t109.5 -237q0 -194 -154.5 -305t-410.5 -111h-481l297 1108h192z" />
    <glyph glyph-name="uni044D" unicode="&#x44d;" horiz-adv-x="1234" 
d="M29 213l129 111q69 -92 145 -138.5t186 -46.5q172 0 304 129q82 82 122 213l-585 -2l43 160l563 -2v4q0 154 -88.5 241t-226.5 87q-169 0 -334 -127l-92 133q216 158 438 158q215 0 354 -134t139 -360q0 -135 -52 -260t-146 -217q-89 -89 -202 -138t-241 -49
q-286 0 -456 238z" />
    <glyph glyph-name="uni044E" unicode="&#x44e;" horiz-adv-x="1867" 
d="M39 0l297 1108h192l-122 -461h239q45 165 176 299q88 88 201 137.5t238 49.5q224 0 360.5 -141t136.5 -361q0 -131 -54 -253t-149 -216q-187 -187 -438 -187q-222 0 -358.5 138.5t-136.5 355.5v2h-263l-127 -471h-192zM1124 143q164 0 285 127q72 69 113 163t41 192
q0 158 -84.5 248t-225.5 90q-154 0 -286 -125q-71 -74 -111.5 -167.5t-40.5 -189.5q0 -158 84 -248t225 -90z" />
    <glyph glyph-name="uni044F" unicode="&#x44f;" horiz-adv-x="1318" 
d="M1280 1108l-297 -1108h-190l106 401h-307h-2l-375 -401h-231l415 438q-93 38 -145.5 110.5t-52.5 174.5q0 120 67 208.5t181 132.5t260 44h571zM1047 952h-349q-138 0 -222.5 -56t-84.5 -167q0 -86 60 -132t180 -46h309z" />
    <glyph glyph-name="uni0450" unicode="&#x450;" horiz-adv-x="1282" 
d="M1149 487h-852v-30q0 -144 84 -233t231 -89q176 0 332 125l94 -125q-92 -78 -197 -119t-245 -41q-219 0 -353 131.5t-134 344.5q0 135 55 265t153 228q189 189 441 189q203 0 317.5 -121.5t114.5 -306.5q0 -112 -41 -218zM455 846q-93 -93 -133 -221h673q9 34 9 84
q0 113 -65.5 187.5t-193.5 74.5q-165 0 -290 -125zM756 1268l-183 233l193 86l123 -319h-133z" />
    <glyph glyph-name="uni0451" unicode="&#x451;" horiz-adv-x="1282" 
d="M539 1268l59 217h213l-59 -217h-213zM930 1268l59 217h213l-59 -217h-213zM1149 487h-852v-30q0 -144 84 -233t231 -89q176 0 332 125l94 -125q-92 -78 -197 -119t-245 -41q-219 0 -353 131.5t-134 344.5q0 135 55 265t153 228q189 189 441 189q203 0 317.5 -121.5
t114.5 -306.5q0 -112 -41 -218zM455 846q-93 -93 -133 -221h673q9 34 9 84q0 113 -65.5 187.5t-193.5 74.5q-165 0 -290 -125z" />
    <glyph glyph-name="uni0452" unicode="&#x452;" horiz-adv-x="1282" 
d="M807 47l111 412q20 79 20 137q0 89 -65.5 130.5t-196.5 41.5q-124 0 -244 -27l-199 -741h-192l326 1210h-234l43 158h232l51 186h192l-51 -186h381l-43 -158h-381l-78 -292q115 22 236 22q202 0 311 -78.5t109 -236.5q0 -61 -33 -197l-109 -399q-57 -210 -153 -293.5
t-265 -83.5q-95 0 -182 26l43 158q68 -22 137 -22q92 0 145.5 52t88.5 181z" />
    <glyph glyph-name="uni0453" unicode="&#x453;" horiz-adv-x="1075" 
d="M651 1268l297 319l187 -86l-310 -233h-174zM39 0l297 1108h815l-47 -174h-623l-250 -934h-192z" />
    <glyph glyph-name="uni0454" unicode="&#x454;" horiz-adv-x="1232" 
d="M111 465q0 135 52 261t146 218q89 89 204.5 139t246.5 50q157 0 263 -61t187 -167l-135 -114q-67 85 -140.5 130.5t-184.5 45.5q-86 0 -166 -33.5t-140 -93.5q-79 -79 -118 -203l583 2l-43 -160l-565 2v-16q0 -154 89.5 -240t225.5 -86q95 0 175 30.5t159 94.5l94 -133
q-103 -78 -206 -117t-230 -39q-214 0 -355.5 132.5t-141.5 357.5z" />
    <glyph glyph-name="uni0455" unicode="&#x455;" horiz-adv-x="1081" 
d="M473 -25q-133 0 -260 49.5t-221 145.5l119 123q168 -162 378 -162q91 0 157.5 48t66.5 122q0 52 -43.5 92t-151.5 80q-163 63 -239 130.5t-76 178.5q0 151 116 249.5t308 98.5q118 0 229.5 -43t185.5 -108l-110 -129q-158 125 -322 125q-102 0 -159.5 -45.5t-57.5 -114.5
q0 -50 45 -88.5t162 -87.5q153 -61 228 -131t75 -174q0 -157 -124 -258t-306 -101z" />
    <glyph glyph-name="uni0456" unicode="&#x456;" horiz-adv-x="595" 
d="M53 0l299 1108h191l-297 -1108h-193zM399 1329l56 201h215l-56 -201h-215z" />
    <glyph glyph-name="uni0457" unicode="&#x457;" horiz-adv-x="598" 
d="M190 1268l60 217h213l-60 -217h-213zM582 1268l59 217h213l-59 -217h-213zM53 0l299 1108h191l-297 -1108h-193z" />
    <glyph glyph-name="uni0458" unicode="&#x458;" horiz-adv-x="595" 
d="M-96 -348q-83 0 -150 20l41 158q54 -14 92 -14q55 0 96.5 38t61.5 111l307 1143h191l-312 -1163q-79 -293 -327 -293zM399 1329l56 201h213l-54 -201h-215z" />
    <glyph glyph-name="uni0459" unicode="&#x459;" horiz-adv-x="1810" 
d="M-115 0l930 1108h324l-99 -369h197q217 0 326.5 -86t109.5 -237q0 -194 -154.5 -305t-410.5 -111h-457l256 954h-6l-805 -954h-211zM1227 580h-230l-112 -418h250q160 0 253 64.5t93 174.5q0 179 -254 179z" />
    <glyph glyph-name="uni045A" unicode="&#x45a;" horiz-adv-x="1980" 
d="M1212 739h195q219 0 327.5 -85.5t108.5 -237.5q0 -194 -154.5 -305t-408.5 -111h-459l125 471h-588l-127 -471h-192l297 1108h192l-122 -461h587l125 461h193zM1397 580h-230l-110 -418h250q159 0 251.5 64.5t92.5 174.5q0 179 -254 179z" />
    <glyph glyph-name="uni045B" unicode="&#x45b;" horiz-adv-x="1282" 
d="M938 1210h-381l-78 -292q115 22 236 22q202 0 311 -78.5t109 -236.5q0 -61 -33 -197l-115 -428h-192l123 459q20 79 20 137q0 89 -65.5 130.5t-196.5 41.5q-124 0 -244 -27l-199 -741h-192l326 1210h-234l43 158h232l51 186h192l-51 -186h381z" />
    <glyph glyph-name="uni045C" unicode="&#x45c;" horiz-adv-x="1251" 
d="M721 1268l297 319l186 -86l-309 -233h-174zM39 0l297 1108h192l-129 -467h162l518 467h258l-645 -563l371 -545h-213l-320 479h-174l-125 -479h-192z" />
    <glyph glyph-name="uni045D" unicode="&#x45d;" horiz-adv-x="1376" 
d="M784 1268l-182 233l193 86l123 -319h-134zM1143 1108h194l-297 -1108h-190l215 815l-838 -815h-188l297 1108h190l-215 -811z" />
    <glyph glyph-name="uni045E" unicode="&#x45e;" horiz-adv-x="1251" 
d="M387 -2l-188 1110h198l135 -893l562 893h217l-748 -1143q-114 -170 -219 -241.5t-235 -71.5q-131 0 -246 78l104 141q83 -55 162 -55q68 0 127.5 40.5t130.5 141.5zM784 1264q-146 0 -218 76t-54 202h137q0 -133 154 -133q145 0 227 133h146q-43 -126 -148 -202t-244 -76
z" />
    <glyph glyph-name="uni045F" unicode="&#x45f;" horiz-adv-x="1363" 
d="M39 0l297 1108h192l-249 -934h604l250 934h192l-297 -1108h-412l-75 -287h-176l77 287h-403z" />
    <glyph glyph-name="uni0462" unicode="&#x462;" horiz-adv-x="1779" 
d="M1423 1122h-532l-78 -297h371q223 0 343 -92t120 -264q0 -180 -123 -303q-166 -166 -516 -166h-613l299 1120h-479l45 168h479l62 230h196l-61 -230h532zM1442 455q0 196 -279 196h-397l-127 -475h401q229 0 332 100q70 73 70 179z" />
    <glyph glyph-name="uni0463" unicode="&#x463;" horiz-adv-x="1464" 
d="M655 702h252q207 0 311.5 -82.5t104.5 -224.5q0 -186 -146.5 -290.5t-390.5 -104.5h-510l252 942h-358l43 166h358l121 446h193l-121 -446h448l-45 -164h-446zM891 547h-279l-104 -389h299q149 0 236 59.5t87 163.5q0 166 -239 166z" />
    <glyph glyph-name="uni0472" unicode="&#x472;" horiz-adv-x="1806" 
d="M1061 1516q142 0 265 -50t208 -137t133.5 -206t48.5 -255q0 -179 -70 -346t-198 -295q-121 -121 -274 -187.5t-328 -66.5q-142 0 -265 50t-208.5 137t-134 207t-48.5 256q0 177 71 343t198 296q121 121 274 187.5t328 66.5zM1303 338q136 133 188 326h-1104v-33
q0 -211 129 -347.5t346 -136.5q250 0 441 191zM1520 838v22q0 208 -129.5 344.5t-343.5 136.5q-255 0 -443 -188q-131 -131 -186 -315h1102z" />
    <glyph glyph-name="uni0473" unicode="&#x473;" horiz-adv-x="1380" 
d="M760 1133q228 0 368 -141t140 -359q0 -129 -52 -249.5t-145 -213.5q-92 -92 -209 -143.5t-244 -51.5q-228 0 -367.5 140t-139.5 360q0 129 51.5 249.5t144.5 213.5q92 92 209 143.5t244 51.5zM631 135q172 0 305 133q92 92 129 211h-772v-2q0 -160 92 -252t246 -90z
M444 840q-89 -89 -127 -205h768v2q-4 155 -95.5 245.5t-241.5 88.5q-85 0 -164 -35t-140 -96z" />
    <glyph glyph-name="uni0474" unicode="&#x474;" horiz-adv-x="1658" 
d="M1352 971l-654 -981h-176l-223 1501h209l166 -1239l532 823q115 177 194.5 262t171 122.5t230.5 37.5h66l-47 -178h-23q-51 0 -88.5 -5t-74 -23t-63.5 -39t-64.5 -66t-70 -90t-85.5 -125z" />
    <glyph glyph-name="uni0475" unicode="&#x475;" horiz-adv-x="1288" 
d="M528 -8h-172l-159 1116h200l103 -885l366 580q76 122 142 187.5t147 95.5t197 30h47l-43 -166h-23q-96 0 -161 -44t-142 -163z" />
    <glyph glyph-name="uni0490" unicode="&#x490;" horiz-adv-x="1323" 
d="M1438 1311h-822l-352 -1311h-198l401 1491h831l78 295h189z" />
    <glyph glyph-name="uni0491" unicode="&#x491;" horiz-adv-x="1075" 
d="M1104 934h-623l-250 -934h-192l297 1108h635l73 278h181z" />
    <glyph glyph-name="uni0492" unicode="&#x492;" horiz-adv-x="1374" 
d="M119 0l174 647h-160l41 152h160l186 692h1020l-49 -180h-821l-138 -512h414l-41 -152h-413l-175 -647h-198z" />
    <glyph glyph-name="uni0493" unicode="&#x493;" horiz-adv-x="1116" 
d="M80 0l123 459h-148l35 129h148l139 520h815l-47 -174h-623l-92 -346h295l-35 -129h-295l-123 -459h-192z" />
    <glyph glyph-name="uni0496" unicode="&#x496;" horiz-adv-x="2330" 
d="M2488 1491l-846 -746l369 -565h215l-131 -489h-188l84 309h-82l-426 676h-187l-176 -676h-198l182 676h-170l-756 -676h-260l895 784l-455 707h222l399 -647h170l174 647h197l-179 -647h170l717 647h260z" />
    <glyph glyph-name="uni0497" unicode="&#x497;" horiz-adv-x="1892" 
d="M1946 1108l-617 -557l238 -377h184l-123 -461h-176l78 287h-62l-292 479h-170l-125 -479h-193l131 479h-149l-520 -479h-246l645 578l-328 530h211l279 -469h151l121 469h193l-127 -469h147l502 469h248z" />
    <glyph glyph-name="uni0498" unicode="&#x498;" horiz-adv-x="1447" 
d="M401 1190l-92 151q273 175 574 175q242 0 382 -108.5t140 -277.5q0 -80 -30.5 -147.5t-84 -115.5t-121 -80.5t-147.5 -49.5q114 -40 181 -119t67 -192q0 -102 -48 -187t-129 -141.5t-185.5 -88.5t-219.5 -34h-2l-76 -284h-192l90 297q-281 43 -477 235l129 133
q110 -104 234 -154t280 -50q170 0 282.5 75t112.5 205q0 109 -91.5 172.5t-275.5 63.5h-241l45 168h246q214 0 329 70.5t115 201.5q0 98 -84.5 165.5t-239.5 67.5q-238 0 -471 -151z" />
    <glyph glyph-name="uni0499" unicode="&#x499;" horiz-adv-x="1220" 
d="M1022 309q0 -138 -126.5 -231.5t-336.5 -100.5l-67 -264h-181l82 275q-230 32 -391 164l104 129q185 -142 420 -142q140 0 222.5 51t82.5 136q0 74 -64.5 116.5t-203.5 42.5h-231l39 150h233q153 0 234.5 47.5t81.5 134.5q0 72 -64 113t-180 41q-188 0 -393 -105l-76 142
q114 60 228.5 92.5t252.5 32.5q204 0 317 -84t113 -213q0 -115 -81 -188.5t-206 -100.5q191 -68 191 -238z" />
    <glyph glyph-name="uni049A" unicode="&#x49a;" horiz-adv-x="1579" 
d="M1729 1491l-885 -741l409 -570h203l-131 -489h-188l84 309h-64l-479 676h-234l-180 -676h-198l401 1491h197l-175 -647h213l754 647h273z" />
    <glyph glyph-name="uni049B" unicode="&#x49b;" horiz-adv-x="1265" 
d="M1337 1108l-645 -563l252 -371h191l-123 -461h-176l77 287h-63l-320 479h-174l-125 -479h-192l297 1108h192l-129 -467h162l518 467h258z" />
    <glyph glyph-name="uni049C" unicode="&#x49c;" horiz-adv-x="1611" 
d="M1407 0h-217l-348 668h-11l-116 -451h-142l121 451h-252l-178 -668h-198l401 1491h197l-177 -657h252l123 464h142l-127 -464h4l649 657h248l-764 -754z" />
    <glyph glyph-name="uni049D" unicode="&#x49d;" horiz-adv-x="1353" 
d="M1118 0h-203l-221 485h-53l-86 -329h-121l88 329h-162l-129 -485h-192l297 1108h192l-125 -467h162l86 324h121l-90 -324h41l467 467h242l-582 -555z" />
    <glyph glyph-name="uni04A0" unicode="&#x4a0;" horiz-adv-x="1886" 
d="M395 0l353 1313h-482l47 178h680l-174 -647h213l754 647h272l-884 -741l538 -750h-225l-479 676h-234l-180 -676h-199z" />
    <glyph glyph-name="uni04A1" unicode="&#x4a1;" horiz-adv-x="1488" 
d="M266 0l252 938h-356l45 170h549l-129 -467h161l519 467h258l-645 -563l370 -545h-213l-319 479h-174l-125 -479h-193z" />
    <glyph glyph-name="uni04A2" unicode="&#x4a2;" horiz-adv-x="1673" 
d="M74 0l401 1491h197l-174 -649h805l174 649h198l-354 -1311h170l-131 -489h-189l84 309h-178l176 659h-804l-177 -659h-198z" />
    <glyph glyph-name="uni04A3" unicode="&#x4a3;" horiz-adv-x="1406" 
d="M1325 1108l-250 -934h139l-122 -461h-177l78 287h-155l127 471h-607l-127 -471h-192l297 1108h192l-125 -461h607l123 461h192z" />
    <glyph glyph-name="uni04A4" unicode="&#x4a4;" horiz-adv-x="2226" 
d="M1047 0l178 659h-785l-176 -659h-198l401 1491h197l-175 -649h785l174 649h944l-49 -180h-746l-352 -1311h-198z" />
    <glyph glyph-name="uni04A5" unicode="&#x4a5;" horiz-adv-x="1837" 
d="M821 0l125 471h-588l-127 -471h-192l297 1108h192l-122 -461h587l125 461h795l-47 -174h-602l-250 -934h-193z" />
    <glyph glyph-name="uni04AA" unicode="&#x4aa;" horiz-adv-x="1583" 
d="M580 -309l90 299q-216 46 -351 206.5t-135 399.5q0 183 74 354.5t205 302.5q124 124 283 193.5t335 69.5q202 0 343.5 -85.5t224.5 -234.5l-166 -106q-74 121 -172 183t-248 62q-248 0 -447 -192q-106 -106 -165.5 -246.5t-59.5 -292.5q0 -202 125.5 -325t323.5 -123
q134 0 235 47.5t207 144.5l129 -129q-114 -114 -249.5 -178t-315.5 -68l-74 -282h-192z" />
    <glyph glyph-name="uni04AB" unicode="&#x4ab;" horiz-adv-x="1216" 
d="M369 -287l86 283q-154 43 -249 165t-95 300q0 137 52 260t146 217q92 92 209 143.5t244 51.5q163 0 273.5 -72t170.5 -187l-153 -100q-52 90 -123 139.5t-182 49.5q-160 0 -289 -129q-71 -71 -112.5 -168t-41.5 -201q0 -148 90 -235t219 -87q88 0 162 35t152 103
l108 -125q-92 -84 -192 -130.5t-228 -50.5l-67 -262h-180z" />
    <glyph glyph-name="uni04AE" unicode="&#x4ae;" horiz-adv-x="1427" 
d="M453 0l161 598l-358 893h219l275 -727l669 727h248l-864 -922l-152 -569h-198z" />
    <glyph glyph-name="uni04AF" unicode="&#x4af;" horiz-adv-x="1234" 
d="M459 -340h-193l96 365l-165 1083h200l111 -883l579 883h218l-750 -1088z" />
    <glyph glyph-name="uni04B0" unicode="&#x4b0;" horiz-adv-x="1427" 
d="M453 0l122 457h-374l39 151h370l-354 883h219l275 -727l669 727h248l-827 -883h377l-39 -151h-406l-121 -457h-198z" />
    <glyph glyph-name="uni04B1" unicode="&#x4b1;" horiz-adv-x="1243" 
d="M942 129l-35 -129h-350l-90 -340h-193l91 340h-328l35 129h282l-149 979h201l110 -883l580 883h217l-676 -979h305z" />
    <glyph glyph-name="uni04B2" unicode="&#x4b2;" horiz-adv-x="1574" 
d="M-63 0l755 772l-364 719h219l289 -586l563 586h252l-729 -746l284 -565h201l-131 -489h-189l84 309h-92l-301 612l-588 -612h-253z" />
    <glyph glyph-name="uni04B3" unicode="&#x4b3;" horiz-adv-x="1249" 
d="M455 1108l194 -401l393 401h238l-555 -551l193 -383h184l-123 -461h-176l78 287h-86l-203 428l-422 -428h-240l586 575l-272 533h211z" />
    <glyph glyph-name="uni04B6" unicode="&#x4b6;" horiz-adv-x="1536" 
d="M936 0l145 543q-165 -31 -315 -31q-109 0 -197.5 21.5t-158.5 66.5t-109 122.5t-39 182.5q0 104 33 219l98 367h199l-105 -385q-28 -112 -28 -178q0 -123 90 -180.5t250 -57.5q169 0 331 39l205 762h199l-354 -1311h170l-131 -489h-189l84 309h-178z" />
    <glyph glyph-name="uni04B7" unicode="&#x4b7;" horiz-adv-x="1294" 
d="M1214 1108l-249 -934h139l-123 -461h-176l78 287h-158l98 360q-115 -22 -235 -22q-203 0 -311.5 77.5t-108.5 235.5q0 60 33 199l71 258h191l-78 -289q-23 -90 -23 -137q0 -89 65.5 -130.5t197.5 -41.5q144 0 243 27l154 571h192z" />
    <glyph glyph-name="uni04B8" unicode="&#x4b8;" horiz-adv-x="1497" 
d="M1335 1491h199l-401 -1491h-197l145 543q-165 -31 -303 -31h-2l-90 -344h-141l96 352q-175 22 -277 116.5t-102 268.5q0 104 33 219l98 367h199l-105 -385q-28 -112 -28 -178q0 -194 229 -232l121 455h141l-127 -461h2q161 3 305 39z" />
    <glyph glyph-name="uni04B9" unicode="&#x4b9;" horiz-adv-x="1253" 
d="M1214 1108l-296 -1108h-193l98 360q-113 -22 -229 -22l-59 -229h-119l63 235q-152 18 -232.5 92t-80.5 215q0 74 35 193l71 264h191l-80 -295q-21 -83 -21 -131q0 -71 40.5 -110.5t121.5 -53.5l84 316h121l-90 -322q100 0 229 29l154 567h192z" />
    <glyph glyph-name="uni04BA" unicode="&#x4ba;" horiz-adv-x="1497" 
d="M664 1491l-146 -545q138 33 316 33q85 0 158.5 -13t137.5 -42.5t109.5 -74t71.5 -111.5t26 -152q0 -108 -32 -219l-99 -367h-198l104 385q27 102 27 178q0 122 -89.5 180t-248.5 58q-172 0 -334 -39l-203 -762h-198l401 1491h197z" />
    <glyph glyph-name="uni04BB" unicode="&#x4bb;" horiz-adv-x="1329" 
d="M39 0l418 1554h192l-166 -614q79 89 168 141t201 52q160 0 254 -92.5t94 -247.5q0 -57 -29 -179l-161 -614h-193l166 625q16 62 16 120q0 100 -60.5 156.5t-168.5 56.5q-123 0 -227.5 -93t-145.5 -240l-166 -625h-192z" />
    <glyph glyph-name="uni04C0" unicode="&#x4c0;" horiz-adv-x="657" 
d="M82 0l399 1491h199l-401 -1491h-197z" />
    <glyph glyph-name="uni04C1" unicode="&#x4c1;" horiz-adv-x="2318" 
d="M1458 1616q-140 0 -212 67.5t-52 188.5h137q5 -56 41 -82.5t119 -26.5q144 0 213 109h154q-42 -121 -150 -188.5t-250 -67.5zM1520 1491l-179 -647h170l717 647h260l-846 -746l486 -745h-219l-426 676h-187l-176 -676h-198l182 676h-170l-756 -676h-260l895 784l-455 707
h222l399 -647h170l174 647h197z" />
    <glyph glyph-name="uni04C2" unicode="&#x4c2;" horiz-adv-x="1863" 
d="M1176 1108l-127 -469h147l502 469h248l-617 -557l348 -551h-209l-292 479h-170l-125 -479h-193l131 479h-149l-520 -479h-246l645 578l-328 530h211l279 -469h151l121 469h193zM1135 1264q-147 0 -219 76.5t-54 201.5h137q0 -133 154 -133q145 0 227 133h146
q-43 -126 -147.5 -202t-243.5 -76z" />
    <glyph glyph-name="uni04CF" unicode="&#x4cf;" horiz-adv-x="598" 
d="M53 0l418 1554h193l-418 -1554h-193z" />
    <glyph glyph-name="uni04D0" unicode="&#x4d0;" horiz-adv-x="1642" 
d="M-82 0l1075 1501h191l268 -1501h-203l-63 385h-780l-273 -385h-215zM528 561h629l-123 713zM1130 1636q-140 0 -212 67.5t-52 188.5h138q5 -56 40.5 -82t118.5 -26q145 0 213 108h154q-42 -121 -150 -188.5t-250 -67.5z" />
    <glyph glyph-name="uni04D1" unicode="&#x4d1;" horiz-adv-x="1251" 
d="M391 -25q-145 0 -245.5 83t-100.5 223q0 159 107 266q135 135 385 135q187 0 378 -57l7 24q14 54 14 99q0 206 -283 206q-166 0 -311 -59l-31 160q181 69 375 69q212 0 325 -90.5t113 -253.5q0 -61 -24 -155l-166 -625h-186l43 166q-166 -191 -400 -191zM459 123
q133 0 251 87.5t154 221.5l21 70q-162 45 -332 45q-162 0 -248 -86q-63 -63 -63 -158q0 -82 59 -131t158 -49zM799 1264q-147 0 -219 76.5t-54 201.5h138q0 -133 153 -133q145 0 227 133h146q-43 -126 -147.5 -202t-243.5 -76z" />
    <glyph glyph-name="uni04D2" unicode="&#x4d2;" horiz-adv-x="1642" 
d="M-82 0l1075 1501h191l268 -1501h-203l-63 385h-780l-273 -385h-215zM528 561h629l-123 713zM815 1640l57 207h218l-56 -207h-219zM1225 1640l57 207h217l-55 -207h-219z" />
    <glyph glyph-name="uni04D3" unicode="&#x4d3;" horiz-adv-x="1251" 
d="M391 -25q-145 0 -245.5 83t-100.5 223q0 159 107 266q135 135 385 135q187 0 378 -57l7 24q14 54 14 99q0 206 -283 206q-166 0 -311 -59l-31 160q181 69 375 69q212 0 325 -90.5t113 -253.5q0 -61 -24 -155l-166 -625h-186l43 166q-166 -191 -400 -191zM459 123
q133 0 251 87.5t154 221.5l21 70q-162 45 -332 45q-162 0 -248 -86q-63 -63 -63 -158q0 -82 59 -131t158 -49zM481 1268l60 217h213l-60 -217h-213zM872 1268l60 217h213l-60 -217h-213z" />
    <glyph glyph-name="uni04D4" unicode="&#x4d4;" horiz-adv-x="2267" 
d="M-82 0l1262 1491h1212l-47 -178h-850l-127 -473h754l-49 -176h-752l-131 -486h860l-47 -178h-1057l105 385h-586l-326 -385h-221zM608 561h488l202 756h-49z" />
    <glyph glyph-name="uni04D5" unicode="&#x4d5;" horiz-adv-x="2056" 
d="M1382 -25q-156 0 -267 64t-167 182q-236 -246 -538 -246q-160 0 -262.5 81.5t-102.5 224.5q0 159 107 266q135 135 385 135q187 0 378 -57l7 24q14 54 14 99q0 206 -283 206q-166 0 -311 -59l-31 160q181 69 375 69q158 0 259.5 -58t137.5 -165q89 107 205 169.5
t248 62.5q102 0 184 -33.5t135 -92t81 -136t28 -166.5q0 -112 -41 -218h-850v-30q0 -148 84.5 -235t235.5 -87q95 0 170 30.5t155 94.5l94 -125q-185 -160 -430 -160zM471 123q233 0 438 217q-12 74 -6 154q-154 53 -350 53q-162 0 -248 -86q-63 -63 -63 -158
q0 -83 60.5 -131.5t168.5 -48.5zM1229 846q-91 -91 -131 -221h671q11 42 11 84q0 112 -66 187t-194 75q-166 0 -291 -125z" />
    <glyph glyph-name="uni04D6" unicode="&#x4d6;" horiz-adv-x="1417" 
d="M1034 1616q-140 0 -212 67.5t-52 188.5h137q5 -56 41 -82.5t119 -26.5q144 0 213 109h154q-42 -121 -150 -188.5t-250 -67.5zM66 0l401 1491h1075l-47 -178h-879l-127 -473h783l-49 -176h-783l-129 -486h889l-47 -178h-1087z" />
    <glyph glyph-name="uni04D7" unicode="&#x4d7;" horiz-adv-x="1282" 
d="M1149 487h-852v-30q0 -144 84 -233t231 -89q176 0 332 125l94 -125q-92 -78 -197 -119t-245 -41q-219 0 -353 131.5t-134 344.5q0 135 55 265t153 228q189 189 441 189q203 0 317.5 -121.5t114.5 -306.5q0 -112 -41 -218zM455 846q-93 -93 -133 -221h673q9 34 9 84
q0 113 -65.5 187.5t-193.5 74.5q-165 0 -290 -125zM854 1264q-146 0 -218 76t-54 202h137q0 -133 153 -133q146 0 228 133h145q-43 -126 -147.5 -202t-243.5 -76z" />
    <glyph glyph-name="uni04D8" unicode="&#x4d8;" horiz-adv-x="1728" 
d="M188 547q0 142 54 289h1200q2 16 2 49q0 205 -122 326.5t-337 121.5q-244 0 -491 -180l-101 154q282 209 600 209q293 0 470 -172.5t177 -462.5q0 -180 -72.5 -354.5t-201.5 -301.5q-259 -250 -598 -250q-140 0 -251.5 44t-182.5 121.5t-108.5 181t-37.5 225.5zM1217 336
q140 140 196 330h-1014q-14 -46 -14 -127q0 -79 23 -146.5t69.5 -122t126 -85.5t184.5 -31q125 0 236 51t193 131z" />
    <glyph glyph-name="uni04D9" unicode="&#x4d9;" horiz-adv-x="1282" 
d="M92 403q0 112 41 218h850q2 6 2 30q0 144 -84 233t-231 89q-171 0 -330 -123l-96 123q92 78 197.5 120t244.5 42q219 0 353.5 -132.5t134.5 -345.5q0 -135 -55 -264.5t-154 -228.5q-189 -189 -439 -189q-206 0 -320 121.5t-114 306.5zM829 262q88 88 129 221h-671
q-8 -24 -8 -82q0 -114 65.5 -189t192.5 -75q167 0 292 125z" />
    <glyph glyph-name="uni04DC" unicode="&#x4dc;" horiz-adv-x="2318" 
d="M1141 1620l57 207h217l-55 -207h-219zM1550 1620l58 207h217l-56 -207h-219zM1520 1491l-179 -647h170l717 647h260l-846 -746l486 -745h-219l-426 676h-187l-176 -676h-198l182 676h-170l-756 -676h-260l895 784l-455 707h222l399 -647h170l174 647h197z" />
    <glyph glyph-name="uni04DD" unicode="&#x4dd;" horiz-adv-x="1863" 
d="M817 1268l60 217h213l-60 -217h-213zM1208 1268l60 217h213l-60 -217h-213zM1176 1108l-127 -469h147l502 469h248l-617 -557l348 -551h-209l-292 479h-170l-125 -479h-193l131 479h-149l-520 -479h-246l645 578l-328 530h211l279 -469h151l121 469h193z" />
    <glyph glyph-name="uni04DE" unicode="&#x4de;" horiz-adv-x="1447" 
d="M637 1640l57 207h217l-55 -207h-219zM1047 1640l57 207h217l-55 -207h-219zM401 1190l-92 151q273 175 574 175q242 0 382 -108.5t140 -277.5q0 -80 -30.5 -147.5t-84 -115.5t-121 -80.5t-147.5 -49.5q114 -40 181 -119t67 -192q0 -104 -49.5 -190.5t-133.5 -142.5
t-192 -87t-227 -31q-384 0 -637 248l129 133q110 -104 234 -154t280 -50q170 0 282.5 75t112.5 205q0 109 -91.5 172.5t-275.5 63.5h-241l45 168h246q214 0 329 70.5t115 201.5q0 98 -84.5 165.5t-239.5 67.5q-238 0 -471 -151z" />
    <glyph glyph-name="uni04DF" unicode="&#x4df;" horiz-adv-x="1220" 
d="M442 1268l60 217h213l-60 -217h-213zM834 1268l59 217h213l-59 -217h-213zM1022 309q0 -143 -135.5 -237.5t-356.5 -94.5q-305 0 -528 175l104 129q185 -142 420 -142q140 0 222.5 51t82.5 136q0 74 -64.5 116.5t-203.5 42.5h-231l39 150h233q153 0 234.5 47.5
t81.5 134.5q0 72 -64 113t-180 41q-188 0 -393 -105l-76 142q114 60 228.5 92.5t252.5 32.5q204 0 317 -84t113 -213q0 -115 -81 -188.5t-206 -100.5q191 -68 191 -238z" />
    <glyph glyph-name="uni04E2" unicode="&#x4e2;" horiz-adv-x="1699" 
d="M770 1655l41 153h721l-41 -153h-721zM1538 1491h199l-400 -1491h-198l311 1167l-1208 -1167h-176l401 1491h197l-308 -1143z" />
    <glyph glyph-name="uni04E3" unicode="&#x4e3;" horiz-adv-x="1376" 
d="M530 1305l41 149h697l-41 -149h-697zM1143 1108h194l-297 -1108h-190l215 815l-838 -815h-188l297 1108h190l-215 -811z" />
    <glyph glyph-name="uni04E4" unicode="&#x4e4;" horiz-adv-x="1699" 
d="M805 1616l57 207h217l-55 -207h-219zM1214 1616l58 207h217l-55 -207h-220zM1538 1491h199l-400 -1491h-198l311 1167l-1208 -1167h-176l401 1491h197l-308 -1143z" />
    <glyph glyph-name="uni04E5" unicode="&#x4e5;" horiz-adv-x="1376" 
d="M567 1268l60 217h213l-60 -217h-213zM958 1268l60 217h213l-60 -217h-213zM1143 1108h194l-297 -1108h-190l215 815l-838 -815h-188l297 1108h190l-215 -811z" />
    <glyph glyph-name="uni04E6" unicode="&#x4e6;" horiz-adv-x="1810" 
d="M858 1640l57 207h218l-56 -207h-219zM1268 1640l57 207h217l-55 -207h-219zM1063 1516q192 0 343 -85.5t233.5 -233.5t82.5 -329q0 -179 -71 -346t-199 -295q-120 -120 -274.5 -187t-329.5 -67q-142 0 -265.5 50t-209 137t-134.5 207t-49 256q0 177 71 343t198 296
q120 120 274.5 187t329.5 67zM864 154q248 0 436 188q103 103 160.5 239.5t57.5 278.5q0 207 -128 341t-341 134q-251 0 -439 -188q-102 -102 -158.5 -238t-56.5 -278q0 -208 128 -342.5t341 -134.5z" />
    <glyph glyph-name="uni04E7" unicode="&#x4e7;" horiz-adv-x="1384" 
d="M569 1268l60 217h213l-60 -217h-213zM961 1268l59 217h213l-59 -217h-213zM762 1133q230 0 370 -141t140 -359q0 -129 -52 -249.5t-145 -213.5q-195 -195 -454 -195q-227 0 -368.5 140t-141.5 360q0 129 52 249t146 214q94 91 210.5 143t242.5 52zM633 143q166 0 295 129
q72 72 110.5 165t38.5 190q0 158 -88.5 247t-238.5 89q-164 0 -293 -129q-71 -68 -111.5 -163t-40.5 -190q0 -159 89 -248.5t239 -89.5z" />
    <glyph glyph-name="uni04E8" unicode="&#x4e8;" horiz-adv-x="1806" 
d="M1061 1516q142 0 265 -50t208 -137t133.5 -206t48.5 -255q0 -179 -70 -346t-198 -295q-121 -121 -274 -187.5t-328 -66.5q-142 0 -265 50t-208.5 137t-134 207t-48.5 256q0 177 71 343t198 296q121 121 274 187.5t328 66.5zM1303 338q136 133 188 326h-1104v-33
q0 -211 129 -347.5t346 -136.5q250 0 441 191zM1520 838v22q0 208 -129.5 344.5t-343.5 136.5q-255 0 -443 -188q-131 -131 -186 -315h1102z" />
    <glyph glyph-name="uni04E9" unicode="&#x4e9;" horiz-adv-x="1380" 
d="M760 1133q228 0 368 -141t140 -359q0 -129 -52 -249.5t-145 -213.5q-92 -92 -209 -143.5t-244 -51.5q-228 0 -367.5 140t-139.5 360q0 129 51.5 249.5t144.5 213.5q92 92 209 143.5t244 51.5zM631 135q172 0 305 133q92 92 129 211h-772v-2q0 -160 92 -252t246 -90z
M444 840q-89 -89 -127 -205h768v2q-4 155 -95.5 245.5t-241.5 88.5q-85 0 -164 -35t-140 -96z" />
    <glyph glyph-name="uni04EE" unicode="&#x4ee;" horiz-adv-x="1521" 
d="M647 1655l41 153h721l-41 -153h-721zM1712 1491l-1245 -1491h-231l434 520l-363 971h207l297 -815l668 815h233z" />
    <glyph glyph-name="uni04EF" unicode="&#x4ef;" horiz-adv-x="1251" 
d="M387 -2l-188 1110h198l135 -893l562 893h217l-748 -1143q-114 -170 -219 -241.5t-235 -71.5q-131 0 -246 78l104 141q83 -55 162 -55q68 0 127.5 40.5t130.5 141.5zM434 1305l41 149h696l-41 -149h-696z" />
    <glyph glyph-name="uni04F0" unicode="&#x4f0;" horiz-adv-x="1521" 
d="M684 1616l57 207h217l-55 -207h-219zM1094 1616l57 207h217l-55 -207h-219zM1712 1491l-1245 -1491h-231l434 520l-363 971h207l297 -815l668 815h233z" />
    <glyph glyph-name="uni04F1" unicode="&#x4f1;" horiz-adv-x="1251" 
d="M387 -2l-188 1110h198l135 -893l562 893h217l-748 -1143q-114 -170 -219 -241.5t-235 -71.5q-131 0 -246 78l104 141q83 -55 162 -55q68 0 127.5 40.5t130.5 141.5zM469 1268l59 217h213l-59 -217h-213zM860 1268l60 217h213l-60 -217h-213z" />
    <glyph glyph-name="uni04F2" unicode="&#x4f2;" horiz-adv-x="1521" 
d="M1712 1491l-1245 -1491h-231l434 520l-363 971h207l297 -815l668 815h233zM694 1616l299 285l181 -84l-306 -201h-174zM1040 1616l299 285l181 -84l-306 -201h-174z" />
    <glyph glyph-name="uni04F3" unicode="&#x4f3;" horiz-adv-x="1251" 
d="M387 -2l-188 1110h198l135 -893l562 893h217l-748 -1143q-114 -170 -219 -241.5t-235 -71.5q-131 0 -246 78l104 141q83 -55 162 -55q68 0 127.5 40.5t130.5 141.5zM449 1268l294 319l156 -84l-301 -235h-149zM809 1268l297 319l156 -84l-304 -235h-149z" />
    <glyph glyph-name="uni04F4" unicode="&#x4f4;" horiz-adv-x="1497" 
d="M936 0l145 543q-165 -31 -315 -31q-109 0 -197.5 21.5t-158.5 66.5t-109 122.5t-39 182.5q0 104 33 219l98 367h199l-105 -385q-28 -112 -28 -178q0 -123 90 -180.5t250 -57.5q169 0 331 39l205 762h199l-401 -1491h-197zM659 1616l58 207h217l-55 -207h-220zM1069 1616
l57 207h217l-55 -207h-219z" />
    <glyph glyph-name="uni04F5" unicode="&#x4f5;" horiz-adv-x="1253" 
d="M455 1268l59 217h213l-59 -217h-213zM846 1268l59 217h213l-59 -217h-213zM1214 1108l-296 -1108h-193l98 360q-115 -22 -235 -22q-203 0 -311.5 77.5t-108.5 235.5q0 60 33 199l71 258h191l-78 -289q-23 -90 -23 -137q0 -89 65.5 -130.5t197.5 -41.5q144 0 243 27
l154 571h192z" />
    <glyph glyph-name="uni04F8" unicode="&#x4f8;" horiz-adv-x="2021" 
d="M1473 0l401 1491h197l-400 -1491h-198zM66 0l401 1491h197l-140 -526h275q261 0 398.5 -110t137.5 -308q0 -211 -141 -352q-195 -195 -602 -195h-526zM1133 535q0 124 -90 188.5t-263 64.5h-305l-164 -610h307q293 0 424 131q91 94 91 226zM954 1616l58 207h217l-55 -207
h-220zM1364 1616l57 207h217l-55 -207h-219z" />
    <glyph glyph-name="uni04F9" unicode="&#x4f9;" horiz-adv-x="1714" 
d="M733 1268l60 217h213l-60 -217h-213zM1124 1268l60 217h213l-60 -217h-213zM1186 0l297 1108h192l-297 -1108h-192zM641 580h-256l-111 -418h277q160 0 253 64.5t93 176.5q0 177 -256 177zM428 739h227q214 0 324.5 -87.5t110.5 -235.5q0 -193 -154 -304.5t-404 -111.5
h-493l297 1108h192z" />
    <glyph glyph-name="baht" unicode="&#xe3f;" horiz-adv-x="1374" 
d="M45 0l401 1491h465q31 0 45 -2l70 172h143l-79 -191q137 -35 206.5 -119.5t69.5 -209.5q0 -156 -102.5 -258t-280.5 -138q115 -30 179.5 -105.5t64.5 -195.5q0 -199 -168 -321.5t-459 -122.5h-115l-100 -252h-143l102 252h-299zM1047 453q0 108 -74.5 164t-216.5 61
l-211 -514h86q196 0 306 77t110 212zM446 825h246l205 502h-2h-315zM1184 1112q0 166 -168 203l-199 -490q173 7 270 83t97 204zM268 164h152l211 514h-228z" />
    <glyph glyph-name="Wgrave" unicode="&#x1e80;" horiz-adv-x="2336" 
d="M1337 1620l-198 201l190 84l146 -285h-138zM438 -10l-125 1501h205l82 -1200l717 1204h164l75 -1204l725 1200h224l-930 -1501h-176l-82 1159l-705 -1159h-174z" />
    <glyph glyph-name="wgrave" unicode="&#x1e81;" horiz-adv-x="1830" 
d="M293 -8l-80 1116h195l47 -844l508 848h161l58 -848l501 844h197l-680 -1116h-172l-57 837l-510 -837h-168zM999 1268l-182 233l193 86l123 -319h-134z" />
    <glyph glyph-name="Wacute" unicode="&#x1e82;" horiz-adv-x="2336" 
d="M1335 1620l299 285l185 -84l-306 -201h-178zM438 -10l-125 1501h205l82 -1200l717 1204h164l75 -1204l725 1200h224l-930 -1501h-176l-82 1159l-705 -1159h-174z" />
    <glyph glyph-name="wacute" unicode="&#x1e83;" horiz-adv-x="1830" 
d="M995 1268l297 319l187 -86l-310 -233h-174zM293 -8l-80 1116h195l47 -844l508 848h161l58 -848l501 844h197l-680 -1116h-172l-57 837l-510 -837h-168z" />
    <glyph glyph-name="Wdieresis" unicode="&#x1e84;" horiz-adv-x="2336" 
d="M1116 1620l58 207h217l-56 -207h-219zM1526 1620l57 207h217l-55 -207h-219zM438 -10l-125 1501h205l82 -1200l717 1204h164l75 -1204l725 1200h224l-930 -1501h-176l-82 1159l-705 -1159h-174z" />
    <glyph glyph-name="wdieresis" unicode="&#x1e85;" horiz-adv-x="1830" 
d="M784 1268l60 217h213l-60 -217h-213zM1176 1268l59 217h213l-59 -217h-213zM293 -8l-80 1116h195l47 -844l508 848h161l58 -848l501 844h197l-680 -1116h-172l-57 837l-510 -837h-168z" />
    <glyph glyph-name="Ygrave" unicode="&#x1ef2;" horiz-adv-x="1427" 
d="M453 0l161 598l-358 893h219l275 -727l669 727h248l-864 -922l-152 -569h-198zM872 1616l-198 201l190 84l146 -285h-138z" />
    <glyph glyph-name="ygrave" unicode="&#x1ef3;" horiz-adv-x="1251" 
d="M387 -2l-188 1110h198l135 -893l562 893h217l-748 -1143q-114 -170 -219 -241.5t-235 -71.5q-131 0 -246 78l104 141q83 -55 162 -55q68 0 127.5 40.5t130.5 141.5zM688 1268l-182 233l192 86l123 -319h-133z" />
    <glyph glyph-name="enspace" unicode="&#x2002;" horiz-adv-x="1024" 
 />
    <glyph glyph-name="emspace" unicode="&#x2003;" horiz-adv-x="2048" 
 />
    <glyph glyph-name="threeperemspace" unicode="&#x2004;" horiz-adv-x="681" 
 />
    <glyph glyph-name="fourperemspace" unicode="&#x2005;" horiz-adv-x="512" 
 />
    <glyph glyph-name="figurespace" unicode="&#x2007;" horiz-adv-x="1290" 
 />
    <glyph glyph-name="thinspace" unicode="&#x2009;" horiz-adv-x="272" 
 />
    <glyph glyph-name="hairspace" unicode="&#x200a;" horiz-adv-x="153" 
 />
    <glyph glyph-name="endash" unicode="&#x2013;" horiz-adv-x="1146" 
d="M141 551l52 186h860l-49 -186h-863z" />
    <glyph glyph-name="emdash" unicode="&#x2014;" horiz-adv-x="1935" 
d="M141 551l52 186h1648l-51 -186h-1649z" />
    <glyph glyph-name="quoteleft" unicode="&#x2018;" horiz-adv-x="587" 
d="M276 983l58 209q41 150 119 219t221 90l18 -84q-99 -23 -150 -69.5t-63 -120.5h86l-65 -244h-224z" />
    <glyph glyph-name="quoteright" unicode="&#x2019;" horiz-adv-x="587" 
d="M248 973l-17 84q97 23 148 69t65 119h-88l66 246h223l-57 -209q-40 -150 -118.5 -219t-221.5 -90z" />
    <glyph glyph-name="quotesinglbase" unicode="&#x201a;" horiz-adv-x="587" 
d="M-74 -274l-18 86q188 38 213 188h-86l65 246h222l-56 -211q-39 -148 -118.5 -218t-221.5 -91z" />
    <glyph glyph-name="quotedblleft" unicode="&#x201c;" horiz-adv-x="1034" 
d="M276 981l58 211q39 148 118.5 218t221.5 91l16 -86q-185 -38 -213 -188h88l-65 -246h-224zM723 981l57 211q39 148 118.5 218t221.5 91l17 -86q-185 -38 -213 -188h88l-66 -246h-223z" />
    <glyph glyph-name="quotedblright" unicode="&#x201d;" horiz-adv-x="1034" 
d="M248 973l-19 84q98 23 149.5 69t63.5 119h-86l66 246h223l-57 -209q-40 -150 -118.5 -219t-221.5 -90zM694 973l-18 84q98 23 149.5 69t63.5 119h-86l65 246h222l-56 -209q-40 -150 -118.5 -219t-221.5 -90z" />
    <glyph glyph-name="quotedblbase" unicode="&#x201e;" horiz-adv-x="1034" 
d="M-74 -274l-18 86q188 38 213 188h-86l65 246h222l-56 -211q-39 -148 -118.5 -218t-221.5 -91zM373 -274l-17 86q185 38 213 188h-88l66 246h223l-55 -211q-39 -147 -119.5 -217.5t-222.5 -91.5z" />
    <glyph glyph-name="dagger" unicode="&#x2020;" horiz-adv-x="894" 
d="M348 508l172 594l-264 -17l35 127l254 -16l59 295h144l-101 -295l264 16l-34 -127l-259 17l-143 -594h-127z" />
    <glyph glyph-name="daggerdbl" unicode="&#x2021;" horiz-adv-x="921" 
d="M217 0l100 295l-266 -16l35 127l256 -17l82 356l108 357l-264 -17l35 127l254 -16l59 295h144l-101 -295l267 16l-35 -127l-258 17l-80 -357l-113 -356l267 17l-33 -127l-256 16l-60 -295h-141z" />
    <glyph glyph-name="bullet" unicode="&#x2022;" horiz-adv-x="1046" 
d="M608 1047q106 0 170 -64t64 -174q0 -73 -28.5 -141.5t-78.5 -118.5q-94 -94 -219 -94q-105 0 -169 64t-64 173q0 73 29 141.5t79 118.5q95 95 217 95z" />
    <glyph glyph-name="ellipsis" unicode="&#x2026;" horiz-adv-x="1636" 
d="M35 0l63 242h219l-63 -242h-219zM561 0l66 242h217l-64 -242h-219zM1087 0l66 242h219l-65 -242h-220z" />
    <glyph glyph-name="perthousand" unicode="&#x2030;" horiz-adv-x="2654" 
d="M508 737q-137 0 -222 89t-85 225q0 97 37 186t104 156q114 114 268 114q134 0 219.5 -88.5t85.5 -224.5q0 -98 -36.5 -187t-102.5 -155q-115 -115 -268 -115zM518 866q82 0 150 68q47 47 74.5 114.5t27.5 135.5q0 91 -45 142.5t-125 51.5q-84 0 -151 -67
q-47 -47 -75 -115t-28 -135q0 -91 45.5 -143t126.5 -52zM145 0l721 745l723 746h189l-723 -746l-723 -745h-187zM1311 -16q-134 0 -219.5 88.5t-85.5 224.5q0 98 36.5 187t102.5 155q115 115 270 115q134 0 219.5 -89t85.5 -225q0 -97 -37 -186t-104 -156
q-114 -114 -268 -114zM1321 113q85 0 152 67q47 47 74.5 114.5t27.5 135.5q0 91 -45.5 143t-124.5 52q-84 0 -152 -68q-47 -47 -74.5 -114.5t-27.5 -135.5q0 -91 45 -142.5t125 -51.5zM2146 -16q-134 0 -219.5 88.5t-85.5 224.5q0 98 36.5 187t102.5 155q115 115 271 115
q134 0 219.5 -89t85.5 -225q0 -98 -36.5 -187t-102.5 -155q-114 -114 -271 -114zM2157 113q84 0 151 67q47 47 74.5 114.5t27.5 135.5q0 91 -45 143t-124 52q-84 0 -152 -68q-47 -47 -74.5 -114.5t-27.5 -135.5q0 -91 45 -142.5t125 -51.5z" />
    <glyph glyph-name="guilsinglleft" unicode="&#x2039;" horiz-adv-x="735" 
d="M340 82l-234 457l5 16l487 465l111 -102l-387 -392l165 -374z" />
    <glyph glyph-name="guilsinglright" unicode="&#x203a;" horiz-adv-x="735" 
d="M393 1020l234 -457l-6 -18l-486 -463l-112 100l387 393l-166 373z" />
    <glyph glyph-name="fraction" unicode="&#x2044;" horiz-adv-x="233" 
d="M-657 0l733 768l678 723h137l-733 -768l-676 -723h-139z" />
    <glyph glyph-name="zero.sup" unicode="&#x2070;" 
d="M977 1470q0 -127 -51.5 -259t-139.5 -220q-105 -108 -241 -108q-117 0 -185.5 74.5t-68.5 203.5q0 128 50 259.5t138 219.5q111 111 242 111q117 0 186.5 -76t69.5 -205zM420 1169q0 -82 35 -127t102 -45q73 0 135 62q69 69 111.5 188.5t42.5 214.5q0 83 -35 128.5
t-102 45.5q-73 0 -136 -63q-69 -69 -111 -188.5t-42 -215.5z" />
    <glyph glyph-name="four.sup" unicode="&#x2074;" 
d="M627 901l49 186h-404l9 115l546 539h140l-148 -551h115l-29 -103h-114l-50 -186h-114zM406 1188h296l109 405h-2z" />
    <glyph glyph-name="five.sup" unicode="&#x2075;" 
d="M561 883q-100 0 -180 40t-125 105l92 74q82 -107 217 -107q95 0 154 50t59 126q0 65 -46.5 100.5t-123.5 35.5q-84 0 -155 -41l-80 59l137 404h483l-32 -117h-377l-78 -230q60 29 137 29q122 0 193 -62.5t71 -170.5q0 -123 -95 -209t-251 -86z" />
    <glyph glyph-name="six.sup" unicode="&#x2076;" 
d="M557 883q-129 0 -201.5 77t-72.5 222q0 123 47.5 243t132.5 205q121 121 276 121q151 0 238 -104l-74 -86q-71 77 -172 77q-106 0 -190 -84q-86 -86 -119 -221q32 40 88.5 70.5t128.5 30.5q99 0 167 -62t68 -170q0 -126 -92.5 -222.5t-224.5 -96.5zM561 987
q80 0 135.5 59.5t55.5 139.5q0 67 -40 107t-108 40q-79 0 -143 -57q-55 -58 -55 -135q0 -70 42 -112t113 -42z" />
    <glyph glyph-name="seven.sup" unicode="&#x2077;" 
d="M303 899l537 711h-430l32 119h572l-25 -97l-545 -733h-141z" />
    <glyph glyph-name="eight.sup" unicode="&#x2078;" 
d="M578 883q-133 0 -221.5 64t-88.5 161q0 96 63.5 157t166.5 81q-51 24 -81 68t-30 102q0 97 85 166t220 69q125 0 205 -62t80 -159q0 -84 -55 -140.5t-144 -74.5q59 -25 95 -73t36 -114q0 -104 -92.5 -174.5t-238.5 -70.5zM582 983q91 0 147.5 42.5t56.5 109.5
q2 61 -51 101t-139 40q-92 0 -149.5 -42.5t-59.5 -109.5q0 -61 55 -101t140 -40zM672 1374q86 0 136 40t50 102q0 58 -47 95.5t-121 37.5q-80 0 -132 -40.5t-52 -101.5q-1 -60 45 -96.5t121 -36.5z" />
    <glyph glyph-name="nine.sup" unicode="&#x2079;" 
d="M528 883q-158 0 -252 114l74 86q86 -90 187 -90q109 0 190 84q71 66 119 217q-29 -41 -86.5 -72.5t-132.5 -31.5q-99 0 -166.5 62t-67.5 173q0 125 90 224.5t222 99.5q131 0 205.5 -77.5t74.5 -221.5q0 -123 -46.5 -242.5t-127.5 -203.5q-124 -121 -283 -121zM664 1290
q83 0 141 58q55 55 55 139q0 72 -41.5 115t-113.5 43q-83 0 -136 -61.5t-53 -143.5q0 -68 40 -109t108 -41z" />
    <glyph glyph-name="zero.inf" unicode="&#x2080;" 
d="M662 289q0 -127 -51.5 -259t-139.5 -220q-106 -109 -242 -109q-117 0 -185.5 75t-68.5 204q0 128 50 259t139 220q110 110 242 110q117 0 186.5 -75.5t69.5 -204.5zM104 -12q0 -82 35.5 -127t102.5 -45q74 0 135 61q69 69 111 188.5t42 215.5q0 83 -35 128.5t-102 45.5
q-71 0 -135 -64q-69 -69 -111.5 -188.5t-42.5 -214.5z" />
    <glyph glyph-name="one.inf" unicode="&#x2081;" horiz-adv-x="700" 
d="M117 -279l186 703l-194 -68l-7 111l265 94h96l-223 -840h-123z" />
    <glyph glyph-name="two.inf" unicode="&#x2082;" 
d="M-90 -279l27 107l448 330q68 49 100.5 90t32.5 92q0 53 -38.5 84t-102.5 31q-108 0 -221 -113l-78 78q135 149 307 149q118 0 189 -60t71 -159q0 -75 -43.5 -137.5t-150.5 -136.5l-336 -242h422l-29 -113h-598z" />
    <glyph glyph-name="three.inf" unicode="&#x2083;" 
d="M238 -299q-214 0 -299 147l88 74q79 -110 209 -110q90 0 147 44.5t57 112.5q0 129 -190 129h-45l-19 76l322 260h-385l31 113h551l-29 -96l-332 -265q102 -11 163.5 -61t61.5 -143q0 -120 -97 -200.5t-234 -80.5z" />
    <glyph glyph-name="four.inf" unicode="&#x2084;" 
d="M311 -281l49 187h-403l8 114l547 539h139l-147 -551h114l-28 -102h-115l-49 -187h-115zM90 6h297l109 406h-2z" />
    <glyph glyph-name="five.inf" unicode="&#x2085;" 
d="M244 -299q-100 0 -180 40t-125 105l92 74q81 -106 217 -106q95 0 154 50t59 126q0 64 -46.5 99.5t-123.5 35.5q-85 0 -156 -41l-80 59l138 404h483l-33 -117h-377l-78 -229q58 28 138 28q122 0 193 -62.5t71 -170.5q0 -123 -95 -209t-251 -86z" />
    <glyph glyph-name="six.inf" unicode="&#x2086;" 
d="M242 -299q-129 0 -202 77.5t-73 221.5q0 123 47.5 243.5t132.5 205.5q120 120 277 120q151 0 238 -104l-74 -86q-72 78 -172 78q-107 0 -191 -84q-86 -86 -119 -221q32 39 89 69.5t129 30.5q99 0 167 -62t68 -170q0 -126 -92.5 -222.5t-224.5 -96.5zM246 -195
q80 0 135 59.5t55 139.5q0 67 -39.5 107.5t-107.5 40.5q-79 0 -144 -58q-55 -58 -55 -135q0 -69 42 -111.5t114 -42.5z" />
    <glyph glyph-name="seven.inf" unicode="&#x2087;" 
d="M10 -283l537 711h-430l33 119h571l-25 -96l-544 -734h-142z" />
    <glyph glyph-name="eight.inf" unicode="&#x2088;" 
d="M262 -299q-133 0 -221 64t-88 161q0 96 63 157t166 81q-51 24 -80.5 68t-29.5 102q0 97 85 166t220 69q125 0 205 -62t80 -159q0 -84 -55 -140.5t-144 -74.5q59 -25 95 -72.5t36 -113.5q0 -104 -93 -175t-239 -71zM266 -199q91 0 148 42.5t57 109.5q2 61 -51 101t-139 40
q-92 0 -149.5 -42.5t-59.5 -108.5q0 -61 54.5 -101.5t139.5 -40.5zM356 193q86 0 136.5 40t50.5 101q0 58 -47 95.5t-121 37.5q-80 0 -132.5 -40t-52.5 -101q-1 -60 45 -96.5t121 -36.5z" />
    <glyph glyph-name="nine.inf" unicode="&#x2089;" 
d="M213 -299q-157 0 -252 115l74 86q86 -90 186 -90q110 0 191 84q69 65 118 217q-29 -42 -86.5 -73.5t-132.5 -31.5q-99 0 -166 62.5t-67 173.5q0 125 89.5 224t221.5 99q131 0 206 -77.5t75 -221.5q0 -123 -46.5 -242.5t-127.5 -203.5q-124 -121 -283 -121zM348 109
q84 0 141 57q56 56 56 139q0 72 -42 115t-114 43q-83 0 -135.5 -61.5t-52.5 -143.5q0 -68 39.5 -108.5t107.5 -40.5z" />
    <glyph glyph-name="colonmonetary" unicode="&#x20a1;" horiz-adv-x="1314" 
d="M1282 1661h119l-119 -285q71 -58 111 -108l-113 -138q-37 46 -74 78l-436 -1046q88 9 153 42.5t134 88.5l86 -137q-190 -152 -434 -160l-103 -248h-119l105 256q-100 17 -168 53l-129 -309h-119l152 373q-95 77 -147 196t-52 271q0 202 71.5 382.5t200.5 309.5
q203 206 500 215l70 166h119l-74 -174q92 -14 172 -53zM317 584q0 -180 91 -291l430 1034q-168 -20 -295 -147q-107 -107 -166.5 -269t-59.5 -327zM944 1327l-459 -1104q75 -49 179 -61l458 1110q-73 46 -178 55z" />
    <glyph glyph-name="naira" unicode="&#x20a6;" horiz-adv-x="1783" 
d="M1665 473h-215l-127 -473h-213l-162 473h-475l-125 -473h-184l127 473h-215l37 131h213l77 291h-215l37 131h213l125 465h228l159 -467l461 2l125 465h186l-125 -465h218l-37 -131h-215l-78 -291h217zM682 1251l-176 -649h405l-225 649h-4zM1206 262h4l168 635h-391z" />
    <glyph glyph-name="rupee" unicode="&#x20a8;" horiz-adv-x="2332" 
d="M1985 299q0 56 -42 96.5t-151 83.5q-153 58 -227 125.5t-74 181.5q0 147 115 245.5t297 98.5q120 0 222 -40t177 -101l-102 -131q-153 121 -312 121q-98 0 -156.5 -47.5t-58.5 -114.5q0 -55 42 -94.5t157 -85.5q154 -65 224.5 -132.5t70.5 -174.5q0 -155 -122 -255
t-296 -100q-126 0 -248 48t-219 139l113 123q166 -158 364 -158q94 0 160 48t66 124zM911 0l-221 559h-321l-150 -559h-186l401 1491h424q124 0 221 -32.5t156 -90t89 -130t30 -157.5q0 -104 -37.5 -192.5t-103.5 -151t-150.5 -104t-183.5 -60.5l237 -573h-205zM414 725h286
q132 0 233.5 36t164.5 116t63 196q0 115 -78 180.5t-229 65.5h-281z" />
    <glyph glyph-name="won" unicode="&#x20a9;" horiz-adv-x="2379" 
d="M2269 477h-373l-264 -483h-231l-8 483h-451l-264 -483h-232l-6 483h-368l34 135h332l-2 271h-256l37 135h217l-4 473h203l-8 -473h430l262 477h229l4 -477h435l243 473h221l-258 -473h224l-37 -135h-260l-148 -271h334zM606 203h10l369 684h-369zM1374 1266l-362 -658
h381l-9 658h-10zM1561 203h10l348 684h-367z" />
    <glyph glyph-name="sheqel" unicode="&#x20aa;" horiz-adv-x="1349" 
d="M8 0l297 1108h334q303 0 303 -234q0 -54 -18 -124l-93 -349h-120l73 281q19 64 19 115q0 81 -49.5 115t-147.5 34h-188l-254 -946h-156zM1042 0h-258q-184 0 -266 87.5t-63 272.5l34 361h117l-24 -307q-12 -140 36.5 -196t169.5 -56h142l254 946h155z" />
    <glyph glyph-name="Euro" unicode="&#x20ac;" horiz-adv-x="1507" 
d="M174 860l39 148h154q79 185 198 299q209 209 498 209q193 0 318.5 -92.5t177.5 -249.5l-170 -78q-53 120 -132.5 180.5t-212.5 60.5q-180 0 -329 -143q-87 -90 -131 -186h551l-39 -148h-568q-34 -103 -43 -215h553l-39 -147h-516q17 -161 107.5 -252.5t236.5 -91.5
q117 0 204.5 44.5t172.5 139.5l133 -115q-105 -119 -228.5 -183.5t-285.5 -64.5q-228 0 -376.5 140.5t-165.5 382.5h-203l39 147h166q9 110 36 215h-145z" />
    <glyph glyph-name="peso" unicode="&#x20b1;" horiz-adv-x="1576" 
d="M1620 928h-184q-32 -134 -133 -240q-99 -99 -250.5 -151t-341.5 -52h-238l-129 -485h-197l246 928h-209l37 129h207l117 434h364q296 0 434 -141q109 -106 109 -293h203zM514 653h207q289 0 430 138q60 60 84 143h-647zM692 1319l-71 -266h632q0 106 -67 176
q-93 90 -277 90h-217z" />
    <glyph glyph-name="hryvnia" unicode="&#x20b4;" horiz-adv-x="1376" 
d="M231 926l41 106l629 -92q109 66 155 122t46 122q0 75 -57.5 118.5t-174.5 43.5q-171 0 -372 -119l-76 157q241 132 467 132q209 0 315.5 -90t106.5 -228q0 -160 -162 -295l231 -33l-39 -104l-325 47l-264 -158l516 -73l-41 -107l-627 92q-122 -72 -169.5 -131.5
t-47.5 -126.5q0 -76 60.5 -120t174.5 -44q199 0 416 125l76 -155q-254 -140 -502 -140q-215 0 -324.5 90t-109.5 232q0 83 39 158t133 149l-227 33l41 104l323 -47l267 156z" />
    <glyph glyph-name="numero" unicode="&#x2116;" horiz-adv-x="2416" 
d="M47 0l397 1491h181l417 -1153l306 1153h188l-397 -1491h-162l-428 1184l-313 -1184h-189zM1966 598q-158 0 -247 98t-89 262q0 115 44 224.5t114 179.5q140 137 307 137q158 0 247 -98t89 -262q0 -114 -44.5 -224.5t-113.5 -179.5q-137 -137 -307 -137zM1972 729
q100 0 180 80q57 57 90 145t33 181q0 107 -48 170t-138 63q-98 0 -180 -82q-57 -57 -90 -144.5t-33 -180.5q0 -107 48 -169.5t138 -62.5zM1479 299l34 123h713l-37 -123h-710z" />
    <glyph glyph-name="published" unicode="&#x2117;" horiz-adv-x="1787" 
d="M791 1159h260q133 0 211.5 -60t78.5 -175q0 -140 -105.5 -218.5t-287.5 -78.5h-170l-71 -265h-129zM1210 918q0 63 -43.5 93.5t-119.5 30.5h-158l-80 -301h149q51 0 95 9.5t80 29.5t56.5 55.5t20.5 82.5zM1026 1516q154 0 283 -52t216.5 -143t136 -215t48.5 -266
q0 -174 -66 -335.5t-188 -283.5q-246 -246 -594 -246q-154 0 -283 52t-216.5 143t-136 215t-48.5 266q0 174 66 335.5t188 283.5q246 246 594 246zM866 45q312 0 531 219q235 235 235 576q0 168 -70.5 304t-211 219t-328.5 83q-311 0 -530 -219q-236 -236 -236 -574
q0 -126 41.5 -236t118 -193t192.5 -131t258 -48z" />
    <glyph glyph-name="servicemark" unicode="&#x2120;" horiz-adv-x="1523" 
d="M442 823q-85 0 -157.5 34t-116.5 91l74 62q88 -101 211 -101q62 0 102.5 30t40.5 77q0 35 -25.5 57t-101.5 53q-97 37 -137.5 75t-40.5 102q0 74 53 127q73 73 201 73q142 0 235 -100l-69 -68q-77 80 -179 80q-63 0 -101 -29t-38 -69q0 -35 30 -58.5t112 -54.5
q85 -32 124 -71.5t39 -100.5q0 -80 -57 -137q-72 -72 -199 -72zM807 836l182 655h101l133 -344l313 344h117l-185 -655h-100l139 491l-317 -344h-10l-133 344l-140 -491h-100z" />
    <glyph glyph-name="trademark" unicode="&#x2122;" horiz-adv-x="1499" 
d="M326 836l155 559h-209l29 96h518l-26 -96h-207l-158 -559h-102zM780 836l185 655h100l131 -344l313 344h117l-182 -655h-101l138 491l-316 -344h-12l-133 344l-137 -491h-103z" />
    <glyph glyph-name="Omega" unicode="&#x2126;" horiz-adv-x="1861" 
d="M451 698q0 -154 60.5 -281t186.5 -253l-45 -164h-626l47 172l426 -2q-124 129 -188 264.5t-64 294.5q0 165 64 311t175.5 250.5t268.5 165t336 60.5q309 0 489 -164t180 -434q0 -222 -130.5 -405.5t-383.5 -342.5l412 2l-47 -172h-660l45 164q129 75 226.5 152.5
t173.5 167t116.5 192.5t42.5 215q5 197 -124.5 320.5t-354.5 123.5q-176 0 -318.5 -78.5t-225 -224.5t-82.5 -334z" />
    <glyph glyph-name="onethird" unicode="&#x2153;" horiz-adv-x="1775" 
d="M1192 -20q-214 0 -299 147l88 74q80 -111 209 -111q90 0 147.5 45t57.5 113q0 129 -191 129h-45l-18 76l321 260h-385l31 112h551l-29 -96l-332 -264q102 -11 164 -61.5t62 -143.5q0 -120 -97.5 -200t-234.5 -80zM317 666l187 702l-195 -68l-6 111l264 92h97l-224 -837
h-123zM41 0l733 768l678 723h137l-733 -768l-676 -723h-139z" />
    <glyph glyph-name="twothirds" unicode="&#x2154;" horiz-adv-x="1935" 
d="M1352 -20q-214 0 -299 147l88 74q80 -111 209 -111q90 0 147 45t57 113q0 129 -190 129h-45l-19 76l322 260h-385l31 112h551l-29 -96l-332 -264q101 -11 163 -61.5t62 -143.5q0 -120 -97 -200t-234 -80zM98 666l27 106l448 330q68 49 101 90.5t33 91.5q0 53 -39 84
t-103 31q-108 0 -221 -113l-78 78q134 147 307 147q118 0 189.5 -59.5t71.5 -157.5q0 -75 -44 -137.5t-151 -136.5l-336 -242h422l-29 -112h-598zM195 0l733 768l678 723h137l-733 -768l-676 -723h-139z" />
    <glyph glyph-name="onefifth" unicode="&#x2155;" horiz-adv-x="1775" 
d="M1198 -20q-100 0 -180 40t-125 105l92 74q82 -107 217 -107q95 0 154 50t59 126q0 64 -46.5 99.5t-123.5 35.5q-84 0 -155 -41l-80 60l137 403h483l-33 -116h-376l-78 -230q60 29 137 29q122 0 193 -63t71 -171q0 -123 -95 -208.5t-251 -85.5zM317 666l187 702l-195 -68
l-6 111l264 92h97l-224 -837h-123zM53 0l733 768l678 723h138l-734 -768l-675 -723h-140z" />
    <glyph glyph-name="twofifths" unicode="&#x2156;" horiz-adv-x="1935" 
d="M1358 -20q-100 0 -180 40t-125 105l92 74q82 -107 217 -107q95 0 154 50t59 126q0 64 -46.5 99.5t-123.5 35.5q-85 0 -156 -41l-80 60l138 403h483l-33 -116h-377l-77 -230q60 29 137 29q122 0 193 -63t71 -171q0 -123 -95 -208.5t-251 -85.5zM215 0l733 768l678 723h137
l-733 -768l-676 -723h-139zM98 666l27 106l448 330q68 49 101 90.5t33 91.5q0 53 -39 84t-103 31q-108 0 -221 -113l-78 78q134 147 307 147q118 0 189.5 -59.5t71.5 -157.5q0 -75 -44 -137.5t-151 -136.5l-336 -242h422l-29 -112h-598z" />
    <glyph glyph-name="threefifths" unicode="&#x2157;" horiz-adv-x="1935" 
d="M1358 -20q-100 0 -180 40t-125 105l92 74q82 -107 217 -107q95 0 154 50t59 126q0 64 -46.5 99.5t-123.5 35.5q-85 0 -156 -41l-80 60l138 403h483l-33 -116h-377l-77 -230q60 29 137 29q122 0 193 -63t71 -171q0 -123 -95 -208.5t-251 -85.5zM184 0l734 768l677 723h138
l-734 -768l-675 -723h-140zM426 643q-212 0 -299 150l86 73q83 -110 211 -110q88 0 146.5 45t58.5 112q0 64 -50.5 96.5t-140.5 32.5h-45l-20 76l321 258h-385l33 115h549l-27 -96l-332 -265q100 -11 162 -61t62 -143q0 -120 -96.5 -201.5t-233.5 -81.5z" />
    <glyph glyph-name="fourfifths" unicode="&#x2158;" horiz-adv-x="1935" 
d="M500 662l49 186h-402l9 115l544 538h142l-150 -551h115l-27 -102h-114l-50 -186h-116zM279 948h299l108 406h-2zM1358 -20q-100 0 -180 40t-125 105l92 74q82 -107 217 -107q95 0 154 50t59 126q0 64 -46.5 99.5t-123.5 35.5q-85 0 -156 -41l-80 60l138 403h483l-33 -116
h-377l-77 -230q60 29 137 29q122 0 193 -63t71 -171q0 -123 -95 -208.5t-251 -85.5zM215 0l733 768l678 723h137l-733 -768l-676 -723h-139z" />
    <glyph glyph-name="onesixth" unicode="&#x2159;" horiz-adv-x="1775" 
d="M1196 -20q-129 0 -201.5 77t-72.5 222q0 123 47.5 243t132.5 205q121 121 276 121q150 0 238 -105l-74 -86q-72 78 -172 78q-106 0 -190 -84q-86 -86 -119 -221q32 39 88.5 69.5t128.5 30.5q99 0 167 -61.5t68 -169.5q0 -126 -92.5 -222.5t-224.5 -96.5zM1200 84
q80 0 135.5 59.5t55.5 139.5q0 67 -40 107t-108 40q-79 0 -143 -57q-56 -59 -56 -135q0 -70 42 -112t114 -42zM317 666l187 702l-195 -68l-6 111l264 92h97l-224 -837h-123zM68 0l733 768l678 723h137l-733 -768l-676 -723h-139z" />
    <glyph glyph-name="fivesixths" unicode="&#x215a;" horiz-adv-x="1935" 
d="M1356 -20q-129 0 -202 77.5t-73 221.5q0 123 48 243t133 205q121 121 276 121q150 0 238 -105l-74 -86q-72 78 -172 78q-107 0 -191 -84q-85 -85 -118 -221q32 39 88.5 69.5t128.5 30.5q99 0 167 -61.5t68 -169.5q0 -126 -92.5 -222.5t-224.5 -96.5zM1360 84
q80 0 135 59.5t55 139.5q0 67 -39.5 107t-107.5 40q-79 0 -143 -57q-56 -59 -56 -135q0 -70 42 -112t114 -42zM195 0l733 768l678 723h137l-733 -768l-676 -723h-139zM434 643q-100 0 -180 40t-125 105l92 74q81 -106 215 -106q95 0 154 51t59 127q0 65 -45.5 100t-122.5 35
q-80 0 -157 -41l-78 59l137 404h481l-30 -117h-377l-80 -229q54 26 137 26q124 0 195 -61.5t71 -169.5q0 -124 -95.5 -210.5t-250.5 -86.5z" />
    <glyph glyph-name="oneeighth" unicode="&#x215b;" horiz-adv-x="1775" 
d="M1219 -20q-133 0 -221.5 64t-88.5 161q0 96 63.5 156.5t166.5 80.5q-51 24 -81 68t-30 102q0 97 85 166.5t220 69.5q125 0 205 -62t80 -159q0 -84 -55 -140.5t-144 -74.5q59 -25 95 -73t36 -114q0 -104 -92.5 -174.5t-238.5 -70.5zM1223 80q92 0 148 42t56 109
q2 61 -51 101.5t-139 40.5q-92 0 -149.5 -42.5t-59.5 -109.5q0 -61 55 -101t140 -40zM1313 471q86 0 136 39.5t50 101.5q0 58 -47 95.5t-121 37.5q-80 0 -132 -40t-52 -101q-1 -60 45 -96.5t121 -36.5zM317 666l187 702l-195 -68l-6 111l264 92h97l-224 -837h-123zM63 0
l734 768l678 723h137l-733 -768l-676 -723h-140z" />
    <glyph glyph-name="threeeighths" unicode="&#x215c;" horiz-adv-x="1935" 
d="M1378 -20q-133 0 -221 64t-88 161q0 96 63 156.5t166 80.5q-51 24 -80.5 68t-29.5 102q0 97 85 166.5t220 69.5q125 0 205 -62t80 -159q0 -84 -55 -140.5t-144 -74.5q59 -25 95 -73t36 -114q0 -104 -93 -174.5t-239 -70.5zM1382 80q92 0 148.5 42.5t56.5 108.5
q2 61 -51 101.5t-139 40.5q-92 0 -149.5 -42.5t-59.5 -109.5q0 -61 54.5 -101t139.5 -40zM1473 471q86 0 136 39.5t50 101.5q0 58 -47 95.5t-121 37.5q-80 0 -132 -40t-52 -101q-1 -60 45 -96.5t121 -36.5zM195 0l733 768l678 723h137l-733 -768l-676 -723h-139zM426 643
q-212 0 -299 150l86 73q83 -110 211 -110q88 0 146.5 45t58.5 112q0 64 -50.5 96.5t-140.5 32.5h-45l-20 76l321 258h-385l33 115h549l-27 -96l-332 -265q100 -11 162 -61t62 -143q0 -120 -96.5 -201.5t-233.5 -81.5z" />
    <glyph glyph-name="fiveeighths" unicode="&#x215d;" horiz-adv-x="1935" 
d="M1378 -20q-133 0 -221 64t-88 161q0 96 63 156.5t166 80.5q-51 24 -80.5 68t-29.5 102q0 97 85 166.5t220 69.5q125 0 205 -62t80 -159q0 -84 -55 -140.5t-144 -74.5q59 -25 95 -73t36 -114q0 -104 -93 -174.5t-239 -70.5zM1382 80q92 0 148.5 42.5t56.5 108.5
q2 61 -51 101.5t-139 40.5q-92 0 -149.5 -42.5t-59.5 -109.5q0 -61 54.5 -101t139.5 -40zM1473 471q86 0 136 39.5t50 101.5q0 58 -47 95.5t-121 37.5q-80 0 -132 -40t-52 -101q-1 -60 45 -96.5t121 -36.5zM195 0l733 768l678 723h137l-733 -768l-676 -723h-139zM434 643
q-100 0 -180 40t-125 105l92 74q81 -106 215 -106q95 0 154 51t59 127q0 65 -45.5 100t-122.5 35q-80 0 -157 -41l-78 59l137 404h481l-30 -117h-377l-80 -229q54 26 137 26q124 0 195 -61.5t71 -169.5q0 -124 -95.5 -210.5t-250.5 -86.5z" />
    <glyph glyph-name="seveneighths" unicode="&#x215e;" horiz-adv-x="1935" 
d="M1378 -20q-133 0 -221 64t-88 161q0 96 63 156.5t166 80.5q-51 24 -80.5 68t-29.5 102q0 97 85 166.5t220 69.5q125 0 205 -62t80 -159q0 -84 -55 -140.5t-144 -74.5q59 -25 95 -73t36 -114q0 -104 -93 -174.5t-239 -70.5zM1382 80q92 0 148.5 42.5t56.5 108.5
q2 61 -51 101.5t-139 40.5q-92 0 -149.5 -42.5t-59.5 -109.5q0 -61 54.5 -101t139.5 -40zM1473 471q86 0 136 39.5t50 101.5q0 58 -47 95.5t-121 37.5q-80 0 -132 -40t-52 -101q-1 -60 45 -96.5t121 -36.5zM217 662l537 710h-430l30 119h574l-25 -96l-545 -733h-141zM131 0
l733 768l678 723h137l-733 -768l-676 -723h-139z" />
    <glyph glyph-name="Delta" unicode="&#x2206;" horiz-adv-x="1652" 
d="M1188 1501l270 -1356l-53 -145h-1436l21 145l997 1356h201zM1038 1272l-794 -1094h1001z" />
    <glyph glyph-name="minus" unicode="&#x2212;" horiz-adv-x="1357" 
d="M184 657l47 185h1049l-47 -185h-1049z" />
    <glyph glyph-name="NUL" horiz-adv-x="0" 
 />
    <glyph glyph-name="CR" horiz-adv-x="659" 
 />
    <glyph glyph-name="Q.alt" horiz-adv-x="1810" 
d="M1063 1516q192 0 343 -85.5t233.5 -233.5t82.5 -329q0 -184 -75.5 -355.5t-210.5 -301.5l141 -166l-156 -113l-127 170q-206 -129 -446 -129q-142 0 -265.5 50t-209 137t-134.5 207t-49 256q0 177 71 343t198 296q120 120 274.5 187t329.5 67zM864 154q170 0 318 92
l-226 274l156 115l205 -277q95 104 148 235.5t53 266.5q0 207 -128 341t-341 134q-251 0 -439 -188q-102 -102 -158.5 -238t-56.5 -278q0 -208 128 -342.5t341 -134.5z" />
    <glyph glyph-name="a.alt" horiz-adv-x="1429" 
d="M551 -25q-191 0 -313.5 129.5t-122.5 341.5q0 151 54 281.5t150 224.5q181 181 416 181q277 0 402 -259l63 234h193l-297 -1108h-193l47 176q-182 -201 -399 -201zM612 143q172 0 310 138q155 162 155 358q0 141 -90.5 233.5t-232.5 92.5q-167 0 -287 -123
q-73 -73 -112.5 -171t-39.5 -210q0 -145 81.5 -231.5t215.5 -86.5z" />
    <glyph glyph-name="uni039E.alt" horiz-adv-x="1550" 
d="M1444 840l-47 -176h-498l-131 -486h565l-47 -178h-1319l47 178h564l131 486h-496l49 176h494l127 473h-551l47 178h1296l-47 -178h-555l-127 -473h498z" />
    <glyph glyph-name="uni0424.bgr" horiz-adv-x="2029" 
d="M190 647q0 166 64 313t174 257q140 136 325.5 207t395.5 71h16l58 209h196l-59 -221q264 -44 420.5 -216t156.5 -423q0 -166 -63.5 -313t-173.5 -257q-140 -136 -325.5 -207t-395.5 -71h-16l-58 -209h-196l59 221q-263 41 -420.5 214.5t-157.5 424.5zM393 645
q0 -183 114.5 -311t313.5 -152l303 1135h-2q-155 0 -296 -54t-244 -157q-189 -189 -189 -461zM1735 846q-2 183 -114 307.5t-312 153.5l-305 -1133h2q155 0 296 54t244 157q189 189 189 461z" />
    <glyph glyph-name="uni0432.bgr" horiz-adv-x="1384" 
d="M141 434q0 79 33 211l109 402q64 238 192 366q156 156 410 156q210 0 333 -110.5t123 -276.5q0 -165 -108.5 -276t-300.5 -148q135 -45 211 -131t76 -215q0 -191 -151 -314t-398 -123t-388 122.5t-141 336.5zM598 700h-217l-27 -100q-24 -94 -24 -158q0 -139 91.5 -220
t256.5 -81q159 0 252.5 82t93.5 203q0 123 -106.5 198.5t-319.5 75.5zM879 1405q-160 0 -267 -107q-98 -98 -143 -272l-49 -178h252q225 0 350 85.5t125 235.5q0 103 -71.5 169.5t-196.5 66.5z" />
    <glyph glyph-name="uni0433.bgr" horiz-adv-x="1112" 
d="M76 262q0 136 98 220t336 153q147 43 221 76t99.5 62.5t25.5 74.5q0 121 -192 121q-153 0 -355 -92l-55 151q222 100 414 100q188 0 281 -75.5t93 -204.5q0 -74 -24.5 -127.5t-83 -96t-137.5 -74.5t-205 -69q-102 -28 -169 -54.5t-102 -53t-48 -51t-13 -54.5
q0 -131 207 -131q180 0 407 103l60 -150q-243 -110 -479 -110q-181 0 -280 73t-99 209z" />
    <glyph glyph-name="uni0434.bgr" horiz-adv-x="1435" 
d="M524 -344q-155 0 -299.5 48.5t-249.5 135.5l115 135q194 -159 428 -159q191 0 301 110q83 83 131 252l27 98q-93 -93 -191 -141.5t-221 -48.5q-87 0 -166 28t-141 79t-98.5 130.5t-36.5 174.5q0 262 188 450q86 88 199.5 136.5t232.5 48.5q278 0 394 -254l59 229h193
l-250 -938q-36 -133 -78 -214t-105 -144q-79 -79 -183.5 -117.5t-248.5 -38.5zM629 248q180 0 317 137q129 129 129 287q0 122 -88 207.5t-231 85.5q-174 0 -301 -127q-129 -129 -129 -312q0 -133 87 -205.5t216 -72.5z" />
    <glyph glyph-name="uni0436.bgr" horiz-adv-x="1863" 
d="M1296 1554l-247 -915h147l502 469h248l-617 -557l348 -551h-209l-292 479h-170l-125 -479h-193l131 479h-149l-520 -479h-246l645 578l-328 530h211l279 -469h151l242 915h192z" />
    <glyph glyph-name="uni0438.bgr" horiz-adv-x="1333" 
d="M475 -25q-160 0 -254 92.5t-94 247.5q0 59 29 181l163 612h193l-168 -623q-16 -62 -16 -123q0 -100 61 -156t170 -56q122 0 226 93t145 240l168 625h190l-295 -1108h-192l45 170q-83 -92 -171 -143.5t-200 -51.5z" />
    <glyph glyph-name="uni0439.bgr" horiz-adv-x="1329" 
d="M475 -25q-160 0 -254 92.5t-94 247.5q0 59 29 181l163 612h193l-168 -623q-16 -62 -16 -123q0 -100 61 -156t170 -56q122 0 226 93t145 240l168 625h190l-295 -1108h-192l45 170q-83 -92 -171 -143.5t-200 -51.5zM856 1264q-146 0 -218 76t-54 202h137q0 -133 153 -133
q146 0 228 133h145q-43 -126 -147.5 -202t-243.5 -76z" />
    <glyph glyph-name="uni043A.bgr" horiz-adv-x="1251" 
d="M1063 0h-213l-320 479h-174l-125 -479h-192l418 1554h192l-250 -913h162l518 467h258l-645 -563z" />
    <glyph glyph-name="uni043F.bgr" horiz-adv-x="1333" 
d="M39 0l297 1108h192l-45 -168q79 89 168 141t201 52q160 0 254 -92.5t94 -247.5q0 -57 -29 -179l-161 -614h-193l166 625q16 62 16 120q0 100 -60.5 156.5t-168.5 56.5q-123 0 -227.5 -93t-145.5 -240l-166 -625h-192z" />
    <glyph glyph-name="uni0442.bgr" horiz-adv-x="2043" 
d="M39 0l297 1108h192l-45 -168q44 47 75.5 75.5t76 58.5t95 44.5t108.5 14.5q125 0 204.5 -69t106.5 -173q161 242 436 242q150 0 243 -93.5t93 -246.5q0 -57 -33 -179l-162 -614h-192l166 625q16 62 16 120q0 99 -56.5 156t-158.5 57q-116 0 -218 -94t-138 -239l-166 -625
h-193l168 625q17 66 17 120q0 98 -57.5 155.5t-157.5 57.5q-118 0 -218.5 -93.5t-140.5 -239.5l-166 -625h-192z" />
    <glyph glyph-name="uni0446.bgr" horiz-adv-x="1372" 
d="M475 -25q-160 0 -254 92.5t-94 247.5q0 59 29 181l163 612h193l-168 -623q-16 -62 -16 -123q0 -100 61 -156t170 -56q122 0 226 93t145 240l168 625h190l-250 -934h140l-123 -461h-176l77 287h-155l45 170q-83 -92 -171 -143.5t-200 -51.5z" />
    <glyph glyph-name="uni0448.bgr" horiz-adv-x="2043" 
d="M2005 1108l-297 -1108h-192l45 170q-83 -94 -165 -144.5t-190 -50.5q-127 0 -205.5 68.5t-105.5 175.5q-76 -115 -187 -179.5t-249 -64.5q-151 0 -243.5 94t-92.5 246q0 59 33 181l161 612h193l-168 -623q-14 -68 -14 -123q0 -99 56.5 -155.5t158.5 -56.5
q116 0 217.5 94.5t138.5 238.5l166 625h192l-167 -623q-17 -66 -17 -123q0 -99 56.5 -155.5t158.5 -56.5q116 0 218 94.5t139 238.5l167 625h193z" />
    <glyph glyph-name="uni0449.bgr" horiz-adv-x="2082" 
d="M2005 1108l-250 -934h137l-123 -461h-176l78 287h-155l45 170q-83 -94 -165 -144.5t-190 -50.5q-127 0 -205.5 68.5t-105.5 175.5q-76 -115 -187 -179.5t-249 -64.5q-151 0 -243.5 94t-92.5 246q0 59 33 181l161 612h193l-168 -623q-14 -68 -14 -123q0 -99 56.5 -155.5
t158.5 -56.5q116 0 217.5 94.5t138.5 238.5l166 625h192l-167 -623q-17 -66 -17 -123q0 -99 56.5 -155.5t158.5 -56.5q116 0 218 94.5t139 238.5l167 625h193z" />
    </font>
</defs>
</svg>
