<?xml version="1.0" standalone="no"?>
<!DOCTYPE svg PUBLIC "-//W3C//DTD SVG 1.1//EN" "http://www.w3.org/Graphics/SVG/1.1/DTD/svg11.dtd" >
<svg xmlns="http://www.w3.org/2000/svg" xmlns:xlink="http://www.w3.org/1999/xlink" version="1.1">
<metadata>
Created by FontForge 20201107 at Mon Apr  7 19:28:49 2025
 By 
Copyright (C) 2001, 2010 Hoefler &#38; Co. http://www.typography.com |DCNT
</metadata>
<defs>
<font id="GothamSSm-Light" horiz-adv-x="860" >
  <font-face 
    font-family="GothamSSm Light"
    font-weight="300"
    font-stretch="normal"
    units-per-em="2048"
    panose-1="0 0 0 0 0 0 0 0 0 0"
    ascent="1638"
    descent="-410"
    x-height="1094"
    cap-height="1491"
    bbox="-442 -500 2466 2109"
    underline-thickness="102"
    underline-position="-204"
    unicode-range="U+0020-FB04"
  />
<missing-glyph horiz-adv-x="1024" 
d="M0 -410v2048h1024v-2048h-1024zM145 1536l367 -799l367 799h-734zM102 -156l353 770l-353 770v-1540zM922 1384l-353 -770l353 -770v1540zM512 492l-367 -799h734z" />
    <glyph glyph-name="f_f" unicode="ff" horiz-adv-x="1574" 
d="M262 0v971h-153v123h153v100q0 187 96 283q86 86 234 86q86 0 172 -27v-123q-88 27 -160 27q-205 0 -205 -252v-94h363v-123h-363v-971h-137zM1040 0v971h-153v123h153v100q0 186 97 283q86 86 233 86q86 0 172 -27v-123q-88 27 -160 27q-204 0 -204 -252v-94h362v-123
h-362v-971h-138z" />
    <glyph glyph-name="fi" unicode="fi" horiz-adv-x="1345" 
d="M262 0v971h-153v123h153v100q0 187 96 283q86 86 234 86q86 0 172 -27v-123q-88 27 -160 27q-205 0 -205 -252v-94h363v-123h-363v-971h-137zM981 1354v166h162v-166h-162zM993 0v1094h137v-1094h-137z" />
    <glyph glyph-name="fl" unicode="fl" horiz-adv-x="1345" 
d="M262 0v971h-153v123h153v100q0 187 96 283q86 86 234 86q86 0 172 -27v-123q-88 27 -160 27q-205 0 -205 -252v-94h363v-123h-363v-971h-137zM993 0v1554h137v-1554h-137z" />
    <glyph glyph-name="f_f_i" unicode="ffi" horiz-adv-x="2121" 
d="M262 0v971h-153v123h153v100q0 187 96 283q86 86 234 86q86 0 172 -27v-123q-88 27 -160 27q-205 0 -205 -252v-94h363v-123h-363v-971h-137zM1040 0v971h-153v123h153v100q0 186 97 283q86 86 233 86q86 0 172 -27v-123q-88 27 -160 27q-204 0 -204 -252v-94h362v-123
h-362v-971h-138zM1757 1354v166h162v-166h-162zM1769 0v1094h138v-1094h-138z" />
    <glyph glyph-name="f_f_l" unicode="ffl" horiz-adv-x="2121" 
d="M262 0v971h-153v123h153v100q0 187 96 283q86 86 234 86q86 0 172 -27v-123q-88 27 -160 27q-205 0 -205 -252v-94h363v-123h-363v-971h-137zM1040 0v971h-153v123h153v100q0 186 97 283q86 86 233 86q86 0 172 -27v-123q-88 27 -160 27q-204 0 -204 -252v-94h362v-123
h-362v-971h-138zM1769 0v1554h138v-1554h-138z" />
    <glyph glyph-name=".notdef" horiz-adv-x="1024" 
d="M0 -410v2048h1024v-2048h-1024zM145 1536l367 -799l367 799h-734zM102 -156l353 770l-353 770v-1540zM922 1384l-353 -770l353 -770v1540zM512 492l-367 -799h734z" />
    <glyph glyph-name=".null" horiz-adv-x="0" 
 />
    <glyph glyph-name="nonmarkingreturn" horiz-adv-x="682" 
 />
    <glyph glyph-name="space" unicode=" " horiz-adv-x="651" 
 />
    <glyph glyph-name="exclam" unicode="!" horiz-adv-x="579" 
d="M252 408l-43 950v133h162v-133l-41 -950h-78zM205 0v205h170v-205h-170z" />
    <glyph glyph-name="quotedbl" unicode="&#x22;" horiz-adv-x="929" 
d="M553 930l70 561h170v-10l-162 -551h-78zM152 930l69 561h170v-10l-162 -551h-77z" />
    <glyph glyph-name="numbersign" unicode="#" horiz-adv-x="1511" 
d="M1317 512v-125h-285l-65 -387h-129l65 387h-420l-67 -387h-129l65 387h-241v125h264l82 475h-262v125h282l66 379h129l-66 -379h422l66 379h129l-66 -379h242v-125h-262l-82 -475h262zM584 989l-82 -477h424l82 477h-424z" />
    <glyph glyph-name="dollar" unicode="$" horiz-adv-x="1370" 
d="M1167 1315l-82 -109q-162 135 -333 158v-557q243 -54 351.5 -150.5t108.5 -257.5v-2q0 -168 -126 -276.5t-328 -120.5v-209h-121v211q-275 25 -504 225l84 107q99 -91 200.5 -141.5t225.5 -67.5v565q-240 56 -347 151.5t-106 258.5v2q0 162 125.5 272t321.5 117v123h121
v-127q119 -12 215 -53.5t194 -118.5zM1073 389v2q0 105 -69 170t-252 107v-547q147 6 235 80.5t86 187.5zM330 1110v-2q0 -68 24.5 -115t94.5 -89.5t194 -74.5v541q-140 -4 -226.5 -78.5t-86.5 -181.5z" />
    <glyph glyph-name="percent" unicode="%" horiz-adv-x="1787" 
d="M455 745q-145 0 -237.5 111.5t-92.5 265.5v4q0 159 93 270t241 111q145 0 238.5 -111.5t93.5 -265.5v-4q0 -101 -41.5 -187.5t-119.5 -140t-175 -53.5zM455 1401q-88 0 -145.5 -79.5t-57.5 -191.5v-4q0 -117 60.5 -195.5t146.5 -78.5q89 0 147 79t58 191v4q0 115 -61 195
t-148 80zM848 772l524 719h135l-571 -778l-522 -713h-135zM1327 -16q-145 0 -237.5 110.5t-92.5 265.5v5q0 156 93 268t241 112q145 0 238.5 -111t93.5 -265v-4q0 -158 -94.5 -269.5t-241.5 -111.5zM1331 90q90 0 147.5 77t57.5 193v5q0 115 -61 194.5t-148 79.5
q-88 0 -145.5 -79t-57.5 -191v-4q0 -117 60.5 -196t146.5 -79z" />
    <glyph glyph-name="ampersand" unicode="&#x26;" horiz-adv-x="1503" 
d="M1313 -31l-244 254q-217 -243 -496 -243q-200 0 -331 115.5t-131 299.5v4q0 292 370 432q-83 97 -120 172t-37 162v4q0 148 108.5 247.5t276.5 99.5q151 0 252.5 -96t101.5 -234v-4q0 -136 -92 -230t-266 -157l362 -373q95 129 186 346l121 -53q-103 -230 -217 -385
l266 -273zM623 879q303 99 303 295v4q0 97 -62 159t-159 62q-105 0 -173.5 -66t-68.5 -162v-4q0 -68 34 -128t126 -160zM582 100q212 0 399 213l-418 430q-156 -55 -232.5 -144t-76.5 -196v-4q0 -127 93 -213t235 -86z" />
    <glyph glyph-name="quotesingle" unicode="'" horiz-adv-x="528" 
d="M152 930l69 561h172v-10l-164 -551h-77z" />
    <glyph glyph-name="parenleft" unicode="(" horiz-adv-x="942" 
d="M807 -209l-59 -92q-288 162 -439 391.5t-151 519.5v2q0 288 151.5 519.5t438.5 392.5l59 -92q-252 -158 -380 -361t-128 -461v-2q0 -501 508 -817z" />
    <glyph glyph-name="parenright" unicode=")" horiz-adv-x="942" 
d="M193 -301l-60 92q252 158 380 359.5t128 459.5v2q0 504 -508 820l60 92q289 -161 440 -392t151 -522v-2q0 -287 -151 -517.5t-440 -391.5z" />
    <glyph glyph-name="asterisk" unicode="*" horiz-adv-x="935" 
d="M418 854l20 268l-223 -153l-53 90l250 117l-250 114l53 90l223 -153l-20 268h102l-22 -268l223 153l53 -90l-250 -114l250 -117l-53 -90l-223 153l22 -268h-102z" />
    <glyph glyph-name="plus" unicode="+" horiz-adv-x="1347" 
d="M606 238v446h-450v131h450v447h135v-447h451v-131h-451v-446h-135z" />
    <glyph glyph-name="comma" unicode="," horiz-adv-x="528" 
d="M141 -246l-26 66q76 33 106.5 74t26.5 106h-70v205h172v-176q0 -116 -49 -179t-160 -96z" />
    <glyph glyph-name="hyphen" unicode="-" horiz-adv-x="888" 
d="M154 563v148h583v-148h-583z" />
    <glyph glyph-name="period" unicode="." horiz-adv-x="528" 
d="M178 0v205h172v-205h-172z" />
    <glyph glyph-name="slash" unicode="/" horiz-adv-x="1095" 
d="M-31 -272l996 1972h131l-998 -1972h-129z" />
    <glyph glyph-name="zero" unicode="0" horiz-adv-x="1540" 
d="M768 -25q-141 0 -259.5 61t-197 166t-122.5 244t-44 295v4q0 155 44.5 295t124.5 245.5t199 168t259 62.5q112 0 211 -39.5t173.5 -110.5t128.5 -166.5t82 -210.5t28 -239v-5q0 -124 -28 -239t-82.5 -211t-130 -168t-175 -112t-211.5 -40zM772 104q141 0 250.5 89.5
t166 233.5t56.5 314v4q0 169 -58 314.5t-168.5 236t-250.5 90.5q-108 0 -198.5 -52t-150 -140t-93 -203t-33.5 -241v-5q0 -125 34 -241t95 -205t152 -142t198 -53z" />
    <glyph glyph-name="one" unicode="1" horiz-adv-x="761" 
d="M391 0v1354l-282 -92l-37 114l354 125h106v-1501h-141z" />
    <glyph glyph-name="two" unicode="2" horiz-adv-x="1288" 
d="M113 0v111l546 487q181 165 250.5 268.5t69.5 216.5q0 134 -91.5 217.5t-223.5 83.5q-128 0 -224.5 -64t-193.5 -200l-105 74q72 107 140 172.5t167.5 105t227.5 39.5q196 0 324 -118t128 -297v-4q0 -79 -20 -145.5t-70 -137t-113.5 -135.5t-170.5 -162l-424 -379h813
v-133h-1030z" />
    <glyph glyph-name="three" unicode="3" horiz-adv-x="1323" 
d="M672 -25q-343 0 -551 267l106 92q183 -230 449 -230q144 0 244 86.5t100 221.5v4q0 143 -121 223t-317 80h-90l-31 84l489 557h-751v131h944v-105l-486 -544q104 -6 194 -35t161 -79.5t112 -129t41 -176.5v-4q0 -129 -67 -231t-179 -157t-247 -55z" />
    <glyph glyph-name="four" unicode="4" horiz-adv-x="1441" 
d="M942 0v358h-795l-41 105l848 1038h127v-1022h236v-121h-236v-358h-139zM279 479h663v819z" />
    <glyph glyph-name="five" unicode="5" horiz-adv-x="1316" 
d="M655 -25q-150 0 -285 65t-243 173l96 102q211 -211 434 -211q166 0 271.5 100t105.5 251v4q0 146 -107.5 237.5t-279.5 91.5q-161 0 -323 -88l-101 68l43 723h850v-133h-725l-33 -514q155 74 310 74q221 0 367.5 -125t146.5 -330v-4q0 -214 -148.5 -349t-378.5 -135z" />
    <glyph glyph-name="six" unicode="6" horiz-adv-x="1394" 
d="M717 -25q-116 0 -216 40t-169 110q-98 93 -143.5 226t-45.5 354v4q0 169 43 316.5t120.5 256.5t194.5 171.5t257 62.5q124 0 227.5 -42.5t208.5 -127.5l-86 -111q-91 77 -174.5 114t-183.5 37q-143 0 -249.5 -92t-159 -244t-52.5 -343v-29q81 124 187.5 187t254.5 63
q137 0 254.5 -56t189.5 -161.5t72 -237.5v-4q0 -140 -70 -253.5t-191 -177t-269 -63.5zM723 102q168 0 272.5 104.5t104.5 256.5v4q0 143 -108.5 239.5t-274.5 96.5q-167 0 -279 -104.5t-112 -239.5v-6q0 -150 113 -250.5t284 -100.5z" />
    <glyph glyph-name="seven" unicode="7" horiz-adv-x="1280" 
d="M319 0l676 1358h-839v133h1001v-107l-678 -1384h-160z" />
    <glyph glyph-name="eight" unicode="8" horiz-adv-x="1361" 
d="M682 -20q-158 0 -285 52.5t-199.5 148.5t-72.5 218v4q0 129 86 224.5t229 144.5q-118 49 -191 135.5t-73 208.5v4q0 112 71 202.5t186.5 139.5t248.5 49t248.5 -49t186.5 -139.5t71 -202.5v-4q0 -122 -74.5 -208.5t-191.5 -135.5q144 -52 230.5 -146.5t86.5 -219.5v-5
q0 -123 -73.5 -220t-200 -149t-283.5 -52zM682 821q151 0 255.5 81t104.5 208v4q0 118 -103 195t-257 77q-155 0 -259 -77t-104 -195v-4q0 -127 105.5 -208t257.5 -81zM682 104q185 0 298.5 86t113.5 209v4q0 130 -119.5 214.5t-292.5 84.5q-174 0 -293 -84.5t-119 -214.5
v-4q0 -123 112.5 -209t299.5 -86z" />
    <glyph glyph-name="nine" unicode="9" horiz-adv-x="1394" 
d="M641 104q140 0 247.5 91.5t162.5 240.5t55 328v43q-157 -258 -440 -258q-226 0 -372.5 130.5t-146.5 328.5v6q0 139 66.5 253.5t188.5 181.5t276 67q235 0 387 -152q92 -92 139 -229t47 -351v-4q0 -233 -78.5 -416.5t-218.5 -286t-317 -102.5q-239 0 -455 183l86 110
q95 -84 184 -124t189 -40zM678 674q87 0 162 30t124 80t77 113.5t28 130.5v4q0 151 -113 254t-286 103q-171 0 -273 -108.5t-102 -262.5v-4q0 -148 107.5 -244t275.5 -96z" />
    <glyph glyph-name="colon" unicode=":" horiz-adv-x="548" 
d="M188 889v205h172v-205h-172zM188 0v205h172v-205h-172z" />
    <glyph glyph-name="semicolon" unicode=";" horiz-adv-x="548" 
d="M188 889v205h172v-205h-172zM152 -246l-27 66q76 33 106.5 74t26.5 106h-70v205h172v-176q0 -116 -48.5 -179t-159.5 -96z" />
    <glyph glyph-name="less" unicode="&#x3c;" horiz-adv-x="1347" 
d="M1141 188l-996 504v117l996 504v-144l-838 -417l838 -420v-144z" />
    <glyph glyph-name="equal" unicode="=" horiz-adv-x="1347" 
d="M184 928v135h979v-135h-979zM184 436v137h979v-137h-979z" />
    <glyph glyph-name="greater" unicode="&#x3e;" horiz-adv-x="1347" 
d="M207 188v142l837 418l-837 421v144l995 -504v-117z" />
    <glyph glyph-name="question" unicode="?" horiz-adv-x="1161" 
d="M487 408l-30 344l10 12q208 4 320 88.5t112 228.5v4q0 127 -90 212t-240 85q-224 0 -397 -208l-94 86q99 121 217.5 185t279.5 64q212 0 340.5 -117.5t128.5 -299.5v-5q0 -98 -34.5 -176t-96.5 -130t-141 -83.5t-174 -44.5l-20 -245h-91zM446 0v205h172v-205h-172z" />
    <glyph glyph-name="at" unicode="@" horiz-adv-x="2107" 
d="M1073 -344q-201 0 -378.5 74t-302.5 199t-197 296t-72 359t73 360t197.5 297.5t298 200t365.5 74.5q191 0 364 -69t296 -183.5t195.5 -269t72.5 -320.5q0 -132 -34.5 -235t-92.5 -163.5t-126 -91t-141 -30.5q-114 0 -189.5 49t-105.5 137q-150 -186 -356 -186
q-160 0 -269.5 107t-109.5 276q0 111 43 211t113 169t159 109.5t179 40.5q212 0 313 -182l29 153l125 -18l-82 -467q-19 -108 -19 -141q0 -86 49.5 -132.5t137.5 -46.5q58 0 110.5 26.5t96 78.5t69 139t25.5 197q0 145 -65.5 284.5t-177 247.5t-272 174t-337.5 66
q-181 0 -341 -68.5t-273 -184.5t-178.5 -275t-65.5 -334q0 -176 65 -334t178.5 -273.5t277.5 -183t353 -67.5q155 0 279.5 35t251.5 110l34 -55q-266 -160 -565 -160zM965 270q132 0 239 107q58 58 91.5 133.5t33.5 155.5q0 122 -76.5 202t-191.5 80q-138 0 -246 -108
q-56 -56 -88.5 -132t-32.5 -161q0 -128 75 -202.5t196 -74.5z" />
    <glyph glyph-name="A" unicode="A" horiz-adv-x="1703" 
d="M98 0l686 1501h136l686 -1501h-156l-180 406h-842l-182 -406h-148zM485 535h727l-362 804z" />
    <glyph glyph-name="B" unicode="B" horiz-adv-x="1558" 
d="M225 0v1491h627q255 0 389 -131q96 -96 96 -238v-4q0 -136 -70 -221.5t-175 -128.5q148 -41 237.5 -127.5t89.5 -228.5v-4q0 -189 -145.5 -298.5t-390.5 -109.5h-658zM1192 1100v4q0 119 -91.5 188.5t-256.5 69.5h-477v-547h464q163 0 262 74.5t99 210.5zM1276 414v4
q0 130 -108 200t-314 70h-487v-559h518q181 0 286 76t105 209z" />
    <glyph glyph-name="C" unicode="C" horiz-adv-x="1601" 
d="M903 -25q-157 0 -295.5 60t-236.5 162.5t-154.5 244t-56.5 299.5v4q0 156 56.5 297.5t154.5 246t238.5 166t299.5 61.5q97 0 180.5 -17t154.5 -50.5t127.5 -73t119.5 -95.5l-98 -106q-107 102 -222 157t-264 55q-169 0 -306.5 -84.5t-214.5 -230t-77 -321.5v-5
q0 -176 79 -323.5t217 -232.5t304 -85q148 0 263 55.5t233 168.5l94 -92q-129 -129 -267.5 -195t-328.5 -66z" />
    <glyph glyph-name="D" unicode="D" horiz-adv-x="1685" 
d="M225 0v1491h510q228 0 409.5 -97.5t281.5 -266.5t100 -377v-5q0 -208 -100 -378t-281.5 -268.5t-409.5 -98.5h-510zM735 1360h-366v-1229h366q144 0 265.5 47.5t204 129.5t128 193.5t45.5 239.5v4q0 127 -46 239.5t-128 195.5t-203.5 131.5t-265.5 48.5z" />
    <glyph glyph-name="E" unicode="E" horiz-adv-x="1447" 
d="M225 0v1491h1071v-131h-927v-543h831v-131h-831v-555h938v-131h-1082z" />
    <glyph glyph-name="F" unicode="F" horiz-adv-x="1417" 
d="M225 0v1491h1063v-131h-919v-567h823v-131h-823v-662h-144z" />
    <glyph glyph-name="G" unicode="G" horiz-adv-x="1689" 
d="M913 -25q-171 0 -314 60t-238.5 164t-148 243.5t-52.5 298.5v4q0 151 53.5 290.5t148.5 246t236 170.5t305 64q177 0 304.5 -48.5t246.5 -148.5l-92 -109q-93 84 -204.5 130t-262.5 46q-168 0 -303 -87t-209 -232.5t-74 -316.5v-5q0 -186 73 -331t212.5 -228.5
t325.5 -83.5q129 0 248.5 44t201.5 114v397h-473v129h610v-585q-112 -99 -266.5 -162.5t-327.5 -63.5z" />
    <glyph glyph-name="H" unicode="H" horiz-adv-x="1638" 
d="M225 0v1491h144v-676h901v676h143v-1491h-143v684h-901v-684h-144z" />
    <glyph glyph-name="I" unicode="I" horiz-adv-x="624" 
d="M240 0v1491h143v-1491h-143z" />
    <glyph glyph-name="J" unicode="J" horiz-adv-x="1193" 
d="M539 -20q-300 0 -457 270l108 84q71 -115 152.5 -170t200.5 -55q136 0 220.5 98t84.5 278v1006h145v-1002q0 -252 -137 -389q-126 -120 -317 -120z" />
    <glyph glyph-name="K" unicode="K" horiz-adv-x="1548" 
d="M225 0v1491h144v-930l897 930h190l-647 -653l674 -838h-183l-591 735l-340 -344v-391h-144z" />
    <glyph glyph-name="L" unicode="L" horiz-adv-x="1329" 
d="M225 0v1491h144v-1360h856v-131h-1000z" />
    <glyph glyph-name="M" unicode="M" horiz-adv-x="1869" 
d="M225 0v1491h142l567 -844l567 844h144v-1491h-144v1247l-565 -825h-8l-563 823v-1245h-140z" />
    <glyph glyph-name="N" unicode="N" horiz-adv-x="1703" 
d="M225 0v1491h135l979 -1241v1241h140v-1491h-113l-1001 1268v-1268h-140z" />
    <glyph glyph-name="O" unicode="O" horiz-adv-x="1830" 
d="M913 -25q-133 0 -252 40t-209.5 111.5t-156.5 167.5t-100.5 210.5t-34.5 236.5v4q0 153 55.5 293.5t153 246t240.5 168.5t309 63q133 0 252 -40t209.5 -111.5t156.5 -167.5t100.5 -210.5t34.5 -236.5v-5q0 -153 -55.5 -293t-153 -245.5t-240.5 -168.5t-309 -63zM918 104
q129 0 242.5 50.5t192 136t124 202.5t45.5 248v4q0 175 -78 321.5t-218.5 233t-312.5 86.5t-311.5 -85.5t-216 -230.5t-76.5 -320v-5q0 -175 78 -321.5t218.5 -233t312.5 -86.5z" />
    <glyph glyph-name="P" unicode="P" horiz-adv-x="1443" 
d="M225 0v1491h551q253 0 405 -125t152 -340v-4q0 -153 -81 -264.5t-211.5 -165t-292.5 -53.5h-379v-539h-144zM369 670h387q195 0 314.5 95.5t119.5 250.5v4q0 164 -115 252t-309 88h-397v-690z" />
    <glyph glyph-name="Q" unicode="Q" horiz-adv-x="1830" 
d="M1690 63l-99 -108l-202 184q-203 -164 -476 -164q-133 0 -252 40t-209.5 111.5t-156.5 167.5t-100.5 210.5t-34.5 236.5v4q0 153 55.5 293.5t153 246t240.5 168.5t309 63q133 0 252 -40t209.5 -111.5t156.5 -167.5t100.5 -210.5t34.5 -236.5v-5q0 -142 -48 -273
t-136 -236zM918 104q215 0 366 123l-283 244l99 111l282 -258q140 183 140 417v4q0 175 -78 321.5t-218.5 233t-312.5 86.5t-311.5 -85.5t-216 -230.5t-76.5 -320v-5q0 -175 78 -321.5t218.5 -233t312.5 -86.5z" />
    <glyph glyph-name="R" unicode="R" horiz-adv-x="1560" 
d="M225 0v1491h635q136 0 244.5 -39.5t177.5 -108.5q115 -115 115 -286v-4q0 -179 -115 -290.5t-305 -141.5l473 -621h-176l-453 596h-452v-596h-144zM369 725h477q181 0 294 86.5t113 235.5v4q0 144 -106 226.5t-297 82.5h-481v-635z" />
    <glyph glyph-name="S" unicode="S" horiz-adv-x="1384" 
d="M733 -20q-178 0 -323 57.5t-281 179.5l90 107q122 -112 244.5 -165t277.5 -53q156 0 254.5 78t98.5 197v4q0 76 -32.5 127t-122 94.5t-249.5 75.5q-267 55 -384.5 153t-117.5 273v4q0 172 138.5 285.5t347.5 113.5q160 0 279.5 -43.5t238.5 -138.5l-86 -110
q-196 165 -436 165q-150 0 -244 -75.5t-94 -184.5v-4q0 -57 17.5 -99t63.5 -80.5t128.5 -68.5t208.5 -57q255 -54 371 -153t116 -265v-4q0 -185 -141.5 -299t-362.5 -114z" />
    <glyph glyph-name="T" unicode="T" horiz-adv-x="1382" 
d="M621 0v1358h-510v133h1161v-133h-508v-1358h-143z" />
    <glyph glyph-name="U" unicode="U" horiz-adv-x="1638" 
d="M819 -23q-281 0 -448.5 168.5t-167.5 477.5v868h143v-858q0 -253 125 -390t352 -137q220 0 344.5 132.5t124.5 384.5v868h144v-856q0 -317 -167.5 -487.5t-449.5 -170.5z" />
    <glyph glyph-name="V" unicode="V" horiz-adv-x="1617" 
d="M745 -10l-647 1501h158l555 -1323l557 1323h152l-648 -1501h-127z" />
    <glyph glyph-name="W" unicode="W" horiz-adv-x="2373" 
d="M647 -10l-536 1501h157l445 -1280l422 1284h114l420 -1284l445 1280h149l-534 -1501h-121l-420 1247l-422 -1247h-119z" />
    <glyph glyph-name="X" unicode="X" horiz-adv-x="1560" 
d="M1262 1491h165l-559 -731l582 -760h-170l-502 664l-499 -664h-166l581 760l-561 731h170l479 -635z" />
    <glyph glyph-name="Y" unicode="Y" horiz-adv-x="1546" 
d="M700 0v590l-628 901h176l526 -770l531 770h168l-629 -899v-592h-144z" />
    <glyph glyph-name="Z" unicode="Z" horiz-adv-x="1492" 
d="M154 0v90l989 1272h-955v129h1153v-90l-991 -1272h991v-129h-1187z" />
    <glyph glyph-name="bracketleft" unicode="[" horiz-adv-x="948" 
d="M215 -276v1767h596v-107h-467v-1554h467v-106h-596z" />
    <glyph glyph-name="backslash" unicode="\" horiz-adv-x="1095" 
d="M997 -272l-997 1972h131l995 -1972h-129z" />
    <glyph glyph-name="bracketright" unicode="]" horiz-adv-x="948" 
d="M135 -276v106h469v1554h-469v107h598v-1767h-598z" />
    <glyph glyph-name="asciicircum" unicode="^" horiz-adv-x="1085" 
d="M154 1051l331 446h115l332 -446h-131l-260 340l-260 -340h-127z" />
    <glyph glyph-name="underscore" unicode="_" horiz-adv-x="1298" 
d="M6 -340v117h1286v-117h-1286z" />
    <glyph glyph-name="grave" unicode="`" horiz-adv-x="1085" 
d="M565 1268l-235 225l151 72l195 -297h-111z" />
    <glyph glyph-name="a" unicode="a" horiz-adv-x="1249" 
d="M530 -25q-78 0 -151.5 22.5t-132.5 64t-95 108t-36 147.5v5q0 168 129.5 261t343.5 93q194 0 346 -47v43q0 154 -88.5 234.5t-251.5 80.5q-160 0 -338 -84l-43 115q202 92 393 92q228 0 350 -119q113 -116 113 -315v-676h-135v172q-147 -197 -404 -197zM549 92
q163 0 276 88.5t113 225.5v114q-180 47 -346 47q-160 0 -248 -63.5t-88 -173.5v-6q0 -106 85.5 -169t207.5 -63z" />
    <glyph glyph-name="b" unicode="b" horiz-adv-x="1431" 
d="M772 -25q-270 0 -434 246v-221h-137v1554h137v-690q172 256 434 256q79 0 155.5 -24.5t143 -73t117.5 -116t80.5 -159.5t29.5 -196v-4q0 -104 -29.5 -196.5t-80.5 -160t-117.5 -117t-143 -74t-155.5 -24.5zM750 102q173 0 288 120t115 321v4q0 197 -117.5 321.5
t-285.5 124.5q-108 0 -203 -55.5t-155 -158.5t-60 -230v-4q0 -96 35 -180t93 -141t134 -89.5t156 -32.5z" />
    <glyph glyph-name="c" unicode="c" horiz-adv-x="1236" 
d="M688 -25q-155 0 -284 77.5t-202 208t-73 282.5v4q0 152 73.5 283.5t203 210.5t284.5 79q140 0 243.5 -53.5t192.5 -146.5l-92 -97q-80 82 -160.5 127t-187.5 45q-176 0 -295 -129t-119 -315v-4q0 -187 123 -317t301 -130q194 0 348 172l91 -84q-94 -104 -198.5 -158.5
t-248.5 -54.5z" />
    <glyph glyph-name="d" unicode="d" horiz-adv-x="1431" 
d="M659 -25q-99 0 -193 39.5t-168.5 111t-119.5 180.5t-45 237v4q0 105 29.5 197.5t80.5 160t117.5 117t143 74t155.5 24.5q268 0 435 -248v682h137v-1554h-137v231q-172 -256 -435 -256zM682 102q79 0 154.5 32.5t134 89.5t94 141t35.5 180v4q0 129 -61 232.5t-155.5 157.5
t-201.5 54q-173 0 -289.5 -120.5t-116.5 -321.5v-4q0 -197 118.5 -321t287.5 -124z" />
    <glyph glyph-name="e" unicode="e" horiz-adv-x="1273" 
d="M672 -25q-110 0 -209 41.5t-173 115.5t-117.5 181t-43.5 232v4q0 157 67.5 287.5t187.5 207t267 76.5q154 0 271 -77.5t177 -207.5t60 -292q0 -34 -4 -49h-885q17 -183 132.5 -290.5t273.5 -107.5q204 0 358 164l88 -80q-92 -100 -198 -152.5t-252 -52.5zM270 604h746
q-8 108 -50 195t-124.5 143.5t-194.5 56.5q-151 0 -255.5 -111.5t-121.5 -283.5z" />
    <glyph glyph-name="f" unicode="f" horiz-adv-x="798" 
d="M262 0v971h-153v123h153v100q0 187 96 283q86 86 234 86q86 0 172 -27v-123q-88 27 -160 27q-205 0 -205 -252v-94h363v-123h-363v-971h-137z" />
    <glyph glyph-name="g" unicode="g" horiz-adv-x="1431" 
d="M682 -344q-272 0 -500 158l70 108q198 -145 432 -145q188 0 299 104.5t111 300.5v142q-170 -242 -441 -242q-99 0 -192.5 36.5t-166.5 102t-117 164t-44 213.5v4q0 116 44.5 215t117.5 164.5t166 102t192 36.5q260 0 441 -233v207h137v-912q0 -242 -139 -381
q-145 -145 -410 -145zM676 209q108 0 204.5 48t158 139.5t61.5 203.5v4q0 114 -61.5 204.5t-157.5 137.5t-205 47q-169 0 -284.5 -107t-115.5 -282v-4q0 -169 118 -280t282 -111z" />
    <glyph glyph-name="h" unicode="h" horiz-adv-x="1329" 
d="M201 0v1554h137v-655q129 221 383 221q199 0 313.5 -122.5t114.5 -321.5v-676h-137v643q0 162 -85.5 256t-238.5 94q-151 0 -250.5 -102t-99.5 -262v-629h-137z" />
    <glyph glyph-name="i" unicode="i" horiz-adv-x="567" 
d="M203 1354v166h162v-166h-162zM215 0v1094h137v-1094h-137z" />
    <glyph glyph-name="j" unicode="j" horiz-adv-x="567" 
d="M203 1354v166h162v-166h-162zM100 -348q-38 0 -96 10v117q36 -8 84 -8q59 0 93 37t34 112v1174h137v-1172q0 -136 -66 -203t-186 -67z" />
    <glyph glyph-name="k" unicode="k" horiz-adv-x="1222" 
d="M201 0v1554h137v-1114l629 654h176l-469 -476l483 -618h-168l-409 520l-242 -244v-276h-137z" />
    <glyph glyph-name="l" unicode="l" horiz-adv-x="567" 
d="M215 0v1554h137v-1554h-137z" />
    <glyph glyph-name="m" unicode="m" horiz-adv-x="2045" 
d="M201 0v1094h137v-189q31 47 60.5 80.5t72 67t99.5 50.5t126 17q129 0 220 -63t139 -164q143 227 389 227q191 0 302.5 -121.5t111.5 -326.5v-672h-138v643q0 166 -79.5 258t-221.5 92q-136 0 -228.5 -97.5t-92.5 -262.5v-633h-137v649q0 161 -79.5 252.5t-219.5 91.5
q-137 0 -230.5 -104.5t-93.5 -259.5v-629h-137z" />
    <glyph glyph-name="n" unicode="n" horiz-adv-x="1329" 
d="M201 0v1094h137v-195q129 221 383 221q199 0 313.5 -122.5t114.5 -321.5v-676h-137v643q0 162 -85.5 256t-238.5 94q-151 0 -250.5 -102t-99.5 -262v-629h-137z" />
    <glyph glyph-name="o" unicode="o" horiz-adv-x="1390" 
d="M694 -25q-160 0 -290.5 78t-202.5 207.5t-72 282.5v4q0 153 73 284.5t204.5 210t291.5 78.5q120 0 225.5 -45.5t180 -122t117.5 -181.5t43 -220v-4q0 -153 -73 -283.5t-205 -209.5t-292 -79zM698 100q120 0 217 60t150 161.5t53 221.5v4q0 187 -122.5 317.5t-301.5 130.5
q-184 0 -303 -128.5t-119 -315.5v-4q0 -187 123.5 -317t302.5 -130z" />
    <glyph glyph-name="p" unicode="p" horiz-adv-x="1431" 
d="M201 -340v1434h137v-230q172 256 434 256q79 0 155.5 -24.5t143 -73t117.5 -116t80.5 -159.5t29.5 -196v-4q0 -104 -29.5 -196.5t-80.5 -160t-117.5 -117t-143 -74t-155.5 -24.5q-270 0 -434 246v-561h-137zM750 102q173 0 288 120t115 321v4q0 197 -117.5 321.5
t-285.5 124.5q-108 0 -203 -55.5t-155 -158.5t-60 -230v-4q0 -96 35 -180t93 -141t134 -89.5t156 -32.5z" />
    <glyph glyph-name="q" unicode="q" horiz-adv-x="1431" 
d="M1094 -340v571q-172 -256 -435 -256q-99 0 -193 39.5t-168.5 111t-119.5 180.5t-45 237v4q0 105 29.5 197.5t80.5 160t117.5 117t143 74t155.5 24.5q268 0 435 -248v222h137v-1434h-137zM682 102q79 0 154.5 32.5t134 89.5t94 141t35.5 180v4q0 129 -61 232.5
t-155.5 157.5t-201.5 54q-173 0 -289.5 -120.5t-116.5 -321.5v-4q0 -197 118.5 -321t287.5 -124z" />
    <glyph glyph-name="r" unicode="r" horiz-adv-x="878" 
d="M201 0v1094h137v-297q66 147 186.5 233t276.5 82v-147h-10q-93 0 -174.5 -35t-144 -99.5t-98.5 -165t-36 -223.5v-442h-137z" />
    <glyph glyph-name="s" unicode="s" horiz-adv-x="1081" 
d="M559 -20q-118 0 -239 42.5t-214 116.5l74 103q186 -142 385 -142q106 0 175 52t69 137v4q0 29 -9.5 53.5t-32 44t-42.5 33t-60 28t-64 22.5t-73 22q-47 13 -76 22t-72 25t-70 31.5t-58 39t-48.5 49.5t-29.5 61.5t-12 76.5v4q0 139 102 225t264 86q98 0 202.5 -33
t189.5 -90l-66 -106q-170 108 -330 108q-103 0 -166 -49t-63 -125v-4q0 -27 10 -50.5t33 -42t45.5 -32.5t61.5 -28.5t67.5 -23.5t75.5 -22q61 -17 104.5 -32.5t94.5 -42.5t82.5 -57.5t53 -76.5t21.5 -102v-4q0 -148 -109.5 -235.5t-275.5 -87.5z" />
    <glyph glyph-name="t" unicode="t" horiz-adv-x="876" 
d="M565 -18q-138 0 -222.5 75t-84.5 230v684h-156v123h156v340h137v-340h365v-123h-365v-668q0 -197 199 -197q75 0 160 39v-122q-87 -41 -189 -41z" />
    <glyph glyph-name="u" unicode="u" horiz-adv-x="1329" 
d="M608 -25q-199 0 -313.5 122.5t-114.5 322.5v674h137v-643q0 -161 86 -256t238 -95q151 0 250.5 102.5t99.5 262.5v629h137v-1094h-137v197q-130 -222 -383 -222z" />
    <glyph glyph-name="v" unicode="v" horiz-adv-x="1265" 
d="M573 -8l-483 1102h156l387 -938l391 938h152l-484 -1102h-119z" />
    <glyph glyph-name="w" unicode="w" horiz-adv-x="1853" 
d="M498 -8l-392 1102h150l305 -914l311 920h113l311 -920l308 914h143l-391 -1102h-119l-309 895l-312 -895h-118z" />
    <glyph glyph-name="x" unicode="x" horiz-adv-x="1239" 
d="M279 1094l342 -443l344 443h157l-422 -533l441 -561h-164l-361 469l-360 -469h-158l439 557l-420 537h162z" />
    <glyph glyph-name="y" unicode="y" horiz-adv-x="1275" 
d="M666 152l368 942h150l-467 -1131q-67 -168 -154 -239.5t-209 -71.5q-115 0 -227 53l47 113q84 -41 178 -41q79 0 135 50.5t111 176.5l-510 1090h154z" />
    <glyph glyph-name="z" unicode="z" horiz-adv-x="1204" 
d="M131 0v84l756 891h-727v119h919v-84l-755 -891h755v-119h-948z" />
    <glyph glyph-name="braceleft" unicode="{" horiz-adv-x="1046" 
d="M918 -211l-21 -90q-95 18 -167 41.5t-122 54t-83 64.5t-51.5 78t-26 89.5t-7.5 104.5v164q0 132 -56 198t-196 66h-55v105h55q140 0 196 66t56 198v164q0 59 7.5 104.5t26 89.5t51.5 78t83 64.5t122 54t167 41.5l21 -90q-79 -21 -134 -41t-94 -44.5t-61.5 -49t-35 -61
t-16.5 -72.5t-4 -91v-160q0 -90 -28 -152t-74 -96t-119 -57q114 -36 167.5 -103.5t53.5 -199.5v-160q0 -66 6.5 -107.5t25.5 -81t57.5 -66.5t100 -52.5t155.5 -50.5z" />
    <glyph glyph-name="bar" unicode="|" horiz-adv-x="649" 
d="M266 -272v1972h119v-1972h-119z" />
    <glyph glyph-name="braceright" unicode="}" horiz-adv-x="1046" 
d="M150 -301l-21 90q79 21 133.5 40.5t93.5 44.5t61.5 49t35 60.5t16.5 72.5t4 91v160q0 130 56 200t165 103q-115 39 -168 105.5t-53 199.5v160q0 55 -4 91t-16.5 72.5t-35 61t-61.5 49t-93.5 44.5t-133.5 41l21 90q95 -18 167 -41.5t121.5 -54t83 -64.5t51.5 -78
t25.5 -89.5t7.5 -104.5v-164q0 -132 56 -198t196 -66h55v-105h-55q-140 0 -196 -66t-56 -198v-164q0 -59 -7.5 -104.5t-25.5 -89.5t-51.5 -78t-83 -64.5t-121.5 -54t-167 -41.5z" />
    <glyph glyph-name="asciitilde" unicode="~" horiz-adv-x="1015" 
d="M649 528q-46 0 -145 45q-88 43 -133 43q-41 0 -63 -22.5t-46 -83.5l-88 25q32 116 76 163t117 47q50 0 145 -43q88 -43 133 -43q40 0 62.5 22.5t46.5 84.5l88 -25q-30 -117 -75 -165t-118 -48z" />
    <glyph glyph-name="uni00A0" unicode="&#xa0;" horiz-adv-x="0" 
 />
    <glyph glyph-name="exclamdown" unicode="&#xa1;" horiz-adv-x="579" 
d="M205 1286v205h170v-205h-170zM209 0v133l43 950h78l41 -950v-133h-162z" />
    <glyph glyph-name="cent" unicode="&#xa2;" horiz-adv-x="1257" 
d="M885 1503l-39 -192q154 -38 291 -181l-93 -96q-122 122 -229 154l-170 -875q12 -4 57 -4q195 0 353 172l88 -82q-92 -105 -197.5 -160t-249.5 -55q-54 0 -69 4l-39 -200h-123l43 227q-164 57 -267.5 206t-103.5 331v4q0 153 73.5 284.5t203 210t284.5 78.5h27l35 174h125
zM281 760v-4q0 -140 70 -251t188 -161l170 860h-15q-176 0 -294.5 -128.5t-118.5 -315.5z" />
    <glyph glyph-name="sterling" unicode="&#xa3;" horiz-adv-x="1392" 
d="M156 0v78l180 43v516h-180v129h180v238q0 245 137 382q125 125 328 125q156 0 264 -60t188 -167l-110 -86q-47 59 -90 96t-108 62.5t-144 25.5q-137 0 -223 -86q-99 -99 -99 -290v-240h613v-129h-613v-510h774v-127h-1097z" />
    <glyph glyph-name="yen" unicode="&#xa5;" horiz-adv-x="1480" 
d="M227 569v115h400l-555 807h172l499 -758l502 758h164l-557 -807h401v-115h-444v-198h444v-115h-444v-256h-137v256h-445v115h445v198h-445z" />
    <glyph glyph-name="section" unicode="&#xa7;" horiz-adv-x="1366" 
d="M926 477q80 -36 124 -92t44 -127v-4q0 -125 -103.5 -199.5t-279.5 -74.5q-145 0 -270.5 53t-215.5 147l94 92q170 -170 398 -170q113 0 172 42.5t59 109.5v4q0 67 -80.5 113.5t-285.5 95.5q-238 57 -337.5 125.5t-99.5 173.5v4q0 96 79.5 159.5t217.5 84.5
q-170 80 -170 219v4q0 125 104 199.5t281 74.5q143 0 268 -53t218 -147l-96 -92q-76 78 -178 124t-220 46q-113 0 -172 -41.5t-59 -110.5v-4q0 -65 81 -113t285 -96q240 -59 338.5 -126t98.5 -173v-4q0 -97 -78.5 -160t-216.5 -84zM834 551q112 0 181.5 46t69.5 110v4
q0 58 -70 104.5t-247 89.5q-135 35 -236 35q-109 0 -179 -46t-70 -110v-4q0 -59 69 -104.5t246 -89.5q135 -35 236 -35z" />
    <glyph glyph-name="dieresis" unicode="&#xa8;" horiz-adv-x="1085" 
d="M637 1268v188h172v-188h-172zM276 1268v188h173v-188h-173z" />
    <glyph glyph-name="copyright" unicode="&#xa9;" horiz-adv-x="1787" 
d="M893 -25q-213 0 -390.5 103.5t-278.5 279.5t-101 383v4q0 155 60.5 297t163.5 246t247 166t303 62q212 0 389 -103.5t278 -279.5t101 -383v-5q0 -207 -101.5 -384t-279.5 -281.5t-391 -104.5zM893 39q196 0 358.5 96t254 257.5t91.5 352.5v5q0 191 -91 352t-252 255.5
t-357 94.5q-148 0 -280 -56.5t-225 -152t-147.5 -225.5t-54.5 -273v-4q0 -143 54 -272.5t146.5 -224t224 -150t278.5 -55.5zM903 350q-166 0 -279.5 118.5t-113.5 285.5v4q0 166 115.5 285.5t279.5 119.5q97 0 165.5 -32.5t137.5 -96.5l-71 -76q-118 107 -234 107
q-122 0 -203.5 -89t-81.5 -216v-4q0 -126 84.5 -216.5t202.5 -90.5q73 0 127 26t113 82l69 -70q-70 -68 -141 -102.5t-170 -34.5z" />
    <glyph glyph-name="ordfeminine" unicode="&#xaa;" horiz-adv-x="851" 
d="M375 872q-93 0 -161.5 51t-68.5 140v4q0 95 71.5 147t191.5 52q95 0 172 -23v10q0 77 -44.5 116.5t-125.5 39.5q-75 0 -185 -47l-30 80q113 55 223 55q124 0 194 -67q62 -65 62 -177v-368h-94v84q-77 -97 -205 -97zM385 954q82 0 139.5 44t57.5 114v53q-77 23 -172 23
q-77 0 -121.5 -31.5t-44.5 -83.5v-4q0 -53 40.5 -84t100.5 -31zM137 618v95h547v-95h-547z" />
    <glyph glyph-name="guillemotleft" unicode="&#xab;" horiz-adv-x="1159" 
d="M918 90l-347 449v16l347 451l102 -62l-287 -395l287 -399zM463 90l-348 449v16l348 451l100 -62l-287 -395l287 -399z" />
    <glyph glyph-name="registered" unicode="&#xae;" horiz-adv-x="890" 
d="M446 766q-154 0 -262 109t-108 262v2q0 153 108 262.5t262 109.5q155 0 263 -108.5t108 -261.5v-2q0 -153 -109 -263t-262 -110zM446 807q137 0 232.5 98t95.5 234v2q0 137 -94.5 234.5t-233.5 97.5q-138 0 -233.5 -98t-95.5 -236v-2q0 -137 94.5 -233.5t234.5 -96.5z
M303 958v377h170q63 0 102 -30t39 -88v-3q0 -41 -25 -71t-65 -41l105 -144h-84l-90 134h-84v-134h-68zM371 1147h96q38 0 59 17.5t21 47.5v2q0 29 -21.5 46t-58.5 16h-96v-129z" />
    <glyph glyph-name="macron" unicode="&#xaf;" horiz-adv-x="1085" 
d="M219 1317v117h647v-117h-647z" />
    <glyph glyph-name="degree" unicode="&#xb0;" horiz-adv-x="989" 
d="M494 864q-130 0 -229 95.5t-99 222.5v4q0 127 99 222t229 95t229.5 -95t99.5 -222v-4q0 -127 -99.5 -222.5t-229.5 -95.5zM494 967q91 0 152 63.5t61 151.5v4q0 88 -61 151.5t-152 63.5q-89 0 -150 -63.5t-61 -151.5v-4q0 -88 61 -151.5t150 -63.5z" />
    <glyph glyph-name="plusminus" unicode="&#xb1;" horiz-adv-x="1347" 
d="M1174 770h-433v-424h-135v424h-432v129l432 -2v426h135v-426l433 2v-129zM1174 0h-1000v127h1000v-127z" />
    <glyph glyph-name="two.sup" unicode="&#xb2;" 
d="M131 905v84l313 273q91 79 128.5 132.5t37.5 114.5q0 66 -47 109t-119 43q-68 0 -122 -36.5t-105 -111.5l-74 50q58 92 130.5 139t177.5 47q112 0 186 -66.5t74 -166.5q0 -84 -43 -147t-152 -159l-250 -213h453v-92h-588z" />
    <glyph glyph-name="three.sup" unicode="&#xb3;" 
d="M426 885q-188 0 -309 151l67 66q104 -129 244 -129q75 0 127.5 45.5t52.5 116.5q0 76 -63 117.5t-164 41.5h-66l-18 62l274 280h-409v93h534v-80l-266 -273q123 -8 201 -70t78 -171q0 -108 -82.5 -179t-200.5 -71z" />
    <glyph glyph-name="acute" unicode="&#xb4;" horiz-adv-x="1085" 
d="M410 1268l194 297l152 -72l-236 -225h-110z" />
    <glyph glyph-name="mu" unicode="&#xb5;" horiz-adv-x="1435" 
d="M1384 115v-119q-62 -12 -106 -12q-224 0 -254 204q-61 -102 -149.5 -157.5t-196.5 -55.5q-240 0 -354 228h-2q14 -106 14 -273v-270h-135v1434h137v-631q0 -153 97.5 -259t242.5 -106t241.5 105.5t96.5 259.5v631h137v-840q6 -150 150 -150q35 0 81 11z" />
    <glyph glyph-name="paragraph" unicode="&#xb6;" horiz-adv-x="1077" 
d="M725 0v575h-18q-169 0 -301 52t-210.5 156.5t-78.5 248.5v4q0 210 154 332.5t403 122.5h196v-1491h-145z" />
    <glyph glyph-name="periodcentered" unicode="&#xb7;" horiz-adv-x="528" 
d="M178 535v204h172v-204h-172z" />
    <glyph glyph-name="cedilla" unicode="&#xb8;" horiz-adv-x="1085" 
d="M481 -324l-139 64l193 285h112z" />
    <glyph glyph-name="one.sup" unicode="&#xb9;" horiz-adv-x="700" 
d="M446 905h-98v733l-186 -69l-25 86l230 88h79v-838z" />
    <glyph glyph-name="ordmasculine" unicode="&#xba;" horiz-adv-x="851" 
d="M424 870q-132 0 -220.5 91.5t-88.5 220.5v4q0 129 90 222t223 93t220 -90.5t87 -220.5v-4q0 -130 -89 -223t-222 -93zM119 618v95h614v-95h-614zM428 965q91 0 147 62t56 155v4q0 93 -58.5 157t-148.5 64q-91 0 -148 -62.5t-57 -154.5v-4q0 -93 60 -157t149 -64z" />
    <glyph glyph-name="guillemotright" unicode="&#xbb;" horiz-adv-x="1159" 
d="M696 90l-100 60l287 395l-287 399l100 62l346 -451v-16zM240 90l-101 60l287 395l-287 399l101 62l348 -451v-16z" />
    <glyph glyph-name="onequarter" unicode="&#xbc;" horiz-adv-x="1775" 
d="M446 668h-98v733l-186 -70l-25 86l230 88h79v-837zM303 0l526 762l488 729h104l-526 -762l-487 -729h-105zM1550 186v-190h-92v190h-405l-25 84l412 566h110v-566h115v-84h-115zM1458 270v443l-325 -443h325z" />
    <glyph glyph-name="onehalf" unicode="&#xbd;" horiz-adv-x="1775" 
d="M1063 0v84l313 272q90 79 128 133t38 115q0 66 -47 109t-119 43q-68 0 -122 -36.5t-105 -111.5l-74 49q58 92 130 139.5t177 47.5q112 0 186 -67t74 -167q0 -84 -43 -147t-151 -158l-250 -213h453v-92h-588zM283 0l526 762l487 729h105l-527 -762l-487 -729h-104z
M446 668h-98v733l-186 -70l-25 86l230 88h79v-837z" />
    <glyph glyph-name="threequarters" unicode="&#xbe;" horiz-adv-x="1935" 
d="M1710 186v-190h-92v190h-406l-24 84l411 566h111v-566h115v-84h-115zM1618 270v443l-326 -443h326zM453 0l526 762l487 729h105l-527 -762l-487 -729h-104zM432 647q-187 0 -309 152l67 65q102 -129 244 -129q75 0 127.5 45.5t52.5 116.5q0 76 -63 118t-164 42h-65
l-19 61l275 281h-410v92h534v-80l-266 -272q123 -8 201 -70.5t78 -171.5q0 -108 -82.5 -179t-200.5 -71z" />
    <glyph glyph-name="questiondown" unicode="&#xbf;" horiz-adv-x="1161" 
d="M543 1286v205h172v-205h-172zM586 -18q-212 0 -340.5 117.5t-128.5 299.5v4q0 98 34.5 176t96.5 130t141 84t174 45l21 245h90l31 -344l-11 -12q-208 -4 -321 -88.5t-113 -228.5v-4q0 -127 90.5 -212t241.5 -85q118 0 213 52.5t184 155.5l94 -86q-99 -121 -217.5 -185
t-279.5 -64z" />
    <glyph glyph-name="Agrave" unicode="&#xc0;" horiz-adv-x="1703" 
d="M98 0l686 1501h136l686 -1501h-156l-180 406h-842l-182 -406h-148zM485 535h727l-362 804zM909 1647h-118l-238 194l149 70z" />
    <glyph glyph-name="Aacute" unicode="&#xc1;" horiz-adv-x="1703" 
d="M98 0l686 1501h136l686 -1501h-156l-180 406h-842l-182 -406h-148zM485 535h727l-362 804zM795 1647l206 264l150 -70l-238 -194h-118z" />
    <glyph glyph-name="Acircumflex" unicode="&#xc2;" horiz-adv-x="1703" 
d="M98 0l686 1501h136l686 -1501h-156l-180 406h-842l-182 -406h-148zM485 535h727l-362 804zM559 1647l227 241h132l227 -241h-137l-158 129l-158 -129h-133z" />
    <glyph glyph-name="Atilde" unicode="&#xc3;" horiz-adv-x="1703" 
d="M98 0l686 1501h136l686 -1501h-156l-180 406h-842l-182 -406h-148zM485 535h727l-362 804zM1004 1647q-50 0 -158 45q-88 37 -121 37q-40 0 -62.5 -22t-46.5 -79l-94 25q32 109 76.5 157t112.5 48q51 0 157 -48q91 -34 121 -34q40 0 62.5 21t46.5 77l94 -27
q-32 -106 -76.5 -153t-111.5 -47z" />
    <glyph glyph-name="Adieresis" unicode="&#xc4;" horiz-adv-x="1703" 
d="M98 0l686 1501h136l686 -1501h-156l-180 406h-842l-182 -406h-148zM485 535h727l-362 804zM958 1647v178h179v-178h-179zM569 1647v178h181v-178h-181z" />
    <glyph glyph-name="Aring" unicode="&#xc5;" horiz-adv-x="1703" 
d="M98 0l645 1417q-57 27 -89.5 74.5t-32.5 107.5q0 88 68 148.5t163 60.5t163 -60.5t68 -148.5q0 -60 -34 -108.5t-91 -75.5l648 -1415h-156l-180 406h-842l-182 -406h-148zM485 535h727l-362 804zM852 1468q60 0 101.5 38t41.5 93q0 57 -41.5 95.5t-101.5 38.5
q-61 0 -102 -38.5t-41 -95.5q0 -56 41 -93.5t102 -37.5z" />
    <glyph glyph-name="AE" unicode="&#xc6;" horiz-adv-x="2246" 
d="M49 0l889 1491h1157v-131h-893v-543h797v-131h-797v-555h903v-131h-1046v406h-619l-239 -406h-152zM514 535h545v829h-53z" />
    <glyph glyph-name="Ccedilla" unicode="&#xc7;" horiz-adv-x="1601" 
d="M795 -324l-140 64l162 240q-141 14 -263.5 79.5t-209 166.5t-135.5 234.5t-49 280.5v4q0 156 56.5 297.5t154.5 246t238.5 166t299.5 61.5q97 0 180.5 -17t154.5 -50.5t127.5 -73t119.5 -95.5l-98 -106q-107 102 -222 157t-264 55q-169 0 -306.5 -84.5t-214.5 -230
t-77 -321.5v-5q0 -176 79 -323.5t217 -232.5t304 -85q148 0 263 55.5t233 168.5l94 -92q-124 -124 -255.5 -189.5t-307.5 -69.5z" />
    <glyph glyph-name="Egrave" unicode="&#xc8;" horiz-adv-x="1447" 
d="M823 1626h-118l-238 195l149 69zM225 0v1491h1071v-131h-927v-543h831v-131h-831v-555h938v-131h-1082z" />
    <glyph glyph-name="Eacute" unicode="&#xc9;" horiz-adv-x="1447" 
d="M707 1626l206 264l150 -69l-238 -195h-118zM225 0v1491h1071v-131h-927v-543h831v-131h-831v-555h938v-131h-1082z" />
    <glyph glyph-name="Ecircumflex" unicode="&#xca;" horiz-adv-x="1447" 
d="M225 0v1491h1071v-131h-927v-543h831v-131h-831v-555h938v-131h-1082zM471 1626l227 242h131l228 -242h-137l-158 129l-158 -129h-133z" />
    <glyph glyph-name="Edieresis" unicode="&#xcb;" horiz-adv-x="1447" 
d="M870 1626v178h179v-178h-179zM481 1626v178h181v-178h-181zM225 0v1491h1071v-131h-927v-543h831v-131h-831v-555h938v-131h-1082z" />
    <glyph glyph-name="Igrave" unicode="&#xcc;" horiz-adv-x="624" 
d="M240 0v1491h143v-1491h-143zM373 1626h-119l-238 195l150 69z" />
    <glyph glyph-name="Iacute" unicode="&#xcd;" horiz-adv-x="624" 
d="M240 0v1491h143v-1491h-143zM256 1626l207 264l149 -69l-237 -195h-119z" />
    <glyph glyph-name="Icircumflex" unicode="&#xce;" horiz-adv-x="624" 
d="M240 0v1491h143v-1491h-143zM20 1626l228 242h131l227 -242h-137l-158 129l-157 -129h-134z" />
    <glyph glyph-name="Idieresis" unicode="&#xcf;" horiz-adv-x="624" 
d="M240 0v1491h143v-1491h-143zM420 1626v178h178v-178h-178zM31 1626v178h180v-178h-180z" />
    <glyph glyph-name="Eth" unicode="&#xd0;" horiz-adv-x="1748" 
d="M289 0v690h-160v121h160v680h510q172 0 320 -57t251.5 -155.5t162 -235.5t58.5 -293v-5q0 -156 -58.5 -293.5t-161.5 -237t-251.5 -157t-320.5 -57.5h-510zM901 690h-469v-559h367q144 0 265.5 47.5t204 129.5t128 193.5t45.5 239.5v4q0 127 -46 239.5t-128 195.5
t-203.5 131.5t-265.5 48.5h-367v-549h469v-121z" />
    <glyph glyph-name="Ntilde" unicode="&#xd1;" horiz-adv-x="1703" 
d="M1004 1620q-50 0 -158 45q-88 37 -121 37q-40 0 -62.5 -22t-46.5 -78l-94 24q32 109 76.5 157t112.5 48q54 0 157 -47q94 -35 121 -35q40 0 62.5 21t46.5 77l94 -26q-32 -106 -76.5 -153.5t-111.5 -47.5zM225 0v1491h135l979 -1241v1241h140v-1491h-113l-1001 1268v-1268
h-140z" />
    <glyph glyph-name="Ograve" unicode="&#xd2;" horiz-adv-x="1830" 
d="M975 1647h-119l-238 194l150 70zM913 -25q-133 0 -252 40t-209.5 111.5t-156.5 167.5t-100.5 210.5t-34.5 236.5v4q0 153 55.5 293.5t153 246t240.5 168.5t309 63q133 0 252 -40t209.5 -111.5t156.5 -167.5t100.5 -210.5t34.5 -236.5v-5q0 -153 -55.5 -293t-153 -245.5
t-240.5 -168.5t-309 -63zM918 104q129 0 242.5 50.5t192 136t124 202.5t45.5 248v4q0 175 -78 321.5t-218.5 233t-312.5 86.5t-311.5 -85.5t-216 -230.5t-76.5 -320v-5q0 -175 78 -321.5t218.5 -233t312.5 -86.5z" />
    <glyph glyph-name="Oacute" unicode="&#xd3;" horiz-adv-x="1830" 
d="M858 1647l207 264l149 -70l-237 -194h-119zM913 -25q-133 0 -252 40t-209.5 111.5t-156.5 167.5t-100.5 210.5t-34.5 236.5v4q0 153 55.5 293.5t153 246t240.5 168.5t309 63q133 0 252 -40t209.5 -111.5t156.5 -167.5t100.5 -210.5t34.5 -236.5v-5q0 -153 -55.5 -293
t-153 -245.5t-240.5 -168.5t-309 -63zM918 104q129 0 242.5 50.5t192 136t124 202.5t45.5 248v4q0 175 -78 321.5t-218.5 233t-312.5 86.5t-311.5 -85.5t-216 -230.5t-76.5 -320v-5q0 -175 78 -321.5t218.5 -233t312.5 -86.5z" />
    <glyph glyph-name="Ocircumflex" unicode="&#xd4;" horiz-adv-x="1830" 
d="M913 -25q-133 0 -252 40t-209.5 111.5t-156.5 167.5t-100.5 210.5t-34.5 236.5v4q0 153 55.5 293.5t153 246t240.5 168.5t309 63q133 0 252 -40t209.5 -111.5t156.5 -167.5t100.5 -210.5t34.5 -236.5v-5q0 -153 -55.5 -293t-153 -245.5t-240.5 -168.5t-309 -63zM918 104
q129 0 242.5 50.5t192 136t124 202.5t45.5 248v4q0 175 -78 321.5t-218.5 233t-312.5 86.5t-311.5 -85.5t-216 -230.5t-76.5 -320v-5q0 -175 78 -321.5t218.5 -233t312.5 -86.5zM623 1647l227 241h131l227 -241h-137l-158 129l-157 -129h-133z" />
    <glyph glyph-name="Otilde" unicode="&#xd5;" horiz-adv-x="1830" 
d="M1067 1647q-50 0 -158 45q-88 37 -121 37q-40 0 -61.5 -22t-46.5 -79l-94 25q32 109 76.5 157t111.5 48q52 0 158 -48q91 -34 121 -34q40 0 62 21t46 77l94 -27q-32 -106 -76.5 -153t-111.5 -47zM913 -25q-133 0 -252 40t-209.5 111.5t-156.5 167.5t-100.5 210.5
t-34.5 236.5v4q0 153 55.5 293.5t153 246t240.5 168.5t309 63q133 0 252 -40t209.5 -111.5t156.5 -167.5t100.5 -210.5t34.5 -236.5v-5q0 -153 -55.5 -293t-153 -245.5t-240.5 -168.5t-309 -63zM918 104q129 0 242.5 50.5t192 136t124 202.5t45.5 248v4q0 175 -78 321.5
t-218.5 233t-312.5 86.5t-311.5 -85.5t-216 -230.5t-76.5 -320v-5q0 -175 78 -321.5t218.5 -233t312.5 -86.5z" />
    <glyph glyph-name="Odieresis" unicode="&#xd6;" horiz-adv-x="1830" 
d="M1022 1647v178h178v-178h-178zM633 1647v178h180v-178h-180zM913 -25q-133 0 -252 40t-209.5 111.5t-156.5 167.5t-100.5 210.5t-34.5 236.5v4q0 153 55.5 293.5t153 246t240.5 168.5t309 63q133 0 252 -40t209.5 -111.5t156.5 -167.5t100.5 -210.5t34.5 -236.5v-5
q0 -153 -55.5 -293t-153 -245.5t-240.5 -168.5t-309 -63zM918 104q129 0 242.5 50.5t192 136t124 202.5t45.5 248v4q0 175 -78 321.5t-218.5 233t-312.5 86.5t-311.5 -85.5t-216 -230.5t-76.5 -320v-5q0 -175 78 -321.5t218.5 -233t312.5 -86.5z" />
    <glyph glyph-name="multiply" unicode="&#xd7;" horiz-adv-x="1347" 
d="M1049 279l-377 383l-377 -383l-92 92l383 377l-383 376l96 97l377 -383l377 383l92 -93l-383 -376l383 -377z" />
    <glyph glyph-name="Oslash" unicode="&#xd8;" horiz-adv-x="1830" 
d="M1534 1501h156l-213 -229q94 -104 144 -239t50 -283v-5q0 -153 -55.5 -293t-153 -245.5t-240.5 -168.5t-309 -63q-280 0 -477 164l-139 -149h-156l213 227q-94 104 -144 239.5t-50 284.5v4q0 153 55.5 293.5t153 246t240.5 168.5t309 63q278 0 475 -164zM305 750v-2
q0 -241 148 -426l850 925q-168 142 -390 142q-173 0 -313 -85.5t-217.5 -231.5t-77.5 -322zM918 102q173 0 313 85.5t217.5 231.5t77.5 322v2q0 241 -148 426l-852 -925q167 -145 392 -142z" />
    <glyph glyph-name="Ugrave" unicode="&#xd9;" horiz-adv-x="1638" 
d="M877 1620h-119l-238 195l150 69zM819 -23q-281 0 -448.5 168.5t-167.5 477.5v868h143v-858q0 -253 125 -390t352 -137q220 0 344.5 132.5t124.5 384.5v868h144v-856q0 -317 -167.5 -487.5t-449.5 -170.5z" />
    <glyph glyph-name="Uacute" unicode="&#xda;" horiz-adv-x="1638" 
d="M762 1620l207 264l149 -69l-237 -195h-119zM819 -23q-281 0 -448.5 168.5t-167.5 477.5v868h143v-858q0 -253 125 -390t352 -137q220 0 344.5 132.5t124.5 384.5v868h144v-856q0 -317 -167.5 -487.5t-449.5 -170.5z" />
    <glyph glyph-name="Ucircumflex" unicode="&#xdb;" horiz-adv-x="1638" 
d="M819 -23q-281 0 -448.5 168.5t-167.5 477.5v868h143v-858q0 -253 125 -390t352 -137q220 0 344.5 132.5t124.5 384.5v868h144v-856q0 -317 -167.5 -487.5t-449.5 -170.5zM526 1620l228 242h131l227 -242h-137l-158 129l-158 -129h-133z" />
    <glyph glyph-name="Udieresis" unicode="&#xdc;" horiz-adv-x="1638" 
d="M926 1620v178h178v-178h-178zM537 1620v178h180v-178h-180zM819 -23q-281 0 -448.5 168.5t-167.5 477.5v868h143v-858q0 -253 125 -390t352 -137q220 0 344.5 132.5t124.5 384.5v868h144v-856q0 -317 -167.5 -487.5t-449.5 -170.5z" />
    <glyph glyph-name="Yacute" unicode="&#xdd;" horiz-adv-x="1546" 
d="M700 0v590l-628 901h176l526 -770l531 770h168l-629 -899v-592h-144zM715 1620l207 264l149 -69l-237 -195h-119z" />
    <glyph glyph-name="Thorn" unicode="&#xde;" horiz-adv-x="1454" 
d="M225 0v1491h144v-262h407q253 0 405 -125t152 -340v-4q0 -93 -30.5 -172.5t-84.5 -136.5t-127.5 -97.5t-160 -60t-182.5 -19.5h-379v-274h-144zM369 406h387q195 0 314.5 95.5t119.5 252.5v4q0 164 -115 252t-309 88h-397v-692z" />
    <glyph glyph-name="germandbls" unicode="&#xdf;" horiz-adv-x="1341" 
d="M629 -4v115q204 5 317 79t113 213v5q0 131 -112.5 208t-317.5 101v104q336 117 336 357v6q0 116 -82.5 189t-212.5 73q-146 0 -239 -104t-93 -275v-1067h-137v1065q0 226 129.5 365t347.5 139q193 0 311.5 -107.5t118.5 -269.5v-6q0 -73 -26.5 -138t-71.5 -113.5
t-99 -84.5t-116 -59q85 -17 154.5 -46t128 -73.5t91.5 -111.5t33 -150v-4q0 -195 -153 -302.5t-420 -107.5z" />
    <glyph glyph-name="agrave" unicode="&#xe0;" horiz-adv-x="1249" 
d="M530 -25q-78 0 -151.5 22.5t-132.5 64t-95 108t-36 147.5v5q0 168 129.5 261t343.5 93q194 0 346 -47v43q0 154 -88.5 234.5t-251.5 80.5q-160 0 -338 -84l-43 115q202 92 393 92q228 0 350 -119q113 -116 113 -315v-676h-135v172q-147 -197 -404 -197zM549 92
q163 0 276 88.5t113 225.5v114q-180 47 -346 47q-160 0 -248 -63.5t-88 -173.5v-6q0 -106 85.5 -169t207.5 -63zM571 1268l-235 225l151 72l195 -297h-111z" />
    <glyph glyph-name="aacute" unicode="&#xe1;" horiz-adv-x="1249" 
d="M530 -25q-78 0 -151.5 22.5t-132.5 64t-95 108t-36 147.5v5q0 168 129.5 261t343.5 93q194 0 346 -47v43q0 154 -88.5 234.5t-251.5 80.5q-160 0 -338 -84l-43 115q202 92 393 92q228 0 350 -119q113 -116 113 -315v-676h-135v172q-147 -197 -404 -197zM549 92
q163 0 276 88.5t113 225.5v114q-180 47 -346 47q-160 0 -248 -63.5t-88 -173.5v-6q0 -106 85.5 -169t207.5 -63zM569 1268l195 297l151 -72l-235 -225h-111z" />
    <glyph glyph-name="acircumflex" unicode="&#xe2;" horiz-adv-x="1249" 
d="M530 -25q-78 0 -151.5 22.5t-132.5 64t-95 108t-36 147.5v5q0 168 129.5 261t343.5 93q194 0 346 -47v43q0 154 -88.5 234.5t-251.5 80.5q-160 0 -338 -84l-43 115q202 92 393 92q228 0 350 -119q113 -116 113 -315v-676h-135v172q-147 -197 -404 -197zM549 92
q163 0 276 88.5t113 225.5v114q-180 47 -346 47q-160 0 -248 -63.5t-88 -173.5v-6q0 -106 85.5 -169t207.5 -63zM346 1268l219 270h119l221 -270h-123l-159 143l-160 -143h-117z" />
    <glyph glyph-name="atilde" unicode="&#xe3;" horiz-adv-x="1249" 
d="M530 -25q-78 0 -151.5 22.5t-132.5 64t-95 108t-36 147.5v5q0 168 129.5 261t343.5 93q194 0 346 -47v43q0 154 -88.5 234.5t-251.5 80.5q-160 0 -338 -84l-43 115q202 92 393 92q228 0 350 -119q113 -116 113 -315v-676h-135v172q-147 -197 -404 -197zM549 92
q163 0 276 88.5t113 225.5v114q-180 47 -346 47q-160 0 -248 -63.5t-88 -173.5v-6q0 -106 85.5 -169t207.5 -63zM774 1268q-8 0 -15.5 0.5t-16 2.5t-14.5 3t-16 4.5t-15 5t-17 6.5t-16 6.5t-17.5 7t-17.5 7.5q-88 43 -133 43q-40 0 -62.5 -22.5t-46.5 -84.5l-88 25
q30 117 75 165t118 48q8 0 15.5 -0.5t16 -2.5t14.5 -3t16 -4.5t15 -5t17 -6.5t16 -6.5t17.5 -7t17.5 -7.5q88 -43 133 -43q41 0 63 21.5t46 82.5l88 -22q-30 -117 -75 -165t-118 -48z" />
    <glyph glyph-name="adieresis" unicode="&#xe4;" horiz-adv-x="1249" 
d="M530 -25q-78 0 -151.5 22.5t-132.5 64t-95 108t-36 147.5v5q0 168 129.5 261t343.5 93q194 0 346 -47v43q0 154 -88.5 234.5t-251.5 80.5q-160 0 -338 -84l-43 115q202 92 393 92q228 0 350 -119q113 -116 113 -315v-676h-135v172q-147 -197 -404 -197zM549 92
q163 0 276 88.5t113 225.5v114q-180 47 -346 47q-160 0 -248 -63.5t-88 -173.5v-6q0 -106 85.5 -169t207.5 -63zM719 1268v188h172v-188h-172zM358 1268v188h172v-188h-172z" />
    <glyph glyph-name="aring" unicode="&#xe5;" horiz-adv-x="1249" 
d="M530 -25q-78 0 -151.5 22.5t-132.5 64t-95 108t-36 147.5v5q0 168 129.5 261t343.5 93q194 0 346 -47v43q0 154 -88.5 234.5t-251.5 80.5q-160 0 -338 -84l-43 115q202 92 393 92q228 0 350 -119q113 -116 113 -315v-676h-135v172q-147 -197 -404 -197zM549 92
q163 0 276 88.5t113 225.5v114q-180 47 -346 47q-160 0 -248 -63.5t-88 -173.5v-6q0 -106 85.5 -169t207.5 -63zM625 1264q-93 0 -160.5 64t-67.5 153q0 90 67.5 154.5t160.5 64.5t160 -64.5t67 -154.5q0 -89 -67 -153t-160 -64zM625 1333q60 0 103.5 44t43.5 104
q0 61 -43.5 105t-103.5 44t-104 -44t-44 -105q0 -60 44 -104t104 -44z" />
    <glyph glyph-name="ae" unicode="&#xe6;" horiz-adv-x="2052" 
d="M526 -25q-107 0 -198.5 37.5t-152 117t-60.5 187.5v5q0 168 127 261t336 93q179 0 331 -47v43q0 155 -84 235t-243 80q-89 0 -163 -21t-163 -63l-43 115q102 47 187 69.5t194 22.5q325 0 407 -252q68 121 180.5 191.5t250.5 70.5q153 0 268.5 -77.5t175 -207.5t59.5 -292
q0 -26 -2 -49h-884q17 -184 130.5 -291t272.5 -107q208 0 358 164l91 -80q-92 -101 -198 -153t-255 -52q-135 0 -250 59.5t-188 168.5q-210 -228 -484 -228zM1049 604h745q-8 108 -50 195t-124.5 143.5t-194.5 56.5q-151 0 -255 -111.5t-121 -283.5zM541 92q235 0 413 211
q-41 104 -47 219q-172 45 -323 45q-158 0 -243 -63.5t-85 -173.5v-6q0 -107 82 -169.5t203 -62.5z" />
    <glyph glyph-name="ccedilla" unicode="&#xe7;" horiz-adv-x="1236" 
d="M575 -324l-139 64l164 242q-205 32 -338 191.5t-133 369.5v4q0 152 73.5 283.5t203 210.5t284.5 79q140 0 243.5 -53.5t192.5 -146.5l-92 -97q-80 82 -160.5 127t-187.5 45q-176 0 -295 -129t-119 -315v-4q0 -187 123 -317t301 -130q194 0 348 172l91 -84
q-86 -98 -185.5 -152.5t-232.5 -60.5z" />
    <glyph glyph-name="egrave" unicode="&#xe8;" horiz-adv-x="1273" 
d="M672 -25q-110 0 -209 41.5t-173 115.5t-117.5 181t-43.5 232v4q0 157 67.5 287.5t187.5 207t267 76.5q154 0 271 -77.5t177 -207.5t60 -292q0 -34 -4 -49h-885q17 -183 132.5 -290.5t273.5 -107.5q204 0 358 164l88 -80q-92 -100 -198 -152.5t-252 -52.5zM270 604h746
q-8 108 -50 195t-124.5 143.5t-194.5 56.5q-151 0 -255.5 -111.5t-121.5 -283.5zM596 1268l-236 225l152 72l195 -297h-111z" />
    <glyph glyph-name="eacute" unicode="&#xe9;" horiz-adv-x="1273" 
d="M594 1268l194 297l152 -72l-235 -225h-111zM672 -25q-110 0 -209 41.5t-173 115.5t-117.5 181t-43.5 232v4q0 157 67.5 287.5t187.5 207t267 76.5q154 0 271 -77.5t177 -207.5t60 -292q0 -34 -4 -49h-885q17 -183 132.5 -290.5t273.5 -107.5q204 0 358 164l88 -80
q-92 -100 -198 -152.5t-252 -52.5zM270 604h746q-8 108 -50 195t-124.5 143.5t-194.5 56.5q-151 0 -255.5 -111.5t-121.5 -283.5z" />
    <glyph glyph-name="ecircumflex" unicode="&#xea;" horiz-adv-x="1273" 
d="M373 1268l219 270h119l221 -270h-123l-160 143l-160 -143h-116zM672 -25q-110 0 -209 41.5t-173 115.5t-117.5 181t-43.5 232v4q0 157 67.5 287.5t187.5 207t267 76.5q154 0 271 -77.5t177 -207.5t60 -292q0 -34 -4 -49h-885q17 -183 132.5 -290.5t273.5 -107.5
q204 0 358 164l88 -80q-92 -100 -198 -152.5t-252 -52.5zM270 604h746q-8 108 -50 195t-124.5 143.5t-194.5 56.5q-151 0 -255.5 -111.5t-121.5 -283.5z" />
    <glyph glyph-name="edieresis" unicode="&#xeb;" horiz-adv-x="1273" 
d="M745 1268v188h173v-188h-173zM385 1268v188h172v-188h-172zM672 -25q-110 0 -209 41.5t-173 115.5t-117.5 181t-43.5 232v4q0 157 67.5 287.5t187.5 207t267 76.5q154 0 271 -77.5t177 -207.5t60 -292q0 -34 -4 -49h-885q17 -183 132.5 -290.5t273.5 -107.5
q204 0 358 164l88 -80q-92 -100 -198 -152.5t-252 -52.5zM270 604h746q-8 108 -50 195t-124.5 143.5t-194.5 56.5q-151 0 -255.5 -111.5t-121.5 -283.5z" />
    <glyph glyph-name="igrave" unicode="&#xec;" horiz-adv-x="567" 
d="M215 0v1094h137v-1094h-137zM231 1268l-235 225l151 72l195 -297h-111z" />
    <glyph glyph-name="iacute" unicode="&#xed;" horiz-adv-x="567" 
d="M229 1268l195 297l151 -72l-235 -225h-111zM215 0v1094h137v-1094h-137z" />
    <glyph glyph-name="icircumflex" unicode="&#xee;" horiz-adv-x="567" 
d="M6 1268l219 270h119l221 -270h-123l-159 143l-160 -143h-117zM215 0v1094h137v-1094h-137z" />
    <glyph glyph-name="idieresis" unicode="&#xef;" horiz-adv-x="567" 
d="M379 1268v188h172v-188h-172zM18 1268v188h172v-188h-172zM215 0v1094h137v-1094h-137z" />
    <glyph glyph-name="eth" unicode="&#xf0;" horiz-adv-x="1390" 
d="M1044 1470l-186 -84q189 -184 295.5 -376t106.5 -408v-4q0 -276 -159 -449.5t-415 -173.5q-154 0 -282 77t-201.5 209t-73.5 288v4q0 157 74 282.5t192 192t254 66.5q224 0 402 -166q-82 182 -316 403l-241 -108l-48 90l205 92q-50 45 -184 149h203l108 -92l217 99z
M696 100q182 0 301 127.5t119 317.5v4q0 182 -123 304t-315 122q-182 0 -294 -122t-112 -308v-4q0 -119 55 -220t153 -161t216 -60z" />
    <glyph glyph-name="ntilde" unicode="&#xf1;" horiz-adv-x="1329" 
d="M201 0v1094h137v-195q129 221 383 221q199 0 313.5 -122.5t114.5 -321.5v-676h-137v643q0 162 -85.5 256t-238.5 94q-151 0 -250.5 -102t-99.5 -262v-629h-137zM821 1268q-8 0 -15.5 0.5t-16 2.5t-14.5 3t-16 4.5t-15 5t-17 6.5t-16 6.5t-17.5 7t-17.5 7.5
q-88 43 -133 43q-40 0 -62.5 -22.5t-46.5 -84.5l-88 25q30 117 75 165t118 48q8 0 15.5 -0.5t16 -2.5t14.5 -3t16 -4.5t15 -5t17 -6.5t16 -6.5t17.5 -7t17.5 -7.5q88 -43 133 -43q41 0 63 21.5t46 82.5l88 -22q-30 -117 -75 -165t-118 -48z" />
    <glyph glyph-name="ograve" unicode="&#xf2;" horiz-adv-x="1390" 
d="M694 -25q-160 0 -290.5 78t-202.5 207.5t-72 282.5v4q0 153 73 284.5t204.5 210t291.5 78.5q120 0 225.5 -45.5t180 -122t117.5 -181.5t43 -220v-4q0 -153 -73 -283.5t-205 -209.5t-292 -79zM698 100q120 0 217 60t150 161.5t53 221.5v4q0 187 -122.5 317.5t-301.5 130.5
q-184 0 -303 -128.5t-119 -315.5v-4q0 -187 123.5 -317t302.5 -130zM641 1268l-235 225l151 72l195 -297h-111z" />
    <glyph glyph-name="oacute" unicode="&#xf3;" horiz-adv-x="1390" 
d="M639 1268l195 297l151 -72l-235 -225h-111zM694 -25q-160 0 -290.5 78t-202.5 207.5t-72 282.5v4q0 153 73 284.5t204.5 210t291.5 78.5q120 0 225.5 -45.5t180 -122t117.5 -181.5t43 -220v-4q0 -153 -73 -283.5t-205 -209.5t-292 -79zM698 100q120 0 217 60t150 161.5
t53 221.5v4q0 187 -122.5 317.5t-301.5 130.5q-184 0 -303 -128.5t-119 -315.5v-4q0 -187 123.5 -317t302.5 -130z" />
    <glyph glyph-name="ocircumflex" unicode="&#xf4;" horiz-adv-x="1390" 
d="M418 1268l219 270h119l221 -270h-123l-160 143l-159 -143h-117zM694 -25q-160 0 -290.5 78t-202.5 207.5t-72 282.5v4q0 153 73 284.5t204.5 210t291.5 78.5q120 0 225.5 -45.5t180 -122t117.5 -181.5t43 -220v-4q0 -153 -73 -283.5t-205 -209.5t-292 -79zM698 100
q120 0 217 60t150 161.5t53 221.5v4q0 187 -122.5 317.5t-301.5 130.5q-184 0 -303 -128.5t-119 -315.5v-4q0 -187 123.5 -317t302.5 -130z" />
    <glyph glyph-name="otilde" unicode="&#xf5;" horiz-adv-x="1390" 
d="M694 -25q-160 0 -290.5 78t-202.5 207.5t-72 282.5v4q0 153 73 284.5t204.5 210t291.5 78.5q120 0 225.5 -45.5t180 -122t117.5 -181.5t43 -220v-4q0 -153 -73 -283.5t-205 -209.5t-292 -79zM698 100q120 0 217 60t150 161.5t53 221.5v4q0 187 -122.5 317.5t-301.5 130.5
q-184 0 -303 -128.5t-119 -315.5v-4q0 -187 123.5 -317t302.5 -130zM844 1268q-22 0 -49.5 7.5t-41.5 13t-55 22.5q-88 43 -133 43q-40 0 -62 -22.5t-46 -84.5l-88 25q30 117 74.5 165t117.5 48q22 0 49.5 -7.5t41.5 -13t55 -22.5q88 -43 133 -43q41 0 62.5 21.5t45.5 82.5
l88 -22q-30 -117 -74.5 -165t-117.5 -48z" />
    <glyph glyph-name="odieresis" unicode="&#xf6;" horiz-adv-x="1390" 
d="M791 1268v188h172v-188h-172zM430 1268v188h172v-188h-172zM694 -25q-160 0 -290.5 78t-202.5 207.5t-72 282.5v4q0 153 73 284.5t204.5 210t291.5 78.5q120 0 225.5 -45.5t180 -122t117.5 -181.5t43 -220v-4q0 -153 -73 -283.5t-205 -209.5t-292 -79zM698 100
q120 0 217 60t150 161.5t53 221.5v4q0 187 -122.5 317.5t-301.5 130.5q-184 0 -303 -128.5t-119 -315.5v-4q0 -187 123.5 -317t302.5 -130z" />
    <glyph glyph-name="divide" unicode="&#xf7;" horiz-adv-x="1347" 
d="M575 1063v207h195v-207h-195zM1192 686h-1036v127h1036v-127zM575 229v207h195v-207h-195z" />
    <glyph glyph-name="oslash" unicode="&#xf8;" horiz-adv-x="1390" 
d="M1149 1108h145l-170 -180q140 -159 140 -377v-4q0 -153 -73 -283.5t-205 -209.5t-292 -79q-196 0 -350 119l-102 -104h-146l170 178q-137 156 -137 375v4q0 153 73 284.5t204.5 210t291.5 78.5q198 0 351 -121zM698 96q186 0 305 129.5t119 317.5v2q0 157 -94 284
l-598 -636q114 -100 268 -97zM270 551v-2q0 -157 90 -283l601 635q-117 96 -267 96q-186 0 -305 -129t-119 -317z" />
    <glyph glyph-name="ugrave" unicode="&#xf9;" horiz-adv-x="1329" 
d="M608 -25q-199 0 -313.5 122.5t-114.5 322.5v674h137v-643q0 -161 86 -256t238 -95q151 0 250.5 102.5t99.5 262.5v629h137v-1094h-137v197q-130 -222 -383 -222zM600 1268l-235 225l151 72l195 -297h-111z" />
    <glyph glyph-name="uacute" unicode="&#xfa;" horiz-adv-x="1329" 
d="M598 1268l195 297l151 -72l-235 -225h-111zM608 -25q-199 0 -313.5 122.5t-114.5 322.5v674h137v-643q0 -161 86 -256t238 -95q151 0 250.5 102.5t99.5 262.5v629h137v-1094h-137v197q-130 -222 -383 -222z" />
    <glyph glyph-name="ucircumflex" unicode="&#xfb;" horiz-adv-x="1329" 
d="M375 1268l219 270h119l221 -270h-123l-160 143l-159 -143h-117zM608 -25q-199 0 -313.5 122.5t-114.5 322.5v674h137v-643q0 -161 86 -256t238 -95q151 0 250.5 102.5t99.5 262.5v629h137v-1094h-137v197q-130 -222 -383 -222z" />
    <glyph glyph-name="udieresis" unicode="&#xfc;" horiz-adv-x="1329" 
d="M748 1268v188h172v-188h-172zM387 1268v188h172v-188h-172zM608 -25q-199 0 -313.5 122.5t-114.5 322.5v674h137v-643q0 -161 86 -256t238 -95q151 0 250.5 102.5t99.5 262.5v629h137v-1094h-137v197q-130 -222 -383 -222z" />
    <glyph glyph-name="yacute" unicode="&#xfd;" horiz-adv-x="1275" 
d="M666 152l368 942h150l-467 -1131q-67 -168 -154 -239.5t-209 -71.5q-115 0 -227 53l47 113q84 -41 178 -41q79 0 135 50.5t111 176.5l-510 1090h154zM590 1268l194 297l152 -72l-236 -225h-110z" />
    <glyph glyph-name="thorn" unicode="&#xfe;" horiz-adv-x="1431" 
d="M201 -340v1894h137v-690q172 256 434 256q79 0 155.5 -24.5t143 -73t117.5 -116t80.5 -159.5t29.5 -196v-4q0 -104 -29.5 -196.5t-80.5 -160t-117.5 -117t-143 -74t-155.5 -24.5q-270 0 -434 246v-561h-137zM750 102q173 0 288 120t115 321v4q0 197 -117.5 321.5
t-285.5 124.5q-108 0 -203 -55.5t-155 -158.5t-60 -230v-4q0 -96 35 -180t93 -141t134 -89.5t156 -32.5z" />
    <glyph glyph-name="ydieresis" unicode="&#xff;" horiz-adv-x="1275" 
d="M666 152l368 942h150l-467 -1131q-67 -168 -154 -239.5t-209 -71.5q-115 0 -227 53l47 113q84 -41 178 -41q79 0 135 50.5t111 176.5l-510 1090h154zM739 1268v188h172v-188h-172zM379 1268v188h172v-188h-172z" />
    <glyph glyph-name="Amacron" unicode="&#x100;" horiz-adv-x="1703" 
d="M98 0l686 1501h136l686 -1501h-156l-180 406h-842l-182 -406h-148zM485 535h727l-362 804zM510 1696v123h684v-123h-684z" />
    <glyph glyph-name="amacron" unicode="&#x101;" horiz-adv-x="1249" 
d="M530 -25q-78 0 -151.5 22.5t-132.5 64t-95 108t-36 147.5v5q0 168 129.5 261t343.5 93q194 0 346 -47v43q0 154 -88.5 234.5t-251.5 80.5q-160 0 -338 -84l-43 115q202 92 393 92q228 0 350 -119q113 -116 113 -315v-676h-135v172q-147 -197 -404 -197zM549 92
q163 0 276 88.5t113 225.5v114q-180 47 -346 47q-160 0 -248 -63.5t-88 -173.5v-6q0 -106 85.5 -169t207.5 -63zM301 1317v117h647v-117h-647z" />
    <glyph glyph-name="Abreve" unicode="&#x102;" horiz-adv-x="1703" 
d="M98 0l686 1501h136l686 -1501h-156l-180 406h-842l-182 -406h-148zM485 535h727l-362 804zM852 1642q-129 0 -210 60.5t-91 169.5h113q39 -111 188 -111t188 111h113q-10 -109 -91 -169.5t-210 -60.5z" />
    <glyph glyph-name="abreve" unicode="&#x103;" horiz-adv-x="1249" 
d="M530 -25q-78 0 -151.5 22.5t-132.5 64t-95 108t-36 147.5v5q0 168 129.5 261t343.5 93q194 0 346 -47v43q0 154 -88.5 234.5t-251.5 80.5q-160 0 -338 -84l-43 115q202 92 393 92q228 0 350 -119q113 -116 113 -315v-676h-135v172q-147 -197 -404 -197zM549 92
q163 0 276 88.5t113 225.5v114q-180 47 -346 47q-160 0 -248 -63.5t-88 -173.5v-6q0 -106 85.5 -169t207.5 -63zM625 1264q-129 0 -210 67t-91 187h102q46 -136 199 -136q152 0 198 136h103q-10 -120 -91 -187t-210 -67z" />
    <glyph glyph-name="Aogonek" unicode="&#x104;" horiz-adv-x="1703" 
d="M1624 -262v-88h-14q-132 4 -201.5 49.5t-69.5 120.5q0 52 26.5 95t82.5 89v2l-178 400h-842l-182 -406h-148l686 1501h136l686 -1501h-31q-60 -50 -85.5 -85.5t-25.5 -76.5q0 -45 37.5 -69.5t122.5 -30.5zM485 535h727l-362 804z" />
    <glyph glyph-name="aogonek" unicode="&#x105;" horiz-adv-x="1249" 
d="M1098 -262v-88h-15q-132 4 -201 49.5t-69 120.5q0 54 29.5 99.5t91.5 94.5v2v156q-147 -197 -404 -197q-78 0 -151.5 22.5t-132.5 64t-95 108t-36 147.5v5q0 168 129.5 261t343.5 93q194 0 346 -47v43q0 154 -88.5 234.5t-251.5 80.5q-160 0 -338 -84l-43 115
q202 92 393 92q228 0 350 -119q113 -116 113 -315v-676h-20q-60 -50 -85.5 -85.5t-25.5 -76.5q0 -45 37.5 -69.5t122.5 -30.5zM549 92q163 0 276 88.5t113 225.5v114q-180 47 -346 47q-160 0 -248 -63.5t-88 -173.5v-6q0 -106 85.5 -169t207.5 -63z" />
    <glyph glyph-name="Cacute" unicode="&#x106;" horiz-adv-x="1601" 
d="M903 -25q-157 0 -295.5 60t-236.5 162.5t-154.5 244t-56.5 299.5v4q0 156 56.5 297.5t154.5 246t238.5 166t299.5 61.5q97 0 180.5 -17t154.5 -50.5t127.5 -73t119.5 -95.5l-98 -106q-107 102 -222 157t-264 55q-169 0 -306.5 -84.5t-214.5 -230t-77 -321.5v-5
q0 -176 79 -323.5t217 -232.5t304 -85q148 0 263 55.5t233 168.5l94 -92q-129 -129 -267.5 -195t-328.5 -66zM838 1647l206 264l150 -70l-238 -194h-118z" />
    <glyph glyph-name="cacute" unicode="&#x107;" horiz-adv-x="1236" 
d="M623 1268l194 297l152 -72l-236 -225h-110zM688 -25q-155 0 -284 77.5t-202 208t-73 282.5v4q0 152 73.5 283.5t203 210.5t284.5 79q140 0 243.5 -53.5t192.5 -146.5l-92 -97q-80 82 -160.5 127t-187.5 45q-176 0 -295 -129t-119 -315v-4q0 -187 123 -317t301 -130
q194 0 348 172l91 -84q-94 -104 -198.5 -158.5t-248.5 -54.5z" />
    <glyph glyph-name="Cdotaccent" unicode="&#x10a;" horiz-adv-x="1601" 
d="M805 1647v178h184v-178h-184zM903 -25q-157 0 -295.5 60t-236.5 162.5t-154.5 244t-56.5 299.5v4q0 156 56.5 297.5t154.5 246t238.5 166t299.5 61.5q97 0 180.5 -17t154.5 -50.5t127.5 -73t119.5 -95.5l-98 -106q-107 102 -222 157t-264 55q-169 0 -306.5 -84.5
t-214.5 -230t-77 -321.5v-5q0 -176 79 -323.5t217 -232.5t304 -85q148 0 263 55.5t233 168.5l94 -92q-129 -129 -267.5 -195t-328.5 -66z" />
    <glyph glyph-name="cdotaccent" unicode="&#x10b;" horiz-adv-x="1236" 
d="M688 -25q-155 0 -284 77.5t-202 208t-73 282.5v4q0 152 73.5 283.5t203 210.5t284.5 79q140 0 243.5 -53.5t192.5 -146.5l-92 -97q-80 82 -160.5 127t-187.5 45q-176 0 -295 -129t-119 -315v-4q0 -187 123 -317t301 -130q194 0 348 172l91 -84q-94 -104 -198.5 -158.5
t-248.5 -54.5zM588 1268v188h180v-188h-180z" />
    <glyph glyph-name="Ccaron" unicode="&#x10c;" horiz-adv-x="1601" 
d="M903 -25q-157 0 -295.5 60t-236.5 162.5t-154.5 244t-56.5 299.5v4q0 156 56.5 297.5t154.5 246t238.5 166t299.5 61.5q97 0 180.5 -17t154.5 -50.5t127.5 -73t119.5 -95.5l-98 -106q-107 102 -222 157t-264 55q-169 0 -306.5 -84.5t-214.5 -230t-77 -321.5v-5
q0 -176 79 -323.5t217 -232.5t304 -85q148 0 263 55.5t233 168.5l94 -92q-129 -129 -267.5 -195t-328.5 -66zM1190 1888l-227 -241h-132l-227 241h137l158 -129l158 129h133z" />
    <glyph glyph-name="ccaron" unicode="&#x10d;" horiz-adv-x="1236" 
d="M958 1538l-221 -270h-119l-219 270h121l160 -143l160 143h118zM688 -25q-155 0 -284 77.5t-202 208t-73 282.5v4q0 152 73.5 283.5t203 210.5t284.5 79q140 0 243.5 -53.5t192.5 -146.5l-92 -97q-80 82 -160.5 127t-187.5 45q-176 0 -295 -129t-119 -315v-4
q0 -187 123 -317t301 -130q194 0 348 172l91 -84q-94 -104 -198.5 -158.5t-248.5 -54.5z" />
    <glyph glyph-name="Dcaron" unicode="&#x10e;" horiz-adv-x="1685" 
d="M1102 1868l-228 -242h-131l-227 242h137l158 -129l158 129h133zM225 0v1491h510q228 0 409.5 -97.5t281.5 -266.5t100 -377v-5q0 -208 -100 -378t-281.5 -268.5t-409.5 -98.5h-510zM735 1360h-366v-1229h366q144 0 265.5 47.5t204 129.5t128 193.5t45.5 239.5v4
q0 127 -46 239.5t-128 195.5t-203.5 131.5t-265.5 48.5z" />
    <glyph glyph-name="dcaron" unicode="&#x10f;" horiz-adv-x="1431" 
d="M1374 1221l33 335h145v-6l-106 -329h-72zM659 -25q-99 0 -193 39.5t-168.5 111t-119.5 180.5t-45 237v4q0 105 29.5 197.5t80.5 160t117.5 117t143 74t155.5 24.5q268 0 435 -248v682h137v-1554h-137v231q-172 -256 -435 -256zM682 102q79 0 154.5 32.5t134 89.5t94 141
t35.5 180v4q0 129 -61 232.5t-155.5 157.5t-201.5 54q-173 0 -289.5 -120.5t-116.5 -321.5v-4q0 -197 118.5 -321t287.5 -124z" />
    <glyph glyph-name="Dcroat" unicode="&#x110;" horiz-adv-x="1748" 
d="M289 0v690h-160v121h160v680h510q172 0 320 -57t251.5 -155.5t162 -235.5t58.5 -293v-5q0 -156 -58.5 -293.5t-161.5 -237t-251.5 -157t-320.5 -57.5h-510zM901 690h-469v-559h367q144 0 265.5 47.5t204 129.5t128 193.5t45.5 239.5v4q0 127 -46 239.5t-128 195.5
t-203.5 131.5t-265.5 48.5h-367v-549h469v-121z" />
    <glyph glyph-name="dcroat" unicode="&#x111;" horiz-adv-x="1431" 
d="M709 1309v108h385v137h137v-137h147v-108h-147v-1309h-137v231q-172 -256 -435 -256q-99 0 -193 39.5t-168.5 111t-119.5 180.5t-45 237v4q0 105 29.5 197.5t80.5 160t117.5 117t143 74t155.5 24.5q268 0 435 -248v437h-385zM682 102q79 0 154.5 32.5t134 89.5t94 141
t35.5 180v4q0 129 -61 232.5t-155.5 157.5t-201.5 54q-173 0 -289.5 -120.5t-116.5 -321.5v-4q0 -197 118.5 -321t287.5 -124z" />
    <glyph glyph-name="Emacron" unicode="&#x112;" horiz-adv-x="1447" 
d="M422 1675v123h684v-123h-684zM225 0v1491h1071v-131h-927v-543h831v-131h-831v-555h938v-131h-1082z" />
    <glyph glyph-name="emacron" unicode="&#x113;" horiz-adv-x="1273" 
d="M672 -25q-110 0 -209 41.5t-173 115.5t-117.5 181t-43.5 232v4q0 157 67.5 287.5t187.5 207t267 76.5q154 0 271 -77.5t177 -207.5t60 -292q0 -34 -4 -49h-885q17 -183 132.5 -290.5t273.5 -107.5q204 0 358 164l88 -80q-92 -100 -198 -152.5t-252 -52.5zM270 604h746
q-8 108 -50 195t-124.5 143.5t-194.5 56.5q-151 0 -255.5 -111.5t-121.5 -283.5zM328 1317v117h647v-117h-647z" />
    <glyph glyph-name="Ebreve" unicode="&#x114;" horiz-adv-x="1447" 
d="M764 1622q-129 0 -210 60t-91 169h112q38 -110 189 -110q150 0 188 110h113q-10 -109 -91 -169t-210 -60zM225 0v1491h1071v-131h-927v-543h831v-131h-831v-555h938v-131h-1082z" />
    <glyph glyph-name="ebreve" unicode="&#x115;" horiz-adv-x="1273" 
d="M672 -25q-110 0 -209 41.5t-173 115.5t-117.5 181t-43.5 232v4q0 157 67.5 287.5t187.5 207t267 76.5q154 0 271 -77.5t177 -207.5t60 -292q0 -34 -4 -49h-885q17 -183 132.5 -290.5t273.5 -107.5q204 0 358 164l88 -80q-92 -100 -198 -152.5t-252 -52.5zM270 604h746
q-8 108 -50 195t-124.5 143.5t-194.5 56.5q-151 0 -255.5 -111.5t-121.5 -283.5zM651 1264q-129 0 -210 67t-91 187h103q46 -136 198 -136q153 0 199 136h102q-10 -120 -91 -187t-210 -67z" />
    <glyph glyph-name="Edotaccent" unicode="&#x116;" horiz-adv-x="1447" 
d="M672 1626v178h184v-178h-184zM225 0v1491h1071v-131h-927v-543h831v-131h-831v-555h938v-131h-1082z" />
    <glyph glyph-name="edotaccent" unicode="&#x117;" horiz-adv-x="1273" 
d="M672 -25q-110 0 -209 41.5t-173 115.5t-117.5 181t-43.5 232v4q0 157 67.5 287.5t187.5 207t267 76.5q154 0 271 -77.5t177 -207.5t60 -292q0 -34 -4 -49h-885q17 -183 132.5 -290.5t273.5 -107.5q204 0 358 164l88 -80q-92 -100 -198 -152.5t-252 -52.5zM270 604h746
q-8 108 -50 195t-124.5 143.5t-194.5 56.5q-151 0 -255.5 -111.5t-121.5 -283.5zM561 1268v188h180v-188h-180z" />
    <glyph glyph-name="Eogonek" unicode="&#x118;" horiz-adv-x="1447" 
d="M225 0v1491h1071v-131h-927v-543h831v-131h-831v-555h938v-131h-52q-60 -49 -85 -85t-25 -77q0 -45 37.5 -69.5t122.5 -30.5v-88h-15q-132 4 -201 49.5t-69 120.5q0 89 102 180h-897z" />
    <glyph glyph-name="eogonek" unicode="&#x119;" horiz-adv-x="1273" 
d="M270 604h746q-8 108 -50 195t-124.5 143.5t-194.5 56.5q-151 0 -255.5 -111.5t-121.5 -283.5zM1034 260l88 -80q-57 -60 -110 -104q-90 -76 -124 -126t-34 -97q0 -55 37.5 -81t124.5 -34v-88h-15q-270 9 -270 178q0 76 80 162q-65 -15 -139 -15q-110 0 -209 41.5
t-173 115.5t-117.5 181t-43.5 232v4q0 157 67.5 287.5t187.5 207t267 76.5q154 0 271 -77.5t177 -207.5t60 -292q0 -34 -4 -49h-885q17 -183 132.5 -290.5t273.5 -107.5q204 0 358 164z" />
    <glyph glyph-name="Ecaron" unicode="&#x11a;" horiz-adv-x="1447" 
d="M1057 1868l-228 -242h-131l-227 242h137l158 -129l158 129h133zM225 0v1491h1071v-131h-927v-543h831v-131h-831v-555h938v-131h-1082z" />
    <glyph glyph-name="ecaron" unicode="&#x11b;" horiz-adv-x="1273" 
d="M932 1538l-221 -270h-119l-219 270h121l159 -143l160 143h119zM672 -25q-110 0 -209 41.5t-173 115.5t-117.5 181t-43.5 232v4q0 157 67.5 287.5t187.5 207t267 76.5q154 0 271 -77.5t177 -207.5t60 -292q0 -34 -4 -49h-885q17 -183 132.5 -290.5t273.5 -107.5
q204 0 358 164l88 -80q-92 -100 -198 -152.5t-252 -52.5zM270 604h746q-8 108 -50 195t-124.5 143.5t-194.5 56.5q-151 0 -255.5 -111.5t-121.5 -283.5z" />
    <glyph glyph-name="Gbreve" unicode="&#x11e;" horiz-adv-x="1689" 
d="M887 1642q-129 0 -210 60.5t-91 169.5h112q39 -111 189 -111q149 0 188 111h113q-10 -109 -91 -169.5t-210 -60.5zM913 -25q-171 0 -314 60t-238.5 164t-148 243.5t-52.5 298.5v4q0 151 53.5 290.5t148.5 246t236 170.5t305 64q177 0 304.5 -48.5t246.5 -148.5l-92 -109
q-93 84 -204.5 130t-262.5 46q-168 0 -303 -87t-209 -232.5t-74 -316.5v-5q0 -186 73 -331t212.5 -228.5t325.5 -83.5q129 0 248.5 44t201.5 114v397h-473v129h610v-585q-112 -99 -266.5 -162.5t-327.5 -63.5z" />
    <glyph glyph-name="gbreve" unicode="&#x11f;" horiz-adv-x="1431" 
d="M682 -344q-272 0 -500 158l70 108q198 -145 432 -145q188 0 299 104.5t111 300.5v142q-170 -242 -441 -242q-99 0 -192.5 36.5t-166.5 102t-117 164t-44 213.5v4q0 116 44.5 215t117.5 164.5t166 102t192 36.5q260 0 441 -233v207h137v-912q0 -242 -139 -381
q-145 -145 -410 -145zM676 209q108 0 204.5 48t158 139.5t61.5 203.5v4q0 114 -61.5 204.5t-157.5 137.5t-205 47q-169 0 -284.5 -107t-115.5 -282v-4q0 -169 118 -280t282 -111zM721 1264q-129 0 -210 67t-91 187h102q46 -136 199 -136t199 136h102q-10 -120 -91 -187
t-210 -67z" />
    <glyph glyph-name="Gdotaccent" unicode="&#x120;" horiz-adv-x="1689" 
d="M795 1647v178h184v-178h-184zM913 -25q-171 0 -314 60t-238.5 164t-148 243.5t-52.5 298.5v4q0 151 53.5 290.5t148.5 246t236 170.5t305 64q177 0 304.5 -48.5t246.5 -148.5l-92 -109q-93 84 -204.5 130t-262.5 46q-168 0 -303 -87t-209 -232.5t-74 -316.5v-5
q0 -186 73 -331t212.5 -228.5t325.5 -83.5q129 0 248.5 44t201.5 114v397h-473v129h610v-585q-112 -99 -266.5 -162.5t-327.5 -63.5z" />
    <glyph glyph-name="gdotaccent" unicode="&#x121;" horiz-adv-x="1431" 
d="M682 -344q-272 0 -500 158l70 108q198 -145 432 -145q188 0 299 104.5t111 300.5v142q-170 -242 -441 -242q-99 0 -192.5 36.5t-166.5 102t-117 164t-44 213.5v4q0 116 44.5 215t117.5 164.5t166 102t192 36.5q260 0 441 -233v207h137v-912q0 -242 -139 -381
q-145 -145 -410 -145zM676 209q108 0 204.5 48t158 139.5t61.5 203.5v4q0 114 -61.5 204.5t-157.5 137.5t-205 47q-169 0 -284.5 -107t-115.5 -282v-4q0 -169 118 -280t282 -111zM631 1268v188h180v-188h-180z" />
    <glyph glyph-name="Gcommaaccent" unicode="&#x122;" horiz-adv-x="1689" 
d="M913 -25q-171 0 -314 60t-238.5 164t-148 243.5t-52.5 298.5v4q0 151 53.5 290.5t148.5 246t236 170.5t305 64q177 0 304.5 -48.5t246.5 -148.5l-92 -109q-93 84 -204.5 130t-262.5 46q-168 0 -303 -87t-209 -232.5t-74 -316.5v-5q0 -186 73 -331t212.5 -228.5
t325.5 -83.5q129 0 248.5 44t201.5 114v397h-473v129h610v-585q-112 -99 -266.5 -162.5t-327.5 -63.5zM766 -500l-14 58q70 14 99.5 43t25.5 82h-78v163h176v-143q0 -179 -209 -203z" />
    <glyph glyph-name="gcommaaccent" unicode="&#x123;" horiz-adv-x="1431" 
d="M682 -344q-272 0 -500 158l70 108q198 -145 432 -145q188 0 299 104.5t111 300.5v142q-170 -242 -441 -242q-99 0 -192.5 36.5t-166.5 102t-117 164t-44 213.5v4q0 116 44.5 215t117.5 164.5t166 102t192 36.5q260 0 441 -233v207h137v-912q0 -242 -139 -381
q-145 -145 -410 -145zM676 209q108 0 204.5 48t158 139.5t61.5 203.5v4q0 114 -61.5 204.5t-157.5 137.5t-205 47q-169 0 -284.5 -107t-115.5 -282v-4q0 -169 118 -280t282 -111zM842 1616l14 -60q-66 -12 -97.5 -42.5t-27.5 -79.5h76v-166h-174v143q0 178 209 205z" />
    <glyph glyph-name="Hbar" unicode="&#x126;" horiz-adv-x="1746" 
d="M121 1085v115h160v291h143v-291h901v291h143v-291h158v-115h-158v-1085h-143v674h-901v-674h-143v1085h-160zM424 807h901v278h-901v-278z" />
    <glyph glyph-name="hbar" unicode="&#x127;" horiz-adv-x="1329" 
d="M723 1309h-385v-410q129 221 383 221q199 0 313.5 -122.5t114.5 -321.5v-676h-137v643q0 162 -85.5 256t-238.5 94q-151 0 -250.5 -102t-99.5 -262v-629h-137v1309h-150v108h150v137h137v-137h385v-108z" />
    <glyph glyph-name="Imacron" unicode="&#x12a;" horiz-adv-x="624" 
d="M240 0v1491h143v-1491h-143zM-29 1675v123h684v-123h-684z" />
    <glyph glyph-name="imacron" unicode="&#x12b;" horiz-adv-x="567" 
d="M215 0v1094h137v-1094h-137zM-39 1317v117h647v-117h-647z" />
    <glyph glyph-name="Ibreve" unicode="&#x12c;" horiz-adv-x="624" 
d="M240 0v1491h143v-1491h-143zM313 1622q-129 0 -210 60t-91 169h113q38 -110 188 -110q151 0 189 110h112q-10 -109 -91 -169t-210 -60z" />
    <glyph glyph-name="ibreve" unicode="&#x12d;" horiz-adv-x="567" 
d="M215 0v1094h137v-1094h-137zM285 1264q-129 0 -210 67t-91 187h102q46 -136 199 -136q152 0 198 136h103q-10 -120 -91 -187t-210 -67z" />
    <glyph glyph-name="Iogonek" unicode="&#x12e;" horiz-adv-x="624" 
d="M240 4v1487h143v-1491h-14q-60 -50 -85.5 -85.5t-25.5 -76.5q0 -45 37.5 -69.5t122.5 -30.5v-88h-15q-132 4 -201 49.5t-69 120.5q0 89 107 182v2z" />
    <glyph glyph-name="iogonek" unicode="&#x12f;" horiz-adv-x="567" 
d="M215 8v1086h137v-1094h-12q-60 -50 -85.5 -85.5t-25.5 -76.5q0 -45 37.5 -69.5t122.5 -30.5v-88h-14q-132 4 -201.5 49.5t-69.5 120.5q0 51 26.5 93t84.5 93v2zM203 1354v166h162v-166h-162z" />
    <glyph glyph-name="Idotaccent" unicode="&#x130;" horiz-adv-x="624" 
d="M240 0v1491h143v-1491h-143zM221 1626v178h185v-178h-185z" />
    <glyph glyph-name="dotlessi" unicode="&#x131;" horiz-adv-x="567" 
d="M215 0v1094h137v-1094h-137z" />
    <glyph glyph-name="Kcommaaccent" unicode="&#x136;" horiz-adv-x="1548" 
d="M225 0v1491h144v-930l897 930h190l-647 -653l674 -838h-183l-591 735l-340 -344v-391h-144zM659 -489l-14 57q70 14 99.5 43t25.5 82h-78v164h176v-144q0 -178 -209 -202z" />
    <glyph glyph-name="kcommaaccent" unicode="&#x137;" horiz-adv-x="1222" 
d="M524 -500l-14 58q70 14 99.5 43t25.5 82h-78v163h176v-143q0 -179 -209 -203zM201 0v1554h137v-1114l629 654h176l-469 -476l483 -618h-168l-409 520l-242 -244v-276h-137z" />
    <glyph glyph-name="Lacute" unicode="&#x139;" horiz-adv-x="1329" 
d="M262 1626l207 264l149 -69l-237 -195h-119zM225 0v1491h144v-1360h856v-131h-1000z" />
    <glyph glyph-name="lacute" unicode="&#x13a;" horiz-adv-x="567" 
d="M229 1673l207 264l150 -69l-238 -195h-119zM215 0v1554h137v-1554h-137z" />
    <glyph glyph-name="Lcommaaccent" unicode="&#x13b;" horiz-adv-x="1329" 
d="M225 0v1491h144v-1360h856v-131h-1000zM594 -500l-14 58q70 14 99.5 43t25.5 82h-78v163h176v-143q0 -179 -209 -203z" />
    <glyph glyph-name="lcommaaccent" unicode="&#x13c;" horiz-adv-x="567" 
d="M162 -500l-15 58q70 14 99.5 43t25.5 82h-77v163h176v-143q0 -179 -209 -203zM215 0v1554h137v-1554h-137z" />
    <glyph glyph-name="Lcaron" unicode="&#x13d;" horiz-adv-x="1329" 
d="M225 0v1491h144v-1360h856v-131h-1000zM575 1157l33 336h146v-6l-107 -330h-72z" />
    <glyph glyph-name="lcaron" unicode="&#x13e;" horiz-adv-x="567" 
d="M496 1221l32 335h146v-6l-107 -329h-71zM215 0v1554h137v-1554h-137z" />
    <glyph glyph-name="Ldot" unicode="&#x13f;" horiz-adv-x="1329" 
d="M899 684v188h176v-188h-176zM225 0v1491h144v-1360h856v-131h-1000z" />
    <glyph glyph-name="ldot" unicode="&#x140;" horiz-adv-x="704" 
d="M543 690v187h170v-187h-170zM215 0v1554h137v-1554h-137z" />
    <glyph glyph-name="Lslash" unicode="&#x141;" horiz-adv-x="1394" 
d="M819 862l-389 -182v-549h858v-131h-999v612l-160 -73v141l160 74v737h141v-670l389 183v-142z" />
    <glyph glyph-name="lslash" unicode="&#x142;" horiz-adv-x="696" 
d="M578 840l-162 -90v-750h-137v676l-162 -88v143l162 86v737h137v-663l162 90v-141z" />
    <glyph glyph-name="Nacute" unicode="&#x143;" horiz-adv-x="1703" 
d="M795 1620l206 264l150 -69l-238 -195h-118zM225 0v1491h135l979 -1241v1241h140v-1491h-113l-1001 1268v-1268h-140z" />
    <glyph glyph-name="nacute" unicode="&#x144;" horiz-adv-x="1329" 
d="M616 1268l195 297l152 -72l-236 -225h-111zM201 0v1094h137v-195q129 221 383 221q199 0 313.5 -122.5t114.5 -321.5v-676h-137v643q0 162 -85.5 256t-238.5 94q-151 0 -250.5 -102t-99.5 -262v-629h-137z" />
    <glyph glyph-name="Ncommaaccent" unicode="&#x145;" horiz-adv-x="1703" 
d="M729 -489l-14 57q70 14 99.5 43t25.5 82h-78v164h176v-144q0 -178 -209 -202zM225 0v1491h135l979 -1241v1241h140v-1491h-113l-1001 1268v-1268h-140z" />
    <glyph glyph-name="ncommaaccent" unicode="&#x146;" horiz-adv-x="1329" 
d="M551 -500l-14 58q70 14 99.5 43t25.5 82h-78v163h176v-143q0 -179 -209 -203zM201 0v1094h137v-195q129 221 383 221q199 0 313.5 -122.5t114.5 -321.5v-676h-137v643q0 162 -85.5 256t-238.5 94q-151 0 -250.5 -102t-99.5 -262v-629h-137z" />
    <glyph glyph-name="Ncaron" unicode="&#x147;" horiz-adv-x="1703" 
d="M1145 1862l-227 -242h-132l-227 242h137l158 -129l158 129h133zM225 0v1491h135l979 -1241v1241h140v-1491h-113l-1001 1268v-1268h-140z" />
    <glyph glyph-name="ncaron" unicode="&#x148;" horiz-adv-x="1329" 
d="M954 1538l-221 -270h-119l-219 270h121l160 -143l160 143h118zM201 0v1094h137v-195q129 221 383 221q199 0 313.5 -122.5t114.5 -321.5v-676h-137v643q0 162 -85.5 256t-238.5 94q-151 0 -250.5 -102t-99.5 -262v-629h-137z" />
    <glyph glyph-name="Omacron" unicode="&#x14c;" horiz-adv-x="1830" 
d="M573 1696v123h684v-123h-684zM913 -25q-133 0 -252 40t-209.5 111.5t-156.5 167.5t-100.5 210.5t-34.5 236.5v4q0 153 55.5 293.5t153 246t240.5 168.5t309 63q133 0 252 -40t209.5 -111.5t156.5 -167.5t100.5 -210.5t34.5 -236.5v-5q0 -153 -55.5 -293t-153 -245.5
t-240.5 -168.5t-309 -63zM918 104q129 0 242.5 50.5t192 136t124 202.5t45.5 248v4q0 175 -78 321.5t-218.5 233t-312.5 86.5t-311.5 -85.5t-216 -230.5t-76.5 -320v-5q0 -175 78 -321.5t218.5 -233t312.5 -86.5z" />
    <glyph glyph-name="omacron" unicode="&#x14d;" horiz-adv-x="1390" 
d="M373 1317v117h647v-117h-647zM694 -25q-160 0 -290.5 78t-202.5 207.5t-72 282.5v4q0 153 73 284.5t204.5 210t291.5 78.5q120 0 225.5 -45.5t180 -122t117.5 -181.5t43 -220v-4q0 -153 -73 -283.5t-205 -209.5t-292 -79zM698 100q120 0 217 60t150 161.5t53 221.5v4
q0 187 -122.5 317.5t-301.5 130.5q-184 0 -303 -128.5t-119 -315.5v-4q0 -187 123.5 -317t302.5 -130z" />
    <glyph glyph-name="Obreve" unicode="&#x14e;" horiz-adv-x="1830" 
d="M915 1642q-129 0 -210 60.5t-91 169.5h113q39 -111 188 -111q150 0 189 111h113q-10 -109 -91.5 -169.5t-210.5 -60.5zM913 -25q-133 0 -252 40t-209.5 111.5t-156.5 167.5t-100.5 210.5t-34.5 236.5v4q0 153 55.5 293.5t153 246t240.5 168.5t309 63q133 0 252 -40
t209.5 -111.5t156.5 -167.5t100.5 -210.5t34.5 -236.5v-5q0 -153 -55.5 -293t-153 -245.5t-240.5 -168.5t-309 -63zM918 104q129 0 242.5 50.5t192 136t124 202.5t45.5 248v4q0 175 -78 321.5t-218.5 233t-312.5 86.5t-311.5 -85.5t-216 -230.5t-76.5 -320v-5
q0 -175 78 -321.5t218.5 -233t312.5 -86.5z" />
    <glyph glyph-name="obreve" unicode="&#x14f;" horiz-adv-x="1390" 
d="M694 -25q-160 0 -290.5 78t-202.5 207.5t-72 282.5v4q0 153 73 284.5t204.5 210t291.5 78.5q120 0 225.5 -45.5t180 -122t117.5 -181.5t43 -220v-4q0 -153 -73 -283.5t-205 -209.5t-292 -79zM698 100q120 0 217 60t150 161.5t53 221.5v4q0 187 -122.5 317.5t-301.5 130.5
q-184 0 -303 -128.5t-119 -315.5v-4q0 -187 123.5 -317t302.5 -130zM696 1264q-129 0 -210 67t-91 187h103q46 -136 198 -136q153 0 199 136h102q-10 -120 -91 -187t-210 -67z" />
    <glyph glyph-name="Ohungarumlaut" unicode="&#x150;" horiz-adv-x="1830" 
d="M913 -25q-133 0 -252 40t-209.5 111.5t-156.5 167.5t-100.5 210.5t-34.5 236.5v4q0 153 55.5 293.5t153 246t240.5 168.5t309 63q133 0 252 -40t209.5 -111.5t156.5 -167.5t100.5 -210.5t34.5 -236.5v-5q0 -153 -55.5 -293t-153 -245.5t-240.5 -168.5t-309 -63zM918 104
q129 0 242.5 50.5t192 136t124 202.5t45.5 248v4q0 175 -78 321.5t-218.5 233t-312.5 86.5t-311.5 -85.5t-216 -230.5t-76.5 -320v-5q0 -175 78 -321.5t218.5 -233t312.5 -86.5zM680 1647l207 264l147 -70l-237 -194h-117zM993 1647l207 264l148 -70l-236 -194h-119z" />
    <glyph glyph-name="ohungarumlaut" unicode="&#x151;" horiz-adv-x="1390" 
d="M774 1268l197 297l141 -72l-225 -225h-113zM469 1268l197 297l139 -72l-223 -225h-113zM694 -25q-160 0 -290.5 78t-202.5 207.5t-72 282.5v4q0 153 73 284.5t204.5 210t291.5 78.5q120 0 225.5 -45.5t180 -122t117.5 -181.5t43 -220v-4q0 -153 -73 -283.5t-205 -209.5
t-292 -79zM698 100q120 0 217 60t150 161.5t53 221.5v4q0 187 -122.5 317.5t-301.5 130.5q-184 0 -303 -128.5t-119 -315.5v-4q0 -187 123.5 -317t302.5 -130z" />
    <glyph glyph-name="OE" unicode="&#x152;" horiz-adv-x="2449" 
d="M2308 0h-1356q-172 0 -320 57t-251.5 155.5t-162 235.5t-58.5 293v4q0 156 58.5 293.5t161.5 237t251.5 157.5t320.5 58h1346v-131h-893v-543h797v-131h-797v-555h903v-131zM952 131h310v1229h-310q-144 0 -265.5 -47.5t-204 -129.5t-128 -193.5t-45.5 -239.5v-5
q0 -127 46 -239.5t128 -195.5t203.5 -131t265.5 -48z" />
    <glyph glyph-name="oe" unicode="&#x153;" horiz-adv-x="2260" 
d="M688 -25q-155 0 -284 77.5t-202 208t-73 282.5v4q0 114 43.5 219.5t118 183t180 124t223.5 46.5q162 0 291 -85t197 -226q62 143 183.5 227t274.5 84t269 -77.5t176.5 -207.5t60.5 -292q0 -3 -4 -49h-885q17 -183 131.5 -290.5t272.5 -107.5q208 0 358 164l90 -80
q-92 -100 -197.5 -152.5t-250.5 -52.5q-156 0 -284.5 83.5t-194.5 230.5q-68 -143 -198 -228.5t-296 -85.5zM1257 604h746q-8 108 -50 195t-124.5 143.5t-194.5 56.5q-151 0 -255.5 -111.5t-121.5 -283.5zM696 100q120 0 217 60t150 161.5t53 221.5v4q0 187 -122.5 317.5
t-301.5 130.5q-181 0 -300.5 -130t-119.5 -314v-4q0 -187 122.5 -317t301.5 -130z" />
    <glyph glyph-name="Racute" unicode="&#x154;" horiz-adv-x="1560" 
d="M225 0v1491h635q136 0 244.5 -39.5t177.5 -108.5q115 -115 115 -286v-4q0 -179 -115 -290.5t-305 -141.5l473 -621h-176l-453 596h-452v-596h-144zM369 725h477q181 0 294 86.5t113 235.5v4q0 144 -106 226.5t-297 82.5h-481v-635zM700 1626l207 264l150 -69l-238 -195
h-119z" />
    <glyph glyph-name="racute" unicode="&#x155;" horiz-adv-x="878" 
d="M410 1268l194 297l152 -72l-236 -225h-110zM201 0v1094h137v-297q66 147 186.5 233t276.5 82v-147h-10q-93 0 -174.5 -35t-144 -99.5t-98.5 -165t-36 -223.5v-442h-137z" />
    <glyph glyph-name="Rcommaaccent" unicode="&#x156;" horiz-adv-x="1560" 
d="M225 0v1491h635q136 0 244.5 -39.5t177.5 -108.5q115 -115 115 -286v-4q0 -179 -115 -290.5t-305 -141.5l473 -621h-176l-453 596h-452v-596h-144zM369 725h477q181 0 294 86.5t113 235.5v4q0 144 -106 226.5t-297 82.5h-481v-635zM635 -489l-14 57q70 14 99 43t25 82
h-77v164h176v-144q0 -178 -209 -202z" />
    <glyph glyph-name="rcommaaccent" unicode="&#x157;" horiz-adv-x="878" 
d="M166 -500l-14 58q70 14 99 43t25 82h-77v163h176v-143q0 -179 -209 -203zM201 0v1094h137v-297q66 147 186.5 233t276.5 82v-147h-10q-93 0 -174.5 -35t-144 -99.5t-98.5 -165t-36 -223.5v-442h-137z" />
    <glyph glyph-name="Rcaron" unicode="&#x158;" horiz-adv-x="1560" 
d="M1051 1868l-228 -242h-131l-227 242h137l158 -129l158 129h133zM225 0v1491h635q136 0 244.5 -39.5t177.5 -108.5q115 -115 115 -286v-4q0 -179 -115 -290.5t-305 -141.5l473 -621h-176l-453 596h-452v-596h-144zM369 725h477q181 0 294 86.5t113 235.5v4
q0 144 -106 226.5t-297 82.5h-481v-635z" />
    <glyph glyph-name="rcaron" unicode="&#x159;" horiz-adv-x="878" 
d="M748 1538l-222 -270h-118l-220 270h121l160 -143l160 143h119zM201 0v1094h137v-297q66 147 186.5 233t276.5 82v-147h-10q-93 0 -174.5 -35t-144 -99.5t-98.5 -165t-36 -223.5v-442h-137z" />
    <glyph glyph-name="Sacute" unicode="&#x15a;" horiz-adv-x="1384" 
d="M733 -20q-178 0 -323 57.5t-281 179.5l90 107q122 -112 244.5 -165t277.5 -53q156 0 254.5 78t98.5 197v4q0 76 -32.5 127t-122 94.5t-249.5 75.5q-267 55 -384.5 153t-117.5 273v4q0 172 138.5 285.5t347.5 113.5q160 0 279.5 -43.5t238.5 -138.5l-86 -110
q-196 165 -436 165q-150 0 -244 -75.5t-94 -184.5v-4q0 -57 17.5 -99t63.5 -80.5t128.5 -68.5t208.5 -57q255 -54 371 -153t116 -265v-4q0 -185 -141.5 -299t-362.5 -114zM649 1647l207 264l150 -70l-238 -194h-119z" />
    <glyph glyph-name="sacute" unicode="&#x15b;" horiz-adv-x="1081" 
d="M492 1268l194 297l152 -72l-236 -225h-110zM559 -20q-118 0 -239 42.5t-214 116.5l74 103q186 -142 385 -142q106 0 175 52t69 137v4q0 29 -9.5 53.5t-32 44t-42.5 33t-60 28t-64 22.5t-73 22q-47 13 -76 22t-72 25t-70 31.5t-58 39t-48.5 49.5t-29.5 61.5t-12 76.5v4
q0 139 102 225t264 86q98 0 202.5 -33t189.5 -90l-66 -106q-170 108 -330 108q-103 0 -166 -49t-63 -125v-4q0 -27 10 -50.5t33 -42t45.5 -32.5t61.5 -28.5t67.5 -23.5t75.5 -22q61 -17 104.5 -32.5t94.5 -42.5t82.5 -57.5t53 -76.5t21.5 -102v-4q0 -148 -109.5 -235.5
t-275.5 -87.5z" />
    <glyph glyph-name="Scedilla" unicode="&#x15e;" horiz-adv-x="1384" 
d="M633 -324l-139 64l163 244q-153 10 -281 67t-247 166l90 107q122 -112 244.5 -165t277.5 -53q156 0 254.5 78t98.5 197v4q0 76 -32.5 127t-122 94.5t-249.5 75.5q-267 55 -384.5 153t-117.5 273v4q0 172 138.5 285.5t347.5 113.5q160 0 279.5 -43.5t238.5 -138.5
l-86 -110q-196 165 -436 165q-150 0 -244 -75.5t-94 -184.5v-4q0 -57 17.5 -99t63.5 -80.5t128.5 -68.5t208.5 -57q255 -54 371 -153t116 -265v-4q0 -175 -127.5 -287t-331.5 -124z" />
    <glyph glyph-name="scedilla" unicode="&#x15f;" horiz-adv-x="1081" 
d="M446 -324l-139 64l166 246q-101 12 -197.5 52t-169.5 101l74 103q186 -142 385 -142q106 0 175 52t69 137v4q0 29 -9.5 53.5t-32 44t-42.5 33t-60 28t-64 22.5t-73 22q-47 13 -76 22t-72 25t-70 31.5t-58 39t-48.5 49.5t-29.5 61.5t-12 76.5v4q0 139 102 225t264 86
q98 0 202.5 -33t189.5 -90l-66 -106q-170 108 -330 108q-103 0 -166 -49t-63 -125v-4q0 -27 10 -50.5t33 -42t45.5 -32.5t61.5 -28.5t67.5 -23.5t75.5 -22q61 -17 104.5 -32.5t94.5 -42.5t82.5 -57.5t53 -76.5t21.5 -102v-4q0 -141 -99 -227t-253 -94z" />
    <glyph glyph-name="Scaron" unicode="&#x160;" horiz-adv-x="1384" 
d="M733 -20q-178 0 -323 57.5t-281 179.5l90 107q122 -112 244.5 -165t277.5 -53q156 0 254.5 78t98.5 197v4q0 76 -32.5 127t-122 94.5t-249.5 75.5q-267 55 -384.5 153t-117.5 273v4q0 172 138.5 285.5t347.5 113.5q160 0 279.5 -43.5t238.5 -138.5l-86 -110
q-196 165 -436 165q-150 0 -244 -75.5t-94 -184.5v-4q0 -57 17.5 -99t63.5 -80.5t128.5 -68.5t208.5 -57q255 -54 371 -153t116 -265v-4q0 -185 -141.5 -299t-362.5 -114zM999 1888l-227 -241h-131l-227 241h137l158 -129l157 129h133z" />
    <glyph glyph-name="scaron" unicode="&#x161;" horiz-adv-x="1081" 
d="M827 1538l-221 -270h-119l-219 270h121l160 -143l160 143h118zM559 -20q-118 0 -239 42.5t-214 116.5l74 103q186 -142 385 -142q106 0 175 52t69 137v4q0 29 -9.5 53.5t-32 44t-42.5 33t-60 28t-64 22.5t-73 22q-47 13 -76 22t-72 25t-70 31.5t-58 39t-48.5 49.5
t-29.5 61.5t-12 76.5v4q0 139 102 225t264 86q98 0 202.5 -33t189.5 -90l-66 -106q-170 108 -330 108q-103 0 -166 -49t-63 -125v-4q0 -27 10 -50.5t33 -42t45.5 -32.5t61.5 -28.5t67.5 -23.5t75.5 -22q61 -17 104.5 -32.5t94.5 -42.5t82.5 -57.5t53 -76.5t21.5 -102v-4
q0 -148 -109.5 -235.5t-275.5 -87.5z" />
    <glyph glyph-name="Tcommaaccent" unicode="&#x162;" horiz-adv-x="1382" 
d="M621 0v1358h-510v133h1161v-133h-508v-1358h-143zM569 -500l-14 58q70 14 99.5 43t25.5 82h-78v163h176v-143q0 -179 -209 -203z" />
    <glyph glyph-name="Tcommaaccent" unicode="&#x21a;" horiz-adv-x="1382" 
d="M621 0v1358h-510v133h1161v-133h-508v-1358h-143zM569 -500l-14 58q70 14 99.5 43t25.5 82h-78v163h176v-143q0 -179 -209 -203z" />
    <glyph glyph-name="tcommaaccent" unicode="&#x163;" horiz-adv-x="876" 
d="M371 -500l-15 58q70 14 99.5 43t25.5 82h-78v163h177v-143q0 -179 -209 -203zM565 -18q-138 0 -222.5 75t-84.5 230v684h-156v123h156v340h137v-340h365v-123h-365v-668q0 -197 199 -197q75 0 160 39v-122q-87 -41 -189 -41z" />
    <glyph glyph-name="tcommaaccent" unicode="&#x21b;" horiz-adv-x="876" 
d="M371 -500l-15 58q70 14 99.5 43t25.5 82h-78v163h177v-143q0 -179 -209 -203zM565 -18q-138 0 -222.5 75t-84.5 230v684h-156v123h156v340h137v-340h365v-123h-365v-668q0 -197 199 -197q75 0 160 39v-122q-87 -41 -189 -41z" />
    <glyph glyph-name="Tcaron" unicode="&#x164;" horiz-adv-x="1382" 
d="M985 1868l-227 -242h-131l-228 242h138l157 -129l158 129h133zM621 0v1358h-510v133h1161v-133h-508v-1358h-143z" />
    <glyph glyph-name="tcaron" unicode="&#x165;" horiz-adv-x="876" 
d="M584 1241l32 336h146v-6l-107 -330h-71zM565 -18q-138 0 -222.5 75t-84.5 230v684h-156v123h156v340h137v-340h365v-123h-365v-668q0 -197 199 -197q75 0 160 39v-122q-87 -41 -189 -41z" />
    <glyph glyph-name="Umacron" unicode="&#x16a;" horiz-adv-x="1638" 
d="M477 1669v123h684v-123h-684zM819 -23q-281 0 -448.5 168.5t-167.5 477.5v868h143v-858q0 -253 125 -390t352 -137q220 0 344.5 132.5t124.5 384.5v868h144v-856q0 -317 -167.5 -487.5t-449.5 -170.5z" />
    <glyph glyph-name="umacron" unicode="&#x16b;" horiz-adv-x="1329" 
d="M608 -25q-199 0 -313.5 122.5t-114.5 322.5v674h137v-643q0 -161 86 -256t238 -95q151 0 250.5 102.5t99.5 262.5v629h137v-1094h-137v197q-130 -222 -383 -222zM330 1317v117h647v-117h-647z" />
    <glyph glyph-name="Ubreve" unicode="&#x16c;" horiz-adv-x="1638" 
d="M819 1612q-129 0 -210 60t-91 169h113q38 -110 188 -110q151 0 189 110h112q-10 -109 -91 -169t-210 -60zM819 -23q-281 0 -448.5 168.5t-167.5 477.5v868h143v-858q0 -253 125 -390t352 -137q220 0 344.5 132.5t124.5 384.5v868h144v-856q0 -317 -167.5 -487.5
t-449.5 -170.5z" />
    <glyph glyph-name="ubreve" unicode="&#x16d;" horiz-adv-x="1329" 
d="M608 -25q-199 0 -313.5 122.5t-114.5 322.5v674h137v-643q0 -161 86 -256t238 -95q151 0 250.5 102.5t99.5 262.5v629h137v-1094h-137v197q-130 -222 -383 -222zM653 1264q-129 0 -210 67t-91 187h103q46 -136 198 -136q153 0 199 136h102q-10 -120 -91 -187t-210 -67z
" />
    <glyph glyph-name="Uring" unicode="&#x16e;" horiz-adv-x="1638" 
d="M819 -23q-281 0 -448.5 168.5t-167.5 477.5v868h143v-858q0 -253 125 -390t352 -137q220 0 344.5 132.5t124.5 384.5v868h144v-856q0 -317 -167.5 -487.5t-449.5 -170.5zM819 1589q-96 0 -163.5 59t-67.5 148t67.5 148t163.5 59t164 -59t68 -148t-68 -148t-164 -59z
M819 1665q62 0 103 37t41 94t-41 95t-103 38q-61 0 -102 -38t-41 -95t40.5 -94t102.5 -37z" />
    <glyph glyph-name="uring" unicode="&#x16f;" horiz-adv-x="1329" 
d="M653 1243q-93 0 -160 64t-67 153q0 90 67 154.5t160 64.5t160.5 -64.5t67.5 -154.5q0 -89 -67.5 -153t-160.5 -64zM653 1313q60 0 104 43.5t44 103.5q0 61 -44 105.5t-104 44.5t-103.5 -44.5t-43.5 -105.5q0 -60 43.5 -103.5t103.5 -43.5zM608 -25q-199 0 -313.5 122.5
t-114.5 322.5v674h137v-643q0 -161 86 -256t238 -95q151 0 250.5 102.5t99.5 262.5v629h137v-1094h-137v197q-130 -222 -383 -222z" />
    <glyph glyph-name="Uhungarumlaut" unicode="&#x170;" horiz-adv-x="1638" 
d="M819 -23q-281 0 -448.5 168.5t-167.5 477.5v868h143v-858q0 -253 125 -390t352 -137q220 0 344.5 132.5t124.5 384.5v868h144v-856q0 -317 -167.5 -487.5t-449.5 -170.5zM584 1620l207 264l147 -69l-238 -195h-116zM897 1620l207 264l147 -69l-235 -195h-119z" />
    <glyph glyph-name="uhungarumlaut" unicode="&#x171;" horiz-adv-x="1329" 
d="M608 -25q-199 0 -313.5 122.5t-114.5 322.5v674h137v-643q0 -161 86 -256t238 -95q151 0 250.5 102.5t99.5 262.5v629h137v-1094h-137v197q-130 -222 -383 -222zM733 1268l197 297l141 -72l-225 -225h-113zM428 1268l197 297l139 -72l-223 -225h-113z" />
    <glyph glyph-name="Uogonek" unicode="&#x172;" horiz-adv-x="1638" 
d="M950 -262v-88h-14q-132 4 -201 49.5t-69 120.5q0 80 82 162q-252 21 -398.5 186.5t-146.5 454.5v868h143v-858q0 -253 125 -390t352 -137q220 0 344.5 132.5t124.5 384.5v868h144v-856q0 -300 -150 -468.5t-407 -186.5q-46 -40 -67 -72.5t-21 -69.5q0 -45 37.5 -69.5
t121.5 -30.5z" />
    <glyph glyph-name="uogonek" unicode="&#x173;" horiz-adv-x="1329" 
d="M608 -25q-199 0 -313.5 122.5t-114.5 322.5v674h137v-643q0 -161 86 -256t238 -95q151 0 250.5 102.5t99.5 262.5v629h137v-1094h-16q-60 -50 -85.5 -85.5t-25.5 -76.5q0 -45 37.5 -69.5t122.5 -30.5v-88h-14q-132 4 -201 49.5t-69 120.5q0 52 28 96t86 94v2v185
q-130 -222 -383 -222z" />
    <glyph glyph-name="Wcircumflex" unicode="&#x174;" horiz-adv-x="2373" 
d="M647 -10l-536 1501h157l445 -1280l422 1284h114l420 -1284l445 1280h149l-534 -1501h-121l-420 1247l-422 -1247h-119zM895 1626l227 242h131l228 -242h-138l-157 129l-158 -129h-133z" />
    <glyph glyph-name="wcircumflex" unicode="&#x175;" horiz-adv-x="1853" 
d="M647 1268l219 270h119l221 -270h-123l-159 143l-160 -143h-117zM498 -8l-392 1102h150l305 -914l311 920h113l311 -920l308 914h143l-391 -1102h-119l-309 895l-312 -895h-118z" />
    <glyph glyph-name="Ycircumflex" unicode="&#x176;" horiz-adv-x="1546" 
d="M700 0v590l-628 901h176l526 -770l531 770h168l-629 -899v-592h-144zM479 1620l228 242h131l227 -242h-137l-158 129l-158 -129h-133z" />
    <glyph glyph-name="ycircumflex" unicode="&#x177;" horiz-adv-x="1275" 
d="M666 152l368 942h150l-467 -1131q-67 -168 -154 -239.5t-209 -71.5q-115 0 -227 53l47 113q84 -41 178 -41q79 0 135 50.5t111 176.5l-510 1090h154zM367 1268l219 270h119l221 -270h-123l-160 143l-160 -143h-116z" />
    <glyph glyph-name="Ydieresis" unicode="&#x178;" horiz-adv-x="1546" 
d="M700 0v590l-628 901h176l526 -770l531 770h168l-629 -899v-592h-144zM879 1620v178h178v-178h-178zM489 1620v178h181v-178h-181z" />
    <glyph glyph-name="Zacute" unicode="&#x179;" horiz-adv-x="1492" 
d="M154 0v90l989 1272h-955v129h1153v-90l-991 -1272h991v-129h-1187zM707 1626l206 264l150 -69l-238 -195h-118z" />
    <glyph glyph-name="zacute" unicode="&#x17a;" horiz-adv-x="1204" 
d="M555 1268l195 297l151 -72l-235 -225h-111zM131 0v84l756 891h-727v119h919v-84l-755 -891h755v-119h-948z" />
    <glyph glyph-name="Zdotaccent" unicode="&#x17b;" horiz-adv-x="1492" 
d="M672 1626v178h184v-178h-184zM154 0v90l989 1272h-955v129h1153v-90l-991 -1272h991v-129h-1187z" />
    <glyph glyph-name="zdotaccent" unicode="&#x17c;" horiz-adv-x="1204" 
d="M131 0v84l756 891h-727v119h919v-84l-755 -891h755v-119h-948zM520 1268v188h180v-188h-180z" />
    <glyph glyph-name="Zcaron" unicode="&#x17d;" horiz-adv-x="1492" 
d="M1057 1868l-228 -242h-131l-227 242h137l158 -129l158 129h133zM154 0v90l989 1272h-955v129h1153v-90l-991 -1272h991v-129h-1187z" />
    <glyph glyph-name="zcaron" unicode="&#x17e;" horiz-adv-x="1204" 
d="M891 1538l-221 -270h-119l-219 270h121l159 -143l160 143h119zM131 0v84l756 891h-727v119h919v-84l-755 -891h755v-119h-948z" />
    <glyph glyph-name="uni018F" unicode="&#x18f;" horiz-adv-x="1718" 
d="M307 1137l-98 94q256 285 627 285q213 0 378 -98.5t255 -273.5t90 -396v-7q0 -213 -91.5 -388t-255 -276.5t-364.5 -101.5q-160 0 -291.5 60.5t-218 165t-133.5 246t-47 303.5v2q0 36 2 61h1249q-21 251 -174 412t-399 161q-304 0 -529 -249zM848 106q238 0 389 161.5
t172 418.5h-1102q12 -259 161 -419.5t380 -160.5z" />
    <glyph glyph-name="florin" unicode="&#x192;" horiz-adv-x="1107" 
d="M205 -10q-66 0 -107 8v119q36 -8 95 -8q139 0 169 167l99 529h-219v121h241l52 270q31 161 105.5 233t213.5 72q96 0 166 -22v-119q-70 20 -148 20q-86 0 -131 -45.5t-65 -154.5l-47 -254h317v-121h-338l-102 -541q-26 -141 -99 -207.5t-202 -66.5z" />
    <glyph glyph-name="Aringacute" unicode="&#x1fa;" horiz-adv-x="1703" 
d="M98 0l645 1417q-57 27 -89.5 74.5t-32.5 107.5q0 88 68 148.5t163 60.5t163 -60.5t68 -148.5q0 -60 -34 -108.5t-91 -75.5l648 -1415h-156l-180 406h-842l-182 -406h-148zM485 535h727l-362 804zM852 1468q60 0 101.5 38t41.5 93q0 57 -41.5 95.5t-101.5 38.5
q-61 0 -102 -38.5t-41 -95.5q0 -56 41 -93.5t102 -37.5zM786 1870l209 239l146 -67l-236 -172h-119z" />
    <glyph glyph-name="aringacute" unicode="&#x1fb;" horiz-adv-x="1249" 
d="M530 -25q-78 0 -151.5 22.5t-132.5 64t-95 108t-36 147.5v5q0 168 129.5 261t343.5 93q194 0 346 -47v43q0 154 -88.5 234.5t-251.5 80.5q-160 0 -338 -84l-43 115q202 92 393 92q228 0 350 -119q113 -116 113 -315v-676h-135v172q-147 -197 -404 -197zM549 92
q163 0 276 88.5t113 225.5v114q-180 47 -346 47q-160 0 -248 -63.5t-88 -173.5v-6q0 -106 85.5 -169t207.5 -63zM625 1264q-93 0 -160.5 64t-67.5 153q0 90 67.5 154.5t160.5 64.5t160 -64.5t67 -154.5q0 -89 -67 -153t-160 -64zM625 1333q60 0 103.5 44t43.5 104
q0 61 -43.5 105t-103.5 44t-104 -44t-44 -105q0 -60 44 -104t104 -44zM565 1759l199 260l149 -71l-231 -189h-117z" />
    <glyph glyph-name="AEacute" unicode="&#x1fc;" horiz-adv-x="2246" 
d="M1296 1626l207 264l150 -69l-238 -195h-119zM49 0l889 1491h1157v-131h-893v-543h797v-131h-797v-555h903v-131h-1046v406h-619l-239 -406h-152zM514 535h545v829h-53z" />
    <glyph glyph-name="aeacute" unicode="&#x1fd;" horiz-adv-x="2052" 
d="M969 1268l194 297l152 -72l-236 -225h-110zM526 -25q-107 0 -198.5 37.5t-152 117t-60.5 187.5v5q0 168 127 261t336 93q179 0 331 -47v43q0 155 -84 235t-243 80q-89 0 -163 -21t-163 -63l-43 115q102 47 187 69.5t194 22.5q325 0 407 -252q68 121 180.5 191.5
t250.5 70.5q153 0 268.5 -77.5t175 -207.5t59.5 -292q0 -26 -2 -49h-884q17 -184 130.5 -291t272.5 -107q208 0 358 164l91 -80q-92 -101 -198 -153t-255 -52q-135 0 -250 59.5t-188 168.5q-210 -228 -484 -228zM1049 604h745q-8 108 -50 195t-124.5 143.5t-194.5 56.5
q-151 0 -255 -111.5t-121 -283.5zM541 92q235 0 413 211q-41 104 -47 219q-172 45 -323 45q-158 0 -243 -63.5t-85 -173.5v-6q0 -107 82 -169.5t203 -62.5z" />
    <glyph glyph-name="Oslashacute" unicode="&#x1fe;" horiz-adv-x="1830" 
d="M1534 1501h156l-213 -229q94 -104 144 -239t50 -283v-5q0 -153 -55.5 -293t-153 -245.5t-240.5 -168.5t-309 -63q-280 0 -477 164l-139 -149h-156l213 227q-94 104 -144 239.5t-50 284.5v4q0 153 55.5 293.5t153 246t240.5 168.5t309 63q278 0 475 -164zM305 750v-2
q0 -241 148 -426l850 925q-168 142 -390 142q-173 0 -313 -85.5t-217.5 -231.5t-77.5 -322zM918 102q173 0 313 85.5t217.5 231.5t77.5 322v2q0 241 -148 426l-852 -925q167 -145 392 -142zM858 1647l207 264l149 -70l-237 -194h-119z" />
    <glyph glyph-name="oslashacute" unicode="&#x1ff;" horiz-adv-x="1390" 
d="M1149 1108h145l-170 -180q140 -159 140 -377v-4q0 -153 -73 -283.5t-205 -209.5t-292 -79q-196 0 -350 119l-102 -104h-146l170 178q-137 156 -137 375v4q0 153 73 284.5t204.5 210t291.5 78.5q198 0 351 -121zM698 96q186 0 305 129.5t119 317.5v2q0 157 -94 284
l-598 -636q114 -100 268 -97zM270 551v-2q0 -157 90 -283l601 635q-117 96 -267 96q-186 0 -305 -129t-119 -317zM639 1268l195 297l151 -72l-235 -225h-111z" />
    <glyph glyph-name="Scommaaccent" unicode="&#x218;" horiz-adv-x="1384" 
d="M733 -20q-178 0 -323 57.5t-281 179.5l90 107q122 -112 244.5 -165t277.5 -53q156 0 254.5 78t98.5 197v4q0 76 -32.5 127t-122 94.5t-249.5 75.5q-267 55 -384.5 153t-117.5 273v4q0 172 138.5 285.5t347.5 113.5q160 0 279.5 -43.5t238.5 -138.5l-86 -110
q-196 165 -436 165q-150 0 -244 -75.5t-94 -184.5v-4q0 -57 17.5 -99t63.5 -80.5t128.5 -68.5t208.5 -57q255 -54 371 -153t116 -265v-4q0 -185 -141.5 -299t-362.5 -114zM586 -500l-15 58q70 14 99.5 43t25.5 82h-78v163h177v-143q0 -179 -209 -203z" />
    <glyph glyph-name="scommaaccent" unicode="&#x219;" horiz-adv-x="1081" 
d="M426 -500l-14 58q70 14 99.5 43t25.5 82h-78v163h176v-143q0 -179 -209 -203zM559 -20q-118 0 -239 42.5t-214 116.5l74 103q186 -142 385 -142q106 0 175 52t69 137v4q0 29 -9.5 53.5t-32 44t-42.5 33t-60 28t-64 22.5t-73 22q-47 13 -76 22t-72 25t-70 31.5t-58 39
t-48.5 49.5t-29.5 61.5t-12 76.5v4q0 139 102 225t264 86q98 0 202.5 -33t189.5 -90l-66 -106q-170 108 -330 108q-103 0 -166 -49t-63 -125v-4q0 -27 10 -50.5t33 -42t45.5 -32.5t61.5 -28.5t67.5 -23.5t75.5 -22q61 -17 104.5 -32.5t94.5 -42.5t82.5 -57.5t53 -76.5
t21.5 -102v-4q0 -148 -109.5 -235.5t-275.5 -87.5z" />
    <glyph glyph-name="schwa" unicode="&#x259;" horiz-adv-x="1273" 
d="M602 1120q147 0 270.5 -70.5t198 -201.5t74.5 -297v-4q0 -157 -67.5 -288t-187.5 -207.5t-267 -76.5q-154 0 -271 78t-177 207.5t-60 290.5q0 31 2 49h887q-17 183 -132.5 290t-273.5 107q-207 0 -358 -161l-88 77q89 100 196 153.5t254 53.5zM1004 489h-746
q6 -79 32 -148.5t70.5 -124.5t113.5 -87.5t153 -32.5q152 0 255.5 111t121.5 282z" />
    <glyph glyph-name="circumflex" unicode="&#x2c6;" horiz-adv-x="1085" 
d="M264 1268l219 270h119l221 -270h-123l-159 143l-160 -143h-117z" />
    <glyph glyph-name="caron" unicode="&#x2c7;" horiz-adv-x="1085" 
d="M823 1538l-221 -270h-119l-219 270h121l160 -143l160 143h118z" />
    <glyph glyph-name="breve" unicode="&#x2d8;" horiz-adv-x="1085" 
d="M543 1264q-129 0 -210 67t-91 187h102q46 -136 199 -136q152 0 198 136h103q-10 -120 -91 -187t-210 -67z" />
    <glyph glyph-name="dotaccent" unicode="&#x2d9;" horiz-adv-x="1085" 
d="M453 1268v188h180v-188h-180z" />
    <glyph glyph-name="ring" unicode="&#x2da;" horiz-adv-x="1085" 
d="M543 1264q-93 0 -160.5 64t-67.5 153q0 90 67.5 154.5t160.5 64.5t160 -64.5t67 -154.5q0 -89 -67 -153t-160 -64zM543 1333q60 0 103.5 44t43.5 104q0 61 -43.5 105t-103.5 44t-104 -44t-44 -105q0 -60 44 -104t104 -44z" />
    <glyph glyph-name="ogonek" unicode="&#x2db;" horiz-adv-x="1085" 
d="M705 -262v-88h-15q-132 4 -201 49.5t-69 120.5q0 57 35.5 106t109.5 109l97 -31q-63 -52 -90 -88.5t-27 -77.5q0 -45 37.5 -69.5t122.5 -30.5z" />
    <glyph glyph-name="tilde" unicode="&#x2dc;" horiz-adv-x="1085" 
d="M684 1268q-8 0 -15.5 0.5t-16 2.5t-14.5 3t-16 4.5t-15 5t-17 6.5t-16 6.5t-17.5 7t-17.5 7.5q-88 43 -133 43q-40 0 -62.5 -22.5t-46.5 -84.5l-88 25q30 117 74.5 165t117.5 48q22 0 49.5 -7.5t41.5 -13t55 -22.5q88 -43 133 -43q41 0 62.5 21.5t45.5 82.5l89 -22
q-30 -117 -75 -165t-118 -48z" />
    <glyph glyph-name="hungarumlaut" unicode="&#x2dd;" horiz-adv-x="1085" 
d="M528 1268l197 297l141 -72l-225 -225h-113zM223 1268l197 297l139 -72l-223 -225h-113z" />
    <glyph glyph-name="commaaccent" unicode="&#x326;" horiz-adv-x="1085" 
d="M422 -500l-14 58q70 14 99 43t25 82h-77v163h176v-143q0 -179 -209 -203z" />
    <glyph glyph-name="uni0384" unicode="&#x384;" horiz-adv-x="1085" 
d="M432 1268l133 317l154 -63l-187 -254h-100z" />
    <glyph glyph-name="uni0385" unicode="&#x385;" horiz-adv-x="1085" 
d="M713 1268v186h166v-186h-166zM207 1268v186h166v-186h-166zM453 1268l82 354l153 -37l-139 -317h-96z" />
    <glyph glyph-name="uni0386" unicode="&#x386;" horiz-adv-x="1703" 
d="M98 0l686 1501h136l686 -1501h-156l-180 406h-842l-182 -406h-148zM485 535h727l-362 804zM229 1122l37 369h160l-117 -369h-80z" />
    <glyph glyph-name="uni0387" unicode="&#x387;" horiz-adv-x="548" 
d="M188 889v205h172v-205h-172z" />
    <glyph glyph-name="uni0388" unicode="&#x388;" horiz-adv-x="1447" 
d="M-100 1122l37 369h159l-116 -369h-80zM225 0v1491h1071v-131h-927v-543h831v-131h-831v-555h938v-131h-1082z" />
    <glyph glyph-name="uni0389" unicode="&#x389;" horiz-adv-x="1638" 
d="M225 0v1491h144v-676h901v676h143v-1491h-143v684h-901v-684h-144zM-100 1122l37 369h159l-116 -369h-80z" />
    <glyph glyph-name="uni038A" unicode="&#x38a;" horiz-adv-x="624" 
d="M240 0v1491h143v-1491h-143zM-98 1122l37 369h159l-116 -369h-80z" />
    <glyph glyph-name="uni038C" unicode="&#x38c;" horiz-adv-x="1830" 
d="M-20 1122l36 369h160l-117 -369h-79zM913 -25q-133 0 -252 40t-209.5 111.5t-156.5 167.5t-100.5 210.5t-34.5 236.5v4q0 153 55.5 293.5t153 246t240.5 168.5t309 63q133 0 252 -40t209.5 -111.5t156.5 -167.5t100.5 -210.5t34.5 -236.5v-5q0 -153 -55.5 -293
t-153 -245.5t-240.5 -168.5t-309 -63zM918 104q129 0 242.5 50.5t192 136t124 202.5t45.5 248v4q0 175 -78 321.5t-218.5 233t-312.5 86.5t-311.5 -85.5t-216 -230.5t-76.5 -320v-5q0 -175 78 -321.5t218.5 -233t312.5 -86.5z" />
    <glyph glyph-name="uni038E" unicode="&#x38e;" horiz-adv-x="1546" 
d="M700 0v590l-628 901h176l526 -770l531 770h168l-629 -899v-592h-144zM-207 1122l37 369h160l-117 -369h-80z" />
    <glyph glyph-name="uni038F" unicode="&#x38f;" horiz-adv-x="1869" 
d="M936 1516q163 0 301 -54.5t233.5 -149.5t149 -226.5t53.5 -282.5v-2q0 -208 -101 -372t-300 -304l452 4v-129h-634v121q104 69 177.5 133t135 145.5t91.5 180t30 215.5v2q0 260 -163.5 424.5t-426.5 164.5q-262 0 -425 -164.5t-163 -424.5v-2q0 -112 30 -209.5
t89.5 -179.5t135.5 -150t179 -135v-121h-635v129l451 -4q-198 140 -298.5 303t-100.5 375v2q0 147 53 277t147.5 226t234 152t304.5 56zM-20 1122l36 369h160l-117 -369h-79z" />
    <glyph glyph-name="uni0390" unicode="&#x390;" horiz-adv-x="618" 
d="M467 1268v186h166v-186h-166zM-39 1268v186h166v-186h-166zM207 1268l82 354l153 -37l-139 -317h-96zM197 266v828h137v-824q0 -166 147 -166q38 0 84 11v-119q-62 -12 -106 -12q-262 0 -262 282z" />
    <glyph glyph-name="uni0391" unicode="&#x391;" horiz-adv-x="1703" 
d="M98 0l686 1501h136l686 -1501h-156l-180 406h-842l-182 -406h-148zM485 535h727l-362 804z" />
    <glyph glyph-name="uni0392" unicode="&#x392;" horiz-adv-x="1558" 
d="M225 0v1491h627q255 0 389 -131q96 -96 96 -238v-4q0 -136 -70 -221.5t-175 -128.5q148 -41 237.5 -127.5t89.5 -228.5v-4q0 -189 -145.5 -298.5t-390.5 -109.5h-658zM1192 1100v4q0 119 -91.5 188.5t-256.5 69.5h-477v-547h464q163 0 262 74.5t99 210.5zM1276 414v4
q0 130 -108 200t-314 70h-487v-559h518q181 0 286 76t105 209z" />
    <glyph glyph-name="uni0393" unicode="&#x393;" horiz-adv-x="1329" 
d="M225 0v1491h1000v-131h-856v-1360h-144z" />
    <glyph glyph-name="uni0394" unicode="&#x394;" horiz-adv-x="1701" 
d="M127 0l-12 106l665 1395h142l665 -1395l-12 -106h-1448zM848 1341l-572 -1210h1141z" />
    <glyph glyph-name="uni0395" unicode="&#x395;" horiz-adv-x="1447" 
d="M225 0v1491h1071v-131h-927v-543h831v-131h-831v-555h938v-131h-1082z" />
    <glyph glyph-name="uni0396" unicode="&#x396;" horiz-adv-x="1492" 
d="M154 0v90l989 1272h-955v129h1153v-90l-991 -1272h991v-129h-1187z" />
    <glyph glyph-name="uni0397" unicode="&#x397;" horiz-adv-x="1638" 
d="M225 0v1491h144v-676h901v676h143v-1491h-143v684h-901v-684h-144z" />
    <glyph glyph-name="uni0398" unicode="&#x398;" horiz-adv-x="1830" 
d="M913 -25q-133 0 -252 40t-209.5 111.5t-156.5 167.5t-100.5 210.5t-34.5 236.5v4q0 153 55.5 293.5t153 246t240.5 168.5t309 63q133 0 252 -40t209.5 -111.5t156.5 -167.5t100.5 -210.5t34.5 -236.5v-5q0 -153 -55.5 -293t-153 -245.5t-240.5 -168.5t-309 -63zM918 104
q173 0 312.5 85.5t216.5 231t77 320.5v4q0 131 -46 249t-126 204.5t-194.5 137t-244.5 50.5q-173 0 -312.5 -85.5t-216.5 -230.5t-77 -320v-5q0 -131 46 -249t126 -204.5t194.5 -137t244.5 -50.5zM1323 817v-135h-815v135h815z" />
    <glyph glyph-name="uni0399" unicode="&#x399;" horiz-adv-x="624" 
d="M240 0v1491h143v-1491h-143z" />
    <glyph glyph-name="uni039A" unicode="&#x39a;" horiz-adv-x="1548" 
d="M225 0v1491h144v-930l897 930h190l-647 -653l674 -838h-183l-591 735l-340 -344v-391h-144z" />
    <glyph glyph-name="uni039B" unicode="&#x39b;" horiz-adv-x="1665" 
d="M895 1501l672 -1501h-160l-578 1317l-579 -1317h-152l668 1501h129z" />
    <glyph glyph-name="uni039C" unicode="&#x39c;" horiz-adv-x="1869" 
d="M225 0v1491h142l567 -844l567 844h144v-1491h-144v1247l-565 -825h-8l-563 823v-1245h-140z" />
    <glyph glyph-name="uni039D" unicode="&#x39d;" horiz-adv-x="1703" 
d="M225 0v1491h135l979 -1241v1241h140v-1491h-113l-1001 1268v-1268h-140z" />
    <glyph glyph-name="uni039E" unicode="&#x39e;" horiz-adv-x="1447" 
d="M1296 1356h-1144v135h1144v-135zM1237 684h-1026v135h1026v-135zM1307 0h-1166v135h1166v-135z" />
    <glyph glyph-name="uni039F" unicode="&#x39f;" horiz-adv-x="1830" 
d="M913 -25q-133 0 -252 40t-209.5 111.5t-156.5 167.5t-100.5 210.5t-34.5 236.5v4q0 153 55.5 293.5t153 246t240.5 168.5t309 63q133 0 252 -40t209.5 -111.5t156.5 -167.5t100.5 -210.5t34.5 -236.5v-5q0 -153 -55.5 -293t-153 -245.5t-240.5 -168.5t-309 -63zM918 104
q129 0 242.5 50.5t192 136t124 202.5t45.5 248v4q0 175 -78 321.5t-218.5 233t-312.5 86.5t-311.5 -85.5t-216 -230.5t-76.5 -320v-5q0 -175 78 -321.5t218.5 -233t312.5 -86.5z" />
    <glyph glyph-name="uni03A0" unicode="&#x3a0;" horiz-adv-x="1638" 
d="M225 0v1491h1188v-1491h-143v1360h-901v-1360h-144z" />
    <glyph glyph-name="uni03A1" unicode="&#x3a1;" horiz-adv-x="1443" 
d="M225 0v1491h551q253 0 405 -125t152 -340v-4q0 -153 -81 -264.5t-211.5 -165t-292.5 -53.5h-379v-539h-144zM369 670h387q195 0 314.5 95.5t119.5 250.5v4q0 164 -115 252t-309 88h-397v-690z" />
    <glyph glyph-name="uni03A3" unicode="&#x3a3;" horiz-adv-x="1445" 
d="M952 745l-598 -616h965v-129h-1165v106l616 639l-612 639v107h1147v-129h-947z" />
    <glyph glyph-name="uni03A4" unicode="&#x3a4;" horiz-adv-x="1382" 
d="M621 0v1358h-510v133h1161v-133h-508v-1358h-143z" />
    <glyph glyph-name="uni03A5" unicode="&#x3a5;" horiz-adv-x="1546" 
d="M700 0v590l-628 901h176l526 -770l531 770h168l-629 -899v-592h-144z" />
    <glyph glyph-name="uni03A6" unicode="&#x3a6;" horiz-adv-x="1951" 
d="M903 -31v187q-240 3 -414.5 78.5t-264 208.5t-89.5 309v2q0 128 51.5 236t147.5 187t242 124t327 47v174h144v-174q361 -7 565.5 -167t204.5 -429v-2q0 -128 -51.5 -236t-148.5 -187t-243 -124t-327 -47v-187h-144zM283 752v-2q0 -100 38.5 -183.5t114 -146.5t196 -99
t275.5 -38v938q-304 -4 -464 -131.5t-160 -337.5zM1667 752v2q0 99 -38.5 182t-114 146.5t-196 100t-274.5 38.5v-938q303 4 463 132t160 337z" />
    <glyph glyph-name="uni03A7" unicode="&#x3a7;" horiz-adv-x="1560" 
d="M1262 1491h165l-559 -731l582 -760h-170l-502 664l-499 -664h-166l581 760l-561 731h170l479 -635z" />
    <glyph glyph-name="uni03A8" unicode="&#x3a8;" horiz-adv-x="1843" 
d="M1667 1491v-512q0 -154 -48.5 -270.5t-138.5 -188.5t-212 -108.5t-275 -38.5v-373h-143v373q-153 2 -275 38t-212 107.5t-138.5 186.5t-48.5 268v518h143v-512q0 -243 135.5 -356.5t395.5 -118.5v987h141v-987q262 5 397.5 117.5t135.5 351.5v518h143z" />
    <glyph glyph-name="uni03A9" unicode="&#x3a9;" horiz-adv-x="1869" 
d="M936 1516q163 0 301 -54.5t233.5 -149.5t149 -226.5t53.5 -282.5v-2q0 -208 -101 -372t-300 -304l452 4v-129h-634v121q104 69 177.5 133t135 145.5t91.5 180t30 215.5v2q0 260 -163.5 424.5t-426.5 164.5q-262 0 -425 -164.5t-163 -424.5v-2q0 -112 30 -209.5
t89.5 -179.5t135.5 -150t179 -135v-121h-635v129l451 -4q-198 140 -298.5 303t-100.5 375v2q0 147 53 277t147.5 226t234 152t304.5 56z" />
    <glyph glyph-name="uni03AA" unicode="&#x3aa;" horiz-adv-x="624" 
d="M240 0v1491h143v-1491h-143zM420 1626v178h178v-178h-178zM31 1626v178h180v-178h-180z" />
    <glyph glyph-name="uni03AB" unicode="&#x3ab;" horiz-adv-x="1546" 
d="M700 0v590l-628 901h176l526 -770l531 770h168l-629 -899v-592h-144zM879 1620v178h178v-178h-178zM489 1620v178h181v-178h-181z" />
    <glyph glyph-name="uni03AC" unicode="&#x3ac;" horiz-adv-x="1511" 
d="M664 1268l133 317l153 -63l-186 -254h-100zM1462 115v-119q-62 -12 -106 -12q-240 0 -258 235q-172 -244 -436 -244q-100 0 -194.5 39.5t-169 111t-120 180.5t-45.5 237v4q0 105 29.5 197.5t80.5 160t117.5 117t143 74t155.5 24.5q268 0 435 -248v222h137v-824
q0 -166 149 -166q36 0 82 11zM682 102q79 0 154.5 32.5t134 89.5t94 141t35.5 180v4q0 129 -61 232.5t-155.5 157.5t-201.5 54q-173 0 -289.5 -120.5t-116.5 -321.5v-4q0 -197 118.5 -321t287.5 -124z" />
    <glyph glyph-name="uni03AD" unicode="&#x3ad;" horiz-adv-x="1202" 
d="M555 1268l133 317l154 -63l-187 -254h-100zM850 496h-246q-163 0 -246.5 -54.5t-83.5 -138.5v-2q0 -93 92.5 -149t254.5 -56q220 0 419 121l66 -102q-226 -140 -490 -140q-231 0 -357 88.5t-126 227.5v2q0 102 68.5 168.5t175.5 93.5q-213 62 -213 254v4
q0 130 121.5 217.5t337.5 87.5q144 0 255.5 -36.5t213.5 -104.5l-74 -105q-178 127 -395 127q-152 0 -235 -56t-83 -142v-2q0 -91 77.5 -139t219.5 -48h248v-116z" />
    <glyph glyph-name="uni03AE" unicode="&#x3ae;" horiz-adv-x="1329" 
d="M608 1268l133 317l154 -63l-186 -254h-101zM1149 -340h-137v983q0 162 -85.5 256t-238.5 94q-151 0 -250.5 -102t-99.5 -262v-629h-137v1094h137v-195q129 221 383 221q199 0 313.5 -122.5t114.5 -321.5v-1016z" />
    <glyph glyph-name="uni03AF" unicode="&#x3af;" horiz-adv-x="618" 
d="M207 1268l133 317l154 -63l-187 -254h-100zM197 266v828h137v-824q0 -166 147 -166q38 0 84 11v-119q-62 -12 -106 -12q-262 0 -262 282z" />
    <glyph glyph-name="uni03B0" unicode="&#x3b0;" horiz-adv-x="1335" 
d="M838 1268v186h166v-186h-166zM332 1268v186h166v-186h-166zM578 1268l81 354l154 -37l-139 -317h-96zM666 -25q-222 0 -352 126t-130 362v631h138v-625q0 -185 92.5 -278t253.5 -93t253.5 93t92.5 276v627h137v-627q0 -237 -130.5 -364.5t-354.5 -127.5z" />
    <glyph glyph-name="uni03B1" unicode="&#x3b1;" horiz-adv-x="1511" 
d="M1462 115v-119q-62 -12 -106 -12q-240 0 -258 235q-172 -244 -436 -244q-100 0 -194.5 39.5t-169 111t-120 180.5t-45.5 237v4q0 105 29.5 197.5t80.5 160t117.5 117t143 74t155.5 24.5q268 0 435 -248v222h137v-824q0 -166 149 -166q36 0 82 11zM682 102
q79 0 154.5 32.5t134 89.5t94 141t35.5 180v4q0 129 -61 232.5t-155.5 157.5t-201.5 54q-173 0 -289.5 -120.5t-116.5 -321.5v-4q0 -197 118.5 -321t287.5 -124z" />
    <glyph glyph-name="uni03B2" unicode="&#x3b2;" horiz-adv-x="1400" 
d="M338 -340h-137v1374q0 250 139 392.5t381 142.5q223 0 354 -114t131 -296v-2q0 -146 -89 -243t-245 -130q90 -19 159 -50t125 -78.5t86 -118t30 -160.5v-2q0 -169 -127 -284.5t-348 -115.5q-156 0 -271 67t-188 179v-561zM594 719h-256v-172q0 -205 125.5 -327
t318.5 -122q159 0 252.5 81t93.5 204q0 159 -132.5 247.5t-401.5 88.5zM338 1034v-203h254q221 0 346 86t125 240q0 129 -92 209t-250 80q-180 0 -281.5 -110t-101.5 -302z" />
    <glyph glyph-name="uni03B3" unicode="&#x3b3;" horiz-adv-x="1265" 
d="M1176 1094l-476 -1080v-354h-137v358l-473 1076h156l387 -932l391 932h152z" />
    <glyph glyph-name="uni03B4" unicode="&#x3b4;" horiz-adv-x="1361" 
d="M1079 1436l-628 2l389 -316q101 -82 169.5 -150t120 -142.5t75.5 -152t24 -165.5q0 -108 -40 -206t-111 -171t-176 -116.5t-228 -43.5t-226.5 42t-172.5 114t-107.5 168.5t-38.5 204.5q0 107 30 194.5t95 162t157.5 137.5t225.5 126l-391 330v100h833v-118zM754 1030
l-17 12q-260 -120 -365.5 -244.5t-105.5 -293.5q0 -174 113 -291t295 -117q186 0 301 118.5t115 293.5q0 143 -75.5 254.5t-260.5 267.5z" />
    <glyph glyph-name="uni03B5" unicode="&#x3b5;" horiz-adv-x="1202" 
d="M850 496h-246q-163 0 -246.5 -54.5t-83.5 -138.5v-2q0 -93 92.5 -149t254.5 -56q220 0 419 121l66 -102q-226 -140 -490 -140q-231 0 -357 88.5t-126 227.5v2q0 102 68.5 168.5t175.5 93.5q-213 62 -213 254v4q0 130 121.5 217.5t337.5 87.5q144 0 255.5 -36.5
t213.5 -104.5l-74 -105q-178 127 -395 127q-152 0 -235 -56t-83 -142v-2q0 -91 77.5 -139t219.5 -48h248v-116z" />
    <glyph glyph-name="uni03B6" unicode="&#x3b6;" horiz-adv-x="1161" 
d="M944 -272v247l-262 33q-277 31 -414 144.5t-137 291.5q0 136 74 255t284 329l406 406h-680v120h864v-108l-493 -504q-97 -100 -147 -156t-93 -117t-57.5 -110t-14.5 -108q0 -265 435 -314l366 -45v-364h-131z" />
    <glyph glyph-name="uni03B7" unicode="&#x3b7;" horiz-adv-x="1329" 
d="M1149 -340h-137v983q0 162 -85.5 256t-238.5 94q-151 0 -250.5 -102t-99.5 -262v-629h-137v1094h137v-195q129 221 383 221q199 0 313.5 -122.5t114.5 -321.5v-1016z" />
    <glyph glyph-name="uni03B8" unicode="&#x3b8;" horiz-adv-x="1423" 
d="M711 -25q-133 0 -241.5 62.5t-178 168.5t-107 243.5t-37.5 291.5v54q0 123 23.5 236.5t70.5 210t114 168.5t159 112.5t199 40.5q133 0 241.5 -62.5t177.5 -169t106.5 -244t37.5 -292.5v-54q0 -154 -37.5 -291.5t-107 -243.5t-178 -168.5t-242.5 -62.5zM715 98
q125 0 220.5 82t146 220t53.5 311h-846q3 -173 55 -312t149 -220t222 -81zM711 1438q-126 0 -222 -80.5t-146.5 -217.5t-53.5 -309h846q-5 172 -57 309t-147.5 217.5t-219.5 80.5z" />
    <glyph glyph-name="uni03B9" unicode="&#x3b9;" horiz-adv-x="618" 
d="M197 266v828h137v-824q0 -166 147 -166q38 0 84 11v-119q-62 -12 -106 -12q-262 0 -262 282z" />
    <glyph glyph-name="uni03BA" unicode="&#x3ba;" horiz-adv-x="1222" 
d="M338 1094v-664l635 664h178l-471 -484l477 -610h-168l-405 516l-246 -248v-268h-137v1094h137z" />
    <glyph glyph-name="uni03BB" unicode="&#x3bb;" horiz-adv-x="1288" 
d="M207 1411v119q73 31 149 31q55 0 96 -12.5t71.5 -34t59.5 -65.5t51.5 -91t55.5 -127l508 -1231h-151l-390 963l-415 -963h-150l498 1120l-27 70q-61 145 -105 196.5t-124 51.5q-56 0 -127 -27z" />
    <glyph glyph-name="uni03BC" unicode="&#x3bc;" horiz-adv-x="1435" 
d="M1384 115v-119q-62 -12 -106 -12q-224 0 -254 204q-61 -102 -149.5 -157.5t-196.5 -55.5q-240 0 -354 228h-2q14 -106 14 -273v-270h-135v1434h137v-631q0 -153 97.5 -259t242.5 -106t241.5 105.5t96.5 259.5v631h137v-840q6 -150 150 -150q35 0 81 11z" />
    <glyph glyph-name="uni03BD" unicode="&#x3bd;" horiz-adv-x="1265" 
d="M573 -8l-483 1102h156l387 -938l391 938h152l-484 -1102h-119z" />
    <glyph glyph-name="uni03BE" unicode="&#x3be;" horiz-adv-x="1187" 
d="M1130 1399l-79 -107q-180 152 -373 152q-154 0 -245 -80t-91 -215q0 -146 108 -226.5t273 -80.5h201v-119h-228q-195 0 -309.5 -81t-114.5 -212q0 -72 32.5 -124.5t97.5 -85.5t143 -52.5t188 -32.5l357 -43v-364h-132v247l-249 31q-132 13 -233.5 41t-181.5 76
t-122.5 123t-42.5 174q0 76 28.5 140.5t77.5 109t107 74.5t125 47q-32 12 -62.5 28t-69.5 47t-67.5 69t-48.5 95t-20 123q0 84 33.5 159t94 132.5t152 91t199.5 33.5q133 0 241.5 -44.5t210.5 -125.5z" />
    <glyph glyph-name="uni03BF" unicode="&#x3bf;" horiz-adv-x="1390" 
d="M694 -25q-160 0 -290.5 78t-202.5 207.5t-72 282.5v4q0 153 73 284.5t204.5 210t291.5 78.5q120 0 225.5 -45.5t180 -122t117.5 -181.5t43 -220v-4q0 -153 -73 -283.5t-205 -209.5t-292 -79zM698 100q120 0 217 60t150 161.5t53 221.5v4q0 187 -122.5 317.5t-301.5 130.5
q-184 0 -303 -128.5t-119 -315.5v-4q0 -187 123.5 -317t302.5 -130z" />
    <glyph glyph-name="uni03C0" unicode="&#x3c0;" horiz-adv-x="1488" 
d="M66 1094h1316v-123h-225v-701q0 -166 150 -166q36 0 82 11v-119q-62 -12 -107 -12q-262 0 -262 282v705h-592v-971h-137v971h-225v123z" />
    <glyph glyph-name="uni03C1" unicode="&#x3c1;" horiz-adv-x="1404" 
d="M174 -340v883q0 163 70.5 295t197 207t283.5 75q111 0 210 -40t174 -112.5t119 -180.5t44 -236v-4q0 -129 -45.5 -239t-120 -181.5t-168.5 -111.5t-193 -40q-281 0 -434 256v-571h-137zM727 102q170 0 284.5 120t114.5 321v4q0 198 -115 322t-282 124q-178 0 -296 -124.5
t-118 -319.5v-4q0 -96 34.5 -180t91.5 -141t131.5 -89.5t154.5 -32.5z" />
    <glyph glyph-name="uni03C2" unicode="&#x3c2;" horiz-adv-x="1234" 
d="M956 -272v249l-223 27q-294 36 -449 179t-155 390v2q0 148 69 272t196.5 198.5t287.5 74.5q150 0 256 -55t195 -154l-99 -100q-76 88 -161.5 136t-194.5 48q-175 0 -290.5 -120t-115.5 -300v-2q0 -195 127.5 -304t360.5 -136l330 -41v-364h-134z" />
    <glyph glyph-name="uni03C3" unicode="&#x3c3;" horiz-adv-x="1445" 
d="M1374 971l-377 2q123 -69 191.5 -184.5t68.5 -256.5v-2q0 -151 -72.5 -278t-203 -202t-291.5 -75q-159 0 -288 74t-201 201t-72 280v5q0 153 72 280t206.5 203t305.5 76h661v-123zM694 100q184 0 302 122.5t118 307.5v2q0 189 -120.5 313t-303.5 124t-300.5 -123
t-117.5 -309v-2q0 -186 121 -310.5t301 -124.5z" />
    <glyph glyph-name="uni03C4" unicode="&#x3c4;" horiz-adv-x="1202" 
d="M1112 971h-469v-639q0 -128 51.5 -179t157.5 -51q89 0 156 27v-117q-76 -30 -170 -30q-166 0 -249 79t-83 267v643h-449v123h1055v-123z" />
    <glyph glyph-name="uni03C5" unicode="&#x3c5;" horiz-adv-x="1335" 
d="M666 -25q-222 0 -352 126t-130 362v631h138v-625q0 -185 92.5 -278t253.5 -93t253.5 93t92.5 276v627h137v-627q0 -237 -130.5 -364.5t-354.5 -127.5z" />
    <glyph glyph-name="uni03C6" unicode="&#x3c6;" horiz-adv-x="1775" 
d="M956 -340h-137v334q-167 2 -299.5 45t-217.5 117t-130 173t-45 216v2q0 115 45 214t130.5 174t218 119t298.5 46v454h137v-454q166 -4 298.5 -47t218.5 -117t131 -172.5t45 -214.5v-2q0 -115 -45.5 -214.5t-131 -174t-218.5 -118.5t-298 -46v-334zM1505 547v2
q0 125 -59.5 219.5t-185 151t-306.5 59.5v-862q181 3 306.5 59.5t185 151t59.5 219.5zM270 547v-2q0 -191 140.5 -307.5t410.5 -120.5v862q-270 -4 -410.5 -121.5t-140.5 -310.5z" />
    <glyph glyph-name="uni03C7" unicode="&#x3c7;" horiz-adv-x="1290" 
d="M281 1094l366 -576l369 576h162l-451 -676l506 -758h-168l-422 653l-424 -653h-160l500 754l-446 680h168z" />
    <glyph glyph-name="uni03C8" unicode="&#x3c8;" horiz-adv-x="1728" 
d="M934 -340h-137v334q-295 4 -456 154t-161 403v543h137v-539q0 -201 124 -317.5t356 -120.5v1437h135v-1437q230 1 354.5 117.5t124.5 320.5v539h137v-537q0 -255 -161.5 -407t-452.5 -156v-334z" />
    <glyph glyph-name="uni03C9" unicode="&#x3c9;" horiz-adv-x="1896" 
d="M881 885h135v-318q0 -139 33 -242.5t103.5 -165t172.5 -61.5q131 0 209 105t78 289q0 91 -21.5 176.5t-62 161.5t-84.5 137t-103 127h166q244 -288 244 -605q0 -239 -115 -376.5t-303 -137.5q-153 0 -249.5 90.5t-137.5 231.5q-35 -139 -134 -230.5t-253 -91.5
q-189 0 -301.5 136t-112.5 378q0 320 244 605h164q-268 -281 -268 -602q0 -182 77.5 -288t202.5 -106q104 0 176 61t106 165t34 243v318z" />
    <glyph glyph-name="uni03CA" unicode="&#x3ca;" horiz-adv-x="618" 
d="M365 1268v188h172v-188h-172zM4 1268v188h172v-188h-172zM197 266v828h137v-824q0 -166 147 -166q38 0 84 11v-119q-62 -12 -106 -12q-262 0 -262 282z" />
    <glyph glyph-name="uni03CB" unicode="&#x3cb;" horiz-adv-x="1335" 
d="M762 1268v188h172v-188h-172zM401 1268v188h172v-188h-172zM666 -25q-222 0 -352 126t-130 362v631h138v-625q0 -185 92.5 -278t253.5 -93t253.5 93t92.5 276v627h137v-627q0 -237 -130.5 -364.5t-354.5 -127.5z" />
    <glyph glyph-name="uni03CC" unicode="&#x3cc;" horiz-adv-x="1390" 
d="M631 1268l133 317l154 -63l-187 -254h-100zM694 -25q-160 0 -290.5 78t-202.5 207.5t-72 282.5v4q0 153 73 284.5t204.5 210t291.5 78.5q120 0 225.5 -45.5t180 -122t117.5 -181.5t43 -220v-4q0 -153 -73 -283.5t-205 -209.5t-292 -79zM698 100q120 0 217 60t150 161.5
t53 221.5v4q0 187 -122.5 317.5t-301.5 130.5q-184 0 -303 -128.5t-119 -315.5v-4q0 -187 123.5 -317t302.5 -130z" />
    <glyph glyph-name="uni03CD" unicode="&#x3cd;" horiz-adv-x="1335" 
d="M602 1268l133 317l154 -63l-187 -254h-100zM666 -25q-222 0 -352 126t-130 362v631h138v-625q0 -185 92.5 -278t253.5 -93t253.5 93t92.5 276v627h137v-627q0 -237 -130.5 -364.5t-354.5 -127.5z" />
    <glyph glyph-name="uni03CE" unicode="&#x3ce;" horiz-adv-x="1896" 
d="M883 1268l133 317l153 -63l-186 -254h-100zM881 885h135v-318q0 -139 33 -242.5t103.5 -165t172.5 -61.5q131 0 209 105t78 289q0 91 -21.5 176.5t-62 161.5t-84.5 137t-103 127h166q244 -288 244 -605q0 -239 -115 -376.5t-303 -137.5q-153 0 -249.5 90.5t-137.5 231.5
q-35 -139 -134 -230.5t-253 -91.5q-189 0 -301.5 136t-112.5 378q0 320 244 605h164q-268 -281 -268 -602q0 -182 77.5 -288t202.5 -106q104 0 176 61t106 165t34 243v318z" />
    <glyph glyph-name="uni0400" unicode="&#x400;" horiz-adv-x="1447" 
d="M823 1626h-118l-238 195l149 69zM225 0v1491h1071v-131h-927v-543h831v-131h-831v-555h938v-131h-1082z" />
    <glyph glyph-name="uni0401" unicode="&#x401;" horiz-adv-x="1447" 
d="M870 1626v178h179v-178h-179zM481 1626v178h181v-178h-181zM225 0v1491h1071v-131h-927v-543h831v-131h-831v-555h938v-131h-1082z" />
    <glyph glyph-name="uni0402" unicode="&#x402;" horiz-adv-x="1818" 
d="M1257 1491v-133h-522v-486q202 60 406 60q274 0 418.5 -123.5t144.5 -343.5q0 -216 -151 -342.5t-414 -126.5h-45v129h34q216 0 323.5 89t107.5 249t-105 250t-326 90q-178 0 -393 -60v-743h-143v1358h-490v133h1155z" />
    <glyph glyph-name="uni0403" unicode="&#x403;" horiz-adv-x="1329" 
d="M629 1626l207 264l149 -69l-237 -195h-119zM225 0v1491h1000v-131h-856v-1360h-144z" />
    <glyph glyph-name="uni0404" unicode="&#x404;" horiz-adv-x="1603" 
d="M903 -25q-157 0 -295.5 60t-236.5 162.5t-154.5 244t-56.5 299.5v4q0 156 56.5 297.5t154.5 246t238.5 166t301.5 61.5q129 0 237.5 -32.5t182.5 -79.5t160 -124l-96 -104q-106 103 -220 156.5t-264 53.5q-160 0 -293 -74t-214.5 -204.5t-94.5 -292.5h850v-127h-850
q11 -165 92 -298.5t214.5 -209.5t293.5 -76q152 0 266 54t228 170l94 -92q-129 -129 -267 -195t-327 -66z" />
    <glyph glyph-name="uni0405" unicode="&#x405;" horiz-adv-x="1384" 
d="M733 -20q-178 0 -323 57.5t-281 179.5l90 107q122 -112 244.5 -165t277.5 -53q156 0 254.5 78t98.5 197v4q0 76 -32.5 127t-122 94.5t-249.5 75.5q-267 55 -384.5 153t-117.5 273v4q0 172 138.5 285.5t347.5 113.5q160 0 279.5 -43.5t238.5 -138.5l-86 -110
q-196 165 -436 165q-150 0 -244 -75.5t-94 -184.5v-4q0 -57 17.5 -99t63.5 -80.5t128.5 -68.5t208.5 -57q255 -54 371 -153t116 -265v-4q0 -185 -141.5 -299t-362.5 -114z" />
    <glyph glyph-name="uni0406" unicode="&#x406;" horiz-adv-x="624" 
d="M240 0v1491h143v-1491h-143z" />
    <glyph glyph-name="uni0407" unicode="&#x407;" horiz-adv-x="624" 
d="M240 0v1491h143v-1491h-143zM420 1626v178h178v-178h-178zM31 1626v178h180v-178h-180z" />
    <glyph glyph-name="uni0408" unicode="&#x408;" horiz-adv-x="1193" 
d="M539 -20q-300 0 -457 270l108 84q71 -115 152.5 -170t200.5 -55q136 0 220.5 98t84.5 278v1006h145v-1002q0 -252 -137 -389q-126 -120 -317 -120z" />
    <glyph glyph-name="uni0409" unicode="&#x409;" horiz-adv-x="2197" 
d="M999 0v1370h-8l-784 -1370h-154l856 1491h234v-551h385q251 0 404 -121.5t153 -337.5v-4q0 -151 -79.5 -260.5t-210 -163t-294.5 -53.5h-502zM1143 131h364q194 0 314.5 93t120.5 247v4q0 161 -114.5 248.5t-307.5 87.5h-377v-680z" />
    <glyph glyph-name="uni040A" unicode="&#x40a;" horiz-adv-x="2447" 
d="M1249 0v684h-880v-684h-144v1491h144v-676h880v676h144v-551h383q254 0 406.5 -121.5t152.5 -337.5v-4q0 -150 -80.5 -260.5t-211 -163.5t-292.5 -53h-502zM1393 131h364q193 0 313.5 93t120.5 247v4q0 161 -115 248.5t-309 87.5h-374v-680z" />
    <glyph glyph-name="uni040B" unicode="&#x40b;" horiz-adv-x="1892" 
d="M1257 1491v-133h-522v-486q220 64 414 64q271 0 414 -120t143 -378v-438h-143v412q0 210 -102.5 301.5t-323.5 91.5q-202 0 -402 -64v-741h-143v1358h-490v133h1155z" />
    <glyph glyph-name="uni040C" unicode="&#x40c;" horiz-adv-x="1552" 
d="M702 1620l207 264l150 -69l-238 -195h-119zM225 0v1491h144v-662h266l639 662h186l-704 -719l737 -772h-195l-659 698h-270v-698h-144z" />
    <glyph glyph-name="uni040D" unicode="&#x40d;" horiz-adv-x="1703" 
d="M909 1620h-118l-238 195l149 69zM1479 0h-144v1272l-995 -1272h-115v1491h144v-1243l972 1243h138v-1491z" />
    <glyph glyph-name="uni040E" unicode="&#x40e;" horiz-adv-x="1525" 
d="M791 1616q-129 0 -210.5 60t-91.5 169h113q38 -110 189 -110q150 0 188 110h113q-10 -109 -91 -169t-210 -60zM571 0h-159l313 516l-641 975h166l553 -852l493 852h162z" />
    <glyph glyph-name="uni040F" unicode="&#x40f;" horiz-adv-x="1652" 
d="M750 -313v313h-525v1491h144v-1360h901v1360h143v-1491h-524v-313h-139z" />
    <glyph glyph-name="uni0410" unicode="&#x410;" horiz-adv-x="1703" 
d="M98 0l686 1501h136l686 -1501h-156l-180 406h-842l-182 -406h-148zM485 535h727l-362 804z" />
    <glyph glyph-name="uni0411" unicode="&#x411;" horiz-adv-x="1513" 
d="M225 0v1491h1045v-131h-903v-512h483q162 0 283 -44t191.5 -137.5t70.5 -228.5v-4q0 -88 -30 -160.5t-82.5 -122.5t-125 -84.5t-156 -50.5t-176.5 -16h-600zM367 131h464q189 0 304.5 77.5t115.5 219.5v4q0 147 -109 217t-298 70h-477v-588z" />
    <glyph glyph-name="uni0412" unicode="&#x412;" horiz-adv-x="1558" 
d="M225 0v1491h627q255 0 389 -131q96 -96 96 -238v-4q0 -136 -70 -221.5t-175 -128.5q148 -41 237.5 -127.5t89.5 -228.5v-4q0 -189 -145.5 -298.5t-390.5 -109.5h-658zM1192 1100v4q0 119 -91.5 188.5t-256.5 69.5h-477v-547h464q163 0 262 74.5t99 210.5zM1276 414v4
q0 130 -108 200t-314 70h-487v-559h518q181 0 286 76t105 209z" />
    <glyph glyph-name="uni0413" unicode="&#x413;" horiz-adv-x="1329" 
d="M225 0v1491h1000v-131h-856v-1360h-144z" />
    <glyph glyph-name="uni0414" unicode="&#x414;" horiz-adv-x="1826" 
d="M92 131h139l609 1370h147l608 -1370h140v-444h-140v313h-1364v-313h-139v444zM911 1337l-530 -1208h1057z" />
    <glyph glyph-name="uni0415" unicode="&#x415;" horiz-adv-x="1447" 
d="M225 0v1491h1071v-131h-927v-543h831v-131h-831v-555h938v-131h-1082z" />
    <glyph glyph-name="uni0416" unicode="&#x416;" horiz-adv-x="2267" 
d="M76 1491h178l602 -662h207v662h141v-662h207l602 662h178l-659 -719l674 -772h-176l-615 700h-211v-700h-141v700h-219l-611 -700h-172l674 772z" />
    <glyph glyph-name="uni0417" unicode="&#x417;" horiz-adv-x="1419" 
d="M209 1194l-86 96q257 226 584 226q234 0 381 -109t147 -287v-2q0 -131 -78.5 -225t-228.5 -135q156 -33 248 -126.5t92 -228.5v-4q0 -184 -160 -304t-422 -120q-340 0 -584 205l84 105q109 -87 229.5 -135t270.5 -48q191 0 312.5 84.5t121.5 214.5v5q0 138 -118 210
t-330 72h-252v125h254q184 0 298.5 76t114.5 217v4q0 125 -103.5 202t-278.5 77q-266 0 -496 -195z" />
    <glyph glyph-name="uni0418" unicode="&#x418;" horiz-adv-x="1703" 
d="M1479 0h-144v1272l-995 -1272h-115v1491h144v-1243l972 1243h138v-1491z" />
    <glyph glyph-name="uni0419" unicode="&#x419;" horiz-adv-x="1703" 
d="M852 1616q-129 0 -210 60t-91 169h113q38 -110 188 -110t188 110h113q-10 -109 -91 -169t-210 -60zM1479 0h-144v1272l-995 -1272h-115v1491h144v-1243l972 1243h138v-1491z" />
    <glyph glyph-name="uni041A" unicode="&#x41a;" horiz-adv-x="1552" 
d="M225 0v1491h144v-662h266l639 662h186l-704 -719l737 -772h-195l-659 698h-270v-698h-144z" />
    <glyph glyph-name="uni041B" unicode="&#x41b;" horiz-adv-x="1665" 
d="M895 1501l672 -1501h-160l-578 1317l-579 -1317h-152l668 1501h129z" />
    <glyph glyph-name="uni041C" unicode="&#x41c;" horiz-adv-x="1869" 
d="M225 0v1491h142l567 -844l567 844h144v-1491h-144v1247l-565 -825h-8l-563 823v-1245h-140z" />
    <glyph glyph-name="uni041D" unicode="&#x41d;" horiz-adv-x="1638" 
d="M225 0v1491h144v-676h901v676h143v-1491h-143v684h-901v-684h-144z" />
    <glyph glyph-name="uni041E" unicode="&#x41e;" horiz-adv-x="1830" 
d="M913 -25q-133 0 -252 40t-209.5 111.5t-156.5 167.5t-100.5 210.5t-34.5 236.5v4q0 153 55.5 293.5t153 246t240.5 168.5t309 63q133 0 252 -40t209.5 -111.5t156.5 -167.5t100.5 -210.5t34.5 -236.5v-5q0 -153 -55.5 -293t-153 -245.5t-240.5 -168.5t-309 -63zM918 104
q129 0 242.5 50.5t192 136t124 202.5t45.5 248v4q0 175 -78 321.5t-218.5 233t-312.5 86.5t-311.5 -85.5t-216 -230.5t-76.5 -320v-5q0 -175 78 -321.5t218.5 -233t312.5 -86.5z" />
    <glyph glyph-name="uni041F" unicode="&#x41f;" horiz-adv-x="1638" 
d="M225 0v1491h1188v-1491h-143v1360h-901v-1360h-144z" />
    <glyph glyph-name="uni0420" unicode="&#x420;" horiz-adv-x="1443" 
d="M225 0v1491h551q253 0 405 -125t152 -340v-4q0 -153 -81 -264.5t-211.5 -165t-292.5 -53.5h-379v-539h-144zM369 670h387q195 0 314.5 95.5t119.5 250.5v4q0 164 -115 252t-309 88h-397v-690z" />
    <glyph glyph-name="uni0421" unicode="&#x421;" horiz-adv-x="1601" 
d="M903 -25q-157 0 -295.5 60t-236.5 162.5t-154.5 244t-56.5 299.5v4q0 156 56.5 297.5t154.5 246t238.5 166t299.5 61.5q97 0 180.5 -17t154.5 -50.5t127.5 -73t119.5 -95.5l-98 -106q-107 102 -222 157t-264 55q-169 0 -306.5 -84.5t-214.5 -230t-77 -321.5v-5
q0 -176 79 -323.5t217 -232.5t304 -85q148 0 263 55.5t233 168.5l94 -92q-129 -129 -267.5 -195t-328.5 -66z" />
    <glyph glyph-name="uni0422" unicode="&#x422;" horiz-adv-x="1382" 
d="M621 0v1358h-510v133h1161v-133h-508v-1358h-143z" />
    <glyph glyph-name="uni0423" unicode="&#x423;" horiz-adv-x="1525" 
d="M571 0h-159l313 516l-641 975h166l553 -852l493 852h162z" />
    <glyph glyph-name="uni0424" unicode="&#x424;" horiz-adv-x="1951" 
d="M903 -31v187q-240 3 -414.5 78.5t-264 208.5t-89.5 309v2q0 128 51.5 236t147.5 187t242 124t327 47v174h144v-174q361 -7 565.5 -167t204.5 -429v-2q0 -128 -51.5 -236t-148.5 -187t-243 -124t-327 -47v-187h-144zM283 752v-2q0 -100 38.5 -183.5t114 -146.5t196 -99
t275.5 -38v938q-304 -4 -464 -131.5t-160 -337.5zM1667 752v2q0 99 -38.5 182t-114 146.5t-196 100t-274.5 38.5v-938q303 4 463 132t160 337z" />
    <glyph glyph-name="uni0425" unicode="&#x425;" horiz-adv-x="1560" 
d="M1262 1491h165l-559 -731l582 -760h-170l-502 664l-499 -664h-166l581 760l-561 731h170l479 -635z" />
    <glyph glyph-name="uni0426" unicode="&#x426;" horiz-adv-x="1662" 
d="M1419 -313v313h-1194v1491h144v-1360h901v1360h143v-1360h146v-444h-140z" />
    <glyph glyph-name="uni0427" unicode="&#x427;" horiz-adv-x="1527" 
d="M1159 0v600q-207 -61 -416 -61q-272 0 -414.5 119t-142.5 378v455h144v-428q0 -211 102.5 -302t323.5 -91q199 0 403 63v758h144v-1491h-144z" />
    <glyph glyph-name="uni0428" unicode="&#x428;" horiz-adv-x="2355" 
d="M225 0v1491h144v-1360h737v1360h143v-1360h736v1360h143v-1491h-1903z" />
    <glyph glyph-name="uni0429" unicode="&#x429;" horiz-adv-x="2379" 
d="M225 0v1491h144v-1360h737v1360h143v-1360h736v1360h143v-1360h147v-444h-139v313h-1911z" />
    <glyph glyph-name="uni042A" unicode="&#x42a;" horiz-adv-x="1822" 
d="M604 0v1360h-502v131h646v-551h405q252 0 405.5 -121.5t153.5 -337.5v-4q0 -150 -80.5 -260.5t-211 -163.5t-292.5 -53h-524zM748 131h387q193 0 313.5 93t120.5 247v4q0 161 -115 248.5t-309 87.5h-397v-680z" />
    <glyph glyph-name="uni042B" unicode="&#x42b;" horiz-adv-x="1998" 
d="M225 0v1491h144v-551h405q252 0 405.5 -121.5t153.5 -337.5v-4q0 -114 -46 -205.5t-126 -150t-185 -90t-226 -31.5h-525zM369 131h387q193 0 313.5 93t120.5 247v4q0 161 -115 248.5t-309 87.5h-397v-680zM1630 0v1491h144v-1491h-144z" />
    <glyph glyph-name="uni042C" unicode="&#x42c;" horiz-adv-x="1445" 
d="M225 0v1491h144v-551h405q252 0 405.5 -121.5t153.5 -337.5v-4q0 -114 -46 -205.5t-126 -150t-185 -90t-226 -31.5h-525zM369 131h387q193 0 313.5 93t120.5 247v4q0 161 -115 248.5t-309 87.5h-397v-680z" />
    <glyph glyph-name="uni042D" unicode="&#x42d;" horiz-adv-x="1607" 
d="M209 1178l-90 96q124 115 268 178.5t328 63.5q212 0 380 -100t260.5 -275t92.5 -391v-5q0 -159 -54.5 -300t-151.5 -245t-238 -164.5t-306 -60.5q-183 0 -326 64t-261 186l94 99q113 -112 231 -166t262 -54q123 0 231 44.5t186 122t126 185.5t57 232h-849v127h847
q-20 251 -181.5 411t-401.5 160q-277 0 -504 -208z" />
    <glyph glyph-name="uni042E" unicode="&#x42e;" horiz-adv-x="2334" 
d="M225 0v1491h144v-676h352q12 139 70 266t151 223.5t225 154t283 57.5q160 0 297.5 -63.5t230 -169t145 -244.5t52.5 -289v-5q0 -150 -53.5 -289.5t-147 -246t-231.5 -170.5t-297 -64q-153 0 -286 57.5t-225 155t-148 226t-66 270.5h-352v-684h-144zM1450 104
q164 0 297.5 87.5t207 233t73.5 316.5v4q0 171 -74 317.5t-208.5 235t-299.5 88.5q-125 0 -233.5 -51t-183.5 -137.5t-118 -203t-43 -244.5v-5q0 -171 73.5 -317.5t208 -235t300.5 -88.5z" />
    <glyph glyph-name="uni042F" unicode="&#x42f;" horiz-adv-x="1560" 
d="M164 1051v2q0 198 150.5 318t402.5 120h618v-1491h-143v596h-438l-467 -596h-176l483 610q-193 31 -311.5 144.5t-118.5 296.5zM1192 725v635h-483q-189 0 -295.5 -83.5t-106.5 -225.5v-4q0 -155 119 -238.5t311 -83.5h455z" />
    <glyph glyph-name="uni0430" unicode="&#x430;" horiz-adv-x="1249" 
d="M530 -25q-78 0 -151.5 22.5t-132.5 64t-95 108t-36 147.5v5q0 168 129.5 261t343.5 93q194 0 346 -47v43q0 154 -88.5 234.5t-251.5 80.5q-160 0 -338 -84l-43 115q202 92 393 92q228 0 350 -119q113 -116 113 -315v-676h-135v172q-147 -197 -404 -197zM549 92
q163 0 276 88.5t113 225.5v114q-180 47 -346 47q-160 0 -248 -63.5t-88 -173.5v-6q0 -106 85.5 -169t207.5 -63z" />
    <glyph glyph-name="uni0431" unicode="&#x431;" horiz-adv-x="1392" 
d="M709 -25q-234 0 -383 146q-174 174 -174 514v2q0 222 35 378.5t111 259.5t185 159.5t267 81.5l356 61l24 -129l-362 -59q-163 -30 -260 -92t-149.5 -173.5t-69.5 -294.5q70 111 187.5 173.5t264.5 62.5q235 0 379 -150t144 -378v-2q0 -114 -40 -216t-111.5 -178.5
t-176.5 -121t-227 -44.5zM711 98q181 0 295 123t114 311v3q0 183 -108.5 297t-286.5 114q-189 0 -309.5 -112.5t-120.5 -292.5q0 -198 120 -320.5t296 -122.5z" />
    <glyph glyph-name="uni0432" unicode="&#x432;" horiz-adv-x="1292" 
d="M201 0v1094h549q173 0 270.5 -74t97.5 -207q0 -190 -203 -254q246 -65 246 -266q0 -140 -109 -216.5t-300 -76.5h-551zM979 803q0 83 -62 129.5t-178 46.5h-403v-369h385q125 0 191.5 52t66.5 141zM1020 297q0 94 -75 147.5t-214 53.5h-395v-383h414q128 0 199 49.5
t71 132.5z" />
    <glyph glyph-name="uni0433" unicode="&#x433;" horiz-adv-x="1062" 
d="M201 0v1094h788v-125h-651v-969h-137z" />
    <glyph glyph-name="uni0434" unicode="&#x434;" horiz-adv-x="1402" 
d="M631 1104h141l440 -979h125v-418h-127v293h-1017v-293h-127v418h124zM700 967l-366 -844h729z" />
    <glyph glyph-name="uni0435" unicode="&#x435;" horiz-adv-x="1273" 
d="M672 -25q-110 0 -209 41.5t-173 115.5t-117.5 181t-43.5 232v4q0 157 67.5 287.5t187.5 207t267 76.5q154 0 271 -77.5t177 -207.5t60 -292q0 -34 -4 -49h-885q17 -183 132.5 -290.5t273.5 -107.5q204 0 358 164l88 -80q-92 -100 -198 -152.5t-252 -52.5zM270 604h746
q-8 108 -50 195t-124.5 143.5t-194.5 56.5q-151 0 -255.5 -111.5t-121.5 -283.5z" />
    <glyph glyph-name="uni0436" unicode="&#x436;" horiz-adv-x="1855" 
d="M995 1094v-480h199l414 480h170l-473 -539l487 -555h-170l-426 492h-201v-492h-135v492h-207l-422 -492h-170l488 553l-471 541h170l411 -480h201v480h135z" />
    <glyph glyph-name="uni0437" unicode="&#x437;" horiz-adv-x="1202" 
d="M98 119l74 106q181 -129 410 -129q158 0 250 57t92 150v2q0 91 -87.5 141t-238.5 50h-250v116h248q139 0 219 53t80 142v2q0 87 -80 138.5t-221 51.5q-211 0 -410 -137l-71 101q224 157 483 157q206 0 323 -83t117 -220v-4q0 -98 -65.5 -162t-163.5 -92
q112 -22 185 -88.5t73 -173.5v-2q0 -137 -127.5 -228.5t-353.5 -91.5q-279 0 -486 144z" />
    <glyph glyph-name="uni0438" unicode="&#x438;" horiz-adv-x="1378" 
d="M201 0v1094h137v-891l704 891h136v-1094h-138v891l-708 -891h-131z" />
    <glyph glyph-name="uni0439" unicode="&#x439;" horiz-adv-x="1378" 
d="M201 0v1094h137v-891l704 891h136v-1094h-138v891l-708 -891h-131zM688 1264q-129 0 -210 67t-91 187h102q46 -136 199 -136t199 136h102q-10 -120 -91 -187t-210 -67z" />
    <glyph glyph-name="uni043A" unicode="&#x43a;" horiz-adv-x="1226" 
d="M338 1094v-480h219l428 480h172l-485 -535l497 -559h-176l-430 492h-225v-492h-137v1094h137z" />
    <glyph glyph-name="uni043B" unicode="&#x43b;" horiz-adv-x="1310" 
d="M719 1104l502 -1104h-154l-414 932l-411 -932h-152l504 1104h125z" />
    <glyph glyph-name="uni043C" unicode="&#x43c;" horiz-adv-x="1562" 
d="M201 0v1094h143l438 -641l437 641h143v-1094h-139v874l-441 -632h-6l-440 630v-872h-135z" />
    <glyph glyph-name="uni043D" unicode="&#x43d;" horiz-adv-x="1370" 
d="M201 0v1094h137v-480h694v480h137v-1094h-137v489h-694v-489h-137z" />
    <glyph glyph-name="uni043E" unicode="&#x43e;" horiz-adv-x="1390" 
d="M694 -25q-160 0 -290.5 78t-202.5 207.5t-72 282.5v4q0 153 73 284.5t204.5 210t291.5 78.5q120 0 225.5 -45.5t180 -122t117.5 -181.5t43 -220v-4q0 -153 -73 -283.5t-205 -209.5t-292 -79zM698 100q120 0 217 60t150 161.5t53 221.5v4q0 187 -122.5 317.5t-301.5 130.5
q-184 0 -303 -128.5t-119 -315.5v-4q0 -187 123.5 -317t302.5 -130z" />
    <glyph glyph-name="uni043F" unicode="&#x43f;" horiz-adv-x="1366" 
d="M201 0v1094h966v-1094h-137v969h-692v-969h-137z" />
    <glyph glyph-name="uni0440" unicode="&#x440;" horiz-adv-x="1431" 
d="M201 -340v1434h137v-230q172 256 434 256q79 0 155.5 -24.5t143 -73t117.5 -116t80.5 -159.5t29.5 -196v-4q0 -104 -29.5 -196.5t-80.5 -160t-117.5 -117t-143 -74t-155.5 -24.5q-270 0 -434 246v-561h-137zM750 102q173 0 288 120t115 321v4q0 197 -117.5 321.5
t-285.5 124.5q-108 0 -203 -55.5t-155 -158.5t-60 -230v-4q0 -96 35 -180t93 -141t134 -89.5t156 -32.5z" />
    <glyph glyph-name="uni0441" unicode="&#x441;" horiz-adv-x="1236" 
d="M688 -25q-155 0 -284 77.5t-202 208t-73 282.5v4q0 152 73.5 283.5t203 210.5t284.5 79q140 0 243.5 -53.5t192.5 -146.5l-92 -97q-80 82 -160.5 127t-187.5 45q-176 0 -295 -129t-119 -315v-4q0 -187 123 -317t301 -130q194 0 348 172l91 -84q-94 -104 -198.5 -158.5
t-248.5 -54.5z" />
    <glyph glyph-name="uni0442" unicode="&#x442;" horiz-adv-x="1181" 
d="M522 0v971h-452v123h1044v-123h-455v-971h-137z" />
    <glyph glyph-name="uni0443" unicode="&#x443;" horiz-adv-x="1275" 
d="M666 152l368 942h150l-467 -1131q-67 -168 -154 -239.5t-209 -71.5q-115 0 -227 53l47 113q84 -41 178 -41q79 0 135 50.5t111 176.5l-510 1090h154z" />
    <glyph glyph-name="uni0444" unicode="&#x444;" horiz-adv-x="1775" 
d="M956 -340h-137v334q-167 2 -299.5 45t-217.5 117t-130 173t-45 216v2q0 115 45 214t130.5 174t218 119t298.5 46v454h137v-454q166 -4 298.5 -47t218.5 -117t131 -172.5t45 -214.5v-2q0 -115 -45.5 -214.5t-131 -174t-218.5 -118.5t-298 -46v-334zM1505 547v2
q0 125 -59.5 219.5t-185 151t-306.5 59.5v-862q181 3 306.5 59.5t185 151t59.5 219.5zM270 547v-2q0 -191 140.5 -307.5t410.5 -120.5v862q-270 -4 -410.5 -121.5t-140.5 -310.5z" />
    <glyph glyph-name="uni0445" unicode="&#x445;" horiz-adv-x="1239" 
d="M279 1094l342 -443l344 443h157l-422 -533l441 -561h-164l-361 469l-360 -469h-158l439 557l-420 537h162z" />
    <glyph glyph-name="uni0446" unicode="&#x446;" horiz-adv-x="1394" 
d="M1167 -293v293h-966v1094h137v-969h692v969h137v-969h129v-418h-129z" />
    <glyph glyph-name="uni0447" unicode="&#x447;" horiz-adv-x="1269" 
d="M932 0v393q-173 -47 -330 -47q-218 0 -331 98t-113 310v340h137v-330q0 -156 76.5 -222.5t244.5 -66.5q158 0 316 47v572h137v-1094h-137z" />
    <glyph glyph-name="uni0448" unicode="&#x448;" horiz-adv-x="1980" 
d="M201 0v1094h137v-969h584v969h137v-969h583v969h138v-1094h-1579z" />
    <glyph glyph-name="uni0449" unicode="&#x449;" horiz-adv-x="2009" 
d="M201 0v1094h137v-969h584v969h137v-969h583v969h138v-969h129v-418h-129v293h-1579z" />
    <glyph glyph-name="uni044A" unicode="&#x44a;" horiz-adv-x="1458" 
d="M59 1094h512v-387h361q199 0 312.5 -95t113.5 -256v-4q0 -162 -114 -257t-316 -95h-492v971h-377v123zM571 588v-467h355q146 0 218.5 60t72.5 171v2q0 109 -72.5 171.5t-216.5 62.5h-357z" />
    <glyph glyph-name="uni044B" unicode="&#x44b;" horiz-adv-x="1671" 
d="M338 1094v-387h358q201 0 314.5 -95t113.5 -256v-4q0 -161 -115 -256.5t-317 -95.5h-491v1094h137zM338 588v-467h352q147 0 220 60t73 171v2q0 109 -73.5 171.5t-217.5 62.5h-354zM1333 0v1094h137v-1094h-137z" />
    <glyph glyph-name="uni044C" unicode="&#x44c;" horiz-adv-x="1222" 
d="M338 1094v-387h358q201 0 314.5 -95t113.5 -256v-4q0 -161 -115 -256.5t-317 -95.5h-491v1094h137zM338 588v-467h352q147 0 220 60t73 171v2q0 109 -73.5 171.5t-217.5 62.5h-354z" />
    <glyph glyph-name="uni044D" unicode="&#x44d;" horiz-adv-x="1243" 
d="M98 164l86 96q156 -162 375 -162q166 0 285 115.5t127 282.5h-613v118h613q-17 166 -131 273.5t-281 107.5q-206 0 -373 -157l-82 96q97 88 207 137t254 49q238 0 393.5 -162t155.5 -411v-4q0 -112 -42.5 -216t-115 -181.5t-176 -124t-219.5 -46.5q-144 0 -255 47
t-208 142z" />
    <glyph glyph-name="uni044E" unicode="&#x44e;" horiz-adv-x="1855" 
d="M338 489v-489h-137v1094h137v-478h285q25 215 177.5 359.5t375.5 144.5q157 0 284 -77.5t196.5 -207t69.5 -284.5v-4q0 -153 -70 -283.5t-198 -209.5t-287 -79q-225 0 -378.5 147.5t-171.5 366.5h-283zM1176 100q179 0 293 128.5t114 314.5v4q0 188 -117.5 318
t-294.5 130q-181 0 -295 -128t-114 -316v-4q0 -188 118 -317.5t296 -129.5z" />
    <glyph glyph-name="uni044F" unicode="&#x44f;" horiz-adv-x="1316" 
d="M979 416h-375l-315 -416h-168l332 430q-140 29 -215.5 113t-75.5 211v2q0 150 116 244t308 94h530v-1094h-137v416zM979 977h-395q-128 0 -205.5 -61.5t-77.5 -159.5v-2q0 -105 75 -164.5t208 -59.5h395v447z" />
    <glyph glyph-name="uni0450" unicode="&#x450;" horiz-adv-x="1273" 
d="M672 -25q-110 0 -209 41.5t-173 115.5t-117.5 181t-43.5 232v4q0 157 67.5 287.5t187.5 207t267 76.5q154 0 271 -77.5t177 -207.5t60 -292q0 -34 -4 -49h-885q17 -183 132.5 -290.5t273.5 -107.5q204 0 358 164l88 -80q-92 -100 -198 -152.5t-252 -52.5zM270 604h746
q-8 108 -50 195t-124.5 143.5t-194.5 56.5q-151 0 -255.5 -111.5t-121.5 -283.5zM596 1268l-236 225l152 72l195 -297h-111z" />
    <glyph glyph-name="uni0451" unicode="&#x451;" horiz-adv-x="1273" 
d="M745 1268v188h173v-188h-173zM385 1268v188h172v-188h-172zM672 -25q-110 0 -209 41.5t-173 115.5t-117.5 181t-43.5 232v4q0 157 67.5 287.5t187.5 207t267 76.5q154 0 271 -77.5t177 -207.5t60 -292q0 -34 -4 -49h-885q17 -183 132.5 -290.5t273.5 -107.5
q204 0 358 164l88 -80q-92 -100 -198 -152.5t-252 -52.5zM270 604h746q-8 108 -50 195t-124.5 143.5t-194.5 56.5q-151 0 -255.5 -111.5t-121.5 -283.5z" />
    <glyph glyph-name="uni0452" unicode="&#x452;" horiz-adv-x="1288" 
d="M741 1227h-403v-344q180 49 332 49q444 0 444 -408v-446q0 -213 -89 -319.5t-273 -106.5q-58 0 -127 16v121q66 -16 114 -16q121 0 179.5 69.5t58.5 239.5v432q0 156 -77.5 222.5t-244.5 66.5q-159 0 -317 -47v-756h-137v1227h-240v119h240v208h137v-208h403v-119z" />
    <glyph glyph-name="uni0453" unicode="&#x453;" horiz-adv-x="1062" 
d="M502 1268l194 297l152 -72l-236 -225h-110zM201 0v1094h788v-125h-651v-969h-137z" />
    <glyph glyph-name="uni0454" unicode="&#x454;" horiz-adv-x="1241" 
d="M1128 938l-84 -100q-80 77 -162.5 117t-191.5 40q-164 0 -282.5 -107.5t-135.5 -273.5h613v-118h-615q12 -173 133.5 -285.5t292.5 -112.5q202 0 361 162l84 -88q-92 -97 -200 -147t-253 -50q-157 0 -285.5 75.5t-201 205.5t-72.5 287v4q0 157 73 288t202 208t286 77
q143 0 247 -47.5t191 -134.5z" />
    <glyph glyph-name="uni0455" unicode="&#x455;" horiz-adv-x="1081" 
d="M559 -20q-118 0 -239 42.5t-214 116.5l74 103q186 -142 385 -142q106 0 175 52t69 137v4q0 29 -9.5 53.5t-32 44t-42.5 33t-60 28t-64 22.5t-73 22q-47 13 -76 22t-72 25t-70 31.5t-58 39t-48.5 49.5t-29.5 61.5t-12 76.5v4q0 139 102 225t264 86q98 0 202.5 -33
t189.5 -90l-66 -106q-170 108 -330 108q-103 0 -166 -49t-63 -125v-4q0 -27 10 -50.5t33 -42t45.5 -32.5t61.5 -28.5t67.5 -23.5t75.5 -22q61 -17 104.5 -32.5t94.5 -42.5t82.5 -57.5t53 -76.5t21.5 -102v-4q0 -148 -109.5 -235.5t-275.5 -87.5z" />
    <glyph glyph-name="uni0456" unicode="&#x456;" horiz-adv-x="567" 
d="M203 1354v166h162v-166h-162zM215 0v1094h137v-1094h-137z" />
    <glyph glyph-name="uni0457" unicode="&#x457;" horiz-adv-x="567" 
d="M379 1268v188h172v-188h-172zM18 1268v188h172v-188h-172zM215 0v1094h137v-1094h-137z" />
    <glyph glyph-name="uni0458" unicode="&#x458;" horiz-adv-x="567" 
d="M203 1354v166h162v-166h-162zM100 -348q-38 0 -96 10v117q36 -8 84 -8q59 0 93 37t34 112v1174h137v-1172q0 -136 -66 -203t-186 -67z" />
    <glyph glyph-name="uni0459" unicode="&#x459;" horiz-adv-x="1794" 
d="M793 0v981h-7l-604 -981h-151l674 1094h223v-387h338q201 0 314.5 -95t113.5 -256v-4q0 -162 -114 -257t-318 -95h-469zM928 121h334q145 0 217.5 60t72.5 171v2q0 109 -73 171.5t-217 62.5h-334v-467z" />
    <glyph glyph-name="uni045A" unicode="&#x45a;" horiz-adv-x="2021" 
d="M1155 1094v-387h338q201 0 314.5 -95t113.5 -256v-4q0 -162 -114 -257t-318 -95h-469v489h-682v-489h-137v1094h137v-478h682v478h135zM1155 588v-467h334q145 0 218 60t73 171v2q0 109 -73.5 171.5t-217.5 62.5h-334z" />
    <glyph glyph-name="uni045B" unicode="&#x45b;" horiz-adv-x="1288" 
d="M338 1554v-208h403v-119h-403v-344q180 49 332 49q444 0 444 -408v-524h-137v514q0 156 -77.5 222.5t-244.5 66.5q-159 0 -317 -47v-756h-137v1227h-240v119h240v208h137z" />
    <glyph glyph-name="uni045C" unicode="&#x45c;" horiz-adv-x="1226" 
d="M563 1268l195 297l151 -72l-235 -225h-111zM338 1094v-480h219l428 480h172l-485 -535l497 -559h-176l-430 492h-225v-492h-137v1094h137z" />
    <glyph glyph-name="uni045D" unicode="&#x45d;" horiz-adv-x="1378" 
d="M633 1268l-236 225l152 72l194 -297h-110zM201 0v1094h137v-891l704 891h136v-1094h-138v891l-708 -891h-131z" />
    <glyph glyph-name="uni045E" unicode="&#x45e;" horiz-adv-x="1275" 
d="M666 152l368 942h150l-467 -1131q-67 -168 -154 -239.5t-209 -71.5q-115 0 -227 53l47 113q84 -41 178 -41q79 0 135 50.5t111 176.5l-510 1090h154zM645 1264q-129 0 -210 67t-91 187h102q46 -136 199 -136t199 136h102q-10 -120 -91 -187t-210 -67z" />
    <glyph glyph-name="uni045F" unicode="&#x45f;" horiz-adv-x="1366" 
d="M201 0v1094h137v-969h692v969h137v-1094h-419v-293h-130v293h-417z" />
    <glyph glyph-name="uni0462" unicode="&#x462;" horiz-adv-x="1822" 
d="M745 807h453q245 0 378.5 -102.5t133.5 -292.5v-4q0 -186 -144.5 -297t-375.5 -111h-588v1139h-500v127h500v256h143v-256h553v-127h-553v-332zM1194 678h-449v-549h449q172 0 272.5 75.5t100.5 201.5v2q0 270 -373 270z" />
    <glyph glyph-name="uni0463" unicode="&#x463;" horiz-adv-x="1458" 
d="M573 694h363q197 0 309.5 -92.5t112.5 -251.5v-6q0 -156 -113 -250t-313 -94h-496v973h-377v121h377v460h137v-460h459v-121h-459v-279zM571 575v-456h361q143 0 214 60t71 167v2q0 107 -71 167t-214 60h-361z" />
    <glyph glyph-name="uni0472" unicode="&#x472;" horiz-adv-x="1828" 
d="M911 -25q-165 0 -307 62t-238.5 167t-151 244.5t-54.5 292.5v4q0 153 55.5 293.5t153 246t240.5 168.5t309 63q165 0 307 -62t238.5 -167t151 -244.5t54.5 -292.5v-5q0 -153 -55.5 -293t-153 -245.5t-240.5 -168.5t-309 -63zM918 102q249 0 417 166t189 416h-1217
q10 -122 60 -229t129.5 -185t188.5 -123t233 -45zM911 1389q-122 0 -230 -44.5t-186.5 -121t-128 -182.5t-59.5 -226h1215q-12 120 -62.5 225.5t-129.5 182.5t-187.5 121.5t-231.5 44.5z" />
    <glyph glyph-name="uni0473" unicode="&#x473;" horiz-adv-x="1388" 
d="M692 -25q-159 0 -289 78t-202 207.5t-72 282.5v4q0 154 72.5 285t203.5 209.5t291 78.5q120 0 225.5 -45.5t180 -122t117.5 -181.5t43 -220v-4q0 -153 -73 -283.5t-205 -209.5t-292 -79zM696 96q171 0 289.5 114t136.5 284h-854q17 -171 139.5 -284.5t288.5 -113.5z
M692 997q-170 0 -286.5 -109.5t-137.5 -277.5h852q-20 165 -142 276t-286 111z" />
    <glyph glyph-name="uni0474" unicode="&#x474;" horiz-adv-x="1697" 
d="M743 -10l-645 1501h158l555 -1323l399 971q84 206 182 282t259 76h22v-129h-12q-114 0 -187.5 -60.5t-138.5 -213.5l-465 -1104h-127z" />
    <glyph glyph-name="uni0475" unicode="&#x475;" horiz-adv-x="1284" 
d="M551 -8l-461 1102h156l366 -938l256 628q71 181 155 249.5t214 68.5h14v-123h-2q-84 0 -140.5 -48.5t-115.5 -185.5l-321 -753h-121z" />
    <glyph glyph-name="uni0490" unicode="&#x490;" horiz-adv-x="1329" 
d="M225 1491h860v299h140v-430h-856v-1360h-144v1491z" />
    <glyph glyph-name="uni0491" unicode="&#x491;" horiz-adv-x="1062" 
d="M201 0v1094h659v284h129v-409h-651v-969h-137z" />
    <glyph glyph-name="uni0492" unicode="&#x492;" horiz-adv-x="1394" 
d="M289 0v668h-160v120h160v703h999v-131h-856v-572h418v-120h-418v-668h-143z" />
    <glyph glyph-name="uni0493" unicode="&#x493;" horiz-adv-x="1101" 
d="M240 0v469h-150v109h150v516h788v-125h-651v-391h311v-109h-311v-469h-137z" />
    <glyph glyph-name="uni0496" unicode="&#x496;" horiz-adv-x="2295" 
d="M2191 1491l-659 -719l559 -641h166v-444h-139v313h-88l-615 700h-211v-700h-141v700h-219l-611 -700h-172l674 772l-659 719h178l602 -662h207v662h141v-662h207l602 662h178z" />
    <glyph glyph-name="uni0497" unicode="&#x497;" horiz-adv-x="1873" 
d="M1778 1094l-473 -539l376 -430h160v-418h-129v293h-90l-426 492h-201v-492h-135v492h-207l-422 -492h-170l488 553l-471 541h170l411 -480h201v480h135v-480h199l414 480h170z" />
    <glyph glyph-name="uni0498" unicode="&#x498;" horiz-adv-x="1415" 
d="M205 1194l-86 96q257 226 583 226q234 0 381.5 -109t147.5 -287v-2q0 -131 -78.5 -225t-228.5 -135q156 -33 248 -126.5t92 -228.5v-4q0 -172 -139.5 -288.5t-374.5 -133.5l2 -290h-140l2 290q-291 18 -516 203l84 105q109 -87 229.5 -135t270.5 -48q191 0 312.5 84.5
t121.5 214.5v5q0 138 -118 210t-330 72h-252v125h254q184 0 298.5 76t114.5 217v4q0 124 -104 201.5t-279 77.5q-265 0 -495 -195z" />
    <glyph glyph-name="uni0499" unicode="&#x499;" horiz-adv-x="1202" 
d="M98 119l74 106q181 -129 410 -129q158 0 250 57t92 150v2q0 91 -87.5 141t-238.5 50h-250v116h248q139 0 219 53t80 142v2q0 87 -80 138.5t-221 51.5q-211 0 -410 -137l-71 101q224 157 483 157q206 0 323 -83t117 -220v-4q0 -98 -65.5 -162t-163.5 -92
q112 -22 185 -88.5t73 -173.5v-2q0 -126 -112.5 -216t-309.5 -102l4 -270h-129l2 270q-257 21 -422 142z" />
    <glyph glyph-name="uni049A" unicode="&#x49a;" horiz-adv-x="1574" 
d="M225 0v1491h144v-662h266l639 662h186l-704 -719l612 -641h168v-444h-139v313h-99l-659 698h-270v-698h-144z" />
    <glyph glyph-name="uni049B" unicode="&#x49b;" horiz-adv-x="1234" 
d="M338 1094v-480h219l428 480h172l-485 -535l387 -434h145v-418h-129v293h-82l-430 492h-225v-492h-137v1094h137z" />
    <glyph glyph-name="uni049C" unicode="&#x49c;" horiz-adv-x="1607" 
d="M1511 1491l-600 -721l627 -770h-180l-559 688h-17l2 -473h-118v473h-297v-688h-144v1491h144v-674h297v481h118l-2 -481h4l547 674h178z" />
    <glyph glyph-name="uni049D" unicode="&#x49d;" horiz-adv-x="1323" 
d="M1243 1094l-446 -523l446 -571h-166l-387 502h-57v-336h-107v336h-188v-502h-137v1094h137v-476h188v334h107v-334h53l389 476h168z" />
    <glyph glyph-name="uni04A0" unicode="&#x4a0;" horiz-adv-x="1929" 
d="M102 1360v131h646v-662h266l639 662h186l-704 -719l737 -772h-195l-659 698h-270v-698h-144v1360h-502z" />
    <glyph glyph-name="uni04A1" unicode="&#x4a1;" horiz-adv-x="1462" 
d="M573 1094v-480h220l428 480h172l-486 -535l498 -559h-176l-430 492h-226v-492h-137v971h-377v123h514z" />
    <glyph glyph-name="uni04A2" unicode="&#x4a2;" horiz-adv-x="1665" 
d="M225 0v1491h144v-676h901v676h143v-1360h148v-444h-140v313h-151v684h-901v-684h-144z" />
    <glyph glyph-name="uni04A3" unicode="&#x4a3;" horiz-adv-x="1398" 
d="M199 0v1094h137v-480h694v480h137v-969h133v-418h-129v293h-141v489h-694v-489h-137z" />
    <glyph glyph-name="uni04A4" unicode="&#x4a4;" horiz-adv-x="2201" 
d="M1174 0v684h-881v-684h-143v1491h143v-676h881v676h921v-131h-778v-1360h-143z" />
    <glyph glyph-name="uni04A5" unicode="&#x4a5;" horiz-adv-x="1861" 
d="M1020 0v489h-682v-489h-137v1094h137v-478h682v478h766v-125h-631v-969h-135z" />
    <glyph glyph-name="uni04AA" unicode="&#x4aa;" horiz-adv-x="1601" 
d="M829 -313l2 293q-192 16 -345.5 120.5t-239.5 273t-86 367.5v4q0 156 56.5 297.5t154.5 246t238.5 166t299.5 61.5q97 0 180.5 -17t154.5 -50.5t127.5 -73t119.5 -95.5l-98 -106q-107 102 -222 157t-264 55q-169 0 -306.5 -84.5t-214.5 -230t-77 -321.5v-5
q0 -176 79 -323.5t217 -232.5t304 -85q148 0 263 55.5t233 168.5l94 -92q-118 -118 -244.5 -183.5t-289.5 -75.5l4 -290h-140z" />
    <glyph glyph-name="uni04AB" unicode="&#x4ab;" horiz-adv-x="1236" 
d="M614 -293l2 273q-209 25 -348 187t-139 376v4q0 152 73.5 283.5t203 210.5t284.5 79q140 0 243.5 -53.5t192.5 -146.5l-92 -97q-80 82 -160.5 127t-187.5 45q-176 0 -295 -129t-119 -315v-4q0 -187 123 -317t301 -130q194 0 348 172l91 -84q-168 -193 -394 -211l2 -270
h-129z" />
    <glyph glyph-name="uni04AE" unicode="&#x4ae;" horiz-adv-x="1546" 
d="M700 0v590l-628 901h176l526 -770l531 770h168l-629 -899v-592h-144z" />
    <glyph glyph-name="uni04AF" unicode="&#x4af;" horiz-adv-x="1265" 
d="M1176 1094l-476 -1080v-354h-137v358l-473 1076h156l387 -932l391 932h152z" />
    <glyph glyph-name="uni04B0" unicode="&#x4b0;" horiz-adv-x="1546" 
d="M700 0v487h-399v121h385l-614 883h176l526 -770l531 770h168l-619 -883h387v-121h-397v-487h-144z" />
    <glyph glyph-name="uni04B1" unicode="&#x4b1;" horiz-adv-x="1265" 
d="M1053 109v-109h-353v-340h-137v340h-350v109h309l-432 985h156l387 -932l391 932h152l-435 -985h312z" />
    <glyph glyph-name="uni04B2" unicode="&#x4b2;" horiz-adv-x="1583" 
d="M1262 1491h165l-559 -731l482 -629h161v-444h-139v313h-92l-502 664l-499 -664h-166l581 760l-561 731h170l479 -635z" />
    <glyph glyph-name="uni04B3" unicode="&#x4b3;" horiz-adv-x="1243" 
d="M279 1094l342 -443l344 443h157l-422 -533l342 -436h148v-418h-129v293h-84l-361 469l-360 -469h-158l439 557l-420 537h162z" />
    <glyph glyph-name="uni04B6" unicode="&#x4b6;" horiz-adv-x="1554" 
d="M1159 0v600q-207 -61 -416 -61q-272 0 -414.5 119t-142.5 378v455h144v-428q0 -211 102.5 -302t323.5 -91q199 0 403 63v758h144v-1360h147v-444h-139v313h-152z" />
    <glyph glyph-name="uni04B7" unicode="&#x4b7;" horiz-adv-x="1298" 
d="M932 0v393q-173 -47 -330 -47q-218 0 -331 98t-113 310v340h137v-330q0 -156 76.5 -222.5t244.5 -66.5q158 0 316 47v572h137v-969h131v-418h-129v293h-139z" />
    <glyph glyph-name="uni04B8" unicode="&#x4b8;" horiz-adv-x="1517" 
d="M1149 0v600q-160 -49 -348 -59l2 -361h-121l2 359q-508 16 -508 497v455h143v-428q0 -198 88 -289t277 -102l-2 479h121l-2 -481q185 10 348 63v758h143v-1491h-143z" />
    <glyph glyph-name="uni04B9" unicode="&#x4b9;" horiz-adv-x="1269" 
d="M932 0v393q-117 -35 -264 -45v-233h-107v231q-403 18 -403 402v346h137v-322q0 -150 65.5 -217t200.5 -78v334h107v-336q142 9 264 47v572h137v-1094h-137z" />
    <glyph glyph-name="uni04BA" unicode="&#x4ba;" horiz-adv-x="1517" 
d="M346 1491v-602q214 63 418 63q270 0 412.5 -119.5t142.5 -377.5v-455h-143v428q0 212 -101.5 302.5t-322.5 90.5q-196 0 -406 -65v-756h-143v1491h143z" />
    <glyph glyph-name="uni04BB" unicode="&#x4bb;" horiz-adv-x="1329" 
d="M201 0v1554h137v-655q129 221 383 221q199 0 313.5 -122.5t114.5 -321.5v-676h-137v643q0 162 -85.5 256t-238.5 94q-151 0 -250.5 -102t-99.5 -262v-629h-137z" />
    <glyph glyph-name="uni04C0" unicode="&#x4c0;" horiz-adv-x="624" 
d="M240 0v1491h143v-1491h-143z" />
    <glyph glyph-name="uni04C1" unicode="&#x4c1;" horiz-adv-x="2267" 
d="M1135 1622q-129 0 -210 60t-91 169h112q38 -110 189 -110q150 0 188 110h113q-10 -109 -91 -169t-210 -60zM76 1491h178l602 -662h207v662h141v-662h207l602 662h178l-659 -719l674 -772h-176l-615 700h-211v-700h-141v700h-219l-611 -700h-172l674 772z" />
    <glyph glyph-name="uni04C2" unicode="&#x4c2;" horiz-adv-x="1855" 
d="M995 1094v-480h199l414 480h170l-473 -539l487 -555h-170l-426 492h-201v-492h-135v492h-207l-422 -492h-170l488 553l-471 541h170l411 -480h201v480h135zM928 1264q-129 0 -210 67t-91 187h102q46 -136 199 -136q152 0 198 136h103q-10 -120 -91 -187t-210 -67z" />
    <glyph glyph-name="uni04CF" unicode="&#x4cf;" horiz-adv-x="567" 
d="M215 0v1554h137v-1554h-137z" />
    <glyph glyph-name="uni04D0" unicode="&#x4d0;" horiz-adv-x="1703" 
d="M98 0l686 1501h136l686 -1501h-156l-180 406h-842l-182 -406h-148zM485 535h727l-362 804zM852 1642q-129 0 -210 60.5t-91 169.5h113q39 -111 188 -111t188 111h113q-10 -109 -91 -169.5t-210 -60.5z" />
    <glyph glyph-name="uni04D1" unicode="&#x4d1;" horiz-adv-x="1249" 
d="M530 -25q-78 0 -151.5 22.5t-132.5 64t-95 108t-36 147.5v5q0 168 129.5 261t343.5 93q194 0 346 -47v43q0 154 -88.5 234.5t-251.5 80.5q-160 0 -338 -84l-43 115q202 92 393 92q228 0 350 -119q113 -116 113 -315v-676h-135v172q-147 -197 -404 -197zM549 92
q163 0 276 88.5t113 225.5v114q-180 47 -346 47q-160 0 -248 -63.5t-88 -173.5v-6q0 -106 85.5 -169t207.5 -63zM625 1264q-129 0 -210 67t-91 187h102q46 -136 199 -136q152 0 198 136h103q-10 -120 -91 -187t-210 -67z" />
    <glyph glyph-name="uni04D2" unicode="&#x4d2;" horiz-adv-x="1703" 
d="M98 0l686 1501h136l686 -1501h-156l-180 406h-842l-182 -406h-148zM485 535h727l-362 804zM958 1647v178h179v-178h-179zM569 1647v178h181v-178h-181z" />
    <glyph glyph-name="uni04D3" unicode="&#x4d3;" horiz-adv-x="1249" 
d="M530 -25q-78 0 -151.5 22.5t-132.5 64t-95 108t-36 147.5v5q0 168 129.5 261t343.5 93q194 0 346 -47v43q0 154 -88.5 234.5t-251.5 80.5q-160 0 -338 -84l-43 115q202 92 393 92q228 0 350 -119q113 -116 113 -315v-676h-135v172q-147 -197 -404 -197zM549 92
q163 0 276 88.5t113 225.5v114q-180 47 -346 47q-160 0 -248 -63.5t-88 -173.5v-6q0 -106 85.5 -169t207.5 -63zM719 1268v188h172v-188h-172zM358 1268v188h172v-188h-172z" />
    <glyph glyph-name="uni04D4" unicode="&#x4d4;" horiz-adv-x="2246" 
d="M49 0l889 1491h1157v-131h-893v-543h797v-131h-797v-555h903v-131h-1046v406h-619l-239 -406h-152zM514 535h545v829h-53z" />
    <glyph glyph-name="uni04D5" unicode="&#x4d5;" horiz-adv-x="2052" 
d="M526 -25q-107 0 -198.5 37.5t-152 117t-60.5 187.5v5q0 168 127 261t336 93q179 0 331 -47v43q0 155 -84 235t-243 80q-89 0 -163 -21t-163 -63l-43 115q102 47 187 69.5t194 22.5q325 0 407 -252q68 121 180.5 191.5t250.5 70.5q153 0 268.5 -77.5t175 -207.5t59.5 -292
q0 -26 -2 -49h-884q17 -184 130.5 -291t272.5 -107q208 0 358 164l91 -80q-92 -101 -198 -153t-255 -52q-135 0 -250 59.5t-188 168.5q-210 -228 -484 -228zM1049 604h745q-8 108 -50 195t-124.5 143.5t-194.5 56.5q-151 0 -255 -111.5t-121 -283.5zM541 92q235 0 413 211
q-41 104 -47 219q-172 45 -323 45q-158 0 -243 -63.5t-85 -173.5v-6q0 -107 82 -169.5t203 -62.5z" />
    <glyph glyph-name="uni04D6" unicode="&#x4d6;" horiz-adv-x="1447" 
d="M764 1622q-129 0 -210 60t-91 169h112q38 -110 189 -110q150 0 188 110h113q-10 -109 -91 -169t-210 -60zM225 0v1491h1071v-131h-927v-543h831v-131h-831v-555h938v-131h-1082z" />
    <glyph glyph-name="uni04D7" unicode="&#x4d7;" horiz-adv-x="1273" 
d="M672 -25q-110 0 -209 41.5t-173 115.5t-117.5 181t-43.5 232v4q0 157 67.5 287.5t187.5 207t267 76.5q154 0 271 -77.5t177 -207.5t60 -292q0 -34 -4 -49h-885q17 -183 132.5 -290.5t273.5 -107.5q204 0 358 164l88 -80q-92 -100 -198 -152.5t-252 -52.5zM270 604h746
q-8 108 -50 195t-124.5 143.5t-194.5 56.5q-151 0 -255.5 -111.5t-121.5 -283.5zM651 1264q-129 0 -210 67t-91 187h103q46 -136 198 -136q153 0 199 136h102q-10 -120 -91 -187t-210 -67z" />
    <glyph glyph-name="uni04D8" unicode="&#x4d8;" horiz-adv-x="1718" 
d="M307 1137l-98 94q256 285 627 285q213 0 378 -98.5t255 -273.5t90 -396v-7q0 -213 -91.5 -388t-255 -276.5t-364.5 -101.5q-160 0 -291.5 60.5t-218 165t-133.5 246t-47 303.5v2q0 36 2 61h1249q-21 251 -174 412t-399 161q-304 0 -529 -249zM848 106q238 0 389 161.5
t172 418.5h-1102q12 -259 161 -419.5t380 -160.5z" />
    <glyph glyph-name="uni04D9" unicode="&#x4d9;" horiz-adv-x="1273" 
d="M602 1120q147 0 270.5 -70.5t198 -201.5t74.5 -297v-4q0 -157 -67.5 -288t-187.5 -207.5t-267 -76.5q-154 0 -271 78t-177 207.5t-60 290.5q0 31 2 49h887q-17 183 -132.5 290t-273.5 107q-207 0 -358 -161l-88 77q89 100 196 153.5t254 53.5zM1004 489h-746
q6 -79 32 -148.5t70.5 -124.5t113.5 -87.5t153 -32.5q152 0 255.5 111t121.5 282z" />
    <glyph glyph-name="uni04DC" unicode="&#x4dc;" horiz-adv-x="2267" 
d="M1239 1626v178h178v-178h-178zM850 1626v178h180v-178h-180zM76 1491h178l602 -662h207v662h141v-662h207l602 662h178l-659 -719l674 -772h-176l-615 700h-211v-700h-141v700h-219l-611 -700h-172l674 772z" />
    <glyph glyph-name="uni04DD" unicode="&#x4dd;" horiz-adv-x="1855" 
d="M1022 1268v188h172v-188h-172zM662 1268v188h172v-188h-172zM995 1094v-480h199l414 480h170l-473 -539l487 -555h-170l-426 492h-201v-492h-135v492h-207l-422 -492h-170l488 553l-471 541h170l411 -480h201v480h135z" />
    <glyph glyph-name="uni04DE" unicode="&#x4de;" horiz-adv-x="1415" 
d="M801 1645v178h178v-178h-178zM412 1645v178h180v-178h-180zM207 1194l-86 96q257 226 584 226q234 0 381 -109t147 -287v-2q0 -131 -78.5 -225t-228.5 -135q156 -33 248 -126.5t92 -228.5v-4q0 -184 -160 -304t-422 -120q-340 0 -584 205l84 105q109 -87 229.5 -135
t270.5 -48q191 0 312.5 84.5t121.5 214.5v5q0 138 -118 210t-330 72h-252v125h254q184 0 298.5 76t114.5 217v4q0 124 -104 201.5t-279 77.5q-265 0 -495 -195z" />
    <glyph glyph-name="uni04DF" unicode="&#x4df;" horiz-adv-x="1202" 
d="M684 1268v188h172v-188h-172zM324 1268v188h172v-188h-172zM98 119l74 106q181 -129 410 -129q158 0 250 57t92 150v2q0 91 -87.5 141t-238.5 50h-250v116h248q139 0 219 53t80 142v2q0 87 -80 138.5t-221 51.5q-211 0 -410 -137l-71 101q224 157 483 157q206 0 323 -83
t117 -220v-4q0 -98 -65.5 -162t-163.5 -92q112 -22 185 -88.5t73 -173.5v-2q0 -137 -127.5 -228.5t-353.5 -91.5q-279 0 -486 144z" />
    <glyph glyph-name="uni04E2" unicode="&#x4e2;" horiz-adv-x="1703" 
d="M510 1669v123h684v-123h-684zM1479 0h-144v1272l-995 -1272h-115v1491h144v-1243l972 1243h138v-1491z" />
    <glyph glyph-name="uni04E3" unicode="&#x4e3;" horiz-adv-x="1378" 
d="M365 1317v117h647v-117h-647zM201 0v1094h137v-891l704 891h136v-1094h-138v891l-708 -891h-131z" />
    <glyph glyph-name="uni04E4" unicode="&#x4e4;" horiz-adv-x="1703" 
d="M958 1620v178h179v-178h-179zM569 1620v178h181v-178h-181zM1479 0h-144v1272l-995 -1272h-115v1491h144v-1243l972 1243h138v-1491z" />
    <glyph glyph-name="uni04E5" unicode="&#x4e5;" horiz-adv-x="1378" 
d="M782 1268v188h172v-188h-172zM422 1268v188h172v-188h-172zM201 0v1094h137v-891l704 891h136v-1094h-138v891l-708 -891h-131z" />
    <glyph glyph-name="uni04E6" unicode="&#x4e6;" horiz-adv-x="1830" 
d="M1022 1647v178h178v-178h-178zM633 1647v178h180v-178h-180zM913 -25q-133 0 -252 40t-209.5 111.5t-156.5 167.5t-100.5 210.5t-34.5 236.5v4q0 153 55.5 293.5t153 246t240.5 168.5t309 63q133 0 252 -40t209.5 -111.5t156.5 -167.5t100.5 -210.5t34.5 -236.5v-5
q0 -153 -55.5 -293t-153 -245.5t-240.5 -168.5t-309 -63zM918 104q129 0 242.5 50.5t192 136t124 202.5t45.5 248v4q0 175 -78 321.5t-218.5 233t-312.5 86.5t-311.5 -85.5t-216 -230.5t-76.5 -320v-5q0 -175 78 -321.5t218.5 -233t312.5 -86.5z" />
    <glyph glyph-name="uni04E7" unicode="&#x4e7;" horiz-adv-x="1390" 
d="M791 1268v188h172v-188h-172zM430 1268v188h172v-188h-172zM694 -25q-160 0 -290.5 78t-202.5 207.5t-72 282.5v4q0 153 73 284.5t204.5 210t291.5 78.5q120 0 225.5 -45.5t180 -122t117.5 -181.5t43 -220v-4q0 -153 -73 -283.5t-205 -209.5t-292 -79zM698 100
q120 0 217 60t150 161.5t53 221.5v4q0 187 -122.5 317.5t-301.5 130.5q-184 0 -303 -128.5t-119 -315.5v-4q0 -187 123.5 -317t302.5 -130z" />
    <glyph glyph-name="uni04E8" unicode="&#x4e8;" horiz-adv-x="1828" 
d="M911 -25q-165 0 -307 62t-238.5 167t-151 244.5t-54.5 292.5v4q0 153 55.5 293.5t153 246t240.5 168.5t309 63q165 0 307 -62t238.5 -167t151 -244.5t54.5 -292.5v-5q0 -153 -55.5 -293t-153 -245.5t-240.5 -168.5t-309 -63zM918 102q249 0 417 166t189 416h-1217
q10 -122 60 -229t129.5 -185t188.5 -123t233 -45zM911 1389q-122 0 -230 -44.5t-186.5 -121t-128 -182.5t-59.5 -226h1215q-12 120 -62.5 225.5t-129.5 182.5t-187.5 121.5t-231.5 44.5z" />
    <glyph glyph-name="uni04E9" unicode="&#x4e9;" horiz-adv-x="1388" 
d="M692 -25q-159 0 -289 78t-202 207.5t-72 282.5v4q0 154 72.5 285t203.5 209.5t291 78.5q120 0 225.5 -45.5t180 -122t117.5 -181.5t43 -220v-4q0 -153 -73 -283.5t-205 -209.5t-292 -79zM696 96q171 0 289.5 114t136.5 284h-854q17 -171 139.5 -284.5t288.5 -113.5z
M692 997q-170 0 -286.5 -109.5t-137.5 -277.5h852q-20 165 -142 276t-286 111z" />
    <glyph glyph-name="uni04EE" unicode="&#x4ee;" horiz-adv-x="1525" 
d="M449 1669v123h684v-123h-684zM571 0h-159l313 516l-641 975h166l553 -852l493 852h162z" />
    <glyph glyph-name="uni04EF" unicode="&#x4ef;" horiz-adv-x="1275" 
d="M666 152l368 942h150l-467 -1131q-67 -168 -154 -239.5t-209 -71.5q-115 0 -227 53l47 113q84 -41 178 -41q79 0 135 50.5t111 176.5l-510 1090h154zM322 1317v117h647v-117h-647z" />
    <glyph glyph-name="uni04F0" unicode="&#x4f0;" horiz-adv-x="1525" 
d="M895 1620v178h178v-178h-178zM506 1620v178h180v-178h-180zM571 0h-159l313 516l-641 975h166l553 -852l493 852h162z" />
    <glyph glyph-name="uni04F1" unicode="&#x4f1;" horiz-adv-x="1275" 
d="M666 152l368 942h150l-467 -1131q-67 -168 -154 -239.5t-209 -71.5q-115 0 -227 53l47 113q84 -41 178 -41q79 0 135 50.5t111 176.5l-510 1090h154zM739 1268v188h172v-188h-172zM379 1268v188h172v-188h-172z" />
    <glyph glyph-name="uni04F2" unicode="&#x4f2;" horiz-adv-x="1525" 
d="M571 0h-159l313 516l-641 975h166l553 -852l493 852h162zM555 1620l207 264l147 -69l-237 -195h-117zM868 1620l207 264l148 -69l-236 -195h-119z" />
    <glyph glyph-name="uni04F3" unicode="&#x4f3;" horiz-adv-x="1275" 
d="M666 152l368 942h150l-467 -1131q-67 -168 -154 -239.5t-209 -71.5q-115 0 -227 53l47 113q84 -41 178 -41q79 0 135 50.5t111 176.5l-510 1090h154zM725 1268l197 297l141 -72l-225 -225h-113zM420 1268l196 297l140 -72l-224 -225h-112z" />
    <glyph glyph-name="uni04F4" unicode="&#x4f4;" horiz-adv-x="1527" 
d="M1159 0v600q-207 -61 -416 -61q-272 0 -414.5 119t-142.5 378v455h144v-428q0 -211 102.5 -302t323.5 -91q199 0 403 63v758h144v-1491h-144zM850 1620v178h178v-178h-178zM461 1620v178h180v-178h-180z" />
    <glyph glyph-name="uni04F5" unicode="&#x4f5;" horiz-adv-x="1269" 
d="M709 1268v188h172v-188h-172zM348 1268v188h172v-188h-172zM932 0v393q-173 -47 -330 -47q-218 0 -331 98t-113 310v340h137v-330q0 -156 76.5 -222.5t244.5 -66.5q158 0 316 47v572h137v-1094h-137z" />
    <glyph glyph-name="uni04F8" unicode="&#x4f8;" horiz-adv-x="1998" 
d="M225 0v1491h144v-551h405q252 0 405.5 -121.5t153.5 -337.5v-4q0 -114 -46 -205.5t-126 -150t-185 -90t-226 -31.5h-525zM369 131h387q193 0 313.5 93t120.5 247v4q0 161 -115 248.5t-309 87.5h-397v-680zM1630 0v1491h144v-1491h-144zM1104 1620v178h178v-178h-178z
M715 1620v178h180v-178h-180z" />
    <glyph glyph-name="uni04F9" unicode="&#x4f9;" horiz-adv-x="1671" 
d="M930 1268v188h172v-188h-172zM569 1268v188h172v-188h-172zM338 1094v-387h358q201 0 314.5 -95t113.5 -256v-4q0 -161 -115 -256.5t-317 -95.5h-491v1094h137zM338 588v-467h352q147 0 220 60t73 171v2q0 109 -73.5 171.5t-217.5 62.5h-354zM1333 0v1094h137v-1094h-137
z" />
    <glyph glyph-name="baht" unicode="&#xe3f;" horiz-adv-x="1368" 
d="M752 1659h114l-28 -178q162 -27 255 -121t93 -240v-2q0 -257 -264 -354q323 -87 323 -356v-2q0 -189 -140.5 -297.5t-375.5 -108.5h-135l-39 -252h-115l39 252h-268v1491h512h2zM717 696h-15l-94 -575h125q177 0 278 76t101 211v2q0 137 -102 212t-293 74zM344 807h277
l90 563h-2h-365v-563zM1053 1100v2q0 103 -63 171.5t-179 88.5l-90 -555q154 5 243 81.5t89 211.5zM344 121h164l94 575h-258v-575z" />
    <glyph glyph-name="Wgrave" unicode="&#x1e80;" horiz-adv-x="2373" 
d="M1245 1626h-119l-237 195l149 69zM647 -10l-536 1501h157l445 -1280l422 1284h114l420 -1284l445 1280h149l-534 -1501h-121l-420 1247l-422 -1247h-119z" />
    <glyph glyph-name="wgrave" unicode="&#x1e81;" horiz-adv-x="1853" 
d="M498 -8l-392 1102h150l305 -914l311 920h113l311 -920l308 914h143l-391 -1102h-119l-309 895l-312 -895h-118zM872 1268l-235 225l151 72l195 -297h-111z" />
    <glyph glyph-name="Wacute" unicode="&#x1e82;" horiz-adv-x="2373" 
d="M1128 1626l207 264l150 -69l-238 -195h-119zM647 -10l-536 1501h157l445 -1280l422 1284h114l420 -1284l445 1280h149l-534 -1501h-121l-420 1247l-422 -1247h-119z" />
    <glyph glyph-name="wacute" unicode="&#x1e83;" horiz-adv-x="1853" 
d="M870 1268l195 297l152 -72l-236 -225h-111zM498 -8l-392 1102h150l305 -914l311 920h113l311 -920l308 914h143l-391 -1102h-119l-309 895l-312 -895h-118z" />
    <glyph glyph-name="Wdieresis" unicode="&#x1e84;" horiz-adv-x="2373" 
d="M1292 1626v178h178v-178h-178zM903 1626v178h180v-178h-180zM647 -10l-536 1501h157l445 -1280l422 1284h114l420 -1284l445 1280h149l-534 -1501h-121l-420 1247l-422 -1247h-119z" />
    <glyph glyph-name="wdieresis" unicode="&#x1e85;" horiz-adv-x="1853" 
d="M1020 1268v188h172v-188h-172zM659 1268v188h172v-188h-172zM498 -8l-392 1102h150l305 -914l311 920h113l311 -920l308 914h143l-391 -1102h-119l-309 895l-312 -895h-118z" />
    <glyph glyph-name="Ygrave" unicode="&#x1ef2;" horiz-adv-x="1546" 
d="M700 0v590l-628 901h176l526 -770l531 770h168l-629 -899v-592h-144zM831 1620h-118l-238 195l150 69z" />
    <glyph glyph-name="ygrave" unicode="&#x1ef3;" horiz-adv-x="1275" 
d="M666 152l368 942h150l-467 -1131q-67 -168 -154 -239.5t-209 -71.5q-115 0 -227 53l47 113q84 -41 178 -41q79 0 135 50.5t111 176.5l-510 1090h154zM592 1268l-236 225l152 72l194 -297h-110z" />
    <glyph glyph-name="enspace" unicode="&#x2002;" horiz-adv-x="1024" 
 />
    <glyph glyph-name="emspace" unicode="&#x2003;" horiz-adv-x="2048" 
 />
    <glyph glyph-name="threeperemspace" unicode="&#x2004;" horiz-adv-x="681" 
 />
    <glyph glyph-name="fourperemspace" unicode="&#x2005;" horiz-adv-x="512" 
 />
    <glyph glyph-name="figurespace" unicode="&#x2007;" horiz-adv-x="1290" 
 />
    <glyph glyph-name="thinspace" unicode="&#x2009;" horiz-adv-x="272" 
 />
    <glyph glyph-name="hairspace" unicode="&#x200a;" horiz-adv-x="153" 
 />
    <glyph glyph-name="endash" unicode="&#x2013;" horiz-adv-x="1144" 
d="M154 567v140h837v-140h-837z" />
    <glyph glyph-name="emdash" unicode="&#x2014;" horiz-adv-x="1933" 
d="M154 567v140h1626v-140h-1626z" />
    <glyph glyph-name="quoteleft" unicode="&#x2018;" horiz-adv-x="528" 
d="M168 1051v178q0 116 49 178.5t160 93.5l26 -65q-75 -31 -106 -73t-27 -108h70v-204h-172z" />
    <glyph glyph-name="quoteright" unicode="&#x2019;" horiz-adv-x="528" 
d="M152 1040l-27 66q76 33 106.5 74t26.5 106h-70v205h172v-176q0 -116 -48.5 -179t-159.5 -96z" />
    <glyph glyph-name="quotesinglbase" unicode="&#x201a;" horiz-adv-x="528" 
d="M141 -246l-26 66q76 33 106.5 74t26.5 106h-70v205h172v-176q0 -116 -49 -179t-160 -96z" />
    <glyph glyph-name="quotedblleft" unicode="&#x201c;" horiz-adv-x="935" 
d="M575 1051v178q0 116 49 178.5t160 93.5l27 -65q-76 -31 -107.5 -73.5t-25.5 -107.5h67v-204h-170zM168 1051v178q0 116 49 178.5t160 93.5l26 -65q-75 -31 -106 -73t-27 -108h70v-204h-172z" />
    <glyph glyph-name="quotedblright" unicode="&#x201d;" horiz-adv-x="935" 
d="M557 1040l-25 66q76 33 107 74t27 106h-70v205h172v-176q0 -116 -49.5 -179t-161.5 -96zM152 1040l-27 66q76 33 106.5 74t26.5 106h-70v205h172v-176q0 -116 -48.5 -179t-159.5 -96z" />
    <glyph glyph-name="quotedblbase" unicode="&#x201e;" horiz-adv-x="935" 
d="M547 -246l-25 66q75 33 106 74t25 106h-67v205h172v-176q0 -116 -49.5 -179t-161.5 -96zM141 -246l-26 66q76 33 106.5 74t26.5 106h-70v205h172v-176q0 -116 -49 -179t-160 -96z" />
    <glyph glyph-name="dagger" unicode="&#x2020;" horiz-adv-x="892" 
d="M393 508l13 602l-265 -14v106l262 -14l-16 303h119l-17 -303l263 14v-106l-265 14l13 -602h-107z" />
    <glyph glyph-name="daggerdbl" unicode="&#x2021;" horiz-adv-x="935" 
d="M408 0l18 303l-264 -14v106l264 -14l-10 364l10 365l-264 -14v106l264 -14l-18 303h120l-16 -303l262 14v-106l-264 14l12 -365l-12 -364l264 14v-106l-262 14l16 -303h-120z" />
    <glyph glyph-name="bullet" unicode="&#x2022;" horiz-adv-x="1030" 
d="M516 477q-112 0 -192 80t-80 191v4q0 110 81.5 190t190.5 80q107 0 189.5 -80.5t82.5 -189.5v-4q0 -111 -80 -191t-192 -80z" />
    <glyph glyph-name="ellipsis" unicode="&#x2026;" horiz-adv-x="1519" 
d="M1176 0v201h165v-201h-165zM676 0v201h168v-201h-168zM178 0v201h166v-201h-166z" />
    <glyph glyph-name="perthousand" unicode="&#x2030;" horiz-adv-x="2588" 
d="M459 852q89 0 147 79t58 191v4q0 115 -61 195t-148 80q-88 0 -145.5 -79.5t-57.5 -191.5v-4q0 -117 60.5 -195.5t146.5 -78.5zM455 745q-145 0 -237.5 111.5t-92.5 265.5v4q0 159 93 270t241 111q145 0 238.5 -111.5t93.5 -265.5v-4q0 -101 -41.5 -187.5t-119.5 -140
t-175 -53.5zM1507 1491l-571 -778l-522 -713h-135l569 772l524 719h135zM1331 90q90 0 147.5 77t57.5 193v5q0 115 -61 194.5t-148 79.5q-88 0 -145.5 -79t-57.5 -191v-4q0 -117 60.5 -196t146.5 -79zM1327 -16q-145 0 -237.5 110.5t-92.5 265.5v5q0 156 93 268t241 112
q145 0 238.5 -111t93.5 -265v-4q0 -158 -94.5 -269.5t-241.5 -111.5zM2134 90q91 0 147 76.5t56 193.5v5q0 115 -60.5 194.5t-146.5 79.5q-90 0 -146.5 -78.5t-56.5 -191.5v-4q0 -118 60 -196.5t147 -78.5zM2130 -16q-146 0 -239 110.5t-93 265.5v5q0 155 94.5 267.5
t241.5 112.5q145 0 238.5 -111t93.5 -265v-4q0 -158 -94.5 -269.5t-241.5 -111.5z" />
    <glyph glyph-name="guilsinglleft" unicode="&#x2039;" horiz-adv-x="702" 
d="M463 90l-348 449v16l348 451l100 -62l-287 -395l287 -399z" />
    <glyph glyph-name="guilsinglright" unicode="&#x203a;" horiz-adv-x="702" 
d="M240 90l-101 60l287 395l-287 399l101 62l348 -451v-16z" />
    <glyph glyph-name="fraction" unicode="&#x2044;" horiz-adv-x="233" 
d="M-442 0l526 762l487 729h105l-526 -762l-488 -729h-104z" />
    <glyph glyph-name="zero.sup" unicode="&#x2070;" 
d="M428 885q-137 0 -220 120t-83 308v4q0 190 83.5 311t221.5 121q137 0 222 -120t85 -308v-4q0 -189 -86 -310.5t-223 -121.5zM428 1661q-95 0 -150 -95t-55 -245v-6q0 -151 56 -246.5t151 -95.5t151 95.5t56 246.5v6q0 148 -57 244t-152 96z" />
    <glyph glyph-name="four.sup" unicode="&#x2074;" 
d="M639 1092v-191h-92v191h-406l-24 84l411 565h111v-565h115v-84h-115zM547 1176v442l-326 -442h326z" />
    <glyph glyph-name="five.sup" unicode="&#x2075;" 
d="M424 885q-172 0 -301 139l65 70q112 -121 238 -121q90 0 145.5 51.5t55.5 126.5q0 77 -56 122.5t-145 45.5q-91 0 -186 -45l-66 39l29 416h487v-97h-405l-19 -258q78 35 172 35q124 0 207.5 -68.5t83.5 -183.5q0 -121 -87.5 -196.5t-217.5 -75.5z" />
    <glyph glyph-name="six.sup" unicode="&#x2076;" 
d="M428 885q-125 0 -205 80q-100 100 -100 321v4q0 203 93 331t241 128q76 0 130.5 -24t104.5 -74l-57 -72q-85 82 -182 82q-93 0 -162.5 -97t-69.5 -241q42 51 93.5 79t129.5 28q113 0 191 -73t78 -192q0 -118 -83 -199t-202 -81zM424 973q87 0 139.5 51t52.5 137
q0 85 -49 135t-135 50t-141 -52.5t-55 -132.5v-2q0 -80 55 -133t133 -53z" />
    <glyph glyph-name="seven.sup" unicode="&#x2077;" 
d="M348 901h-112l370 731h-454v97h569v-74z" />
    <glyph glyph-name="eight.sup" unicode="&#x2078;" 
d="M430 885q-132 0 -216.5 65.5t-84.5 173.5q0 139 156 207q-131 64 -131 191q0 101 81 164t199 63q113 0 195 -64.5t82 -162.5q0 -129 -131 -191q71 -31 113 -82.5t42 -120.5q0 -109 -85.5 -176t-219.5 -67zM432 1665q-82 0 -133 -40.5t-51 -106.5t52 -109t132 -43t132 43
t52 109q0 65 -52 106t-132 41zM432 1288q-93 0 -151 -46t-58 -116t56.5 -113.5t152.5 -43.5q93 0 150 43.5t57 113.5t-57.5 116t-149.5 46z" />
    <glyph glyph-name="nine.sup" unicode="&#x2079;" 
d="M432 1749q125 0 205 -80q100 -100 100 -321v-5q0 -208 -92.5 -333t-241.5 -125q-142 0 -247 102l59 72q44 -44 88.5 -65t104.5 -21q94 0 162.5 93t68.5 237q-42 -51 -93.5 -79t-129.5 -28q-113 0 -191 73t-78 195q0 121 82.5 203t202.5 82zM428 1280q87 0 142 52t55 136
v2q0 84 -55 138.5t-134 52.5q-86 0 -139 -52.5t-53 -140.5q0 -87 49 -137.5t135 -50.5z" />
    <glyph glyph-name="zero.inf" unicode="&#x2080;" 
d="M428 -299q-137 0 -220 120t-83 308v4q0 190 83.5 311t221.5 121q137 0 222 -120t85 -308v-4q0 -189 -86 -310.5t-223 -121.5zM428 477q-95 0 -150 -95t-55 -245v-6q0 -151 56 -246.5t151 -95.5t151 95.5t56 246.5v6q0 148 -57 244t-152 96z" />
    <glyph glyph-name="one.inf" unicode="&#x2081;" horiz-adv-x="700" 
d="M446 -279h-98v734l-186 -70l-25 86l230 88h79v-838z" />
    <glyph glyph-name="two.inf" unicode="&#x2082;" 
d="M131 -279v84l313 273q90 79 128 133t38 115q0 66 -47 108.5t-119 42.5q-68 0 -122 -36t-105 -111l-74 49q58 92 130.5 139t177.5 47q112 0 186 -66.5t74 -166.5q0 -84 -43 -146.5t-152 -158.5l-250 -213h453v-93h-588z" />
    <glyph glyph-name="three.inf" unicode="&#x2083;" 
d="M426 -299q-187 0 -309 152l67 65q104 -129 244 -129q75 0 127.5 45.5t52.5 116.5q0 76 -63 118t-164 42h-66l-18 61l274 281h-409v92h534v-80l-266 -272q123 -8 201 -70.5t78 -171.5q0 -108 -82.5 -179t-200.5 -71z" />
    <glyph glyph-name="four.inf" unicode="&#x2084;" 
d="M639 -92v-191h-92v191h-406l-24 84l411 565h111v-565h115v-84h-115zM547 -8v442l-326 -442h326z" />
    <glyph glyph-name="five.inf" unicode="&#x2085;" 
d="M424 -299q-172 0 -301 139l65 70q112 -121 238 -121q90 0 145.5 51.5t55.5 126.5q0 77 -56 122.5t-145 45.5q-91 0 -186 -45l-66 39l29 416h487v-96h-405l-19 -259q78 35 172 35q124 0 207.5 -68.5t83.5 -183.5q0 -121 -87.5 -196.5t-217.5 -75.5z" />
    <glyph glyph-name="six.inf" unicode="&#x2086;" 
d="M428 -299q-125 0 -205 80q-100 100 -100 321v4q0 203 93 331t241 128q76 0 130.5 -24t104.5 -74l-57 -72q-85 82 -182 82q-93 0 -162.5 -97t-69.5 -241q42 51 93.5 79t129.5 28q113 0 191 -72.5t78 -191.5q0 -118 -83 -199.5t-202 -81.5zM424 -211q87 0 139.5 51
t52.5 137q0 85 -49 135t-135 50t-141 -52.5t-55 -132.5v-2q0 -80 55 -133t133 -53z" />
    <glyph glyph-name="seven.inf" unicode="&#x2087;" 
d="M348 -283h-112l370 732h-454v96h569v-74z" />
    <glyph glyph-name="eight.inf" unicode="&#x2088;" 
d="M430 -299q-132 0 -216.5 66t-84.5 174q0 138 156 206q-131 64 -131 191q0 101 81 164t199 63q113 0 195 -64.5t82 -162.5q0 -129 -131 -191q71 -31 113 -82t42 -120q0 -109 -86 -176.5t-219 -67.5zM432 481q-82 0 -133 -40.5t-51 -106.5t52 -109t132 -43t132 43t52 109
q0 65 -52 106t-132 41zM432 104q-93 0 -151 -45.5t-58 -115.5t57 -114t152 -44q93 0 150 44t57 114t-57 115.5t-150 45.5z" />
    <glyph glyph-name="nine.inf" unicode="&#x2089;" 
d="M432 565q125 0 205 -80q100 -100 100 -321v-4q0 -208 -92.5 -333.5t-241.5 -125.5q-142 0 -247 102l59 72q44 -44 88.5 -65t104.5 -21q94 0 162.5 93t68.5 237q-42 -51 -93.5 -79t-129.5 -28q-113 0 -191 73.5t-78 195.5q0 121 82.5 202.5t202.5 81.5zM428 96
q87 0 142 52.5t55 136.5v2q0 84 -55 138t-134 52q-87 0 -139.5 -52.5t-52.5 -139.5t49 -138t135 -51z" />
    <glyph glyph-name="colonmonetary" unicode="&#x20a1;" horiz-adv-x="1304" 
d="M1014 1659h100l-39 -246q59 -35 119 -86l-70 -106q-61 52 -80 63l-194 -1163q76 13 142.5 51t137.5 104l74 -90q-86 -80 -173.5 -126.5t-196.5 -59.5l-41 -252h-101l41 248q-108 3 -201 37l-45 -285h-102l55 332q-149 89 -233 259t-84 398v15q0 307 155.5 508t401.5 231
l27 168h102l-29 -162q109 -3 199 -39zM756 1378l-207 -1218q100 -47 209 -47l205 1220q-86 45 -205 45h-2zM256 754v-17q0 -176 56 -311t157 -215l195 1157q-182 -38 -295 -201.5t-113 -412.5z" />
    <glyph glyph-name="naira" unicode="&#x20a6;" horiz-adv-x="1773" 
d="M1663 494h-211v-494h-172l-307 494h-518v-494h-133v494h-211v106h211v299h-211v107h211v485h186l301 -485h510v485h133v-485h211v-107h-211v-299h211v-106zM453 901v-303h460l-188 303h-272zM866 901l191 -303h262v303h-453zM453 1335v-334h209l-207 334h-2zM1319 178
v320h-201z" />
    <glyph glyph-name="rupee" unicode="&#x20a8;" horiz-adv-x="2312" 
d="M188 0v1491h504q233 0 371.5 -121t138.5 -319v-7q0 -170 -99.5 -281.5t-262.5 -150.5l415 -612h-165l-396 588h-370v-588h-136zM324 709h356q173 0 279 89t106 242v4q0 153 -101 237.5t-280 84.5h-360v-657zM1808 -20q-116 0 -227.5 41t-200.5 112l72 100
q90 -69 176.5 -103t186.5 -34q102 0 171.5 51.5t69.5 135.5v4q0 67 -56.5 113t-207.5 94q-196 64 -278 133.5t-82 185.5v4q0 132 101.5 215.5t254.5 83.5q197 0 375 -121l-64 -106q-160 110 -315 110q-98 0 -160.5 -49.5t-62.5 -124.5v-4q0 -68 61 -115t217 -96
q191 -60 269.5 -129t78.5 -188v-4q0 -139 -109.5 -224t-269.5 -85z" />
    <glyph glyph-name="won" unicode="&#x20a9;" horiz-adv-x="2369" 
d="M2175 1491l-141 -490h237v-104h-266l-86 -297h352v-104h-381l-143 -502h-164l-149 502h-498l-148 -502h-165l-144 502h-381v104h351l-84 297h-267v104h236l-139 490h155l133 -490h475l144 494h174l139 -494h481l134 490h145zM1065 940l-98 -340h436l-98 340h-240z
M506 899l78 -299h262l84 299h-424zM1446 899l84 -299h262l78 299h-424zM707 135h10l100 361h-205zM1661 135h10l94 361h-204zM1180 1339l-86 -295h180l-84 295h-10z" />
    <glyph glyph-name="sheqel" unicode="&#x20aa;" horiz-adv-x="1343" 
d="M514 297l-70 438h109l65 -401q18 -111 72.5 -162t161.5 -51h201v973h123v-1094h-326q-150 0 -230.5 73t-105.5 224zM762 379v377q0 115 -56.5 166t-175.5 51h-239v-973h-121v1094h371q166 0 245.5 -74t79.5 -238v-403h-104z" />
    <glyph glyph-name="Euro" unicode="&#x20ac;" horiz-adv-x="1554" 
d="M1423 1223l-108 -78q-87 126 -179.5 185t-228.5 59q-150 0 -264.5 -108t-165.5 -286h574v-118h-598q-11 -79 -11 -129v-3q0 -47 7 -112h602v-121h-580q50 -188 172 -299t287 -111q126 0 218 65.5t177 192.5l102 -71q-95 -149 -214.5 -231.5t-286.5 -82.5
q-222 0 -384.5 147.5t-215.5 389.5h-193v121h172q-4 23 -4 110v2q0 69 8 132h-176v118h199q65 232 218.5 376.5t360.5 144.5q121 0 220 -40t165 -101t127 -152z" />
    <glyph glyph-name="peso" unicode="&#x20b1;" horiz-adv-x="1550" 
d="M297 0v956h-207v107h207v428h422q238 0 387 -114.5t166 -313.5h209v-107h-209q-10 -106 -60.5 -191t-129.5 -138.5t-179 -82t-213 -28.5h-250v-516h-143zM438 641h258q186 0 304 87.5t130 232.5h-692v-320zM438 1364v-305h692q-17 150 -128 227.5t-297 77.5h-267z" />
    <glyph glyph-name="hryvnia" unicode="&#x20b4;" horiz-adv-x="1370" 
d="M141 922l13 94l671 -82q94 75 131.5 131t36.5 119q0 97 -74.5 151t-199.5 54q-95 0 -196 -39t-191 -115l-80 102q94 80 217.5 129.5t257.5 49.5q196 0 307 -93.5t111 -236.5q0 -78 -36 -140.5t-114 -132.5l285 -32l-14 -95l-375 45l-225 -180l571 -67l-12 -95l-666 80
q-106 -86 -144 -142.5t-38 -117.5q0 -104 78.5 -156.5t208.5 -52.5q214 0 421 158l80 -104q-239 -179 -508 -179q-215 0 -323.5 92t-108.5 236q0 72 39 140.5t125 146.5l-291 35l15 94l379 -45l227 178z" />
    <glyph glyph-name="numero" unicode="&#x2116;" horiz-adv-x="2410" 
d="M195 0v1491h129l815 -1223v1223h131v-1491h-111l-833 1251v-1251h-131zM1892 610q-165 0 -270.5 125.5t-105.5 311.5v12q0 186 107 312t273 126q165 0 271 -125.5t106 -310.5v-12q0 -186 -107.5 -312.5t-273.5 -126.5zM1894 715q115 0 190 97t75 235v12
q0 143 -74.5 238.5t-190.5 95.5q-115 0 -188.5 -97t-73.5 -235v-12q0 -143 73 -238.5t189 -95.5zM1522 311v103h745v-103h-745z" />
    <glyph glyph-name="published" unicode="&#x2117;" horiz-adv-x="1787" 
d="M893 -25q-213 0 -390.5 103.5t-278.5 279.5t-101 383v4q0 155 60.5 297t163.5 246t247 166t303 62q212 0 389 -103.5t278 -279.5t101 -383v-5q0 -207 -101.5 -384t-279.5 -281.5t-391 -104.5zM893 39q196 0 358.5 96t254 257.5t91.5 352.5v5q0 191 -91 352t-252 255.5
t-357 94.5q-148 0 -280 -56.5t-225 -152t-147.5 -225.5t-54.5 -273v-4q0 -143 54 -272.5t146.5 -224t224 -150t278.5 -55.5zM637 369v786h305q141 0 223 -66t82 -186v-4q0 -126 -91 -193t-228 -67h-185v-270h-106zM743 735h187q97 0 153 42.5t56 117.5v6q0 76 -54.5 116
t-150.5 40h-191v-322z" />
    <glyph glyph-name="servicemark" unicode="&#x2120;" horiz-adv-x="1527" 
d="M760 836v655h90l244 -373l243 373h88v-655h-84v512l-243 -367h-11l-243 367v-512h-84zM360 823q-158 0 -280 107l53 63q101 -94 232 -94q65 0 106 31.5t41 79.5q0 45 -36.5 70t-135.5 48q-120 26 -174.5 67t-54.5 122q0 79 65.5 131.5t165.5 52.5q139 0 240 -82l-50 -61
q-88 67 -192 67q-65 0 -104 -28.5t-39 -73.5q0 -44 36.5 -70.5t139.5 -50.5q115 -24 170 -67.5t55 -118.5q0 -86 -68 -139.5t-170 -53.5z" />
    <glyph glyph-name="trademark" unicode="&#x2122;" horiz-adv-x="1490" 
d="M723 836v655h90l244 -373l243 373h89v-655h-84v512l-244 -367h-10l-244 367v-512h-84zM279 836v573h-213v82h509v-82h-210v-573h-86z" />
    <glyph glyph-name="Omega" unicode="&#x2126;" horiz-adv-x="1869" 
d="M936 1516q163 0 301 -54.5t233.5 -149.5t149 -226.5t53.5 -282.5v-2q0 -208 -101 -372t-300 -304l452 4v-129h-634v121q104 69 177.5 133t135 145.5t91.5 180t30 215.5v2q0 260 -163.5 424.5t-426.5 164.5q-262 0 -425 -164.5t-163 -424.5v-2q0 -112 30 -209.5
t89.5 -179.5t135.5 -150t179 -135v-121h-635v129l451 -4q-198 140 -298.5 303t-100.5 375v2q0 147 53 277t147.5 226t234 152t304.5 56z" />
    <glyph glyph-name="onethird" unicode="&#x2153;" horiz-adv-x="1775" 
d="M1358 -20q-188 0 -309 151l67 66q104 -129 244 -129q75 0 127.5 45t52.5 116q0 76 -63 118t-164 42h-66l-18 62l274 280h-409v92h534v-80l-266 -272q123 -8 200.5 -70.5t77.5 -171.5q0 -108 -82 -178.5t-200 -70.5zM446 668h-98v733l-186 -70l-25 86l230 88h79v-837z
M256 0l526 762l488 729h104l-526 -762l-488 -729h-104z" />
    <glyph glyph-name="twothirds" unicode="&#x2154;" horiz-adv-x="1935" 
d="M1518 -20q-189 0 -310 151l68 66q104 -129 244 -129q75 0 127.5 45t52.5 116q0 76 -63 118t-164 42h-66l-18 62l274 280h-410v92h535v-80l-266 -272q123 -8 200.5 -70.5t77.5 -171.5q0 -108 -82 -178.5t-200 -70.5zM119 668v84l313 272q90 79 128 133t38 115
q0 66 -47 108.5t-119 42.5q-68 0 -122 -36t-105 -111l-74 49q58 92 130 139t177 47q112 0 186 -67t74 -166q0 -84 -43 -147t-151 -158l-250 -213h453v-92h-588zM410 0l526 762l487 729h105l-527 -762l-487 -729h-104z" />
    <glyph glyph-name="onefifth" unicode="&#x2155;" horiz-adv-x="1775" 
d="M1356 -20q-172 0 -301 139l65 69q111 -120 238 -120q90 0 145.5 51.5t55.5 126.5q0 77 -56 122.5t-145 45.5q-92 0 -187 -45l-65 39l29 415h487v-96h-405l-19 -258q78 35 172 35q124 0 207.5 -68.5t83.5 -183.5q0 -121 -87.5 -196.5t-217.5 -75.5zM446 668h-98v733
l-186 -70l-25 86l230 88h79v-837zM266 0l527 762l487 729h104l-526 -762l-487 -729h-105z" />
    <glyph glyph-name="twofifths" unicode="&#x2156;" horiz-adv-x="1935" 
d="M1516 -20q-173 0 -302 139l66 69q111 -120 238 -120q90 0 145 51t55 127q0 77 -55.5 122.5t-144.5 45.5q-92 0 -187 -45l-65 39l28 415h488v-96h-406l-18 -258q78 35 172 35q124 0 207.5 -68.5t83.5 -183.5q0 -121 -87.5 -196.5t-217.5 -75.5zM430 0l526 762l488 729h104
l-526 -762l-487 -729h-105zM119 668v84l313 272q90 79 128 133t38 115q0 66 -47 108.5t-119 42.5q-68 0 -122 -36t-105 -111l-74 49q58 92 130 139t177 47q112 0 186 -67t74 -166q0 -84 -43 -147t-151 -158l-250 -213h453v-92h-588z" />
    <glyph glyph-name="threefifths" unicode="&#x2157;" horiz-adv-x="1935" 
d="M1516 -20q-173 0 -302 139l66 69q111 -120 238 -120q90 0 145 51t55 127q0 77 -55.5 122.5t-144.5 45.5q-92 0 -187 -45l-65 39l28 415h488v-96h-406l-18 -258q78 35 172 35q124 0 207.5 -68.5t83.5 -183.5q0 -121 -87.5 -196.5t-217.5 -75.5zM399 0l527 762l487 729h105
l-527 -762l-487 -729h-105zM414 647q-188 0 -310 152l68 65q102 -129 244 -129q75 0 127.5 45.5t52.5 116.5q0 76 -63 118t-164 42h-66l-18 61l274 281h-409v92h534v-80l-266 -272q123 -8 200.5 -70.5t77.5 -171.5q0 -108 -82 -179t-200 -71z" />
    <glyph glyph-name="fourfifths" unicode="&#x2158;" horiz-adv-x="1935" 
d="M627 854v-190h-92v190h-406l-25 84l412 565h111v-565h114v-84h-114zM535 938v442l-326 -442h326zM1516 -20q-173 0 -302 139l66 69q111 -120 238 -120q90 0 145 51t55 127q0 77 -55.5 122.5t-144.5 45.5q-92 0 -187 -45l-65 39l28 415h488v-96h-406l-18 -258
q78 35 172 35q124 0 207.5 -68.5t83.5 -183.5q0 -121 -87.5 -196.5t-217.5 -75.5zM430 0l526 762l488 729h104l-526 -762l-487 -729h-105z" />
    <glyph glyph-name="onesixth" unicode="&#x2159;" horiz-adv-x="1775" 
d="M1360 -20q-126 0 -205 79q-100 100 -100 322v4q0 203 93 331t241 128q76 0 130.5 -24.5t104.5 -74.5l-57 -71q-85 82 -183 82q-93 0 -162 -97t-69 -241q42 51 93.5 78.5t129.5 27.5q113 0 191 -72.5t78 -191.5q0 -118 -83 -199t-202 -81zM1356 68q87 0 139.5 51t52.5 137
q0 85 -49 134.5t-135 49.5t-141.5 -52t-55.5 -132v-2q0 -80 55.5 -133t133.5 -53zM446 668h-98v733l-186 -70l-25 86l230 88h79v-837zM283 0l526 762l487 729h105l-527 -762l-487 -729h-104z" />
    <glyph glyph-name="fivesixths" unicode="&#x215a;" horiz-adv-x="1935" 
d="M1520 -20q-126 0 -205 79q-101 101 -101 322v4q0 203 93 331t241 128q76 0 131 -24.5t105 -74.5l-58 -71q-85 82 -182 82q-93 0 -162 -97t-69 -241q42 51 93.5 78.5t129.5 27.5q113 0 190.5 -72.5t77.5 -191.5q0 -118 -82.5 -199t-201.5 -81zM1516 68q87 0 139.5 51
t52.5 137q0 85 -49 134.5t-135 49.5t-141.5 -52t-55.5 -132v-2q0 -80 55.5 -133t133.5 -53zM410 0l526 762l487 729h105l-527 -762l-487 -729h-104zM412 647q-172 0 -301 139l65 70q112 -121 238 -121q90 0 145 51t55 127q0 77 -55.5 122.5t-144.5 45.5q-92 0 -187 -45
l-65 39l28 416h488v-96h-406l-18 -258q75 34 172 34q124 0 207.5 -68t83.5 -183q0 -121 -87.5 -197t-217.5 -76z" />
    <glyph glyph-name="oneeighth" unicode="&#x215b;" horiz-adv-x="1775" 
d="M1362 -20q-132 0 -216.5 65.5t-84.5 173.5q0 139 156 207q-132 64 -132 190q0 101 81.5 164.5t199.5 63.5q113 0 194.5 -65t81.5 -163q0 -128 -131 -190q71 -31 113.5 -82.5t42.5 -120.5q0 -109 -85.5 -176t-219.5 -67zM1364 760q-82 0 -133 -41t-51 -107t52 -108.5
t132 -42.5t132 42.5t52 108.5t-52 107t-132 41zM1364 383q-93 0 -151 -46t-58 -116t57 -114t152 -44q93 0 150 44t57 114t-57.5 116t-149.5 46zM446 668h-98v733l-186 -70l-25 86l230 88h79v-837zM281 0l526 762l487 729h105l-527 -762l-487 -729h-104z" />
    <glyph glyph-name="threeeighths" unicode="&#x215c;" horiz-adv-x="1935" 
d="M1522 -20q-132 0 -216.5 65.5t-84.5 173.5q0 140 155 207q-131 64 -131 190q0 101 81.5 164.5t199.5 63.5q113 0 194.5 -65t81.5 -163q0 -128 -131 -190q71 -31 113.5 -82.5t42.5 -120.5q0 -109 -85.5 -176t-219.5 -67zM1524 760q-82 0 -133.5 -41t-51.5 -107
t52.5 -108.5t132.5 -42.5t132 42.5t52 108.5t-52 107t-132 41zM1524 383q-93 0 -151 -46t-58 -116t57 -114t152 -44q93 0 150 44t57 114t-57.5 116t-149.5 46zM410 0l526 762l487 729h105l-527 -762l-487 -729h-104zM414 647q-188 0 -310 152l68 65q102 -129 244 -129
q75 0 127.5 45.5t52.5 116.5q0 76 -63 118t-164 42h-66l-18 61l274 281h-409v92h534v-80l-266 -272q123 -8 200.5 -70.5t77.5 -171.5q0 -108 -82 -179t-200 -71z" />
    <glyph glyph-name="fiveeighths" unicode="&#x215d;" horiz-adv-x="1935" 
d="M1522 -20q-132 0 -216.5 65.5t-84.5 173.5q0 140 155 207q-131 64 -131 190q0 101 81.5 164.5t199.5 63.5q113 0 194.5 -65t81.5 -163q0 -128 -131 -190q71 -31 113.5 -82.5t42.5 -120.5q0 -109 -85.5 -176t-219.5 -67zM1524 760q-82 0 -133.5 -41t-51.5 -107
t52.5 -108.5t132.5 -42.5t132 42.5t52 108.5t-52 107t-132 41zM1524 383q-93 0 -151 -46t-58 -116t57 -114t152 -44q93 0 150 44t57 114t-57.5 116t-149.5 46zM410 0l526 762l487 729h105l-527 -762l-487 -729h-104zM412 647q-172 0 -301 139l65 70q112 -121 238 -121
q90 0 145 51t55 127q0 77 -55.5 122.5t-144.5 45.5q-92 0 -187 -45l-65 39l28 416h488v-96h-406l-18 -258q75 34 172 34q124 0 207.5 -68t83.5 -183q0 -121 -87.5 -197t-217.5 -76z" />
    <glyph glyph-name="seveneighths" unicode="&#x215e;" horiz-adv-x="1935" 
d="M1522 -20q-132 0 -216.5 65.5t-84.5 173.5q0 140 155 207q-131 64 -131 190q0 101 81.5 164.5t199.5 63.5q113 0 194.5 -65t81.5 -163q0 -128 -131 -190q71 -31 113.5 -82.5t42.5 -120.5q0 -109 -85.5 -176t-219.5 -67zM1524 760q-82 0 -133.5 -41t-51.5 -107
t52.5 -108.5t132.5 -42.5t132 42.5t52 108.5t-52 107t-132 41zM1524 383q-93 0 -151 -46t-58 -116t57 -114t152 -44q93 0 150 44t57 114t-57.5 116t-149.5 46zM354 664h-112l370 731h-454v96h569v-74zM346 0l526 762l488 729h104l-526 -762l-487 -729h-105z" />
    <glyph glyph-name="Delta" unicode="&#x2206;" horiz-adv-x="1701" 
d="M127 0l-12 106l665 1395h142l665 -1395l-12 -106h-1448zM848 1341l-572 -1210h1141z" />
    <glyph glyph-name="minus" unicode="&#x2212;" horiz-adv-x="1347" 
d="M1192 682h-1036v135h1036v-135z" />
    <glyph glyph-name="NUL" horiz-adv-x="0" 
 />
    <glyph glyph-name="CR" horiz-adv-x="659" 
 />
    <glyph glyph-name="Q.alt" horiz-adv-x="1830" 
d="M1548 -215l-291 268q-159 -78 -344 -78q-133 0 -252 40t-209.5 111.5t-156.5 167.5t-100.5 210.5t-34.5 236.5v4q0 153 55.5 293.5t153 246t240.5 168.5t309 63q133 0 252 -40t209.5 -111.5t156.5 -167.5t100.5 -210.5t34.5 -236.5v-5q0 -180 -73.5 -338.5t-206.5 -267.5
l368 -348v-6h-211zM918 104q129 0 242.5 50.5t192 136t124 202.5t45.5 248v4q0 175 -78 321.5t-218.5 233t-312.5 86.5t-311.5 -85.5t-216 -230.5t-76.5 -320v-5q0 -175 78 -321.5t218.5 -233t312.5 -86.5z" />
    <glyph glyph-name="a.alt" horiz-adv-x="1431" 
d="M659 -25q-99 0 -193 39.5t-168.5 111t-119.5 180.5t-45 237v4q0 105 29.5 197.5t80.5 160t117.5 117t143 74t155.5 24.5q268 0 435 -248v222h137v-1094h-137v231q-172 -256 -435 -256zM682 102q79 0 154.5 32.5t134 89.5t94 141t35.5 180v4q0 129 -61 232.5t-155.5 157.5
t-201.5 54q-173 0 -289.5 -120.5t-116.5 -321.5v-4q0 -197 118.5 -321t287.5 -124z" />
    <glyph glyph-name="uni039E.alt" horiz-adv-x="1611" 
d="M1470 131v-131h-1329v131h594v555h-524v131h524v543h-583v131h1306v-131h-581v-543h524v-131h-524v-555h593z" />
    <glyph glyph-name="uni0424.bgr" horiz-adv-x="1984" 
d="M920 -213v211q-167 6 -309.5 65t-241 157t-154 232.5t-55.5 288.5v4q0 149 55.5 283.5t153.5 235t241 162t310 67.5v211h143v-211q168 -6 311 -66t241.5 -159t154 -233t55.5 -285v-5q0 -151 -56 -285.5t-154.5 -234.5t-241.5 -160.5t-310 -66.5v-211h-143zM307 750v-5
q0 -173 79.5 -312t219.5 -219.5t316 -88.5v1241q-270 -12 -442.5 -185t-172.5 -431zM1677 741v4q0 257 -174 432t-440 187v-1239q269 12 441.5 184t172.5 432z" />
    <glyph glyph-name="uni0432.bgr" horiz-adv-x="1380" 
d="M180 530v504q0 250 139 392.5t379 142.5q223 0 355.5 -113.5t132.5 -296.5v-2q0 -149 -89.5 -244.5t-246.5 -128.5q91 -19 160 -48.5t125.5 -75t86 -113.5t29.5 -156v-2q0 -84 -35 -159t-100 -132t-165.5 -90t-223.5 -33q-261 0 -404 137t-143 418zM573 719h-258v-189
q0 -212 100.5 -322t315.5 -110q174 0 275.5 85t101.5 216q0 152 -132.5 236t-402.5 84zM315 1034v-203h256q220 0 345.5 86.5t125.5 239.5q0 128 -93.5 208.5t-250.5 80.5q-180 0 -281.5 -110t-101.5 -302z" />
    <glyph glyph-name="uni0433.bgr" horiz-adv-x="1101" 
d="M510 -20q-179 0 -277 76t-98 212v4q0 65 23.5 115.5t75 90.5t119 70.5t167.5 63.5q131 44 197.5 78t89 65.5t22.5 78.5v4q0 71 -54 114t-169 43q-189 0 -370 -116l-66 106q209 131 438 131q172 0 265.5 -77.5t93.5 -204.5v-5q0 -120 -89 -188t-305 -139
q-165 -52 -233 -100.5t-68 -127.5v-4q0 -89 62.5 -129.5t183.5 -40.5q98 0 205 37.5t201 104.5l67 -103q-230 -159 -481 -159z" />
    <glyph glyph-name="uni0434.bgr" horiz-adv-x="1431" 
d="M682 -344q-272 0 -500 158l70 108q198 -145 432 -145q188 0 299 104.5t111 300.5v142q-170 -242 -441 -242q-99 0 -192.5 36.5t-166.5 102t-117 164t-44 213.5v4q0 116 44.5 215t117.5 164.5t166 102t192 36.5q260 0 441 -233v207h137v-912q0 -242 -139 -381
q-145 -145 -410 -145zM676 209q108 0 204.5 48t158 139.5t61.5 203.5v4q0 114 -61.5 204.5t-157.5 137.5t-205 47q-169 0 -284.5 -107t-115.5 -282v-4q0 -169 118 -280t282 -111z" />
    <glyph glyph-name="uni0436.bgr" horiz-adv-x="1855" 
d="M995 1554v-940h199l414 480h170l-473 -539l487 -555h-170l-426 492h-201v-492h-135v492h-207l-422 -492h-170l488 553l-471 541h170l411 -480h201v940h135z" />
    <glyph glyph-name="uni0438.bgr" horiz-adv-x="1329" 
d="M608 -25q-199 0 -313.5 122.5t-114.5 322.5v674h137v-643q0 -161 86 -256t238 -95q151 0 250.5 102.5t99.5 262.5v629h137v-1094h-137v197q-130 -222 -383 -222z" />
    <glyph glyph-name="uni0439.bgr" horiz-adv-x="1329" 
d="M608 -25q-199 0 -313.5 122.5t-114.5 322.5v674h137v-643q0 -161 86 -256t238 -95q151 0 250.5 102.5t99.5 262.5v629h137v-1094h-137v197q-130 -222 -383 -222zM653 1264q-129 0 -210 67t-91 187h103q46 -136 198 -136q153 0 199 136h102q-10 -120 -91 -187t-210 -67z
" />
    <glyph glyph-name="uni043A.bgr" horiz-adv-x="1226" 
d="M338 1554v-940h219l428 480h172l-485 -535l497 -559h-176l-430 492h-225v-492h-137v1554h137z" />
    <glyph glyph-name="uni043F.bgr" horiz-adv-x="1329" 
d="M201 0v1094h137v-195q129 221 383 221q199 0 313.5 -122.5t114.5 -321.5v-676h-137v643q0 162 -85.5 256t-238.5 94q-151 0 -250.5 -102t-99.5 -262v-629h-137z" />
    <glyph glyph-name="uni0442.bgr" horiz-adv-x="2045" 
d="M201 0v1094h137v-189q31 47 60.5 80.5t72 67t99.5 50.5t126 17q129 0 220 -63t139 -164q143 227 389 227q191 0 302.5 -121.5t111.5 -326.5v-672h-138v643q0 166 -79.5 258t-221.5 92q-136 0 -228.5 -97.5t-92.5 -262.5v-633h-137v649q0 161 -79.5 252.5t-219.5 91.5
q-137 0 -230.5 -104.5t-93.5 -259.5v-629h-137z" />
    <glyph glyph-name="uni0446.bgr" horiz-adv-x="1357" 
d="M608 -25q-199 0 -313.5 122.5t-114.5 322.5v674h137v-643q0 -161 86 -256t238 -95q151 0 250.5 102.5t99.5 262.5v629h137v-969h132v-418h-130v293h-139v197q-130 -222 -383 -222z" />
    <glyph glyph-name="uni0448.bgr" horiz-adv-x="2045" 
d="M1845 1094v-1094h-137v188q-30 -47 -60.5 -81t-73 -66t-99.5 -49t-125 -17q-129 0 -220 63t-139 163q-142 -226 -391 -226q-190 0 -301 122t-111 327v670h138v-643q0 -167 79.5 -259t221.5 -92q136 0 228.5 97t92.5 264v633h137v-650q0 -161 79.5 -252.5t219.5 -91.5
q137 0 230.5 105.5t93.5 261.5v627h137z" />
    <glyph glyph-name="uni0449.bgr" horiz-adv-x="2074" 
d="M1847 -293v293h-139v188q-30 -47 -60.5 -81t-73 -66t-99.5 -49t-125 -17q-129 0 -220 63t-139 163q-142 -226 -391 -226q-190 0 -301 122t-111 327v670h138v-643q0 -167 79.5 -259t221.5 -92q136 0 228.5 97t92.5 264v633h137v-650q0 -161 79.5 -252.5t219.5 -91.5
q137 0 230.5 105.5t93.5 261.5v627h137v-969h131v-418h-129z" />
    <glyph glyph-name="uni044E.bgr" horiz-adv-x="1855" 
d="M1171 -25q-225 0 -378.5 147.5t-171.5 366.5h-283v-489h-137v1554h137v-938h285q25 215 177.5 359.5t375.5 144.5q157 0 284 -77.5t196.5 -207t69.5 -284.5v-4q0 -153 -70 -283.5t-198 -209.5t-287 -79zM1176 100q179 0 293 128.5t114 314.5v4q0 188 -117.5 318
t-294.5 130q-181 0 -295 -128t-114 -316v-4q0 -188 118 -317.5t296 -129.5z" />
    <glyph glyph-name="aacute.alt" horiz-adv-x="1431" 
d="M666 1268l194 297l152 -72l-236 -225h-110zM659 -25q-99 0 -193 39.5t-168.5 111t-119.5 180.5t-45 237v4q0 105 29.5 197.5t80.5 160t117.5 117t143 74t155.5 24.5q268 0 435 -248v222h137v-1094h-137v231q-172 -256 -435 -256zM682 102q79 0 154.5 32.5t134 89.5
t94 141t35.5 180v4q0 129 -61 232.5t-155.5 157.5t-201.5 54q-173 0 -289.5 -120.5t-116.5 -321.5v-4q0 -197 118.5 -321t287.5 -124z" />
    <glyph glyph-name="abreve.alt" horiz-adv-x="1431" 
d="M659 -25q-99 0 -193 39.5t-168.5 111t-119.5 180.5t-45 237v4q0 105 29.5 197.5t80.5 160t117.5 117t143 74t155.5 24.5q268 0 435 -248v222h137v-1094h-137v231q-172 -256 -435 -256zM682 102q79 0 154.5 32.5t134 89.5t94 141t35.5 180v4q0 129 -61 232.5t-155.5 157.5
t-201.5 54q-173 0 -289.5 -120.5t-116.5 -321.5v-4q0 -197 118.5 -321t287.5 -124zM721 1264q-129 0 -210 67t-91 187h102q46 -136 199 -136t199 136h102q-10 -120 -91 -187t-210 -67z" />
    <glyph glyph-name="acircumflex.alt" horiz-adv-x="1431" 
d="M442 1268l220 270h118l221 -270h-122l-160 143l-160 -143h-117zM659 -25q-99 0 -193 39.5t-168.5 111t-119.5 180.5t-45 237v4q0 105 29.5 197.5t80.5 160t117.5 117t143 74t155.5 24.5q268 0 435 -248v222h137v-1094h-137v231q-172 -256 -435 -256zM682 102
q79 0 154.5 32.5t134 89.5t94 141t35.5 180v4q0 129 -61 232.5t-155.5 157.5t-201.5 54q-173 0 -289.5 -120.5t-116.5 -321.5v-4q0 -197 118.5 -321t287.5 -124z" />
    <glyph glyph-name="adieresis.alt" horiz-adv-x="1431" 
d="M815 1268v188h172v-188h-172zM455 1268v188h172v-188h-172zM659 -25q-99 0 -193 39.5t-168.5 111t-119.5 180.5t-45 237v4q0 105 29.5 197.5t80.5 160t117.5 117t143 74t155.5 24.5q268 0 435 -248v222h137v-1094h-137v231q-172 -256 -435 -256zM682 102q79 0 154.5 32.5
t134 89.5t94 141t35.5 180v4q0 129 -61 232.5t-155.5 157.5t-201.5 54q-173 0 -289.5 -120.5t-116.5 -321.5v-4q0 -197 118.5 -321t287.5 -124z" />
    <glyph glyph-name="agrave.alt" horiz-adv-x="1431" 
d="M659 -25q-99 0 -193 39.5t-168.5 111t-119.5 180.5t-45 237v4q0 105 29.5 197.5t80.5 160t117.5 117t143 74t155.5 24.5q268 0 435 -248v222h137v-1094h-137v231q-172 -256 -435 -256zM682 102q79 0 154.5 32.5t134 89.5t94 141t35.5 180v4q0 129 -61 232.5t-155.5 157.5
t-201.5 54q-173 0 -289.5 -120.5t-116.5 -321.5v-4q0 -197 118.5 -321t287.5 -124zM668 1268l-236 225l152 72l194 -297h-110z" />
    <glyph glyph-name="amacron.alt" horiz-adv-x="1431" 
d="M659 -25q-99 0 -193 39.5t-168.5 111t-119.5 180.5t-45 237v4q0 105 29.5 197.5t80.5 160t117.5 117t143 74t155.5 24.5q268 0 435 -248v222h137v-1094h-137v231q-172 -256 -435 -256zM682 102q79 0 154.5 32.5t134 89.5t94 141t35.5 180v4q0 129 -61 232.5t-155.5 157.5
t-201.5 54q-173 0 -289.5 -120.5t-116.5 -321.5v-4q0 -197 118.5 -321t287.5 -124zM397 1317v117h647v-117h-647z" />
    <glyph glyph-name="aogonek.alt" horiz-adv-x="1431" 
d="M1262 -262v-88h-15q-132 4 -201 49.5t-69 120.5q0 52 28.5 96t88.5 94v2v219q-172 -256 -435 -256q-99 0 -193 39.5t-168.5 111t-119.5 180.5t-45 237v4q0 105 29.5 197.5t80.5 160t117.5 117t143 74t155.5 24.5q268 0 435 -248v222h137v-1094h-19q-60 -49 -85 -85
t-25 -77q0 -45 37.5 -69.5t122.5 -30.5zM682 102q79 0 154.5 32.5t134 89.5t94 141t35.5 180v4q0 129 -61 232.5t-155.5 157.5t-201.5 54q-173 0 -289.5 -120.5t-116.5 -321.5v-4q0 -197 118.5 -321t287.5 -124z" />
    <glyph glyph-name="aring.alt" horiz-adv-x="1431" 
d="M721 1264q-93 0 -160 64t-67 153q0 90 67 154.5t160 64.5t160 -64.5t67 -154.5q0 -89 -67 -153t-160 -64zM721 1333q60 0 103.5 44t43.5 104q0 61 -43.5 105t-103.5 44t-104 -44t-44 -105q0 -60 44 -104t104 -44zM659 -25q-99 0 -193 39.5t-168.5 111t-119.5 180.5
t-45 237v4q0 105 29.5 197.5t80.5 160t117.5 117t143 74t155.5 24.5q268 0 435 -248v222h137v-1094h-137v231q-172 -256 -435 -256zM682 102q79 0 154.5 32.5t134 89.5t94 141t35.5 180v4q0 129 -61 232.5t-155.5 157.5t-201.5 54q-173 0 -289.5 -120.5t-116.5 -321.5v-4
q0 -197 118.5 -321t287.5 -124z" />
    <glyph glyph-name="aring.alt2" horiz-adv-x="1249" 
d="M530 -25q-78 0 -151.5 22.5t-132.5 64t-95 108t-36 147.5v5q0 168 129.5 261t343.5 93q194 0 346 -47v43q0 154 -88.5 234.5t-251.5 80.5q-160 0 -338 -84l-43 115q144 67 262 84q-78 65 -78 158q0 90 67.5 153.5t160.5 63.5t160 -63.5t67 -153.5q0 -104 -88 -166
q106 -24 192 -103q113 -116 113 -315v-676h-135v172q-147 -197 -404 -197zM549 92q163 0 276 88.5t113 225.5v114q-180 47 -346 47q-160 0 -248 -63.5t-88 -173.5v-6q0 -106 85.5 -169t207.5 -63zM477 1260q0 -60 44 -104t104 -44t103.5 44t43.5 104t-43.5 103.5
t-103.5 43.5t-104 -43.5t-44 -103.5z" />
    <glyph glyph-name="aringacute.alt" horiz-adv-x="1431" 
d="M721 1264q-93 0 -160 64t-67 153q0 90 67 154.5t160 64.5t160 -64.5t67 -154.5q0 -89 -67 -153t-160 -64zM721 1333q60 0 103.5 44t43.5 104q0 61 -43.5 105t-103.5 44t-104 -44t-44 -105q0 -60 44 -104t104 -44zM659 -25q-99 0 -193 39.5t-168.5 111t-119.5 180.5
t-45 237v4q0 105 29.5 197.5t80.5 160t117.5 117t143 74t155.5 24.5q268 0 435 -248v222h137v-1094h-137v231q-172 -256 -435 -256zM682 102q79 0 154.5 32.5t134 89.5t94 141t35.5 180v4q0 129 -61 232.5t-155.5 157.5t-201.5 54q-173 0 -289.5 -120.5t-116.5 -321.5v-4
q0 -197 118.5 -321t287.5 -124zM662 1759l198 260l150 -71l-232 -189h-116z" />
    <glyph glyph-name="aringacute.alt2" horiz-adv-x="1249" 
d="M530 -25q-78 0 -151.5 22.5t-132.5 64t-95 108t-36 147.5v5q0 168 129.5 261t343.5 93q194 0 346 -47v43q0 154 -88.5 234.5t-251.5 80.5q-160 0 -338 -84l-43 115q144 67 262 84q-78 65 -78 158q0 90 67.5 153.5t160.5 63.5t160 -63.5t67 -153.5q0 -104 -88 -166
q106 -24 192 -103q113 -116 113 -315v-676h-135v172q-147 -197 -404 -197zM549 92q163 0 276 88.5t113 225.5v114q-180 47 -346 47q-160 0 -248 -63.5t-88 -173.5v-6q0 -106 85.5 -169t207.5 -63zM477 1260q0 -60 44 -104t104 -44t103.5 44t43.5 104t-43.5 103.5
t-103.5 43.5t-104 -43.5t-44 -103.5zM565 1556l199 261l149 -72l-231 -189h-117z" />
    <glyph glyph-name="atilde.alt" horiz-adv-x="1431" 
d="M659 -25q-99 0 -193 39.5t-168.5 111t-119.5 180.5t-45 237v4q0 105 29.5 197.5t80.5 160t117.5 117t143 74t155.5 24.5q268 0 435 -248v222h137v-1094h-137v231q-172 -256 -435 -256zM682 102q79 0 154.5 32.5t134 89.5t94 141t35.5 180v4q0 129 -61 232.5t-155.5 157.5
t-201.5 54q-173 0 -289.5 -120.5t-116.5 -321.5v-4q0 -197 118.5 -321t287.5 -124zM870 1268q-8 0 -15.5 0.5t-16 2.5t-14.5 3t-16 4.5t-15 5t-17 6.5t-16 6.5t-17.5 7t-17.5 7.5q-88 43 -133 43q-40 0 -62.5 -22.5t-46.5 -84.5l-88 25q30 117 75 165t118 48q8 0 15.5 -0.5
t16 -2.5t14.5 -3t16 -4.5t15 -5t17 -6.5t16 -6.5t17.5 -7t17.5 -7.5q88 -43 133 -43q41 0 63 21.5t46 82.5l88 -22q-30 -117 -75 -165t-118 -48z" />
    <glyph glyph-name="i.dot" horiz-adv-x="567" 
d="M203 1354v166h162v-166h-162zM215 0v1094h137v-1094h-137z" />
    <glyph glyph-name="uni0386.calt" horiz-adv-x="1703" 
d="M98 0l686 1501h136l686 -1501h-156l-180 406h-842l-182 -406h-148zM485 535h727l-362 804z" />
    <glyph glyph-name="uni0388.calt" horiz-adv-x="1447" 
d="M225 0v1491h1071v-131h-927v-543h831v-131h-831v-555h938v-131h-1082z" />
    <glyph glyph-name="uni0389.calt" horiz-adv-x="1638" 
d="M225 0v1491h144v-676h901v676h143v-1491h-143v684h-901v-684h-144z" />
    <glyph glyph-name="uni038A.calt" horiz-adv-x="624" 
d="M240 0v1491h143v-1491h-143z" />
    <glyph glyph-name="uni038C.calt" horiz-adv-x="1830" 
d="M913 -25q-133 0 -252 40t-209.5 111.5t-156.5 167.5t-100.5 210.5t-34.5 236.5v4q0 153 55.5 293.5t153 246t240.5 168.5t309 63q133 0 252 -40t209.5 -111.5t156.5 -167.5t100.5 -210.5t34.5 -236.5v-5q0 -153 -55.5 -293t-153 -245.5t-240.5 -168.5t-309 -63zM918 104
q129 0 242.5 50.5t192 136t124 202.5t45.5 248v4q0 175 -78 321.5t-218.5 233t-312.5 86.5t-311.5 -85.5t-216 -230.5t-76.5 -320v-5q0 -175 78 -321.5t218.5 -233t312.5 -86.5z" />
    <glyph glyph-name="uni038E.calt" horiz-adv-x="1546" 
d="M700 0v590l-628 901h176l526 -770l531 770h168l-629 -899v-592h-144z" />
    <glyph glyph-name="uni038F.calt" horiz-adv-x="1869" 
d="M936 1516q163 0 301 -54.5t233.5 -149.5t149 -226.5t53.5 -282.5v-2q0 -208 -101 -372t-300 -304l452 4v-129h-634v121q104 69 177.5 133t135 145.5t91.5 180t30 215.5v2q0 260 -163.5 424.5t-426.5 164.5q-262 0 -425 -164.5t-163 -424.5v-2q0 -112 30 -209.5
t89.5 -179.5t135.5 -150t179 -135v-121h-635v129l451 -4q-198 140 -298.5 303t-100.5 375v2q0 147 53 277t147.5 226t234 152t304.5 56z" />
    </font>
</defs>
</svg>
