<?xml version="1.0" standalone="no"?>
<!DOCTYPE svg PUBLIC "-//W3C//DTD SVG 1.1//EN" "http://www.w3.org/Graphics/SVG/1.1/DTD/svg11.dtd" >
<svg xmlns="http://www.w3.org/2000/svg" xmlns:xlink="http://www.w3.org/1999/xlink" version="1.1">
<metadata>
Created by FontForge 20201107 at Mon Apr  7 19:28:50 2025
 By 
Copyright (C) 2001, 2010 Hoefler &#38; Co. http://www.typography.com |DCNT
</metadata>
<defs>
<font id="GothamSSm-LightItalic" horiz-adv-x="860" >
  <font-face 
    font-family="GothamSSm Light"
    font-weight="300"
    font-style="italic"
    font-stretch="normal"
    units-per-em="2048"
    panose-1="0 0 0 0 0 0 0 0 0 0"
    ascent="1638"
    descent="-410"
    x-height="1094"
    cap-height="1491"
    bbox="-643 -500 2556 2109"
    underline-thickness="102"
    underline-position="-204"
    slope="-15"
    unicode-range="U+0020-FB04"
  />
<missing-glyph horiz-adv-x="1024" 
d="M0 -410v2048h1024v-2048h-1024zM102 -156l353 770l-353 770v-1540zM145 -307h734l-367 799zM512 737l367 799h-734zM922 -156v1540l-353 -770z" />
    <glyph glyph-name="f_f" unicode="ff" horiz-adv-x="1597" 
d="M119 0l262 971h-156l35 123h154l37 141q39 148 120 227q91 94 244 94q130 0 219 -47l-33 -120q-97 47 -186 47q-174 0 -233 -224l-33 -118h375l-33 -123h-373l-262 -971h-137zM905 0l262 971h-155l35 123h153l37 141q38 147 121 227q91 94 244 94q130 0 219 -47l-33 -120
q-97 47 -186 47q-175 0 -234 -224l-33 -118h375l-33 -123h-372l-263 -971h-137z" />
    <glyph glyph-name="fi" unicode="fi" horiz-adv-x="1359" 
d="M858 0l293 1094h137l-293 -1094h-137zM1210 1354l43 166h162l-43 -166h-162zM119 0l262 971h-156l35 123h154l37 141q39 148 120 227q91 94 244 94q130 0 219 -47l-33 -120q-97 47 -186 47q-174 0 -233 -224l-33 -118h375l-33 -123h-373l-262 -971h-137z" />
    <glyph glyph-name="fl" unicode="fl" horiz-adv-x="1359" 
d="M858 0l418 1554h137l-418 -1554h-137zM119 0l262 971h-156l35 123h154l37 141q39 148 120 227q91 94 244 94q130 0 219 -47l-33 -120q-97 47 -186 47q-174 0 -233 -224l-33 -118h375l-33 -123h-373l-262 -971h-137z" />
    <glyph glyph-name="f_f_i" unicode="ffi" horiz-adv-x="2146" 
d="M1645 0l292 1094h138l-293 -1094h-137zM1997 1354l43 166h162l-43 -166h-162zM119 0l262 971h-156l35 123h154l37 141q39 148 120 227q91 94 244 94q130 0 219 -47l-33 -120q-97 47 -186 47q-174 0 -233 -224l-33 -118h375l-33 -123h-373l-262 -971h-137zM905 0l262 971
h-155l35 123h153l37 141q38 147 121 227q91 94 244 94q130 0 219 -47l-33 -120q-97 47 -186 47q-175 0 -234 -224l-33 -118h375l-33 -123h-372l-263 -971h-137z" />
    <glyph glyph-name="f_f_l" unicode="ffl" horiz-adv-x="2146" 
d="M1645 0l417 1554h138l-418 -1554h-137zM119 0l262 971h-156l35 123h154l37 141q39 148 120 227q91 94 244 94q130 0 219 -47l-33 -120q-97 47 -186 47q-174 0 -233 -224l-33 -118h375l-33 -123h-373l-262 -971h-137zM905 0l262 971h-155l35 123h153l37 141
q38 147 121 227q91 94 244 94q130 0 219 -47l-33 -120q-97 47 -186 47q-175 0 -234 -224l-33 -118h375l-33 -123h-372l-263 -971h-137z" />
    <glyph glyph-name=".notdef" horiz-adv-x="1024" 
d="M0 -410v2048h1024v-2048h-1024zM102 -156l353 770l-353 770v-1540zM145 -307h734l-367 799zM512 737l367 799h-734zM922 -156v1540l-353 -770z" />
    <glyph glyph-name=".null" horiz-adv-x="0" 
 />
    <glyph glyph-name="nonmarkingreturn" horiz-adv-x="682" 
 />
    <glyph glyph-name="space" unicode=" " horiz-adv-x="651" 
 />
    <glyph glyph-name="exclam" unicode="!" horiz-adv-x="583" 
d="M215 408l213 950l35 133h162l-35 -133l-297 -950h-78zM59 0l56 205h170l-56 -205h-170z" />
    <glyph glyph-name="quotedbl" unicode="&#x22;" horiz-adv-x="935" 
d="M227 930l195 561h168v-10l-285 -551h-78zM631 930l194 561h168v-10l-284 -551h-78z" />
    <glyph glyph-name="numbersign" unicode="#" horiz-adv-x="1472" 
d="M190 0l134 387h-244l33 125h254l168 475h-271l33 125h281l131 379h129l-131 -379h421l132 379h129l-132 -379h244l-33 -125h-256l-165 -475h270l-33 -125h-280l-136 -387h-129l135 387h-421l-134 -387h-129zM498 512h420l165 475h-419z" />
    <glyph glyph-name="dollar" unicode="$" horiz-adv-x="1347" 
d="M915 1614h123l-41 -144q207 -41 363 -190l-98 -98q-131 128 -308 166l-147 -541q192 -70 278 -158t86 -221q0 -187 -153 -307.5t-397 -120.5h-33l-58 -209h-122l61 221q-294 46 -461 250l105 90q152 -178 399 -217l156 574q-203 76 -290 158t-87 214q0 116 66.5 210
t182.5 147t259 53q28 0 82 -4zM436 1096q0 -86 61.5 -142.5t209.5 -109.5l141 518q-12 0 -31 1t-31 1q-157 0 -253.5 -76.5t-96.5 -191.5zM1026 414q0 82 -57 140t-199 118l-149 -545h22q174 0 278.5 81t104.5 206z" />
    <glyph glyph-name="percent" unicode="%" horiz-adv-x="1792" 
d="M504 737q-130 0 -213.5 88t-83.5 219q0 99 38 190.5t105 158.5q114 114 264 114q132 0 215.5 -88t83.5 -219q0 -98 -38 -188.5t-105 -159.5q-115 -115 -266 -115zM514 842q90 0 168 78q51 51 81 123t30 147q0 98 -49 155.5t-138 57.5q-92 0 -168 -76q-52 -55 -81 -126.5
t-29 -145.5q0 -99 48.5 -156t137.5 -57zM150 0l724 745l725 746h150l-725 -746l-725 -745h-149zM1282 -16q-130 0 -213.5 88t-83.5 219q0 98 38 188.5t105 159.5q115 115 265 115q132 0 215.5 -88.5t83.5 -219.5q0 -98 -38.5 -189.5t-105.5 -158.5q-114 -114 -266 -114z
M1292 88q92 0 168 76q52 55 81.5 126.5t29.5 145.5q0 98 -49 155.5t-138 57.5t-167 -78q-51 -51 -81 -123t-30 -147q0 -99 48.5 -156t137.5 -57z" />
    <glyph glyph-name="ampersand" unicode="&#x26;" horiz-adv-x="1497" 
d="M1298 731l101 -61q-135 -222 -264 -369l184 -260l-107 -72l-172 242q-125 -119 -250 -175t-282 -56q-186 0 -309 101.5t-123 274.5q0 175 127 304.5t379 195.5q-97 151 -97 279q0 163 118.5 272t287.5 109q161 0 259.5 -87.5t98.5 -228.5q0 -62 -23 -117t-75 -108.5
t-146.5 -101t-228.5 -85.5l285 -395q130 146 237 338zM524 102q231 0 447 201l-324 459q-217 -55 -323.5 -158.5t-106.5 -234.5q0 -123 83 -195t224 -72zM621 1137q0 -63 21 -121t71 -133q399 105 399 311q0 92 -62 148.5t-165 56.5q-107 0 -185.5 -77t-78.5 -185z" />
    <glyph glyph-name="quotesingle" unicode="'" horiz-adv-x="532" 
d="M227 930l195 561h168v-10l-285 -551h-78z" />
    <glyph glyph-name="parenleft" unicode="(" horiz-adv-x="946" 
d="M666 -215l-82 -84q-373 331 -373 760q0 417 313 733q209 206 529 336l49 -105q-286 -122 -465 -301q-283 -289 -283 -659q0 -110 23.5 -208t68.5 -182t97 -151.5t123 -138.5z" />
    <glyph glyph-name="parenright" unicode=")" horiz-adv-x="946" 
d="M317 1450l80 82q373 -334 373 -760q0 -201 -78 -387.5t-235 -343.5q-207 -207 -529 -338l-49 104q281 120 465 304q283 283 283 657q0 109 -23.5 207t-69.5 182.5t-96 150.5t-121 142z" />
    <glyph glyph-name="asterisk" unicode="*" horiz-adv-x="940" 
d="M590 852l-101 25l93 256l-256 -93l-29 101l272 49l-211 176l74 74l176 -207l49 264l99 -24l-90 -256l256 92l28 -101l-272 -49l211 -176l-74 -74l-176 207z" />
    <glyph glyph-name="plus" unicode="+" horiz-adv-x="1351" 
d="M524 238l121 446h-450l34 131h451l121 447h135l-119 -447h451l-35 -131h-453l-118 -446h-138z" />
    <glyph glyph-name="comma" unicode="," horiz-adv-x="544" 
d="M-61 -244l-17 64q85 24 130 68.5t57 111.5h-70l57 205h170l-47 -176q-37 -127 -99 -187.5t-181 -85.5z" />
    <glyph glyph-name="hyphen" unicode="-" horiz-adv-x="897" 
d="M160 563l41 148h583l-41 -148h-583z" />
    <glyph glyph-name="period" unicode="." horiz-adv-x="544" 
d="M39 0l57 205h170l-55 -205h-172z" />
    <glyph glyph-name="slash" unicode="/" horiz-adv-x="1099" 
d="M-250 -272l1514 1972h143l-1513 -1972h-144z" />
    <glyph glyph-name="zero" unicode="0" horiz-adv-x="1542" 
d="M952 1516q162 0 279 -73.5t175 -200.5t58 -294q0 -214 -82 -422t-223 -346q-199 -205 -467 -205q-161 0 -278 73.5t-175.5 201t-58.5 293.5q0 214 82 420.5t223 347.5q205 205 467 205zM702 104q188 0 345 160q124 124 197 308t73 378q0 125 -41.5 222.5t-127.5 155.5
t-206 58q-186 0 -342 -159q-124 -124 -197 -308t-73 -378q0 -193 97 -315t275 -122z" />
    <glyph glyph-name="one" unicode="1" horiz-adv-x="768" 
d="M211 0l360 1341l-307 -92l-4 127l389 125h107l-402 -1501h-143z" />
    <glyph glyph-name="two" unicode="2" horiz-adv-x="1286" 
d="M-31 0l27 111l854 665q134 103 195 186.5t61 178.5q0 107 -80.5 174t-218.5 67q-219 0 -416 -208l-96 90q233 247 518 247q196 0 318 -100.5t122 -261.5q0 -127 -75.5 -232.5t-237.5 -228.5l-711 -555h826l-35 -133h-1051z" />
    <glyph glyph-name="three" unicode="3" horiz-adv-x="1314" 
d="M543 -25q-189 0 -319 76.5t-199 212.5l114 72q126 -232 410 -232q187 0 309.5 98t122.5 251q0 132 -106 200t-291 68h-68l-20 78l628 561h-762l37 131h965l-29 -105l-626 -557q88 -6 163 -31.5t133 -69.5t91.5 -111.5t33.5 -151.5q0 -182 -133 -315q-82 -82 -201 -128.5
t-253 -46.5z" />
    <glyph glyph-name="four" unicode="4" horiz-adv-x="1402" 
d="M780 0l97 358h-789l-20 107l1120 1036h135l-274 -1022h235l-33 -121h-235l-96 -358h-140zM258 479h651l217 807z" />
    <glyph glyph-name="five" unicode="5" horiz-adv-x="1306" 
d="M549 -25q-332 0 -510 267l113 77q75 -108 173 -163.5t232 -55.5q102 0 188.5 32t144 86t90 124.5t32.5 146.5q0 140 -96 221t-248 81q-163 0 -322 -86l-86 67l236 719h821l-37 -133h-692l-170 -504q44 24 126.5 42.5t145.5 18.5q215 0 343 -112t128 -303
q0 -201 -147 -348q-182 -177 -465 -177z" />
    <glyph glyph-name="six" unicode="6" horiz-adv-x="1388" 
d="M686 -25q-108 0 -201 36t-157 100q-146 146 -146 411q0 237 81 441.5t216 339.5q213 213 486 213q270 0 438 -193l-96 -96q-146 159 -351 159q-207 0 -372 -165q-96 -96 -164 -237.5t-80 -283.5q73 102 187 168t259 66q108 0 198 -34.5t150 -94t93 -138t33 -165.5
q0 -207 -150 -357q-170 -170 -424 -170zM692 98q182 0 307 125q115 115 115 271q0 59 -21.5 114t-63 100t-110 72t-153.5 27q-195 0 -322 -127q-108 -108 -108 -248q0 -142 90 -235q105 -99 266 -99z" />
    <glyph glyph-name="seven" unicode="7" horiz-adv-x="1265" 
d="M160 0l991 1358h-832l37 133h1002l-31 -107l-1001 -1384h-166z" />
    <glyph glyph-name="eight" unicode="8" horiz-adv-x="1396" 
d="M643 -20q-241 0 -395 113t-154 280q0 70 22.5 131t62.5 107.5t96.5 83t122 60.5t141.5 38q-97 37 -158.5 119t-61.5 194q0 169 153.5 287t381.5 118q218 0 359 -108t141 -275q0 -149 -107 -251.5t-270 -133.5q108 -41 182 -127.5t74 -205.5q0 -121 -76 -219.5
t-211 -154.5t-303 -56zM649 102q195 0 316.5 88t121.5 226q0 120 -111.5 203t-293.5 83q-198 0 -320 -91.5t-122 -221.5q0 -127 112.5 -207t296.5 -80zM811 821q94 0 171 25.5t125.5 67.5t74.5 94t26 108q0 118 -99 194t-257 76q-173 0 -282 -83t-109 -209q0 -118 98 -195.5
t252 -77.5z" />
    <glyph glyph-name="nine" unicode="9" horiz-adv-x="1388" 
d="M530 -25q-267 0 -454 207l98 94q79 -84 166.5 -128t198.5 -44q202 0 368 166q95 90 161 229.5t83 282.5q-46 -64 -103.5 -114.5t-150 -88.5t-197.5 -38q-108 0 -197.5 35t-149 95t-92 140t-32.5 170q0 103 41 197.5t115 167.5q170 170 422 170q220 0 356 -136
q148 -142 148 -417q0 -232 -82 -436t-217 -339q-213 -213 -482 -213zM729 668q186 0 313 127q115 115 115 268q0 137 -92 229q-101 101 -264 101q-182 0 -305 -123q-116 -116 -119 -283q0 -61 21 -116.5t62 -101.5t110.5 -73.5t158.5 -27.5z" />
    <glyph glyph-name="colon" unicode=":" horiz-adv-x="563" 
d="M49 0l55 205h172l-55 -205h-172zM287 889l55 205h172l-55 -205h-172z" />
    <glyph glyph-name="semicolon" unicode=";" horiz-adv-x="563" 
d="M-53 -244l-17 64q86 24 131 68.5t56 111.5h-68l55 205h172l-49 -176q-37 -127 -99 -187.5t-181 -85.5zM287 889l55 205h172l-55 -205h-172z" />
    <glyph glyph-name="less" unicode="&#x3c;" horiz-adv-x="1351" 
d="M1044 188l-860 504l31 117l1131 504l-39 -156l-951 -416l725 -422z" />
    <glyph glyph-name="equal" unicode="=" horiz-adv-x="1351" 
d="M158 436l37 137h974l-39 -137h-972zM291 928l35 135h974l-36 -135h-973z" />
    <glyph glyph-name="greater" unicode="&#x3e;" horiz-adv-x="1351" 
d="M111 188l41 154l948 418l-723 420l37 133l860 -504l-33 -117z" />
    <glyph glyph-name="question" unicode="?" horiz-adv-x="1165" 
d="M420 408l61 344l15 12q235 18 375.5 112t140.5 250q0 119 -84.5 186.5t-216.5 67.5q-116 0 -219.5 -49.5t-182.5 -128.5l-84 94q213 213 500 213q199 0 316.5 -105.5t117.5 -268.5q0 -102 -43.5 -186.5t-121 -143t-177.5 -96.5t-219 -54l-88 -247h-90zM272 0l56 205h170
l-56 -205h-170z" />
    <glyph glyph-name="at" unicode="@" horiz-adv-x="2111" 
d="M1042 -342q-267 0 -470 104.5t-312.5 294t-109.5 437.5q0 162 53 316.5t149.5 281.5t225 223t288 149.5t328.5 53.5q194 0 353.5 -58.5t265 -160t162.5 -238t57 -293.5q0 -148 -42 -269t-108.5 -194t-144 -112t-154.5 -39q-113 0 -179.5 54t-84.5 150
q-165 -208 -387 -208q-144 0 -240 96.5t-96 257.5q0 115 45 221.5t117.5 181.5t167 119.5t190.5 44.5q122 0 203.5 -61t116.5 -156l61 197l121 -33l-160 -514q-18 -62 -18 -107q0 -74 42 -117.5t120 -43.5q44 0 91.5 20t94 63.5t83.5 104.5t60 150.5t23 193.5
q0 141 -52.5 265t-148 215.5t-240 144.5t-319.5 53q-195 0 -375 -78t-309.5 -207t-207 -304.5t-77.5 -362.5q0 -343 224.5 -553.5t592.5 -210.5q230 0 441 96l30 -64q-225 -104 -471 -104zM965 266q75 0 151 36t134.5 94.5t95 137t36.5 158.5q0 117 -70 189.5t-190 72.5
q-156 0 -270.5 -131.5t-114.5 -310.5q0 -114 63.5 -180t164.5 -66z" />
    <glyph glyph-name="A" unicode="A" horiz-adv-x="1642" 
d="M-68 0l1090 1501h137l283 -1501h-146l-71 406h-844l-291 -406h-158zM473 535h727l-145 806z" />
    <glyph glyph-name="B" unicode="B" horiz-adv-x="1552" 
d="M82 0l399 1491h557q213 0 334 -91t121 -251q0 -157 -108 -261.5t-275 -135.5q125 -35 199.5 -112.5t74.5 -199.5q0 -195 -168 -317.5t-454 -122.5h-680zM258 129h516q215 0 340 84t125 231q0 118 -100.5 181t-264.5 63h-466zM442 815h441q211 0 337 86.5t126 228.5
q0 114 -83.5 173t-238.5 59h-436z" />
    <glyph glyph-name="C" unicode="C" horiz-adv-x="1593" 
d="M823 -27q-128 0 -241.5 42.5t-198 120t-133.5 193.5t-49 255q0 189 74.5 363.5t207.5 307.5q126 123 282 192t329 69q196 0 336.5 -86.5t218.5 -233.5l-123 -72q-76 129 -180.5 195.5t-264.5 66.5q-138 0 -261.5 -55t-223.5 -155q-117 -117 -182.5 -269.5t-65.5 -316.5
q0 -222 136.5 -354t349.5 -132q147 0 262 54.5t219 158.5l94 -92q-245 -252 -586 -252z" />
    <glyph glyph-name="D" unicode="D" horiz-adv-x="1669" 
d="M82 0l399 1491h350q182 0 332.5 -51t247.5 -148q164 -167 164 -428q0 -339 -234 -579q-136 -136 -332.5 -210.5t-428.5 -74.5h-498zM1294 1200q-160 160 -473 160h-231l-330 -1229h338q388 0 635 244q192 195 192 481q0 219 -131 344z" />
    <glyph glyph-name="E" unicode="E" horiz-adv-x="1411" 
d="M82 0l399 1491h1061l-37 -131h-915l-148 -543h822l-35 -131h-821l-148 -555h928l-37 -131h-1069z" />
    <glyph glyph-name="F" unicode="F" horiz-adv-x="1423" 
d="M82 0l399 1491h1063l-35 -131h-919l-154 -567h826l-37 -131h-824l-176 -662h-143z" />
    <glyph glyph-name="G" unicode="G" horiz-adv-x="1697" 
d="M856 -27q-138 0 -257.5 44t-207.5 124t-138 199.5t-50 263.5q0 178 73 345.5t205 299.5q126 126 287.5 196.5t347.5 70.5q110 0 201.5 -22.5t157.5 -63.5t111.5 -85.5t84.5 -101.5l-110 -82q-36 52 -74.5 89.5t-92.5 70t-126.5 49t-163.5 16.5q-295 0 -514 -219
q-111 -111 -174.5 -258t-63.5 -301q0 -234 141.5 -370t370.5 -136q235 0 406 113l127 442h-471l35 129h610l-187 -657q-246 -156 -528 -156z" />
    <glyph glyph-name="H" unicode="H" horiz-adv-x="1634" 
d="M82 0l399 1491h144l-181 -676h891l183 676h141l-399 -1491h-144l184 684h-892l-183 -684h-143z" />
    <glyph glyph-name="I" unicode="I" horiz-adv-x="628" 
d="M96 0l400 1491h143l-399 -1491h-144z" />
    <glyph glyph-name="J" unicode="J" horiz-adv-x="1200" 
d="M428 -20q-172 0 -280.5 88.5t-157.5 238.5l119 60q45 -132 120.5 -195t196.5 -63q152 0 260 108q103 103 160 322l256 952h145l-262 -977q-35 -136 -82 -227.5t-119 -163.5q-143 -143 -356 -143z" />
    <glyph glyph-name="K" unicode="K" horiz-adv-x="1550" 
d="M82 0l399 1491h144l-248 -924l1124 924h207l-813 -660l436 -831h-162l-391 748l-452 -371l-101 -377h-143z" />
    <glyph glyph-name="L" unicode="L" horiz-adv-x="1310" 
d="M82 0l399 1491h144l-365 -1360h856l-37 -131h-997z" />
    <glyph glyph-name="M" unicode="M" horiz-adv-x="1873" 
d="M82 0l399 1491h129l340 -844l793 844h155l-401 -1491h-141l334 1247l-785 -825h-10l-340 823l-336 -1245h-137z" />
    <glyph glyph-name="N" unicode="N" horiz-adv-x="1697" 
d="M82 0l399 1491h133l635 -1251l338 1251h139l-401 -1491h-111l-651 1280l-342 -1280h-139z" />
    <glyph glyph-name="O" unicode="O" horiz-adv-x="1822" 
d="M1071 1516q189 0 338 -85.5t230 -232t81 -326.5q0 -181 -71.5 -349.5t-200.5 -297.5q-120 -120 -271 -186t-321 -66q-187 0 -336 85t-231 231.5t-82 326.5q0 181 72.5 350t201.5 298q120 120 270.5 186t319.5 66zM862 102q136 0 257.5 54.5t217.5 150.5q110 110 172 258
t62 303q0 223 -140.5 370.5t-365.5 147.5q-268 0 -475 -204q-110 -110 -172 -258t-62 -303q0 -146 61.5 -264t178 -186.5t266.5 -68.5z" />
    <glyph glyph-name="P" unicode="P" horiz-adv-x="1441" 
d="M82 0l399 1491h467q281 0 418 -137q104 -101 104 -273q0 -209 -135 -344q-194 -194 -600 -194h-364l-146 -543h-143zM1253 1262q-101 98 -309 98h-354l-184 -690h335q337 0 486 149q98 98 98 254q0 114 -72 189z" />
    <glyph glyph-name="Q" unicode="Q" horiz-adv-x="1822" 
d="M1071 1516q189 0 338 -85.5t230 -232t81 -326.5q0 -183 -78 -360t-223 -311l154 -174l-111 -84l-143 176q-211 -146 -463 -146q-187 0 -336 85t-231 231.5t-82 326.5q0 181 72.5 350t201.5 298q120 120 270.5 186t319.5 66zM862 102q201 0 371 119l-240 277l111 86
l227 -283q116 111 178 260.5t62 306.5q0 223 -140.5 370.5t-365.5 147.5q-268 0 -475 -204q-110 -110 -172 -258t-62 -303q0 -146 61.5 -264t178 -186.5t266.5 -68.5z" />
    <glyph glyph-name="R" unicode="R" horiz-adv-x="1548" 
d="M1120 0l-305 596h-49h-381l-160 -596h-143l399 1491h537q277 0 412 -135q96 -96 96 -250q0 -188 -133 -318q-135 -135 -424 -178l317 -610h-166zM418 725h424q301 0 444 143q94 94 94 228q0 105 -63 168q-96 96 -305 96h-422z" />
    <glyph glyph-name="S" unicode="S" horiz-adv-x="1382" 
d="M647 -20q-398 0 -602 282l111 84q96 -122 216 -181t287 -59q171 0 285.5 86t114.5 216q0 91 -69.5 153t-246.5 131q-226 90 -320.5 176t-94.5 222q0 154 110 264q157 157 432 157q165 0 299.5 -61t225.5 -164l-107 -92q-175 190 -430 190q-172 0 -277.5 -83t-105.5 -197
q0 -49 19 -87t63 -72.5t104.5 -63.5t155.5 -66q205 -78 298 -167t93 -226q0 -160 -121 -281q-161 -161 -440 -161z" />
    <glyph glyph-name="T" unicode="T" horiz-adv-x="1335" 
d="M442 0l365 1358h-510l35 133h1163l-35 -133h-510l-364 -1358h-144z" />
    <glyph glyph-name="U" unicode="U" horiz-adv-x="1636" 
d="M752 -23q-259 0 -399 130.5t-140 343.5q0 113 31 231l215 809h143l-227 -858q-21 -65 -21 -168q0 -160 104.5 -259.5t305.5 -99.5q200 0 346 146q132 132 199 377l231 862h143l-237 -889q-76 -278 -236 -438q-187 -187 -458 -187z" />
    <glyph glyph-name="V" unicode="V" horiz-adv-x="1548" 
d="M551 -10l-242 1501h152l194 -1321l906 1321h161l-1044 -1501h-127z" />
    <glyph glyph-name="W" unicode="W" horiz-adv-x="2322" 
d="M459 -10l-133 1501h149l100 -1280l764 1284h115l80 -1284l786 1280h162l-940 -1501h-121l-88 1243l-753 -1243h-121z" />
    <glyph glyph-name="X" unicode="X" horiz-adv-x="1501" 
d="M-45 0l770 772l-385 719h158l329 -629l625 629h184l-743 -741l397 -750h-155l-344 659l-652 -659h-184z" />
    <glyph glyph-name="Y" unicode="Y" horiz-adv-x="1441" 
d="M489 0l162 602l-377 889h158l318 -774l735 774h186l-885 -918l-153 -573h-144z" />
    <glyph glyph-name="Z" unicode="Z" horiz-adv-x="1443" 
d="M-29 0l25 90l1309 1272h-934l37 129h1144l-24 -90l-1309 -1272h975l-35 -129h-1188z" />
    <glyph glyph-name="bracketleft" unicode="[" horiz-adv-x="952" 
d="M39 -276l475 1767h596l-29 -107h-469l-415 -1554h467l-29 -106h-596z" />
    <glyph glyph-name="backslash" unicode="\" horiz-adv-x="1099" 
d="M782 -272l-467 1972h121l467 -1972h-121z" />
    <glyph glyph-name="bracketright" unicode="]" horiz-adv-x="952" 
d="M944 1491l-475 -1767h-598l31 106h467l415 1554h-467l29 107h598z" />
    <glyph glyph-name="asciicircum" unicode="^" horiz-adv-x="1089" 
d="M272 1051l453 446h113l215 -446h-117l-170 340l-352 -340h-142z" />
    <glyph glyph-name="underscore" unicode="_" horiz-adv-x="1302" 
d="M-231 -340l32 117h1289l-33 -117h-1288z" />
    <glyph glyph-name="grave" unicode="`" horiz-adv-x="1089" 
d="M788 1268l-172 225l154 72l115 -297h-97z" />
    <glyph glyph-name="a" unicode="a" horiz-adv-x="1245" 
d="M408 -25q-92 0 -171 34t-130.5 105.5t-51.5 166.5q0 153 107 260q135 135 385 135q192 0 403 -60l6 27q17 70 17 107q0 116 -79 176.5t-232 60.5q-163 0 -314 -59l-24 119q176 63 354 63q203 0 315.5 -90t112.5 -250q0 -60 -23 -147l-165 -623h-134l47 178
q-174 -203 -423 -203zM444 90q151 0 284.5 96t172.5 246l23 86q-189 49 -381 49q-170 0 -273 -96q-71 -71 -71 -174q0 -94 66.5 -150.5t178.5 -56.5z" />
    <glyph glyph-name="b" unicode="b" horiz-adv-x="1423" 
d="M684 -27q-161 0 -268 81.5t-152 205.5l-69 -260h-140l418 1554h137l-178 -659q191 225 432 225q190 0 313 -130t123 -333q0 -150 -54 -280t-150 -225q-176 -179 -412 -179zM674 98q184 0 317 133q78 78 121 186t43 226q0 157 -89.5 254.5t-231.5 97.5q-93 0 -183.5 -41
t-163.5 -114q-78 -78 -123 -177.5t-45 -205.5q0 -154 99.5 -256.5t255.5 -102.5z" />
    <glyph glyph-name="c" unicode="c" horiz-adv-x="1222" 
d="M598 -25q-128 0 -236 55t-176.5 165.5t-68.5 255.5q0 134 53 258.5t147 218.5q90 90 204.5 141t238.5 51q159 0 268 -74t164 -188l-113 -70q-35 62 -74.5 105t-105 72.5t-147.5 29.5q-181 0 -326 -145q-77 -77 -121.5 -179.5t-44.5 -215.5q0 -164 101.5 -260.5
t242.5 -96.5q97 0 177.5 38.5t160.5 111.5l86 -90q-199 -183 -430 -183z" />
    <glyph glyph-name="d" unicode="d" horiz-adv-x="1423" 
d="M938 0l53 199q-192 -226 -432 -226q-190 0 -313 130t-123 333q0 149 54.5 279t150.5 227q181 178 411 178q85 0 156.5 -24t122 -66t85 -91t58.5 -108l193 723h137l-416 -1554h-137zM592 98q91 0 181 41.5t163 114.5q78 78 123 177t45 206q0 152 -99 255t-255 103
q-182 0 -318 -133q-78 -78 -121 -185.5t-43 -225.5q0 -160 90 -256.5t234 -96.5z" />
    <glyph glyph-name="e" unicode="e" horiz-adv-x="1273" 
d="M1137 500h-877q-2 -18 -2 -58q0 -155 92 -251.5t244 -96.5q106 0 191.5 35t170.5 102l74 -92q-95 -79 -200 -121.5t-244 -42.5q-209 0 -339 129t-130 334q0 136 55 266.5t154 229.5q186 186 426 186q133 0 230 -58.5t143 -152t46 -209.5q0 -110 -34 -200zM428 862
q-97 -97 -147 -252h745q8 24 8 86q0 132 -73.5 217.5t-215.5 85.5q-180 0 -317 -137z" />
    <glyph glyph-name="f" unicode="f" horiz-adv-x="811" 
d="M119 0l262 971h-156l35 123h154l37 141q39 148 120 227q91 94 244 94q130 0 219 -47l-33 -120q-97 47 -186 47q-174 0 -233 -224l-33 -118h375l-33 -123h-373l-262 -971h-137z" />
    <glyph glyph-name="g" unicode="g" horiz-adv-x="1423" 
d="M520 -344q-150 0 -289.5 51t-238.5 143l92 99q190 -172 436 -172q205 0 322 117q92 97 141 272l35 123q-96 -98 -199.5 -152.5t-234.5 -54.5q-86 0 -166.5 29t-143.5 81.5t-101 133t-38 176.5q0 252 180 432q88 88 202 137t235 49q88 0 157.5 -22.5t117.5 -64t79.5 -86.5
t56.5 -103l68 250h137l-252 -947q-35 -124 -75.5 -201t-100.5 -134q-156 -156 -420 -156zM618 205q99 0 191.5 40.5t161.5 112.5q67 64 104 144.5t37 165.5q0 63 -25 121t-70 103.5t-113.5 73t-149.5 27.5q-93 0 -180 -36t-152 -103q-141 -141 -141 -338q0 -146 99.5 -228.5
t237.5 -82.5z" />
    <glyph glyph-name="h" unicode="h" horiz-adv-x="1325" 
d="M55 0l418 1554h137l-174 -649q88 103 181 159t214 56q159 0 256 -94.5t97 -249.5q0 -64 -25 -162l-162 -614h-137l166 623q16 62 16 129q0 115 -68.5 179t-191.5 64q-135 0 -257 -106.5t-167 -270.5l-163 -618h-140z" />
    <glyph glyph-name="i" unicode="i" horiz-adv-x="573" 
d="M72 0l293 1094h137l-293 -1094h-137zM424 1354l43 166h162l-43 -166h-162z" />
    <glyph glyph-name="j" unicode="j" horiz-adv-x="571" 
d="M-96 -348q-72 0 -142 22l33 117q62 -16 96 -16q116 0 160 149l314 1170h137l-318 -1184q-35 -127 -107 -192.5t-173 -65.5zM424 1354l43 166h162l-43 -166h-162z" />
    <glyph glyph-name="k" unicode="k" horiz-adv-x="1226" 
d="M55 0l418 1554h137l-295 -1099l787 639h192l-598 -480l314 -614h-158l-270 528l-314 -252l-73 -276h-140z" />
    <glyph glyph-name="l" unicode="l" horiz-adv-x="573" 
d="M72 0l417 1554h138l-418 -1554h-137z" />
    <glyph glyph-name="m" unicode="m" horiz-adv-x="2050" 
d="M55 0l293 1094h137l-49 -189q91 106 175.5 160.5t201.5 54.5q130 0 210 -75t103 -183q77 122 190.5 190t260.5 68q148 0 242 -96t94 -248q0 -48 -29 -162l-162 -614h-137l166 623q16 62 16 129q0 113 -64.5 178t-176.5 65q-127 0 -246 -108.5t-158 -268.5l-164 -618h-137
l166 623q17 66 17 129q0 113 -65 178t-177 65q-126 0 -245.5 -108.5t-158.5 -268.5l-163 -618h-140z" />
    <glyph glyph-name="n" unicode="n" horiz-adv-x="1329" 
d="M55 0l293 1094h137l-49 -189q88 103 181 159t214 56q159 0 256 -94.5t97 -249.5q0 -64 -25 -162l-162 -614h-137l166 623q16 62 16 129q0 115 -68.5 179t-191.5 64q-135 0 -257 -106.5t-167 -270.5l-163 -618h-140z" />
    <glyph glyph-name="o" unicode="o" horiz-adv-x="1376" 
d="M766 1120q220 0 357 -137.5t137 -351.5q0 -129 -52.5 -249t-146.5 -214q-90 -90 -206.5 -141.5t-242.5 -51.5q-220 0 -356.5 137t-136.5 351q0 129 51.5 249.5t144.5 213.5q94 91 210 142.5t241 51.5zM623 98q181 0 329 148q76 75 120 174.5t44 206.5q0 174 -99 271
t-263 97q-90 0 -176 -38.5t-154 -106.5q-76 -76 -119 -176t-43 -207q0 -174 99 -271.5t262 -97.5z" />
    <glyph glyph-name="p" unicode="p" horiz-adv-x="1423" 
d="M684 -27q-161 0 -268 81.5t-152 205.5l-162 -600h-137l383 1434h137l-53 -199q191 225 432 225q190 0 313 -130t123 -333q0 -150 -54 -280t-150 -225q-176 -179 -412 -179zM674 98q184 0 317 133q78 78 121 186t43 226q0 157 -89.5 254.5t-231.5 97.5q-93 0 -183.5 -41
t-163.5 -114q-78 -78 -123 -177.5t-45 -205.5q0 -154 99.5 -256.5t255.5 -102.5z" />
    <glyph glyph-name="q" unicode="q" horiz-adv-x="1423" 
d="M559 -27q-190 0 -313 130t-123 333q0 149 54.5 279t150.5 227q181 178 411 178q85 0 156.5 -24t122 -66t85 -91t58.5 -108l70 263h137l-385 -1434h-137l145 539q-192 -226 -432 -226zM592 98q91 0 181 41.5t163 114.5q78 78 123 177t45 206q0 152 -99 255t-255 103
q-182 0 -318 -133q-78 -78 -121 -185.5t-43 -225.5q0 -160 90 -256.5t234 -96.5z" />
    <glyph glyph-name="r" unicode="r" horiz-adv-x="874" 
d="M55 0l293 1094h137l-77 -297q232 329 540 315l-41 -147h-8q-124 0 -240.5 -59.5t-210.5 -181.5t-137 -286l-116 -438h-140z" />
    <glyph glyph-name="s" unicode="s" horiz-adv-x="1081" 
d="M475 -25q-131 0 -253.5 49t-215.5 142l92 92q173 -164 391 -164q102 0 180.5 56t78.5 143q0 60 -48 105.5t-172 93.5q-164 61 -236.5 126.5t-72.5 172.5q0 139 113 233t297 94q115 0 221 -41.5t180 -105.5l-84 -99q-70 57 -156 92t-174 35q-118 0 -188 -55t-70 -131
q0 -59 48.5 -103t183.5 -96q159 -63 229 -131t70 -168q0 -146 -120.5 -243t-293.5 -97z" />
    <glyph glyph-name="t" unicode="t" horiz-adv-x="874" 
d="M446 -18q-121 0 -192.5 54.5t-71.5 160.5q0 52 15 110l178 664h-156l33 123h156l90 340h139l-92 -340h358l-33 -123h-358l-176 -660q-12 -54 -12 -86q0 -60 43 -90.5t120 -30.5q64 0 160 35l-35 -127q-77 -30 -166 -30z" />
    <glyph glyph-name="u" unicode="u" horiz-adv-x="1325" 
d="M494 -25q-161 0 -257 93.5t-96 248.5q0 58 27 164l162 613h137l-168 -623q-16 -62 -16 -129q0 -115 69.5 -179.5t192.5 -64.5q134 0 256 108t166 271l166 617h137l-293 -1094h-137l49 190q-174 -215 -395 -215z" />
    <glyph glyph-name="v" unicode="v" horiz-adv-x="1222" 
d="M385 -8l-184 1102h145l137 -936l633 936h160l-772 -1102h-119z" />
    <glyph glyph-name="w" unicode="w" horiz-adv-x="1828" 
d="M315 -8l-96 1102h141l66 -908l555 914h113l67 -914l553 908h148l-688 -1102h-123l-68 895l-551 -895h-117z" />
    <glyph glyph-name="x" unicode="x" horiz-adv-x="1220" 
d="M414 1094l221 -437l446 437h176l-565 -539l293 -555h-151l-234 465l-479 -465h-176l596 567l-281 527h154z" />
    <glyph glyph-name="y" unicode="y" horiz-adv-x="1241" 
d="M406 0l-209 1094h145l166 -940l618 940h162l-764 -1131q-115 -169 -219 -240t-229 -71q-129 0 -236 76l74 104q83 -59 178 -59q78 0 152 51.5t162 175.5z" />
    <glyph glyph-name="z" unicode="z" horiz-adv-x="1191" 
d="M-27 0l23 84l973 891h-707l33 119h913l-24 -84l-973 -891h741l-32 -119h-947z" />
    <glyph glyph-name="braceleft" unicode="{" horiz-adv-x="1050" 
d="M717 -215l-41 -86q-180 38 -263 131.5t-83 220.5q0 52 10 101t39 143q20 67 20 123q0 71 -45 106t-153 35h-58l29 105h57q155 0 230 75q36 36 63.5 101.5t37.5 107.5t22 105q22 106 53.5 181.5t91.5 137.5q68 68 172.5 105t261.5 47l-2 -101q-223 -11 -330 -118
q-43 -43 -68 -105t-46 -151q-2 -7 -9 -40.5t-9.5 -44.5t-10 -41.5t-12.5 -44.5t-13.5 -40.5t-16.5 -42t-19 -36t-23.5 -37t-26.5 -30.5q-66 -66 -194 -88q151 -44 151 -178q0 -61 -22 -129q-45 -133 -45 -229q0 -104 58 -173.5t194 -109.5z" />
    <glyph glyph-name="bar" unicode="|" horiz-adv-x="653" 
d="M49 -272l529 1972h118l-530 -1972h-117z" />
    <glyph glyph-name="braceright" unicode="}" horiz-adv-x="1050" 
d="M367 1438l41 86q180 -39 263 -132.5t83 -220.5q0 -34 -6 -71t-13 -66t-28 -106q-23 -81 -23 -123q0 -71 45.5 -106t153.5 -35h57l-29 -105h-57q-79 0 -132.5 -17.5t-94.5 -58.5q-81 -81 -125 -313q-22 -106 -53.5 -182t-92.5 -138q-128 -131 -434 -151l2 100
q222 11 330 119q83 83 115 256l10 45l11 49.5t12 46.5t15 50t16.5 45t20.5 46t24 38t30 36q66 66 197 88q-154 44 -154 179q0 61 22 129q45 133 45 229q0 105 -57.5 174t-193.5 109z" />
    <glyph glyph-name="asciitilde" unicode="~" horiz-adv-x="1019" 
d="M283 514l-97 39q56 112 111.5 164.5t126.5 52.5q45 0 75 -16.5t72 -55.5q38 -38 57.5 -50.5t47.5 -12.5q33 0 60.5 29.5t68.5 97.5l94 -39q-56 -113 -111 -165t-126 -52q-46 0 -76 17t-72 57q-40 37 -59 49t-43 12q-35 0 -63 -29.5t-66 -97.5z" />
    <glyph glyph-name="uni00A0" unicode="&#xa0;" horiz-adv-x="0" 
 />
    <glyph glyph-name="exclamdown" unicode="&#xa1;" horiz-adv-x="583" 
d="M475 1083l-213 -950l-37 -133h-162l37 133l297 950h78zM631 1491l-56 -205h-172l56 205h172z" />
    <glyph glyph-name="cent" unicode="&#xa2;" horiz-adv-x="1222" 
d="M950 1503h123l-80 -200q192 -54 281 -236l-111 -68q-41 73 -92.5 120t-130.5 69l-344 -877q15 -4 66 -4q107 0 194 37.5t170 110.5l86 -90q-196 -183 -455 -183q-59 0 -100 8l-80 -202h-125l94 235q-130 56 -203 169t-73 261q0 139 52.5 264.5t146.5 219.5
q190 190 454 190q9 0 28 -1t28 -1zM313 655q0 -109 48.5 -191.5t136.5 -123.5l338 862h-19q-195 0 -340 -145q-78 -75 -121 -180t-43 -222z" />
    <glyph glyph-name="sterling" unicode="&#xa3;" horiz-adv-x="1359" 
d="M4 0l23 78l190 43l139 516h-180l35 129h180l70 266q62 220 172 330q74 74 159 109.5t195 35.5q276 0 406 -237l-117 -74q-58 91 -126 135.5t-171 44.5q-142 0 -242 -100q-93 -92 -139 -268l-66 -242h613l-35 -129h-612l-138 -510h777l-35 -127h-1098z" />
    <glyph glyph-name="yen" unicode="&#xa5;" horiz-adv-x="1519" 
d="M532 0l70 256h-440l31 115h440l51 198h-438l30 115h390l-349 807h162l318 -764l731 764h180l-784 -807h379l-31 -115h-447l-51 -198h447l-33 -115h-445l-67 -256h-144z" />
    <glyph glyph-name="section" unicode="&#xa7;" horiz-adv-x="1370" 
d="M1274 727q0 -65 -33 -117.5t-89.5 -85t-126.5 -51t-148 -20.5q147 -75 147 -199t-115 -199t-284 -75q-142 0 -272.5 51t-202.5 127l90 94q69 -67 174 -111.5t225 -44.5q105 0 174.5 43t69.5 111q0 61 -64 104.5t-221 100.5q-211 71 -305 138.5t-94 170.5q0 65 33.5 117.5
t90.5 85t127 51t148 20.5q-72 35 -110.5 87t-38.5 114q0 124 115 199t284 75q142 0 272.5 -51t202.5 -127l-90 -94q-69 66 -174 110t-225 44q-105 0 -174.5 -43t-69.5 -111q0 -60 65.5 -105.5t218.5 -97.5q209 -72 304.5 -140t95.5 -171zM338 780q0 -60 61 -105t207 -95
q122 -43 244 -43q120 0 202.5 51.5t82.5 124.5q0 60 -61 104t-208 94q-131 45 -243 45q-120 0 -202.5 -52.5t-82.5 -123.5z" />
    <glyph glyph-name="dieresis" unicode="&#xa8;" horiz-adv-x="1089" 
d="M449 1268l51 188h172l-51 -188h-172zM811 1268l51 188h172l-51 -188h-172z" />
    <glyph glyph-name="copyright" unicode="&#xa9;" horiz-adv-x="1792" 
d="M887 350q-140 0 -233 87t-93 235q0 204 146 356q135 135 315 135q205 0 299 -168l-90 -55q-79 125 -211 125q-136 0 -234 -98q-116 -116 -116 -289q0 -111 63 -170t160 -59q72 0 125.5 26.5t107.5 77.5l68 -70q-133 -133 -307 -133zM1714 838q0 -173 -66 -334t-188 -283
q-243 -246 -594 -246q-152 0 -281 52t-217 143t-137 215.5t-49 267.5q0 173 66 334t188 283q246 246 594 246q204 0 361 -89.5t240 -243.5t83 -345zM254 653q0 -127 42 -238t119 -195t195 -132.5t262 -48.5q312 0 533 221q237 237 237 580q0 126 -41.5 236.5t-118.5 194.5
t-194.5 132.5t-261.5 48.5q-310 0 -534 -221q-114 -117 -176 -265t-62 -313z" />
    <glyph glyph-name="ordfeminine" unicode="&#xaa;" horiz-adv-x="856" 
d="M418 870q-76 0 -128 44.5t-52 115.5q0 103 76.5 165t199.5 62q89 0 203 -32l4 14q8 19 8 53q0 117 -160 117q-75 0 -170 -31l-16 84q101 37 205 37q116 0 177.5 -49.5t61.5 -138.5q0 -22 -12 -84l-92 -344h-98l28 102q-107 -115 -235 -115zM449 946q78 0 150.5 55
t92.5 132l8 26q-94 27 -180 27q-79 0 -129.5 -40.5t-50.5 -103.5q0 -43 30 -69.5t79 -26.5zM133 618l25 95h526l-25 -95h-526z" />
    <glyph glyph-name="guillemotleft" unicode="&#xab;" horiz-adv-x="1163" 
d="M334 86l-225 451l4 16l471 453l88 -76l-400 -404l172 -383zM791 86l-228 451l4 16l471 453l90 -76l-401 -404l172 -383z" />
    <glyph glyph-name="registered" unicode="&#xae;" horiz-adv-x="894" 
d="M647 1511q146 0 238 -93.5t92 -231.5q0 -176 -121 -297q-123 -123 -289 -123q-148 0 -238.5 94t-90.5 234q0 177 120 297t289 120zM571 807q146 0 250 104q113 116 113 271q0 125 -78 208t-213 83q-145 0 -250 -105q-112 -115 -112 -270q0 -125 77.5 -208t212.5 -83z
M518 1092l-35 -134h-67l100 377h137q76 0 108 -32.5t32 -75.5q0 -50 -31 -85.5t-92 -45.5l63 -138h-69l-58 134h-88zM532 1147h84q62 0 89 27q18 18 18 47q0 55 -76 55h-80z" />
    <glyph glyph-name="macron" unicode="&#xaf;" horiz-adv-x="1089" 
d="M418 1317l33 117h665l-33 -117h-665z" />
    <glyph glyph-name="degree" unicode="&#xb0;" horiz-adv-x="829" 
d="M561 1501q123 0 201 -78t78 -198q0 -71 -29.5 -138.5t-79.5 -117.5q-110 -107 -252 -107q-122 0 -200 78t-78 199q0 71 29 138.5t79 117.5q109 106 252 106zM489 963q94 0 166 69q78 78 78 185q0 85 -50.5 135.5t-131.5 50.5q-92 0 -164 -72q-78 -78 -78 -184
q0 -85 49.5 -134.5t130.5 -49.5z" />
    <glyph glyph-name="plusminus" unicode="&#xb1;" horiz-adv-x="1351" 
d="M555 346l115 424h-432l34 129l433 -2l112 424h133l-112 -424l432 2l-35 -129h-432l-115 -424h-133zM33 0l35 127h995l-35 -127h-995z" />
    <glyph glyph-name="two.sup" unicode="&#xb2;" 
d="M236 905l20 84l457 344q72 54 107.5 99t35.5 100q0 60 -43 94.5t-115 34.5q-67 0 -120 -30.5t-107 -86.5l-61 60q131 145 297 145q112 0 179.5 -57.5t67.5 -151.5q0 -72 -43 -133.5t-141 -134.5l-371 -275h447l-25 -92h-585z" />
    <glyph glyph-name="three.sup" unicode="&#xb3;" 
d="M559 885q-106 0 -180 41t-111 112l74 52q76 -117 213 -117q98 0 160.5 48.5t62.5 125.5q0 72 -52.5 107.5t-147.5 35.5h-39l-25 60l344 286h-407l26 93h539l-23 -80l-348 -285q102 -8 168 -59.5t66 -147.5q0 -116 -94.5 -194t-225.5 -78z" />
    <glyph glyph-name="acute" unicode="&#xb4;" horiz-adv-x="1089" 
d="M532 1268l277 297l154 -72l-297 -225h-134z" />
    <glyph glyph-name="mu" unicode="&#xb5;" horiz-adv-x="1435" 
d="M100 -340h-135l383 1434h137l-151 -564q-23 -90 -23 -155q0 -129 74 -203t203 -74q140 0 245 88t146 242l178 666h137l-211 -793q-16 -66 -16 -98q0 -99 117 -99q38 0 88 11l-33 -119q-43 -12 -96 -12q-98 0 -153 46t-60 128q-135 -183 -350 -183q-130 0 -221 67.5
t-123 190.5h-5q-4 -35 -8.5 -67t-8 -53t-10 -52.5t-9.5 -45t-12.5 -51.5t-12.5 -52z" />
    <glyph glyph-name="paragraph" unicode="&#xb6;" horiz-adv-x="1095" 
d="M575 0l146 545q-266 10 -397 141q-99 99 -99 256q0 221 140 361q185 188 563 188h192l-399 -1491h-146z" />
    <glyph glyph-name="periodcentered" unicode="&#xb7;" horiz-adv-x="544" 
d="M180 535l58 204h170l-56 -204h-172z" />
    <glyph glyph-name="cedilla" unicode="&#xb8;" horiz-adv-x="1089" 
d="M276 -324l-122 64l266 280h112z" />
    <glyph glyph-name="one.sup" unicode="&#xb9;" horiz-adv-x="700" 
d="M444 905l195 729l-203 -69l-2 90l252 88h82l-225 -838h-99z" />
    <glyph glyph-name="ordmasculine" unicode="&#xba;" horiz-adv-x="858" 
d="M137 618l25 95h573l-24 -95h-574zM356 1147q0 -87 51.5 -140t133.5 -53q96 0 168 72q79 82 79 195q0 86 -51 138t-133 52q-99 0 -168 -72q-36 -36 -58 -87.5t-22 -104.5zM891 1225q0 -147 -107 -254t-249 -107q-127 0 -204 79t-77 198q0 148 106 254t250 106
q128 0 204.5 -76.5t76.5 -199.5z" />
    <glyph glyph-name="guillemotright" unicode="&#xbb;" horiz-adv-x="1163" 
d="M825 1004l226 -449l-4 -18l-469 -453l-91 76l402 403l-174 385zM371 1004l225 -449l-4 -18l-471 -453l-88 76l399 403l-172 385z" />
    <glyph glyph-name="onequarter" unicode="&#xbc;" horiz-adv-x="1775" 
d="M330 668l192 729l-203 -70l-2 90l254 88h80l-223 -837h-98zM100 0l727 762l684 729h115l-729 -762l-682 -729h-115zM1257 -4l50 190h-404v90l553 560h119l-152 -566h115l-22 -84h-115l-51 -190h-93zM1010 270h319l121 445h-2z" />
    <glyph glyph-name="onehalf" unicode="&#xbd;" horiz-adv-x="1775" 
d="M872 0l21 84l457 344q72 54 107.5 99t35.5 100q0 60 -43 94.5t-115 34.5q-67 0 -120 -30.5t-107 -86.5l-61 59q132 146 296 146q112 0 180 -57.5t68 -151.5q0 -72 -43 -133.5t-141 -134.5l-371 -275h447l-25 -92h-586zM80 0l727 762l684 729h115l-729 -762l-682 -729
h-115zM330 668l192 729l-203 -70l-2 90l254 88h80l-223 -837h-98z" />
    <glyph glyph-name="threequarters" unicode="&#xbe;" horiz-adv-x="1935" 
d="M1417 -4l49 190h-403v90l553 560h119l-152 -566h115l-23 -84h-114l-52 -190h-92zM1169 270h320l121 445h-2zM250 0l727 762l684 729h115l-729 -762l-682 -729h-115zM446 647q-206 0 -290 154l73 51q76 -117 213 -117q99 0 161.5 48t62.5 126q0 72 -53 108t-148 36h-39
l-25 59l347 287h-410l27 92h538l-22 -80l-349 -285q102 -8 168 -59t66 -147q0 -117 -94.5 -195t-225.5 -78z" />
    <glyph glyph-name="questiondown" unicode="&#xbf;" horiz-adv-x="1165" 
d="M852 1083l-61 -344l-15 -12q-234 -18 -375 -113t-141 -249q0 -119 84.5 -186.5t216.5 -67.5q116 0 219.5 49.5t182.5 128.5l81 -94q-206 -213 -497 -213q-199 0 -316.5 105.5t-117.5 268.5q0 102 43.5 186.5t121 143t177.5 96.5t219 54l88 247h90zM999 1491l-55 -205
h-170l55 205h170z" />
    <glyph glyph-name="Agrave" unicode="&#xc0;" horiz-adv-x="1642" 
d="M-68 0l1090 1501h137l283 -1501h-146l-71 406h-844l-291 -406h-158zM473 535h727l-145 806zM1053 1647l-185 194l148 70l137 -264h-100z" />
    <glyph glyph-name="Aacute" unicode="&#xc1;" horiz-adv-x="1642" 
d="M-68 0l1090 1501h137l283 -1501h-146l-71 406h-844l-291 -406h-158zM473 535h727l-145 806zM1055 1647l278 264l150 -70l-291 -194h-137z" />
    <glyph glyph-name="Acircumflex" unicode="&#xc2;" horiz-adv-x="1642" 
d="M-68 0l1090 1501h137l283 -1501h-146l-71 406h-844l-291 -406h-158zM473 535h727l-145 806zM823 1647l293 241h129l164 -241h-127l-123 129l-192 -129h-144z" />
    <glyph glyph-name="Atilde" unicode="&#xc3;" horiz-adv-x="1642" 
d="M-68 0l1090 1501h137l283 -1501h-146l-71 406h-844l-291 -406h-158zM473 535h727l-145 806zM897 1628l-90 27q50 107 101 155t118 48q53 0 141 -43q9 -3 33.5 -13t35 -14t27.5 -8t29 -4q40 0 66 21t59 77l92 -27q-51 -109 -101.5 -154.5t-119.5 -45.5q-17 0 -37.5 5
t-31 8t-39.5 15t-33 13q-84 41 -123 41t-64 -21.5t-63 -79.5z" />
    <glyph glyph-name="Adieresis" unicode="&#xc4;" horiz-adv-x="1642" 
d="M-68 0l1090 1501h137l283 -1501h-146l-71 406h-844l-291 -406h-158zM473 535h727l-145 806zM848 1647l49 178h180l-49 -178h-180zM1237 1647l49 178h178l-49 -178h-178z" />
    <glyph glyph-name="Aring" unicode="&#xc5;" horiz-adv-x="1642" 
d="M-68 0l1033 1423q-84 54 -84 152t78 165.5t184 67.5q91 0 149 -51.5t58 -130.5q0 -76 -48.5 -135.5t-125.5 -83.5l266 -1407h-146l-71 406h-844l-291 -406h-158zM473 535h727l-145 806zM1094 1468q68 0 117 42.5t49 107.5q0 51 -33 83t-92 32q-67 0 -115.5 -43.5
t-48.5 -108.5q0 -53 33.5 -83t89.5 -30z" />
    <glyph glyph-name="AE" unicode="&#xc6;" horiz-adv-x="2267" 
d="M-66 0l1287 1491h1175l-35 -131h-893l-145 -543h797l-35 -131h-797l-149 -555h903l-35 -131h-1046l110 406h-620l-349 -406h-168zM559 535h545l223 829h-55z" />
    <glyph glyph-name="Ccedilla" unicode="&#xc7;" horiz-adv-x="1593" 
d="M592 -324l-123 64l231 244q-221 38 -360 197.5t-139 402.5q0 189 74.5 363.5t207.5 307.5q126 123 282 192t329 69q196 0 336.5 -86.5t218.5 -233.5l-123 -72q-76 129 -180.5 195.5t-264.5 66.5q-138 0 -261.5 -55t-223.5 -155q-117 -117 -182.5 -269.5t-65.5 -316.5
q0 -222 136.5 -354t349.5 -132q147 0 262 54.5t219 158.5l94 -92q-245 -252 -586 -252h-10z" />
    <glyph glyph-name="Egrave" unicode="&#xc8;" horiz-adv-x="1411" 
d="M956 1626l-184 195l148 69l137 -264h-101zM82 0l399 1491h1061l-37 -131h-915l-148 -543h822l-35 -131h-821l-148 -555h928l-37 -131h-1069z" />
    <glyph glyph-name="Eacute" unicode="&#xc9;" horiz-adv-x="1411" 
d="M961 1626l278 264l150 -69l-291 -195h-137zM82 0l399 1491h1061l-37 -131h-915l-148 -543h822l-35 -131h-821l-148 -555h928l-37 -131h-1069z" />
    <glyph glyph-name="Ecircumflex" unicode="&#xca;" horiz-adv-x="1411" 
d="M82 0l399 1491h1061l-37 -131h-915l-148 -543h822l-35 -131h-821l-148 -555h928l-37 -131h-1069zM729 1626l293 242h129l164 -242h-127l-123 129l-193 -129h-143z" />
    <glyph glyph-name="Edieresis" unicode="&#xcb;" horiz-adv-x="1411" 
d="M752 1626l49 178h180l-49 -178h-180zM1141 1626l49 178h178l-49 -178h-178zM82 0l399 1491h1061l-37 -131h-915l-148 -543h822l-35 -131h-821l-148 -555h928l-37 -131h-1069z" />
    <glyph glyph-name="Igrave" unicode="&#xcc;" horiz-adv-x="628" 
d="M96 0l400 1491h143l-399 -1491h-144zM526 1626l-184 195l147 69l138 -264h-101z" />
    <glyph glyph-name="Iacute" unicode="&#xcd;" horiz-adv-x="628" 
d="M96 0l400 1491h143l-399 -1491h-144zM528 1626l279 264l149 -69l-290 -195h-138z" />
    <glyph glyph-name="Icircumflex" unicode="&#xce;" horiz-adv-x="628" 
d="M96 0l400 1491h143l-399 -1491h-144zM297 1626l293 242h129l164 -242h-127l-123 129l-193 -129h-143z" />
    <glyph glyph-name="Idieresis" unicode="&#xcf;" horiz-adv-x="628" 
d="M96 0l400 1491h143l-399 -1491h-144zM322 1626l49 178h180l-49 -178h-180zM711 1626l49 178h178l-49 -178h-178z" />
    <glyph glyph-name="Eth" unicode="&#xd0;" horiz-adv-x="1728" 
d="M141 0l185 690h-162l33 121h161l185 680h348q185 0 335 -51t247 -148q163 -166 163 -428q0 -344 -235 -579q-136 -136 -332.5 -210.5t-429.5 -74.5h-498zM936 690h-467l-150 -559h338q193 0 355 63t282 181q193 196 193 481q0 216 -131 344q-160 160 -473 160h-232
l-149 -549h467z" />
    <glyph glyph-name="Ntilde" unicode="&#xd1;" horiz-adv-x="1697" 
d="M903 1602l-90 26q50 107 101 155t118 48q54 0 142 -43q10 -4 33.5 -13.5t34.5 -13.5t27.5 -8t28.5 -4q40 0 66 21t59 77l93 -26q-51 -109 -102 -155t-120 -46q-17 0 -37.5 4.5t-31 8t-39.5 15t-33 13.5q-84 41 -123 41t-64 -21t-63 -79zM82 0l399 1491h133l635 -1251
l338 1251h139l-401 -1491h-111l-651 1280l-342 -1280h-139z" />
    <glyph glyph-name="Ograve" unicode="&#xd2;" horiz-adv-x="1822" 
d="M1100 1647l-185 194l148 70l137 -264h-100zM1071 1516q189 0 338 -85.5t230 -232t81 -326.5q0 -181 -71.5 -349.5t-200.5 -297.5q-120 -120 -271 -186t-321 -66q-187 0 -336 85t-231 231.5t-82 326.5q0 181 72.5 350t201.5 298q120 120 270.5 186t319.5 66zM862 102
q136 0 257.5 54.5t217.5 150.5q110 110 172 258t62 303q0 223 -140.5 370.5t-365.5 147.5q-268 0 -475 -204q-110 -110 -172 -258t-62 -303q0 -146 61.5 -264t178 -186.5t266.5 -68.5z" />
    <glyph glyph-name="Oacute" unicode="&#xd3;" horiz-adv-x="1822" 
d="M1100 1647l278 264l150 -70l-291 -194h-137zM1071 1516q189 0 338 -85.5t230 -232t81 -326.5q0 -181 -71.5 -349.5t-200.5 -297.5q-120 -120 -271 -186t-321 -66q-187 0 -336 85t-231 231.5t-82 326.5q0 181 72.5 350t201.5 298q120 120 270.5 186t319.5 66zM862 102
q136 0 257.5 54.5t217.5 150.5q110 110 172 258t62 303q0 223 -140.5 370.5t-365.5 147.5q-268 0 -475 -204q-110 -110 -172 -258t-62 -303q0 -146 61.5 -264t178 -186.5t266.5 -68.5z" />
    <glyph glyph-name="Ocircumflex" unicode="&#xd4;" horiz-adv-x="1822" 
d="M1071 1516q189 0 338 -85.5t230 -232t81 -326.5q0 -181 -71.5 -349.5t-200.5 -297.5q-120 -120 -271 -186t-321 -66q-187 0 -336 85t-231 231.5t-82 326.5q0 181 72.5 350t201.5 298q120 120 270.5 186t319.5 66zM862 102q136 0 257.5 54.5t217.5 150.5q110 110 172 258
t62 303q0 223 -140.5 370.5t-365.5 147.5q-268 0 -475 -204q-110 -110 -172 -258t-62 -303q0 -146 61.5 -264t178 -186.5t266.5 -68.5zM870 1647l293 241h129l164 -241h-127l-123 129l-192 -129h-144z" />
    <glyph glyph-name="Otilde" unicode="&#xd5;" horiz-adv-x="1822" 
d="M946 1628l-90 27q50 107 101 155t118 48q54 0 142 -43q10 -4 33.5 -13.5t34.5 -13.5t27.5 -8t28.5 -4q40 0 66 21t59 77l93 -27q-51 -108 -102 -154t-120 -46q-17 0 -37.5 5t-31 8t-39.5 15t-33 13q-84 41 -123 41t-64 -21.5t-63 -79.5zM1071 1516q189 0 338 -85.5
t230 -232t81 -326.5q0 -181 -71.5 -349.5t-200.5 -297.5q-120 -120 -271 -186t-321 -66q-187 0 -336 85t-231 231.5t-82 326.5q0 181 72.5 350t201.5 298q120 120 270.5 186t319.5 66zM862 102q136 0 257.5 54.5t217.5 150.5q110 110 172 258t62 303q0 223 -140.5 370.5
t-365.5 147.5q-268 0 -475 -204q-110 -110 -172 -258t-62 -303q0 -146 61.5 -264t178 -186.5t266.5 -68.5z" />
    <glyph glyph-name="Odieresis" unicode="&#xd6;" horiz-adv-x="1822" 
d="M895 1647l49 178h180l-49 -178h-180zM1284 1647l49 178h178l-49 -178h-178zM1071 1516q189 0 338 -85.5t230 -232t81 -326.5q0 -181 -71.5 -349.5t-200.5 -297.5q-120 -120 -271 -186t-321 -66q-187 0 -336 85t-231 231.5t-82 326.5q0 181 72.5 350t201.5 298
q120 120 270.5 186t319.5 66zM862 102q136 0 257.5 54.5t217.5 150.5q110 110 172 258t62 303q0 223 -140.5 370.5t-365.5 147.5q-268 0 -475 -204q-110 -110 -172 -258t-62 -303q0 -146 61.5 -264t178 -186.5t266.5 -68.5z" />
    <glyph glyph-name="multiply" unicode="&#xd7;" horiz-adv-x="1351" 
d="M233 279l-73 100l483 381l-278 375l110 84l275 -379l481 383l74 -103l-484 -379l279 -372l-111 -86l-274 379z" />
    <glyph glyph-name="Oslash" unicode="&#xd8;" horiz-adv-x="1822" 
d="M1071 1516q296 0 483 -203l220 188h172l-324 -276q98 -156 98 -353q0 -181 -71.5 -349.5t-200.5 -297.5q-120 -120 -271 -186t-321 -66q-146 0 -269.5 52.5t-211.5 146.5l-221 -184h-172l323 274q-98 156 -98 354q0 181 72.5 350t201.5 298q120 120 270.5 186t319.5 66z
M354 618q0 -148 62 -266l1032 875q-143 162 -381 162q-137 0 -259 -54.5t-218 -150.5q-111 -111 -173.5 -260t-62.5 -306zM862 100q270 0 477 207q111 111 172.5 258.5t61.5 304.5q0 142 -62 263l-1032 -873q141 -160 383 -160z" />
    <glyph glyph-name="Ugrave" unicode="&#xd9;" horiz-adv-x="1636" 
d="M1006 1620l-185 195l148 69l137 -264h-100zM752 -23q-259 0 -399 130.5t-140 343.5q0 113 31 231l215 809h143l-227 -858q-21 -65 -21 -168q0 -160 104.5 -259.5t305.5 -99.5q200 0 346 146q132 132 199 377l231 862h143l-237 -889q-76 -278 -236 -438
q-187 -187 -458 -187z" />
    <glyph glyph-name="Uacute" unicode="&#xda;" horiz-adv-x="1636" 
d="M1008 1620l278 264l150 -69l-291 -195h-137zM752 -23q-259 0 -399 130.5t-140 343.5q0 113 31 231l215 809h143l-227 -858q-21 -65 -21 -168q0 -160 104.5 -259.5t305.5 -99.5q200 0 346 146q132 132 199 377l231 862h143l-237 -889q-76 -278 -236 -438
q-187 -187 -458 -187z" />
    <glyph glyph-name="Ucircumflex" unicode="&#xdb;" horiz-adv-x="1636" 
d="M752 -23q-259 0 -399 130.5t-140 343.5q0 113 31 231l215 809h143l-227 -858q-21 -65 -21 -168q0 -160 104.5 -259.5t305.5 -99.5q200 0 346 146q132 132 199 377l231 862h143l-237 -889q-76 -278 -236 -438q-187 -187 -458 -187zM776 1620l293 242h129l164 -242h-127
l-123 129l-192 -129h-144z" />
    <glyph glyph-name="Udieresis" unicode="&#xdc;" horiz-adv-x="1636" 
d="M801 1620l49 178h180l-49 -178h-180zM1190 1620l49 178h178l-49 -178h-178zM752 -23q-259 0 -399 130.5t-140 343.5q0 113 31 231l215 809h143l-227 -858q-21 -65 -21 -168q0 -160 104.5 -259.5t305.5 -99.5q200 0 346 146q132 132 199 377l231 862h143l-237 -889
q-76 -278 -236 -438q-187 -187 -458 -187z" />
    <glyph glyph-name="Yacute" unicode="&#xdd;" horiz-adv-x="1441" 
d="M489 0l162 602l-377 889h158l318 -774l735 774h186l-885 -918l-153 -573h-144zM901 1620l279 264l149 -69l-291 -195h-137z" />
    <glyph glyph-name="Thorn" unicode="&#xde;" horiz-adv-x="1454" 
d="M82 0l399 1491h142l-68 -262h322q282 0 419 -137q105 -105 105 -273q0 -213 -137 -344q-194 -194 -598 -194h-365l-76 -281h-143zM334 408h338q336 0 485 149q98 98 98 254q0 114 -71 188q-102 99 -312 99h-352z" />
    <glyph glyph-name="germandbls" unicode="&#xdf;" horiz-adv-x="1349" 
d="M483 -4l31 117q135 0 238.5 26.5t165 72.5t92 102.5t30.5 121.5q0 218 -364 281l31 112q233 56 339.5 150t106.5 231q0 106 -74 171t-202 65q-146 0 -250 -107.5t-156 -302.5l-276 -1036h-138l285 1065q61 231 186 356q148 148 359 148q179 0 293 -98.5t114 -251.5
q0 -89 -33.5 -163t-94.5 -127.5t-136.5 -91t-169.5 -63.5q145 -40 233.5 -124.5t88.5 -215.5q0 -196 -186 -319t-513 -119z" />
    <glyph glyph-name="agrave" unicode="&#xe0;" horiz-adv-x="1245" 
d="M408 -25q-92 0 -171 34t-130.5 105.5t-51.5 166.5q0 153 107 260q135 135 385 135q192 0 403 -60l6 27q17 70 17 107q0 116 -79 176.5t-232 60.5q-163 0 -314 -59l-24 119q176 63 354 63q203 0 315.5 -90t112.5 -250q0 -60 -23 -147l-165 -623h-134l47 178
q-174 -203 -423 -203zM444 90q151 0 284.5 96t172.5 246l23 86q-189 49 -381 49q-170 0 -273 -96q-71 -71 -71 -174q0 -94 66.5 -150.5t178.5 -56.5zM709 1268l-172 225l153 72l115 -297h-96z" />
    <glyph glyph-name="aacute" unicode="&#xe1;" horiz-adv-x="1245" 
d="M408 -25q-92 0 -171 34t-130.5 105.5t-51.5 166.5q0 153 107 260q135 135 385 135q192 0 403 -60l6 27q17 70 17 107q0 116 -79 176.5t-232 60.5q-163 0 -314 -59l-24 119q176 63 354 63q203 0 315.5 -90t112.5 -250q0 -60 -23 -147l-165 -623h-134l47 178
q-174 -203 -423 -203zM444 90q151 0 284.5 96t172.5 246l23 86q-189 49 -381 49q-170 0 -273 -96q-71 -71 -71 -174q0 -94 66.5 -150.5t178.5 -56.5zM702 1268l277 297l154 -72l-297 -225h-134z" />
    <glyph glyph-name="acircumflex" unicode="&#xe2;" horiz-adv-x="1245" 
d="M408 -25q-92 0 -171 34t-130.5 105.5t-51.5 166.5q0 153 107 260q135 135 385 135q192 0 403 -60l6 27q17 70 17 107q0 116 -79 176.5t-232 60.5q-163 0 -314 -59l-24 119q176 63 354 63q203 0 315.5 -90t112.5 -250q0 -60 -23 -147l-165 -623h-134l47 178
q-174 -203 -423 -203zM444 90q151 0 284.5 96t172.5 246l23 86q-189 49 -381 49q-170 0 -273 -96q-71 -71 -71 -174q0 -94 66.5 -150.5t178.5 -56.5zM489 1268l293 270h119l148 -270h-115l-115 143l-205 -143h-125z" />
    <glyph glyph-name="atilde" unicode="&#xe3;" horiz-adv-x="1245" 
d="M408 -25q-92 0 -171 34t-130.5 105.5t-51.5 166.5q0 153 107 260q135 135 385 135q192 0 403 -60l6 27q17 70 17 107q0 116 -79 176.5t-232 60.5q-163 0 -314 -59l-24 119q176 63 354 63q203 0 315.5 -90t112.5 -250q0 -60 -23 -147l-165 -623h-134l47 178
q-174 -203 -423 -203zM444 90q151 0 284.5 96t172.5 246l23 86q-189 49 -381 49q-170 0 -273 -96q-71 -71 -71 -174q0 -94 66.5 -150.5t178.5 -56.5zM1067 1503l88 -24q-53 -118 -102.5 -164.5t-122.5 -46.5q-50 0 -142 45q-77 41 -120 41q-41 0 -67.5 -23t-59.5 -84l-90 25
q54 119 103.5 166t121.5 47q45 0 141 -45q77 -41 121 -41q41 0 67 21.5t62 82.5z" />
    <glyph glyph-name="adieresis" unicode="&#xe4;" horiz-adv-x="1245" 
d="M408 -25q-92 0 -171 34t-130.5 105.5t-51.5 166.5q0 153 107 260q135 135 385 135q192 0 403 -60l6 27q17 70 17 107q0 116 -79 176.5t-232 60.5q-163 0 -314 -59l-24 119q176 63 354 63q203 0 315.5 -90t112.5 -250q0 -60 -23 -147l-165 -623h-134l47 178
q-174 -203 -423 -203zM444 90q151 0 284.5 96t172.5 246l23 86q-189 49 -381 49q-170 0 -273 -96q-71 -71 -71 -174q0 -94 66.5 -150.5t178.5 -56.5zM510 1268l51 188h172l-51 -188h-172zM872 1268l52 188h172l-52 -188h-172z" />
    <glyph glyph-name="aring" unicode="&#xe5;" horiz-adv-x="1245" 
d="M408 -25q-92 0 -171 34t-130.5 105.5t-51.5 166.5q0 153 107 260q135 135 385 135q192 0 403 -60l6 27q17 70 17 107q0 116 -79 176.5t-232 60.5q-163 0 -314 -59l-24 119q176 63 354 63q203 0 315.5 -90t112.5 -250q0 -60 -23 -147l-165 -623h-134l47 178
q-174 -203 -423 -203zM444 90q151 0 284.5 96t172.5 246l23 86q-189 49 -381 49q-170 0 -273 -96q-71 -71 -71 -174q0 -94 66.5 -150.5t178.5 -56.5zM1071 1501q0 -96 -77 -166.5t-179 -70.5q-96 0 -155.5 55.5t-59.5 142.5q0 97 75.5 167.5t178.5 70.5q97 0 157 -56
t60 -143zM684 1466q0 -57 35.5 -93t97.5 -36q70 0 120 46.5t50 113.5q0 57 -36.5 93t-98.5 36q-68 0 -118 -46.5t-50 -113.5z" />
    <glyph glyph-name="ae" unicode="&#xe6;" horiz-adv-x="2074" 
d="M1405 -25q-159 0 -269.5 68.5t-166.5 189.5q-243 -258 -549 -258q-100 0 -181 33.5t-132.5 104t-51.5 168.5q0 153 107 260q135 135 385 135q192 0 403 -60l6 27q17 70 17 107q0 116 -79 176.5t-232 60.5q-163 0 -314 -59l-24 119q176 63 354 63q167 0 272.5 -63.5
t134.5 -180.5q89 115 211.5 184.5t257.5 69.5q197 0 307.5 -120.5t110.5 -299.5q0 -110 -33 -200h-878q-2 -23 -2 -58q0 -158 94 -253t252 -95q107 0 186.5 34t167.5 103l74 -92q-201 -164 -428 -164zM455 90q249 0 483 248q-14 79 -4 176q-164 53 -391 53q-170 0 -273 -96
q-71 -71 -71 -174q0 -94 69 -150.5t187 -56.5zM1229 862q-106 -109 -146 -252h744q10 33 10 86q0 132 -73.5 217.5t-215.5 85.5q-179 0 -319 -137z" />
    <glyph glyph-name="ccedilla" unicode="&#xe7;" horiz-adv-x="1222" 
d="M373 -324l-123 64l233 248q-160 34 -263 156t-103 307q0 134 53 258.5t147 218.5q90 90 204.5 141t238.5 51q159 0 268 -74t164 -188l-113 -70q-35 62 -74.5 105t-105 72.5t-147.5 29.5q-181 0 -326 -145q-77 -77 -121.5 -179.5t-44.5 -215.5q0 -164 101.5 -260.5
t242.5 -96.5q97 0 177.5 38.5t160.5 111.5l86 -90q-199 -183 -430 -183h-4z" />
    <glyph glyph-name="egrave" unicode="&#xe8;" horiz-adv-x="1273" 
d="M1137 500h-877q-2 -18 -2 -58q0 -155 92 -251.5t244 -96.5q106 0 191.5 35t170.5 102l74 -92q-95 -79 -200 -121.5t-244 -42.5q-209 0 -339 129t-130 334q0 136 55 266.5t154 229.5q186 186 426 186q133 0 230 -58.5t143 -152t46 -209.5q0 -110 -34 -200zM428 862
q-97 -97 -147 -252h745q8 24 8 86q0 132 -73.5 217.5t-215.5 85.5q-180 0 -317 -137zM768 1268l-172 225l154 72l114 -297h-96z" />
    <glyph glyph-name="eacute" unicode="&#xe9;" horiz-adv-x="1273" 
d="M762 1268l276 297l154 -72l-297 -225h-133zM1137 500h-877q-2 -18 -2 -58q0 -155 92 -251.5t244 -96.5q106 0 191.5 35t170.5 102l74 -92q-95 -79 -200 -121.5t-244 -42.5q-209 0 -339 129t-130 334q0 136 55 266.5t154 229.5q186 186 426 186q133 0 230 -58.5t143 -152
t46 -209.5q0 -110 -34 -200zM428 862q-97 -97 -147 -252h745q8 24 8 86q0 132 -73.5 217.5t-215.5 85.5q-180 0 -317 -137z" />
    <glyph glyph-name="ecircumflex" unicode="&#xea;" horiz-adv-x="1273" 
d="M547 1268l293 270h118l148 -270h-115l-114 143l-205 -143h-125zM1137 500h-877q-2 -18 -2 -58q0 -155 92 -251.5t244 -96.5q106 0 191.5 35t170.5 102l74 -92q-95 -79 -200 -121.5t-244 -42.5q-209 0 -339 129t-130 334q0 136 55 266.5t154 229.5q186 186 426 186
q133 0 230 -58.5t143 -152t46 -209.5q0 -110 -34 -200zM428 862q-97 -97 -147 -252h745q8 24 8 86q0 132 -73.5 217.5t-215.5 85.5q-180 0 -317 -137z" />
    <glyph glyph-name="edieresis" unicode="&#xeb;" horiz-adv-x="1273" 
d="M569 1268l52 188h172l-52 -188h-172zM932 1268l51 188h172l-51 -188h-172zM1137 500h-877q-2 -18 -2 -58q0 -155 92 -251.5t244 -96.5q106 0 191.5 35t170.5 102l74 -92q-95 -79 -200 -121.5t-244 -42.5q-209 0 -339 129t-130 334q0 136 55 266.5t154 229.5
q186 186 426 186q133 0 230 -58.5t143 -152t46 -209.5q0 -110 -34 -200zM428 862q-97 -97 -147 -252h745q8 24 8 86q0 132 -73.5 217.5t-215.5 85.5q-180 0 -317 -137z" />
    <glyph glyph-name="igrave" unicode="&#xec;" horiz-adv-x="573" 
d="M72 0l293 1094h137l-293 -1094h-137zM412 1268l-172 225l153 72l115 -297h-96z" />
    <glyph glyph-name="iacute" unicode="&#xed;" horiz-adv-x="573" 
d="M408 1268l276 297l154 -72l-297 -225h-133zM72 0l293 1094h137l-293 -1094h-137z" />
    <glyph glyph-name="icircumflex" unicode="&#xee;" horiz-adv-x="573" 
d="M193 1268l292 270h119l148 -270h-115l-115 143l-205 -143h-124zM72 0l293 1094h137l-293 -1094h-137z" />
    <glyph glyph-name="idieresis" unicode="&#xef;" horiz-adv-x="573" 
d="M215 1268l51 188h172l-51 -188h-172zM578 1268l51 188h172l-51 -188h-172zM72 0l293 1094h137l-293 -1094h-137z" />
    <glyph glyph-name="eth" unicode="&#xf0;" horiz-adv-x="1359" 
d="M569 1212l-45 97l275 114q-65 85 -107 131h174q34 -40 60 -79l235 98l43 -94l-217 -93q264 -393 264 -720q0 -306 -200 -506q-185 -185 -447 -185q-219 0 -353 139t-134 355q0 131 49 246t137 203q81 83 187.5 129.5t222.5 46.5q244 0 397 -217q-71 214 -246 458zM616 98
q190 0 338 148q71 69 111.5 161.5t40.5 194.5q0 161 -107 268t-276 107q-179 0 -313 -131q-72 -72 -111 -168.5t-39 -202.5q0 -169 96 -273t260 -104z" />
    <glyph glyph-name="ntilde" unicode="&#xf1;" horiz-adv-x="1329" 
d="M55 0l293 1094h137l-49 -189q88 103 181 159t214 56q159 0 256 -94.5t97 -249.5q0 -64 -25 -162l-162 -614h-137l166 623q16 62 16 129q0 115 -68.5 179t-191.5 64q-135 0 -257 -106.5t-167 -270.5l-163 -618h-140zM1143 1503l88 -24q-53 -118 -102.5 -164.5
t-122.5 -46.5q-50 0 -142 45q-77 41 -121 41q-41 0 -67.5 -23t-59.5 -84l-90 25q54 119 104 166t122 47q45 0 141 -45q77 -41 121 -41q41 0 67 21.5t62 82.5z" />
    <glyph glyph-name="ograve" unicode="&#xf2;" horiz-adv-x="1376" 
d="M766 1120q220 0 357 -137.5t137 -351.5q0 -129 -52.5 -249t-146.5 -214q-90 -90 -206.5 -141.5t-242.5 -51.5q-220 0 -356.5 137t-136.5 351q0 129 51.5 249.5t144.5 213.5q94 91 210 142.5t241 51.5zM623 98q181 0 329 148q76 75 120 174.5t44 206.5q0 174 -99 271
t-263 97q-90 0 -176 -38.5t-154 -106.5q-76 -76 -119 -176t-43 -207q0 -174 99 -271.5t262 -97.5zM799 1268l-172 225l153 72l115 -297h-96z" />
    <glyph glyph-name="oacute" unicode="&#xf3;" horiz-adv-x="1376" 
d="M793 1268l276 297l154 -72l-297 -225h-133zM766 1120q220 0 357 -137.5t137 -351.5q0 -129 -52.5 -249t-146.5 -214q-90 -90 -206.5 -141.5t-242.5 -51.5q-220 0 -356.5 137t-136.5 351q0 129 51.5 249.5t144.5 213.5q94 91 210 142.5t241 51.5zM623 98q181 0 329 148
q76 75 120 174.5t44 206.5q0 174 -99 271t-263 97q-90 0 -176 -38.5t-154 -106.5q-76 -76 -119 -176t-43 -207q0 -174 99 -271.5t262 -97.5z" />
    <glyph glyph-name="ocircumflex" unicode="&#xf4;" horiz-adv-x="1376" 
d="M580 1268l292 270h119l148 -270h-115l-115 143l-204 -143h-125zM766 1120q220 0 357 -137.5t137 -351.5q0 -129 -52.5 -249t-146.5 -214q-90 -90 -206.5 -141.5t-242.5 -51.5q-220 0 -356.5 137t-136.5 351q0 129 51.5 249.5t144.5 213.5q94 91 210 142.5t241 51.5z
M623 98q181 0 329 148q76 75 120 174.5t44 206.5q0 174 -99 271t-263 97q-90 0 -176 -38.5t-154 -106.5q-76 -76 -119 -176t-43 -207q0 -174 99 -271.5t262 -97.5z" />
    <glyph glyph-name="otilde" unicode="&#xf5;" horiz-adv-x="1376" 
d="M766 1120q220 0 357 -137.5t137 -351.5q0 -129 -52.5 -249t-146.5 -214q-90 -90 -206.5 -141.5t-242.5 -51.5q-220 0 -356.5 137t-136.5 351q0 129 51.5 249.5t144.5 213.5q94 91 210 142.5t241 51.5zM623 98q181 0 329 148q76 75 120 174.5t44 206.5q0 174 -99 271
t-263 97q-90 0 -176 -38.5t-154 -106.5q-76 -76 -119 -176t-43 -207q0 -174 99 -271.5t262 -97.5zM1161 1503l88 -24q-53 -118 -102.5 -164.5t-122.5 -46.5q-49 0 -141 45q-77 41 -121 41q-41 0 -67.5 -23t-59.5 -84l-90 25q54 119 103.5 166t121.5 47q45 0 141 -45
q77 -41 121 -41q41 0 67 21.5t62 82.5z" />
    <glyph glyph-name="odieresis" unicode="&#xf6;" horiz-adv-x="1376" 
d="M602 1268l51 188h172l-51 -188h-172zM965 1268l51 188h172l-51 -188h-172zM766 1120q220 0 357 -137.5t137 -351.5q0 -129 -52.5 -249t-146.5 -214q-90 -90 -206.5 -141.5t-242.5 -51.5q-220 0 -356.5 137t-136.5 351q0 129 51.5 249.5t144.5 213.5q94 91 210 142.5
t241 51.5zM623 98q181 0 329 148q76 75 120 174.5t44 206.5q0 174 -99 271t-263 97q-90 0 -176 -38.5t-154 -106.5q-76 -76 -119 -176t-43 -207q0 -174 99 -271.5t262 -97.5z" />
    <glyph glyph-name="divide" unicode="&#xf7;" horiz-adv-x="1351" 
d="M494 229l55 207h196l-57 -207h-194zM195 686l34 127h1039l-35 -127h-1038zM717 1063l55 207h195l-56 -207h-194z" />
    <glyph glyph-name="oslash" unicode="&#xf8;" horiz-adv-x="1376" 
d="M766 1120q220 0 360 -143l156 129h164l-256 -213q70 -113 70 -262q0 -129 -52.5 -249t-146.5 -214q-90 -90 -206.5 -141.5t-242.5 -51.5q-223 0 -362 142l-154 -129h-164l254 211q-67 118 -67 264q0 129 51.5 249.5t144.5 213.5q94 91 210 142.5t241 51.5zM756 995
q-92 0 -178 -38.5t-154 -106.5q-77 -77 -120.5 -176.5t-43.5 -206.5q0 -99 35 -180l729 606q-94 102 -268 102zM1116 627q0 99 -35 180l-729 -606q95 -103 269 -103q187 0 333 146q76 76 119 176t43 207z" />
    <glyph glyph-name="ugrave" unicode="&#xf9;" horiz-adv-x="1325" 
d="M494 -25q-161 0 -257 93.5t-96 248.5q0 58 27 164l162 613h137l-168 -623q-16 -62 -16 -129q0 -115 69.5 -179.5t192.5 -64.5q134 0 256 108t166 271l166 617h137l-293 -1094h-137l49 190q-174 -215 -395 -215zM764 1268l-172 225l153 72l115 -297h-96z" />
    <glyph glyph-name="uacute" unicode="&#xfa;" horiz-adv-x="1325" 
d="M760 1268l276 297l154 -72l-297 -225h-133zM494 -25q-161 0 -257 93.5t-96 248.5q0 58 27 164l162 613h137l-168 -623q-16 -62 -16 -129q0 -115 69.5 -179.5t192.5 -64.5q134 0 256 108t166 271l166 617h137l-293 -1094h-137l49 190q-174 -215 -395 -215z" />
    <glyph glyph-name="ucircumflex" unicode="&#xfb;" horiz-adv-x="1325" 
d="M545 1268l293 270h118l148 -270h-115l-115 143l-204 -143h-125zM494 -25q-161 0 -257 93.5t-96 248.5q0 58 27 164l162 613h137l-168 -623q-16 -62 -16 -129q0 -115 69.5 -179.5t192.5 -64.5q134 0 256 108t166 271l166 617h137l-293 -1094h-137l49 190
q-174 -215 -395 -215z" />
    <glyph glyph-name="udieresis" unicode="&#xfc;" horiz-adv-x="1325" 
d="M565 1268l51 188h172l-51 -188h-172zM928 1268l51 188h172l-51 -188h-172zM494 -25q-161 0 -257 93.5t-96 248.5q0 58 27 164l162 613h137l-168 -623q-16 -62 -16 -129q0 -115 69.5 -179.5t192.5 -64.5q134 0 256 108t166 271l166 617h137l-293 -1094h-137l49 190
q-174 -215 -395 -215z" />
    <glyph glyph-name="yacute" unicode="&#xfd;" horiz-adv-x="1241" 
d="M406 0l-209 1094h145l166 -940l618 940h162l-764 -1131q-115 -169 -219 -240t-229 -71q-129 0 -236 76l74 104q83 -59 178 -59q78 0 152 51.5t162 175.5zM686 1268l277 297l153 -72l-297 -225h-133z" />
    <glyph glyph-name="thorn" unicode="&#xfe;" horiz-adv-x="1423" 
d="M610 1554l-178 -659q191 225 432 225q190 0 313 -130t123 -333q0 -150 -54 -280t-150 -225q-176 -179 -412 -179q-161 0 -268 81.5t-152 205.5l-162 -600h-137l508 1894h137zM674 98q184 0 317 133q78 78 121 186t43 226q0 157 -89.5 254.5t-231.5 97.5q-93 0 -183.5 -41
t-163.5 -114q-78 -78 -123 -177.5t-45 -205.5q0 -154 99.5 -256.5t255.5 -102.5z" />
    <glyph glyph-name="ydieresis" unicode="&#xff;" horiz-adv-x="1241" 
d="M406 0l-209 1094h145l166 -940l618 940h162l-764 -1131q-115 -169 -219 -240t-229 -71q-129 0 -236 76l74 104q83 -59 178 -59q78 0 152 51.5t162 175.5zM492 1268l51 188h172l-51 -188h-172zM854 1268l51 188h172l-51 -188h-172z" />
    <glyph glyph-name="Amacron" unicode="&#x100;" horiz-adv-x="1642" 
d="M-68 0l1090 1501h137l283 -1501h-146l-71 406h-844l-291 -406h-158zM473 535h727l-145 806zM805 1696l33 123h682l-33 -123h-682z" />
    <glyph glyph-name="amacron" unicode="&#x101;" horiz-adv-x="1245" 
d="M408 -25q-92 0 -171 34t-130.5 105.5t-51.5 166.5q0 153 107 260q135 135 385 135q192 0 403 -60l6 27q17 70 17 107q0 116 -79 176.5t-232 60.5q-163 0 -314 -59l-24 119q176 63 354 63q203 0 315.5 -90t112.5 -250q0 -60 -23 -147l-165 -623h-134l47 178
q-174 -203 -423 -203zM444 90q151 0 284.5 96t172.5 246l23 86q-189 49 -381 49q-170 0 -273 -96q-71 -71 -71 -174q0 -94 66.5 -150.5t178.5 -56.5zM459 1317l33 117h665l-33 -117h-665z" />
    <glyph glyph-name="Abreve" unicode="&#x102;" horiz-adv-x="1642" 
d="M-68 0l1090 1501h137l283 -1501h-146l-71 406h-844l-291 -406h-158zM473 535h727l-145 806zM1139 1642q-129 0 -194.5 60.5t-45.5 169.5h107q5 -57 40.5 -84t118.5 -27q154 0 217 111h119q-36 -108 -134 -169t-228 -61z" />
    <glyph glyph-name="abreve" unicode="&#x103;" horiz-adv-x="1245" 
d="M408 -25q-92 0 -171 34t-130.5 105.5t-51.5 166.5q0 153 107 260q135 135 385 135q192 0 403 -60l6 27q17 70 17 107q0 116 -79 176.5t-232 60.5q-163 0 -314 -59l-24 119q176 63 354 63q203 0 315.5 -90t112.5 -250q0 -60 -23 -147l-165 -623h-134l47 178
q-174 -203 -423 -203zM444 90q151 0 284.5 96t172.5 246l23 86q-189 49 -381 49q-170 0 -273 -96q-71 -71 -71 -174q0 -94 66.5 -150.5t178.5 -56.5zM788 1264q-133 0 -197 68.5t-44 185.5h102q-2 -66 35.5 -101t122.5 -35q151 0 231 136h111q-41 -118 -137.5 -186
t-223.5 -68z" />
    <glyph glyph-name="Aogonek" unicode="&#x104;" horiz-adv-x="1642" 
d="M1395 -262l-21 -88h-18q-230 12 -230 141q0 56 44 108t124 107v2l-69 398h-844l-291 -406h-158l1090 1501h137l283 -1501h-25q-160 -109 -160 -184q0 -35 32.5 -52.5t105.5 -25.5zM473 535h727l-145 806z" />
    <glyph glyph-name="aogonek" unicode="&#x105;" horiz-adv-x="1245" 
d="M883 -262l-21 -88h-18q-230 12 -230 141q0 102 172 219v2l45 166q-174 -203 -423 -203q-92 0 -171 34t-130.5 105.5t-51.5 166.5q0 153 107 260q135 135 385 135q192 0 403 -60l6 27q17 70 17 107q0 116 -79 176.5t-232 60.5q-163 0 -314 -59l-24 119q176 63 354 63
q203 0 315.5 -90t112.5 -250q0 -60 -23 -147l-165 -623h-13q-160 -109 -160 -184q0 -35 32.5 -52.5t105.5 -25.5zM444 90q151 0 284.5 96t172.5 246l23 86q-189 49 -381 49q-170 0 -273 -96q-71 -71 -71 -174q0 -94 66.5 -150.5t178.5 -56.5z" />
    <glyph glyph-name="Cacute" unicode="&#x106;" horiz-adv-x="1593" 
d="M823 -27q-128 0 -241.5 42.5t-198 120t-133.5 193.5t-49 255q0 189 74.5 363.5t207.5 307.5q126 123 282 192t329 69q196 0 336.5 -86.5t218.5 -233.5l-123 -72q-76 129 -180.5 195.5t-264.5 66.5q-138 0 -261.5 -55t-223.5 -155q-117 -117 -182.5 -269.5t-65.5 -316.5
q0 -222 136.5 -354t349.5 -132q147 0 262 54.5t219 158.5l94 -92q-245 -252 -586 -252zM1059 1647l278 264l150 -70l-291 -194h-137z" />
    <glyph glyph-name="cacute" unicode="&#x107;" horiz-adv-x="1222" 
d="M737 1268l277 297l153 -72l-297 -225h-133zM598 -25q-128 0 -236 55t-176.5 165.5t-68.5 255.5q0 134 53 258.5t147 218.5q90 90 204.5 141t238.5 51q159 0 268 -74t164 -188l-113 -70q-35 62 -74.5 105t-105 72.5t-147.5 29.5q-181 0 -326 -145q-77 -77 -121.5 -179.5
t-44.5 -215.5q0 -164 101.5 -260.5t242.5 -96.5q97 0 177.5 38.5t160.5 111.5l86 -90q-199 -183 -430 -183z" />
    <glyph glyph-name="Cdotaccent" unicode="&#x10a;" horiz-adv-x="1593" 
d="M1042 1647l50 178h184l-49 -178h-185zM823 -27q-128 0 -241.5 42.5t-198 120t-133.5 193.5t-49 255q0 189 74.5 363.5t207.5 307.5q126 123 282 192t329 69q196 0 336.5 -86.5t218.5 -233.5l-123 -72q-76 129 -180.5 195.5t-264.5 66.5q-138 0 -261.5 -55t-223.5 -155
q-117 -117 -182.5 -269.5t-65.5 -316.5q0 -222 136.5 -354t349.5 -132q147 0 262 54.5t219 158.5l94 -92q-245 -252 -586 -252z" />
    <glyph glyph-name="cdotaccent" unicode="&#x10b;" horiz-adv-x="1222" 
d="M598 -25q-128 0 -236 55t-176.5 165.5t-68.5 255.5q0 134 53 258.5t147 218.5q90 90 204.5 141t238.5 51q159 0 268 -74t164 -188l-113 -70q-35 62 -74.5 105t-105 72.5t-147.5 29.5q-181 0 -326 -145q-77 -77 -121.5 -179.5t-44.5 -215.5q0 -164 101.5 -260.5
t242.5 -96.5q97 0 177.5 38.5t160.5 111.5l86 -90q-199 -183 -430 -183zM729 1264l53 196h166l-53 -196h-166z" />
    <glyph glyph-name="Ccaron" unicode="&#x10c;" horiz-adv-x="1593" 
d="M823 -27q-128 0 -241.5 42.5t-198 120t-133.5 193.5t-49 255q0 189 74.5 363.5t207.5 307.5q126 123 282 192t329 69q196 0 336.5 -86.5t218.5 -233.5l-123 -72q-76 129 -180.5 195.5t-264.5 66.5q-138 0 -261.5 -55t-223.5 -155q-117 -117 -182.5 -269.5t-65.5 -316.5
q0 -222 136.5 -354t349.5 -132q147 0 262 54.5t219 158.5l94 -92q-245 -252 -586 -252zM1505 1888l-291 -241h-129l-163 241h127l120 -129l195 129h141z" />
    <glyph glyph-name="ccaron" unicode="&#x10d;" horiz-adv-x="1222" 
d="M715 1268l-148 270h115l113 -143l204 143h127l-295 -270h-116zM598 -25q-128 0 -236 55t-176.5 165.5t-68.5 255.5q0 134 53 258.5t147 218.5q90 90 204.5 141t238.5 51q159 0 268 -74t164 -188l-113 -70q-35 62 -74.5 105t-105 72.5t-147.5 29.5q-181 0 -326 -145
q-77 -77 -121.5 -179.5t-44.5 -215.5q0 -164 101.5 -260.5t242.5 -96.5q97 0 177.5 38.5t160.5 111.5l86 -90q-199 -183 -430 -183z" />
    <glyph glyph-name="Dcaron" unicode="&#x10e;" horiz-adv-x="1669" 
d="M1415 1868l-291 -242h-129l-164 242h127l121 -129l195 129h141zM82 0l399 1491h350q182 0 332.5 -51t247.5 -148q164 -167 164 -428q0 -339 -234 -579q-136 -136 -332.5 -210.5t-428.5 -74.5h-498zM1294 1200q-160 160 -473 160h-231l-330 -1229h338q388 0 635 244
q192 195 192 481q0 219 -131 344z" />
    <glyph glyph-name="dcaron" unicode="&#x10f;" horiz-adv-x="1423" 
d="M1554 1241l119 336h148v-6l-195 -330h-72zM938 0l53 199q-192 -226 -432 -226q-190 0 -313 130t-123 333q0 149 54.5 279t150.5 227q181 178 411 178q85 0 156.5 -24t122 -66t85 -91t58.5 -108l193 723h137l-416 -1554h-137zM592 98q91 0 181 41.5t163 114.5
q78 78 123 177t45 206q0 152 -99 255t-255 103q-182 0 -318 -133q-78 -78 -121 -185.5t-43 -225.5q0 -160 90 -256.5t234 -96.5z" />
    <glyph glyph-name="Dcroat" unicode="&#x110;" horiz-adv-x="1728" 
d="M141 0l185 690h-162l33 121h161l185 680h348q185 0 335 -51t247 -148q163 -166 163 -428q0 -344 -235 -579q-136 -136 -332.5 -210.5t-429.5 -74.5h-498zM936 690h-467l-150 -559h338q193 0 355 63t282 181q193 196 193 481q0 216 -131 344q-160 160 -473 160h-232
l-149 -549h467z" />
    <glyph glyph-name="dcroat" unicode="&#x111;" horiz-adv-x="1423" 
d="M903 1309l29 108h385l37 137h137l-37 -137h148l-29 -108h-148l-350 -1309h-137l53 199q-192 -226 -432 -226q-190 0 -313 130t-123 333q0 149 54.5 279t150.5 227q181 178 411 178q85 0 156.5 -24t122 -66t85 -91t58.5 -108l127 478h-385zM592 98q91 0 181 41.5
t163 114.5q78 78 123 177t45 206q0 152 -99 255t-255 103q-182 0 -318 -133q-78 -78 -121 -185.5t-43 -225.5q0 -160 90 -256.5t234 -96.5z" />
    <glyph glyph-name="Emacron" unicode="&#x112;" horiz-adv-x="1411" 
d="M711 1675l32 123h682l-32 -123h-682zM82 0l399 1491h1061l-37 -131h-915l-148 -543h822l-35 -131h-821l-148 -555h928l-37 -131h-1069z" />
    <glyph glyph-name="emacron" unicode="&#x113;" horiz-adv-x="1273" 
d="M1137 500h-877q-2 -18 -2 -58q0 -155 92 -251.5t244 -96.5q106 0 191.5 35t170.5 102l74 -92q-95 -79 -200 -121.5t-244 -42.5q-209 0 -339 129t-130 334q0 136 55 266.5t154 229.5q186 186 426 186q133 0 230 -58.5t143 -152t46 -209.5q0 -110 -34 -200zM428 862
q-97 -97 -147 -252h745q8 24 8 86q0 132 -73.5 217.5t-215.5 85.5q-180 0 -317 -137zM516 1317l33 117h665l-32 -117h-666z" />
    <glyph glyph-name="Ebreve" unicode="&#x114;" horiz-adv-x="1411" 
d="M1040 1622q-129 0 -194 60t-45 169h106q5 -56 41 -83t119 -27q154 0 217 110h119q-36 -108 -134.5 -168.5t-228.5 -60.5zM82 0l399 1491h1061l-37 -131h-915l-148 -543h822l-35 -131h-821l-148 -555h928l-37 -131h-1069z" />
    <glyph glyph-name="ebreve" unicode="&#x115;" horiz-adv-x="1273" 
d="M1137 500h-877q-2 -18 -2 -58q0 -155 92 -251.5t244 -96.5q106 0 191.5 35t170.5 102l74 -92q-95 -79 -200 -121.5t-244 -42.5q-209 0 -339 129t-130 334q0 136 55 266.5t154 229.5q186 186 426 186q133 0 230 -58.5t143 -152t46 -209.5q0 -110 -34 -200zM428 862
q-97 -97 -147 -252h745q8 24 8 86q0 132 -73.5 217.5t-215.5 85.5q-180 0 -317 -137zM846 1264q-133 0 -197.5 68.5t-44.5 185.5h103q-2 -66 35.5 -101t121.5 -35q152 0 232 136h110q-41 -118 -137 -186t-223 -68z" />
    <glyph glyph-name="Edotaccent" unicode="&#x116;" horiz-adv-x="1411" 
d="M944 1626l49 178h185l-50 -178h-184zM82 0l399 1491h1061l-37 -131h-915l-148 -543h822l-35 -131h-821l-148 -555h928l-37 -131h-1069z" />
    <glyph glyph-name="edotaccent" unicode="&#x117;" horiz-adv-x="1273" 
d="M1137 500h-877q-2 -18 -2 -58q0 -155 92 -251.5t244 -96.5q106 0 191.5 35t170.5 102l74 -92q-95 -79 -200 -121.5t-244 -42.5q-209 0 -339 129t-130 334q0 136 55 266.5t154 229.5q186 186 426 186q133 0 230 -58.5t143 -152t46 -209.5q0 -110 -34 -200zM428 862
q-97 -97 -147 -252h745q8 24 8 86q0 132 -73.5 217.5t-215.5 85.5q-180 0 -317 -137zM754 1264l53 196h166l-53 -196h-166z" />
    <glyph glyph-name="Eogonek" unicode="&#x118;" horiz-adv-x="1411" 
d="M82 0l399 1491h1061l-37 -131h-915l-148 -543h822l-35 -131h-821l-148 -555h928l-37 -131h-10q-160 -109 -160 -184q0 -35 32 -52.5t105 -25.5l-20 -88h-19q-229 12 -229 141q0 101 158 209h-926z" />
    <glyph glyph-name="eogonek" unicode="&#x119;" horiz-adv-x="1273" 
d="M956 231l74 -90q-215 -158 -274 -217q-60 -60 -60 -108q0 -35 32 -52.5t106 -25.5l-21 -88h-18q-230 12 -230 141q0 50 31.5 95.5t99.5 97.5q-49 -9 -110 -9q-209 0 -339 129t-130 334q0 136 55 266.5t154 229.5q186 186 426 186q133 0 230 -58.5t143 -152t46 -209.5
q0 -110 -34 -200h-877q-2 -18 -2 -58q0 -155 92 -251.5t244 -96.5q106 0 191.5 35t170.5 102zM428 862q-97 -97 -147 -252h745q8 24 8 86q0 132 -73.5 217.5t-215.5 85.5q-180 0 -317 -137z" />
    <glyph glyph-name="Ecaron" unicode="&#x11a;" horiz-adv-x="1411" 
d="M1407 1868l-291 -242h-129l-164 242h127l121 -129l195 129h141zM82 0l399 1491h1061l-37 -131h-915l-148 -543h822l-35 -131h-821l-148 -555h928l-37 -131h-1069z" />
    <glyph glyph-name="ecaron" unicode="&#x11b;" horiz-adv-x="1273" 
d="M739 1268l-147 270h115l112 -143l205 143h127l-295 -270h-117zM1137 500h-877q-2 -18 -2 -58q0 -155 92 -251.5t244 -96.5q106 0 191.5 35t170.5 102l74 -92q-95 -79 -200 -121.5t-244 -42.5q-209 0 -339 129t-130 334q0 136 55 266.5t154 229.5q186 186 426 186
q133 0 230 -58.5t143 -152t46 -209.5q0 -110 -34 -200zM428 862q-97 -97 -147 -252h745q8 24 8 86q0 132 -73.5 217.5t-215.5 85.5q-180 0 -317 -137z" />
    <glyph glyph-name="Gbreve" unicode="&#x11e;" horiz-adv-x="1697" 
d="M1165 1642q-129 0 -194 60.5t-45 169.5h106q5 -57 41 -84t119 -27q154 0 217 111h119q-36 -108 -134.5 -169t-228.5 -61zM856 -27q-138 0 -257.5 44t-207.5 124t-138 199.5t-50 263.5q0 178 73 345.5t205 299.5q126 126 287.5 196.5t347.5 70.5q110 0 201.5 -22.5
t157.5 -63.5t111.5 -85.5t84.5 -101.5l-110 -82q-36 52 -74.5 89.5t-92.5 70t-126.5 49t-163.5 16.5q-295 0 -514 -219q-111 -111 -174.5 -258t-63.5 -301q0 -234 141.5 -370t370.5 -136q235 0 406 113l127 442h-471l35 129h610l-187 -657q-246 -156 -528 -156z" />
    <glyph glyph-name="gbreve" unicode="&#x11f;" horiz-adv-x="1423" 
d="M520 -344q-150 0 -289.5 51t-238.5 143l92 99q190 -172 436 -172q205 0 322 117q92 97 141 272l35 123q-96 -98 -199.5 -152.5t-234.5 -54.5q-86 0 -166.5 29t-143.5 81.5t-101 133t-38 176.5q0 252 180 432q88 88 202 137t235 49q88 0 157.5 -22.5t117.5 -64t79.5 -86.5
t56.5 -103l68 250h137l-252 -947q-35 -124 -75.5 -201t-100.5 -134q-156 -156 -420 -156zM618 205q99 0 191.5 40.5t161.5 112.5q67 64 104 144.5t37 165.5q0 63 -25 121t-70 103.5t-113.5 73t-149.5 27.5q-93 0 -180 -36t-152 -103q-141 -141 -141 -338q0 -146 99.5 -228.5
t237.5 -82.5zM909 1264q-133 0 -197 68.5t-44 185.5h102q-2 -66 35.5 -101t122.5 -35q151 0 231 136h111q-41 -118 -137.5 -186t-223.5 -68z" />
    <glyph glyph-name="Gdotaccent" unicode="&#x120;" horiz-adv-x="1697" 
d="M1069 1647l49 178h185l-50 -178h-184zM856 -27q-138 0 -257.5 44t-207.5 124t-138 199.5t-50 263.5q0 178 73 345.5t205 299.5q126 126 287.5 196.5t347.5 70.5q110 0 201.5 -22.5t157.5 -63.5t111.5 -85.5t84.5 -101.5l-110 -82q-36 52 -74.5 89.5t-92.5 70t-126.5 49
t-163.5 16.5q-295 0 -514 -219q-111 -111 -174.5 -258t-63.5 -301q0 -234 141.5 -370t370.5 -136q235 0 406 113l127 442h-471l35 129h610l-187 -657q-246 -156 -528 -156z" />
    <glyph glyph-name="gdotaccent" unicode="&#x121;" horiz-adv-x="1423" 
d="M520 -344q-150 0 -289.5 51t-238.5 143l92 99q190 -172 436 -172q205 0 322 117q92 97 141 272l35 123q-96 -98 -199.5 -152.5t-234.5 -54.5q-86 0 -166.5 29t-143.5 81.5t-101 133t-38 176.5q0 252 180 432q88 88 202 137t235 49q88 0 157.5 -22.5t117.5 -64t79.5 -86.5
t56.5 -103l68 250h137l-252 -947q-35 -124 -75.5 -201t-100.5 -134q-156 -156 -420 -156zM618 205q99 0 191.5 40.5t161.5 112.5q67 64 104 144.5t37 165.5q0 63 -25 121t-70 103.5t-113.5 73t-149.5 27.5q-93 0 -180 -36t-152 -103q-141 -141 -141 -338q0 -146 99.5 -228.5
t237.5 -82.5zM815 1264l53 196h166l-53 -196h-166z" />
    <glyph glyph-name="Gcommaaccent" unicode="&#x122;" horiz-adv-x="1697" 
d="M856 -27q-138 0 -257.5 44t-207.5 124t-138 199.5t-50 263.5q0 178 73 345.5t205 299.5q126 126 287.5 196.5t347.5 70.5q110 0 201.5 -22.5t157.5 -63.5t111.5 -85.5t84.5 -101.5l-110 -82q-36 52 -74.5 89.5t-92.5 70t-126.5 49t-163.5 16.5q-295 0 -514 -219
q-111 -111 -174.5 -258t-63.5 -301q0 -234 141.5 -370t370.5 -136q235 0 406 113l127 442h-471l35 129h610l-187 -657q-246 -156 -528 -156zM528 -500l2 58q72 12 108 40.5t50 84.5h-78l45 163h174l-38 -143q-29 -103 -90.5 -149t-172.5 -54z" />
    <glyph glyph-name="gcommaaccent" unicode="&#x123;" horiz-adv-x="1423" 
d="M520 -344q-150 0 -289.5 51t-238.5 143l92 99q190 -172 436 -172q205 0 322 117q92 97 141 272l35 123q-96 -98 -199.5 -152.5t-234.5 -54.5q-86 0 -166.5 29t-143.5 81.5t-101 133t-38 176.5q0 252 180 432q88 88 202 137t235 49q88 0 157.5 -22.5t117.5 -64t79.5 -86.5
t56.5 -103l68 250h137l-252 -947q-35 -124 -75.5 -201t-100.5 -134q-156 -156 -420 -156zM618 205q99 0 191.5 40.5t161.5 112.5q67 64 104 144.5t37 165.5q0 63 -25 121t-70 103.5t-113.5 73t-149.5 27.5q-93 0 -180 -36t-152 -103q-141 -141 -141 -338q0 -146 99.5 -228.5
t237.5 -82.5zM1104 1612v-60q-72 -10 -109 -39t-51 -83h78l-43 -166h-174l39 143q29 103 88.5 148.5t171.5 56.5z" />
    <glyph glyph-name="Hbar" unicode="&#x126;" horiz-adv-x="1634" 
d="M215 1085l31 115h157l78 291h144l-78 -291h891l80 291h141l-78 -291h160l-31 -115h-160l-290 -1085h-144l182 674h-892l-181 -674h-143l291 1085h-158zM442 807h891l74 278h-891z" />
    <glyph glyph-name="hbar" unicode="&#x127;" horiz-adv-x="1325" 
d="M260 1309l29 108h147l37 137h137l-37 -137h385l-28 -108h-385l-109 -404q88 103 181 159t214 56q159 0 256 -94.5t97 -249.5q0 -64 -25 -162l-162 -614h-137l166 623q16 62 16 129q0 115 -68.5 179t-191.5 64q-135 0 -257 -106.5t-167 -270.5l-163 -618h-140l351 1309
h-146z" />
    <glyph glyph-name="Imacron" unicode="&#x12a;" horiz-adv-x="628" 
d="M96 0l400 1491h143l-399 -1491h-144zM281 1675l32 123h682l-32 -123h-682z" />
    <glyph glyph-name="imacron" unicode="&#x12b;" horiz-adv-x="573" 
d="M72 0l293 1094h137l-293 -1094h-137zM162 1317l33 117h665l-33 -117h-665z" />
    <glyph glyph-name="Ibreve" unicode="&#x12c;" horiz-adv-x="628" 
d="M96 0l400 1491h143l-399 -1491h-144zM610 1622q-129 0 -194 60t-45 169h106q5 -56 41 -83t119 -27q154 0 217 110h119q-36 -108 -134.5 -168.5t-228.5 -60.5z" />
    <glyph glyph-name="ibreve" unicode="&#x12d;" horiz-adv-x="573" 
d="M72 0l293 1094h137l-293 -1094h-137zM492 1264q-133 0 -197.5 68.5t-44.5 185.5h102q-2 -66 35.5 -101t122.5 -35q151 0 231 136h111q-41 -118 -137 -186t-223 -68z" />
    <glyph glyph-name="Iogonek" unicode="&#x12e;" horiz-adv-x="628" 
d="M96 2l400 1489h143l-399 -1491h-11q-159 -108 -159 -184q0 -35 32 -52.5t105 -25.5l-21 -88h-18q-229 12 -229 141q0 101 157 209v2z" />
    <glyph glyph-name="iogonek" unicode="&#x12f;" horiz-adv-x="573" 
d="M-94 -209q0 56 44 108t124 107v2l291 1086h137l-293 -1094h-12q-160 -109 -160 -184q0 -35 32 -52.5t105 -25.5l-20 -88h-19q-229 12 -229 141zM424 1354l43 166h162l-43 -166h-162z" />
    <glyph glyph-name="Idotaccent" unicode="&#x130;" horiz-adv-x="628" 
d="M96 0l400 1491h143l-399 -1491h-144zM514 1626l49 178h185l-50 -178h-184z" />
    <glyph glyph-name="dotlessi" unicode="&#x131;" horiz-adv-x="573" 
d="M72 0l293 1094h137l-293 -1094h-137z" />
    <glyph glyph-name="Kcommaaccent" unicode="&#x136;" horiz-adv-x="1550" 
d="M82 0l399 1491h144l-248 -924l1124 924h207l-813 -660l436 -831h-162l-391 748l-452 -371l-101 -377h-143zM420 -489l2 57q72 12 108 40.5t50 84.5h-78l45 164h174l-39 -144q-29 -103 -90 -148.5t-172 -53.5z" />
    <glyph glyph-name="kcommaaccent" unicode="&#x137;" horiz-adv-x="1226" 
d="M242 -500l2 58q72 12 107.5 40.5t49.5 84.5h-77l45 163h174l-39 -143q-29 -103 -90 -149t-172 -54zM55 0l418 1554h137l-295 -1099l787 639h192l-598 -480l314 -614h-158l-270 528l-314 -252l-73 -276h-140z" />
    <glyph glyph-name="Lacute" unicode="&#x139;" horiz-adv-x="1310" 
d="M549 1626l278 264l150 -69l-291 -195h-137zM82 0l399 1491h144l-365 -1360h856l-37 -131h-997z" />
    <glyph glyph-name="lacute" unicode="&#x13a;" horiz-adv-x="573" 
d="M532 1673l279 264l150 -69l-291 -195h-138zM72 0l417 1554h138l-418 -1554h-137z" />
    <glyph glyph-name="Lcommaaccent" unicode="&#x13b;" horiz-adv-x="1310" 
d="M82 0l399 1491h144l-365 -1360h856l-37 -131h-997zM305 -500l2 58q72 12 108 40.5t50 84.5h-78l45 163h174l-39 -143q-29 -103 -90 -149t-172 -54z" />
    <glyph glyph-name="lcommaaccent" unicode="&#x13c;" horiz-adv-x="573" 
d="M-96 -500l2 58q72 12 107.5 40.5t49.5 84.5h-77l45 163h174l-39 -143q-29 -103 -90 -149t-172 -54zM72 0l417 1554h138l-418 -1554h-137z" />
    <glyph glyph-name="Lcaron" unicode="&#x13d;" horiz-adv-x="1310" 
d="M82 0l399 1491h144l-365 -1360h856l-37 -131h-997zM709 1157l118 336h148v-6l-195 -330h-71z" />
    <glyph glyph-name="lcaron" unicode="&#x13e;" horiz-adv-x="573" 
d="M690 1241l119 336h147v-6l-194 -330h-72zM72 0l417 1554h138l-418 -1554h-137z" />
    <glyph glyph-name="Ldot" unicode="&#x13f;" horiz-adv-x="1345" 
d="M944 684l51 188h176l-51 -188h-176zM84 0l399 1491h144l-365 -1360h856l-37 -131h-997z" />
    <glyph glyph-name="ldot" unicode="&#x140;" horiz-adv-x="710" 
d="M584 690l49 187h170l-49 -187h-170zM72 0l417 1554h138l-418 -1554h-137z" />
    <glyph glyph-name="Lslash" unicode="&#x141;" horiz-adv-x="1411" 
d="M186 606l35 133l172 47l189 705h143l-176 -660l506 144l-37 -133l-506 -144l-152 -567h857l-37 -131h-998l174 653z" />
    <glyph glyph-name="lslash" unicode="&#x142;" horiz-adv-x="698" 
d="M150 647l36 135l172 49l195 723h137l-184 -682l178 52l-37 -136l-176 -51l-199 -737h-137l187 696z" />
    <glyph glyph-name="Nacute" unicode="&#x143;" horiz-adv-x="1697" 
d="M1061 1620l278 264l150 -69l-291 -195h-137zM82 0l399 1491h133l635 -1251l338 1251h139l-401 -1491h-111l-651 1280l-342 -1280h-139z" />
    <glyph glyph-name="nacute" unicode="&#x144;" horiz-adv-x="1329" 
d="M778 1268l277 297l153 -72l-297 -225h-133zM55 0l293 1094h137l-49 -189q88 103 181 159t214 56q159 0 256 -94.5t97 -249.5q0 -64 -25 -162l-162 -614h-137l166 623q16 62 16 129q0 115 -68.5 179t-191.5 64q-135 0 -257 -106.5t-167 -270.5l-163 -618h-140z" />
    <glyph glyph-name="Ncommaaccent" unicode="&#x145;" horiz-adv-x="1697" 
d="M469 -489l2 57q72 12 108 40.5t50 84.5h-78l45 164h174l-39 -144q-29 -103 -90 -148.5t-172 -53.5zM82 0l399 1491h133l635 -1251l338 1251h139l-401 -1491h-111l-651 1280l-342 -1280h-139z" />
    <glyph glyph-name="ncommaaccent" unicode="&#x146;" horiz-adv-x="1329" 
d="M276 -500l3 58q72 12 107.5 40.5t49.5 84.5h-78l45 163h175l-39 -143q-29 -103 -90.5 -149t-172.5 -54zM55 0l293 1094h137l-49 -189q88 103 181 159t214 56q159 0 256 -94.5t97 -249.5q0 -64 -25 -162l-162 -614h-137l166 623q16 62 16 129q0 115 -68.5 179t-191.5 64
q-135 0 -257 -106.5t-167 -270.5l-163 -618h-140z" />
    <glyph glyph-name="Ncaron" unicode="&#x147;" horiz-adv-x="1697" 
d="M1507 1862l-290 -242h-130l-163 242h127l120 -129l195 129h141zM82 0l399 1491h133l635 -1251l338 1251h139l-401 -1491h-111l-651 1280l-342 -1280h-139z" />
    <glyph glyph-name="ncaron" unicode="&#x148;" horiz-adv-x="1329" 
d="M758 1268l-148 270h115l113 -143l204 143h127l-295 -270h-116zM55 0l293 1094h137l-49 -189q88 103 181 159t214 56q159 0 256 -94.5t97 -249.5q0 -64 -25 -162l-162 -614h-137l166 623q16 62 16 129q0 115 -68.5 179t-191.5 64q-135 0 -257 -106.5t-167 -270.5
l-163 -618h-140z" />
    <glyph glyph-name="Omacron" unicode="&#x14c;" horiz-adv-x="1822" 
d="M854 1696l33 123h682l-33 -123h-682zM1071 1516q189 0 338 -85.5t230 -232t81 -326.5q0 -181 -71.5 -349.5t-200.5 -297.5q-120 -120 -271 -186t-321 -66q-187 0 -336 85t-231 231.5t-82 326.5q0 181 72.5 350t201.5 298q120 120 270.5 186t319.5 66zM862 102
q136 0 257.5 54.5t217.5 150.5q110 110 172 258t62 303q0 223 -140.5 370.5t-365.5 147.5q-268 0 -475 -204q-110 -110 -172 -258t-62 -303q0 -146 61.5 -264t178 -186.5t266.5 -68.5z" />
    <glyph glyph-name="omacron" unicode="&#x14d;" horiz-adv-x="1376" 
d="M549 1317l33 117h665l-33 -117h-665zM766 1120q220 0 357 -137.5t137 -351.5q0 -129 -52.5 -249t-146.5 -214q-90 -90 -206.5 -141.5t-242.5 -51.5q-220 0 -356.5 137t-136.5 351q0 129 51.5 249.5t144.5 213.5q94 91 210 142.5t241 51.5zM623 98q181 0 329 148
q76 75 120 174.5t44 206.5q0 174 -99 271t-263 97q-90 0 -176 -38.5t-154 -106.5q-76 -76 -119 -176t-43 -207q0 -174 99 -271.5t262 -97.5z" />
    <glyph glyph-name="Obreve" unicode="&#x14e;" horiz-adv-x="1822" 
d="M1184 1642q-129 0 -194.5 60.5t-45.5 169.5h107q5 -57 40.5 -84t118.5 -27q154 0 217 111h119q-36 -108 -134 -169t-228 -61zM1071 1516q189 0 338 -85.5t230 -232t81 -326.5q0 -181 -71.5 -349.5t-200.5 -297.5q-120 -120 -271 -186t-321 -66q-187 0 -336 85t-231 231.5
t-82 326.5q0 181 72.5 350t201.5 298q120 120 270.5 186t319.5 66zM862 102q136 0 257.5 54.5t217.5 150.5q110 110 172 258t62 303q0 223 -140.5 370.5t-365.5 147.5q-268 0 -475 -204q-110 -110 -172 -258t-62 -303q0 -146 61.5 -264t178 -186.5t266.5 -68.5z" />
    <glyph glyph-name="obreve" unicode="&#x14f;" horiz-adv-x="1376" 
d="M766 1120q220 0 357 -137.5t137 -351.5q0 -129 -52.5 -249t-146.5 -214q-90 -90 -206.5 -141.5t-242.5 -51.5q-220 0 -356.5 137t-136.5 351q0 129 51.5 249.5t144.5 213.5q94 91 210 142.5t241 51.5zM623 98q181 0 329 148q76 75 120 174.5t44 206.5q0 174 -99 271
t-263 97q-90 0 -176 -38.5t-154 -106.5q-76 -76 -119 -176t-43 -207q0 -174 99 -271.5t262 -97.5zM879 1264q-133 0 -197.5 68.5t-44.5 185.5h102q-2 -66 35.5 -101t122.5 -35q151 0 231 136h111q-41 -118 -137 -186t-223 -68z" />
    <glyph glyph-name="Ohungarumlaut" unicode="&#x150;" horiz-adv-x="1822" 
d="M1071 1516q189 0 338 -85.5t230 -232t81 -326.5q0 -181 -71.5 -349.5t-200.5 -297.5q-120 -120 -271 -186t-321 -66q-187 0 -336 85t-231 231.5t-82 326.5q0 181 72.5 350t201.5 298q120 120 270.5 186t319.5 66zM862 102q136 0 257.5 54.5t217.5 150.5q110 110 172 258
t62 303q0 223 -140.5 370.5t-365.5 147.5q-268 0 -475 -204q-110 -110 -172 -258t-62 -303q0 -146 61.5 -264t178 -186.5t266.5 -68.5zM915 1647l277 264l147 -70l-288 -194h-136zM1231 1647l276 264l148 -70l-289 -194h-135z" />
    <glyph glyph-name="ohungarumlaut" unicode="&#x151;" horiz-adv-x="1376" 
d="M600 1268l277 297l120 -72l-284 -225h-113zM938 1268l276 297l121 -72l-284 -225h-113zM766 1120q220 0 357 -137.5t137 -351.5q0 -129 -52.5 -249t-146.5 -214q-90 -90 -206.5 -141.5t-242.5 -51.5q-220 0 -356.5 137t-136.5 351q0 129 51.5 249.5t144.5 213.5
q94 91 210 142.5t241 51.5zM623 98q181 0 329 148q76 75 120 174.5t44 206.5q0 174 -99 271t-263 97q-90 0 -176 -38.5t-154 -106.5q-76 -76 -119 -176t-43 -207q0 -174 99 -271.5t262 -97.5z" />
    <glyph glyph-name="OE" unicode="&#x152;" horiz-adv-x="2426" 
d="M2167 0h-1223q-185 0 -334 51t-248 150q-161 161 -161 426q0 346 233 579q136 136 332.5 210.5t429.5 74.5h1360l-35 -131h-891l-145 -543h794l-34 -131h-795l-150 -555h902zM479 291q160 -160 473 -160h205l330 1229h-309q-193 0 -355 -63t-282 -181
q-193 -196 -193 -481q0 -213 131 -344z" />
    <glyph glyph-name="oe" unicode="&#x153;" horiz-adv-x="2250" 
d="M2114 500h-879q-2 -23 -2 -58q0 -158 94 -253t252 -95q107 0 186.5 34t167.5 103l74 -92q-201 -164 -428 -164q-170 0 -288.5 84.5t-157.5 227.5q-90 -139 -222.5 -225.5t-302.5 -86.5q-216 0 -352.5 137.5t-136.5 350.5q0 129 51.5 249.5t144.5 213.5q94 91 210 142.5
t241 51.5q175 0 291 -92t155 -237q82 145 212 237t305 92q133 0 229.5 -58.5t142 -152t45.5 -209.5q0 -121 -32 -200zM623 98q181 0 329 148q76 75 120 174.5t44 206.5q0 174 -99 271t-263 97q-90 0 -176 -38.5t-154 -106.5q-76 -76 -119 -176t-43 -207q0 -174 99 -271.5
t262 -97.5zM1403 862q-106 -109 -146 -252h746q8 24 8 86q0 132 -73.5 217.5t-215.5 85.5q-179 0 -319 -137z" />
    <glyph glyph-name="Racute" unicode="&#x154;" horiz-adv-x="1548" 
d="M1120 0l-305 596h-49h-381l-160 -596h-143l399 1491h537q277 0 412 -135q96 -96 96 -250q0 -188 -133 -318q-135 -135 -424 -178l317 -610h-166zM418 725h424q301 0 444 143q94 94 94 228q0 105 -63 168q-96 96 -305 96h-422zM911 1626l279 264l149 -69l-290 -195h-138z
" />
    <glyph glyph-name="racute" unicode="&#x155;" horiz-adv-x="874" 
d="M553 1268l276 297l154 -72l-297 -225h-133zM55 0l293 1094h137l-77 -297q232 329 540 315l-41 -147h-8q-124 0 -240.5 -59.5t-210.5 -181.5t-137 -286l-116 -438h-140z" />
    <glyph glyph-name="Rcommaaccent" unicode="&#x156;" horiz-adv-x="1548" 
d="M1120 0l-305 596h-49h-381l-160 -596h-143l399 1491h537q277 0 412 -135q96 -96 96 -250q0 -188 -133 -318q-135 -135 -424 -178l317 -610h-166zM418 725h424q301 0 444 143q94 94 94 228q0 105 -63 168q-96 96 -305 96h-422zM391 -489l2 57q72 12 108 40.5t50 84.5h-78
l45 164h174l-39 -144q-29 -103 -90 -148.5t-172 -53.5z" />
    <glyph glyph-name="rcommaaccent" unicode="&#x157;" horiz-adv-x="874" 
d="M-96 -500l2 58q72 12 107.5 40.5t49.5 84.5h-77l45 163h174l-39 -143q-29 -103 -90 -149t-172 -54zM55 0l293 1094h137l-77 -297q232 329 540 315l-41 -147h-8q-124 0 -240.5 -59.5t-210.5 -181.5t-137 -286l-116 -438h-140z" />
    <glyph glyph-name="Rcaron" unicode="&#x158;" horiz-adv-x="1548" 
d="M1360 1868l-291 -242h-129l-164 242h127l121 -129l195 129h141zM1120 0l-305 596h-49h-381l-160 -596h-143l399 1491h537q277 0 412 -135q96 -96 96 -250q0 -188 -133 -318q-135 -135 -424 -178l317 -610h-166zM418 725h424q301 0 444 143q94 94 94 228q0 105 -63 168
q-96 96 -305 96h-422z" />
    <glyph glyph-name="rcaron" unicode="&#x159;" horiz-adv-x="874" 
d="M532 1268l-147 270h115l112 -143l205 143h127l-295 -270h-117zM55 0l293 1094h137l-77 -297q232 329 540 315l-41 -147h-8q-124 0 -240.5 -59.5t-210.5 -181.5t-137 -286l-116 -438h-140z" />
    <glyph glyph-name="Sacute" unicode="&#x15a;" horiz-adv-x="1382" 
d="M647 -20q-398 0 -602 282l111 84q96 -122 216 -181t287 -59q171 0 285.5 86t114.5 216q0 91 -69.5 153t-246.5 131q-226 90 -320.5 176t-94.5 222q0 154 110 264q157 157 432 157q165 0 299.5 -61t225.5 -164l-107 -92q-175 190 -430 190q-172 0 -277.5 -83t-105.5 -197
q0 -49 19 -87t63 -72.5t104.5 -63.5t155.5 -66q205 -78 298 -167t93 -226q0 -160 -121 -281q-161 -161 -440 -161zM883 1647l278 264l150 -70l-291 -194h-137z" />
    <glyph glyph-name="sacute" unicode="&#x15b;" horiz-adv-x="1081" 
d="M637 1268l276 297l154 -72l-297 -225h-133zM475 -25q-131 0 -253.5 49t-215.5 142l92 92q173 -164 391 -164q102 0 180.5 56t78.5 143q0 60 -48 105.5t-172 93.5q-164 61 -236.5 126.5t-72.5 172.5q0 139 113 233t297 94q115 0 221 -41.5t180 -105.5l-84 -99
q-70 57 -156 92t-174 35q-118 0 -188 -55t-70 -131q0 -59 48.5 -103t183.5 -96q159 -63 229 -131t70 -168q0 -146 -120.5 -243t-293.5 -97z" />
    <glyph glyph-name="Scedilla" unicode="&#x15e;" horiz-adv-x="1382" 
d="M403 -324l-122 64l235 248q-310 46 -471 274l111 84q96 -122 216 -181t287 -59q171 0 285.5 86t114.5 216q0 91 -69.5 153t-246.5 131q-226 90 -320.5 176t-94.5 222q0 154 110 264q157 157 432 157q165 0 299.5 -61t225.5 -164l-107 -92q-175 190 -430 190
q-172 0 -277.5 -83t-105.5 -197q0 -49 19 -87t63 -72.5t104.5 -63.5t155.5 -66q205 -78 298 -167t93 -226q0 -160 -121 -281q-161 -161 -440 -161h-18z" />
    <glyph glyph-name="scedilla" unicode="&#x15f;" horiz-adv-x="1081" 
d="M238 -324l-123 64l233 248q-203 39 -342 178l92 92q173 -164 391 -164q102 0 180.5 56t78.5 143q0 60 -48 105.5t-172 93.5q-164 61 -236.5 126.5t-72.5 172.5q0 139 113 233t297 94q115 0 221 -41.5t180 -105.5l-84 -99q-70 57 -156 92t-174 35q-118 0 -188 -55
t-70 -131q0 -59 48.5 -103t183.5 -96q159 -63 229 -131t70 -168q0 -146 -120.5 -243t-293.5 -97h-16z" />
    <glyph glyph-name="Scaron" unicode="&#x160;" horiz-adv-x="1382" 
d="M647 -20q-398 0 -602 282l111 84q96 -122 216 -181t287 -59q171 0 285.5 86t114.5 216q0 91 -69.5 153t-246.5 131q-226 90 -320.5 176t-94.5 222q0 154 110 264q157 157 432 157q165 0 299.5 -61t225.5 -164l-107 -92q-175 190 -430 190q-172 0 -277.5 -83t-105.5 -197
q0 -49 19 -87t63 -72.5t104.5 -63.5t155.5 -66q205 -78 298 -167t93 -226q0 -160 -121 -281q-161 -161 -440 -161zM1329 1888l-291 -241h-129l-164 241h127l121 -129l195 129h141z" />
    <glyph glyph-name="scaron" unicode="&#x161;" horiz-adv-x="1081" 
d="M616 1268l-147 270h115l112 -143l205 143h127l-295 -270h-117zM475 -25q-131 0 -253.5 49t-215.5 142l92 92q173 -164 391 -164q102 0 180.5 56t78.5 143q0 60 -48 105.5t-172 93.5q-164 61 -236.5 126.5t-72.5 172.5q0 139 113 233t297 94q115 0 221 -41.5t180 -105.5
l-84 -99q-70 57 -156 92t-174 35q-118 0 -188 -55t-70 -131q0 -59 48.5 -103t183.5 -96q159 -63 229 -131t70 -168q0 -146 -120.5 -243t-293.5 -97z" />
    <glyph glyph-name="Tcommaaccent" unicode="&#x162;" horiz-adv-x="1335" 
d="M442 0l365 1358h-510l35 133h1163l-35 -133h-510l-364 -1358h-144zM276 -500l3 58q72 12 107.5 40.5t49.5 84.5h-78l45 163h175l-39 -143q-29 -103 -90.5 -149t-172.5 -54z" />
    <glyph glyph-name="Tcommaaccent" unicode="&#x21a;" horiz-adv-x="1335" 
d="M442 0l365 1358h-510l35 133h1163l-35 -133h-510l-364 -1358h-144zM276 -500l3 58q72 12 107.5 40.5t49.5 84.5h-78l45 163h175l-39 -143q-29 -103 -90.5 -149t-172.5 -54z" />
    <glyph glyph-name="tcommaaccent" unicode="&#x163;" horiz-adv-x="874" 
d="M119 -500l2 58q72 12 108 40.5t50 84.5h-78l45 163h174l-39 -143q-29 -103 -90 -149t-172 -54zM446 -18q-121 0 -192.5 54.5t-71.5 160.5q0 52 15 110l178 664h-156l33 123h156l90 340h139l-92 -340h358l-33 -123h-358l-176 -660q-12 -54 -12 -86q0 -60 43 -90.5
t120 -30.5q64 0 160 35l-35 -127q-77 -30 -166 -30z" />
    <glyph glyph-name="tcommaaccent" unicode="&#x21b;" horiz-adv-x="874" 
d="M119 -500l2 58q72 12 108 40.5t50 84.5h-78l45 163h174l-39 -143q-29 -103 -90 -149t-172 -54zM446 -18q-121 0 -192.5 54.5t-71.5 160.5q0 52 15 110l178 664h-156l33 123h156l90 340h139l-92 -340h358l-33 -123h-358l-176 -660q-12 -54 -12 -86q0 -60 43 -90.5
t120 -30.5q64 0 160 35l-35 -127q-77 -30 -166 -30z" />
    <glyph glyph-name="Tcaron" unicode="&#x164;" horiz-adv-x="1335" 
d="M1321 1868l-291 -242h-129l-164 242h127l121 -129l195 129h141zM442 0l365 1358h-510l35 133h1163l-35 -133h-510l-364 -1358h-144z" />
    <glyph glyph-name="tcaron" unicode="&#x165;" horiz-adv-x="874" 
d="M764 1241l119 336h147v-6l-194 -330h-72zM446 -18q-121 0 -192.5 54.5t-71.5 160.5q0 52 15 110l178 664h-156l33 123h156l90 340h139l-92 -340h358l-33 -123h-358l-176 -660q-12 -54 -12 -86q0 -60 43 -90.5t120 -30.5q64 0 160 35l-35 -127q-77 -30 -166 -30z" />
    <glyph glyph-name="Umacron" unicode="&#x16a;" horiz-adv-x="1636" 
d="M760 1669l33 123h682l-33 -123h-682zM752 -23q-259 0 -399 130.5t-140 343.5q0 113 31 231l215 809h143l-227 -858q-21 -65 -21 -168q0 -160 104.5 -259.5t305.5 -99.5q200 0 346 146q132 132 199 377l231 862h143l-237 -889q-76 -278 -236 -438q-187 -187 -458 -187z
" />
    <glyph glyph-name="umacron" unicode="&#x16b;" horiz-adv-x="1325" 
d="M494 -25q-161 0 -257 93.5t-96 248.5q0 58 27 164l162 613h137l-168 -623q-16 -62 -16 -129q0 -115 69.5 -179.5t192.5 -64.5q134 0 256 108t166 271l166 617h137l-293 -1094h-137l49 190q-174 -215 -395 -215zM514 1317l33 117h665l-32 -117h-666z" />
    <glyph glyph-name="Ubreve" unicode="&#x16c;" horiz-adv-x="1636" 
d="M1090 1612q-130 0 -195 60t-45 169h106q5 -56 41 -83t119 -27q154 0 217 110h119q-36 -108 -134 -168.5t-228 -60.5zM752 -23q-259 0 -399 130.5t-140 343.5q0 113 31 231l215 809h143l-227 -858q-21 -65 -21 -168q0 -160 104.5 -259.5t305.5 -99.5q200 0 346 146
q132 132 199 377l231 862h143l-237 -889q-76 -278 -236 -438q-187 -187 -458 -187z" />
    <glyph glyph-name="ubreve" unicode="&#x16d;" horiz-adv-x="1325" 
d="M494 -25q-161 0 -257 93.5t-96 248.5q0 58 27 164l162 613h137l-168 -623q-16 -62 -16 -129q0 -115 69.5 -179.5t192.5 -64.5q134 0 256 108t166 271l166 617h137l-293 -1094h-137l49 190q-174 -215 -395 -215zM844 1264q-133 0 -197.5 68.5t-44.5 185.5h103
q-2 -66 35.5 -101t121.5 -35q152 0 232 136h110q-41 -118 -137 -186t-223 -68z" />
    <glyph glyph-name="Uring" unicode="&#x16e;" horiz-adv-x="1636" 
d="M752 -23q-259 0 -399 130.5t-140 343.5q0 113 31 231l215 809h143l-227 -858q-21 -65 -21 -168q0 -160 104.5 -259.5t305.5 -99.5q200 0 346 146q132 132 199 377l231 862h143l-237 -889q-76 -278 -236 -438q-187 -187 -458 -187zM1165 2003q90 0 147.5 -51t57.5 -129
q0 -98 -78 -166t-184 -68q-92 0 -149.5 50.5t-57.5 129.5q0 98 78.5 166t185.5 68zM1116 1663q67 0 115.5 43.5t48.5 108.5q0 49 -32.5 81.5t-90.5 32.5q-68 0 -117 -43t-49 -108q0 -53 34.5 -84t90.5 -31z" />
    <glyph glyph-name="uring" unicode="&#x16f;" horiz-adv-x="1325" 
d="M1122 1489q0 -96 -77 -167t-179 -71q-96 0 -155.5 56t-59.5 143q0 97 75.5 167.5t178.5 70.5q97 0 157 -56t60 -143zM735 1454q0 -57 35.5 -93t97.5 -36q70 0 120 46.5t50 113.5q0 57 -36.5 93t-98.5 36q-68 0 -118 -46.5t-50 -113.5zM494 -25q-161 0 -257 93.5
t-96 248.5q0 58 27 164l162 613h137l-168 -623q-16 -62 -16 -129q0 -115 69.5 -179.5t192.5 -64.5q134 0 256 108t166 271l166 617h137l-293 -1094h-137l49 190q-174 -215 -395 -215z" />
    <glyph glyph-name="Uhungarumlaut" unicode="&#x170;" horiz-adv-x="1636" 
d="M752 -23q-259 0 -399 130.5t-140 343.5q0 113 31 231l215 809h143l-227 -858q-21 -65 -21 -168q0 -160 104.5 -259.5t305.5 -99.5q200 0 346 146q132 132 199 377l231 862h143l-237 -889q-76 -278 -236 -438q-187 -187 -458 -187zM821 1620l277 264l147 -69l-289 -195
h-135zM1137 1620l276 264l148 -69l-289 -195h-135z" />
    <glyph glyph-name="uhungarumlaut" unicode="&#x171;" horiz-adv-x="1325" 
d="M494 -25q-161 0 -257 93.5t-96 248.5q0 58 27 164l162 613h137l-168 -623q-16 -62 -16 -129q0 -115 69.5 -179.5t192.5 -64.5q134 0 256 108t166 271l166 617h137l-293 -1094h-137l49 190q-174 -215 -395 -215zM563 1268l277 297l121 -72l-285 -225h-113zM901 1268
l277 297l120 -72l-284 -225h-113z" />
    <glyph glyph-name="Uogonek" unicode="&#x172;" horiz-adv-x="1636" 
d="M752 -262l-21 -88h-18q-230 12 -230 141q0 51 36 98t104 99q-199 30 -304.5 154t-105.5 309q0 113 31 231l215 809h143l-227 -858q-21 -65 -21 -168q0 -160 104.5 -259.5t305.5 -99.5q200 0 346 146q132 132 199 377l231 862h143l-237 -889q-76 -278 -236 -438
q-187 -187 -458 -187h-11q-127 -95 -127 -161q0 -35 32.5 -52.5t105.5 -25.5z" />
    <glyph glyph-name="uogonek" unicode="&#x173;" horiz-adv-x="1325" 
d="M494 -25q-161 0 -257 93.5t-96 248.5q0 58 27 164l162 613h137l-168 -623q-16 -62 -16 -129q0 -115 69.5 -179.5t192.5 -64.5q134 0 256 108t166 271l166 617h137l-293 -1094h-12q-160 -109 -160 -184q0 -35 32 -52.5t105 -25.5l-20 -88h-19q-229 12 -229 141
q0 102 168 215v2l47 182q-174 -215 -395 -215z" />
    <glyph glyph-name="Wcircumflex" unicode="&#x174;" horiz-adv-x="2322" 
d="M459 -10l-133 1501h149l100 -1280l764 1284h115l80 -1284l786 1280h162l-940 -1501h-121l-88 1243l-753 -1243h-121zM1120 1626l293 242h129l164 -242h-127l-123 129l-192 -129h-144z" />
    <glyph glyph-name="wcircumflex" unicode="&#x175;" horiz-adv-x="1828" 
d="M797 1268l293 270h118l148 -270h-115l-115 143l-204 -143h-125zM315 -8l-96 1102h141l66 -908l555 914h113l67 -914l553 908h148l-688 -1102h-123l-68 895l-551 -895h-117z" />
    <glyph glyph-name="Ycircumflex" unicode="&#x176;" horiz-adv-x="1441" 
d="M489 0l162 602l-377 889h158l318 -774l735 774h186l-885 -918l-153 -573h-144zM668 1620l293 242h129l163 -242h-127l-122 129l-193 -129h-143z" />
    <glyph glyph-name="ycircumflex" unicode="&#x177;" horiz-adv-x="1241" 
d="M406 0l-209 1094h145l166 -940l618 940h162l-764 -1131q-115 -169 -219 -240t-229 -71q-129 0 -236 76l74 104q83 -59 178 -59q78 0 152 51.5t162 175.5zM469 1268l293 270h119l147 -270h-115l-114 143l-205 -143h-125z" />
    <glyph glyph-name="Ydieresis" unicode="&#x178;" horiz-adv-x="1441" 
d="M489 0l162 602l-377 889h158l318 -774l735 774h186l-885 -918l-153 -573h-144zM692 1620l49 178h181l-50 -178h-180zM1081 1620l49 178h179l-49 -178h-179z" />
    <glyph glyph-name="Zacute" unicode="&#x179;" horiz-adv-x="1443" 
d="M-29 0l25 90l1309 1272h-934l37 129h1144l-24 -90l-1309 -1272h975l-35 -129h-1188zM887 1626l278 264l150 -69l-291 -195h-137z" />
    <glyph glyph-name="zacute" unicode="&#x17a;" horiz-adv-x="1191" 
d="M674 1268l276 297l154 -72l-297 -225h-133zM-27 0l23 84l973 891h-707l33 119h913l-24 -84l-973 -891h741l-32 -119h-947z" />
    <glyph glyph-name="Zdotaccent" unicode="&#x17b;" horiz-adv-x="1443" 
d="M870 1626l50 178h184l-49 -178h-185zM-29 0l25 90l1309 1272h-934l37 129h1144l-24 -90l-1309 -1272h975l-35 -129h-1188z" />
    <glyph glyph-name="zdotaccent" unicode="&#x17c;" horiz-adv-x="1191" 
d="M-27 0l23 84l973 891h-707l33 119h913l-24 -84l-973 -891h741l-32 -119h-947zM664 1264l53 196h166l-54 -196h-165z" />
    <glyph glyph-name="Zcaron" unicode="&#x17d;" horiz-adv-x="1443" 
d="M1333 1868l-291 -242h-129l-163 242h127l120 -129l195 129h141zM-29 0l25 90l1309 1272h-934l37 129h1144l-24 -90l-1309 -1272h975l-35 -129h-1188z" />
    <glyph glyph-name="zcaron" unicode="&#x17e;" horiz-adv-x="1191" 
d="M653 1268l-147 270h115l112 -143l205 143h127l-295 -270h-117zM-27 0l23 84l973 891h-707l33 119h913l-24 -84l-973 -891h741l-32 -119h-947z" />
    <glyph glyph-name="uni018F" unicode="&#x18f;" horiz-adv-x="1738" 
d="M205 545q0 144 47 268h1237q4 54 4 80q0 227 -134 359t-362 132q-271 0 -522 -196l-78 110q292 218 607 218q285 0 458.5 -170t173.5 -455q0 -184 -75 -366.5t-205 -303.5q-259 -246 -586 -246q-138 0 -247.5 45t-178 123t-104 180.5t-35.5 221.5zM1245 301
q159 155 221 387h-1099q-17 -70 -17 -151q0 -89 25 -165t75.5 -136.5t136.5 -95t199 -34.5q130 0 248.5 52.5t210.5 142.5z" />
    <glyph glyph-name="florin" unicode="&#x192;" horiz-adv-x="1150" 
d="M92 -20q-69 0 -131 16l35 117q58 -15 100 -15q69 0 123.5 51.5t104.5 161.5l217 494h-217l32 121h238l119 270q69 160 163.5 237.5t223.5 77.5q117 0 188 -32l-37 -117q-78 29 -151 29q-85 0 -147 -55t-117 -175l-105 -235h332l-33 -121h-350l-234 -529
q-71 -161 -155.5 -228.5t-198.5 -67.5z" />
    <glyph glyph-name="Aringacute" unicode="&#x1fa;" horiz-adv-x="1642" 
d="M-68 0l1033 1423q-84 54 -84 152t78 165.5t184 67.5q91 0 149 -51.5t58 -130.5q0 -76 -48.5 -135.5t-125.5 -83.5l266 -1407h-146l-71 406h-844l-291 -406h-158zM473 535h727l-145 806zM1094 1468q68 0 117 42.5t49 107.5q0 51 -33 83t-92 32q-67 0 -115.5 -43.5
t-48.5 -108.5q0 -53 33.5 -83t89.5 -30zM1112 1870l272 239l146 -67l-281 -172h-137z" />
    <glyph glyph-name="aringacute" unicode="&#x1fb;" horiz-adv-x="1245" 
d="M408 -25q-92 0 -171 34t-130.5 105.5t-51.5 166.5q0 153 107 260q135 135 385 135q192 0 403 -60l6 27q17 70 17 107q0 116 -79 176.5t-232 60.5q-163 0 -314 -59l-24 119q176 63 354 63q203 0 315.5 -90t112.5 -250q0 -60 -23 -147l-165 -623h-134l47 178
q-174 -203 -423 -203zM444 90q151 0 284.5 96t172.5 246l23 86q-189 49 -381 49q-170 0 -273 -96q-71 -71 -71 -174q0 -94 66.5 -150.5t178.5 -56.5zM1077 1501q0 -96 -77 -166.5t-179 -70.5q-96 0 -155.5 55.5t-59.5 142.5q0 97 75.5 167.5t178.5 70.5q97 0 157 -56
t60 -143zM690 1466q0 -57 35.5 -93t97.5 -36q70 0 120 46.5t50 113.5q0 57 -36.5 93t-98.5 36q-68 0 -118 -46.5t-50 -113.5zM848 1759l270 260l139 -71l-282 -189h-127z" />
    <glyph glyph-name="AEacute" unicode="&#x1fc;" horiz-adv-x="2267" 
d="M1534 1626l278 264l150 -69l-291 -195h-137zM-66 0l1287 1491h1175l-35 -131h-893l-145 -543h797l-35 -131h-797l-149 -555h903l-35 -131h-1046l110 406h-620l-349 -406h-168zM559 535h545l223 829h-55z" />
    <glyph glyph-name="aeacute" unicode="&#x1fd;" horiz-adv-x="2074" 
d="M1104 1268l276 297l154 -72l-297 -225h-133zM1405 -25q-159 0 -269.5 68.5t-166.5 189.5q-243 -258 -549 -258q-100 0 -181 33.5t-132.5 104t-51.5 168.5q0 153 107 260q135 135 385 135q192 0 403 -60l6 27q17 70 17 107q0 116 -79 176.5t-232 60.5q-163 0 -314 -59
l-24 119q176 63 354 63q167 0 272.5 -63.5t134.5 -180.5q89 115 211.5 184.5t257.5 69.5q197 0 307.5 -120.5t110.5 -299.5q0 -110 -33 -200h-878q-2 -23 -2 -58q0 -158 94 -253t252 -95q107 0 186.5 34t167.5 103l74 -92q-201 -164 -428 -164zM455 90q249 0 483 248
q-14 79 -4 176q-164 53 -391 53q-170 0 -273 -96q-71 -71 -71 -174q0 -94 69 -150.5t187 -56.5zM1229 862q-106 -109 -146 -252h744q10 33 10 86q0 132 -73.5 217.5t-215.5 85.5q-179 0 -319 -137z" />
    <glyph glyph-name="Oslashacute" unicode="&#x1fe;" horiz-adv-x="1822" 
d="M1071 1516q296 0 483 -203l220 188h172l-324 -276q98 -156 98 -353q0 -181 -71.5 -349.5t-200.5 -297.5q-120 -120 -271 -186t-321 -66q-146 0 -269.5 52.5t-211.5 146.5l-221 -184h-172l323 274q-98 156 -98 354q0 181 72.5 350t201.5 298q120 120 270.5 186t319.5 66z
M354 618q0 -148 62 -266l1032 875q-143 162 -381 162q-137 0 -259 -54.5t-218 -150.5q-111 -111 -173.5 -260t-62.5 -306zM862 100q270 0 477 207q111 111 172.5 258.5t61.5 304.5q0 142 -62 263l-1032 -873q141 -160 383 -160zM1100 1647l278 264l150 -70l-291 -194h-137z
" />
    <glyph glyph-name="oslashacute" unicode="&#x1ff;" horiz-adv-x="1376" 
d="M766 1120q220 0 360 -143l156 129h164l-256 -213q70 -113 70 -262q0 -129 -52.5 -249t-146.5 -214q-90 -90 -206.5 -141.5t-242.5 -51.5q-223 0 -362 142l-154 -129h-164l254 211q-67 118 -67 264q0 129 51.5 249.5t144.5 213.5q94 91 210 142.5t241 51.5zM756 995
q-92 0 -178 -38.5t-154 -106.5q-77 -77 -120.5 -176.5t-43.5 -206.5q0 -99 35 -180l729 606q-94 102 -268 102zM1116 627q0 99 -35 180l-729 -606q95 -103 269 -103q187 0 333 146q76 76 119 176t43 207zM793 1268l276 297l154 -72l-297 -225h-133z" />
    <glyph glyph-name="Scommaaccent" unicode="&#x218;" horiz-adv-x="1382" 
d="M647 -20q-398 0 -602 282l111 84q96 -122 216 -181t287 -59q171 0 285.5 86t114.5 216q0 91 -69.5 153t-246.5 131q-226 90 -320.5 176t-94.5 222q0 154 110 264q157 157 432 157q165 0 299.5 -61t225.5 -164l-107 -92q-175 190 -430 190q-172 0 -277.5 -83t-105.5 -197
q0 -49 19 -87t63 -72.5t104.5 -63.5t155.5 -66q205 -78 298 -167t93 -226q0 -160 -121 -281q-161 -161 -440 -161zM287 -500l2 58q72 12 107.5 40.5t49.5 84.5h-77l45 163h174l-39 -143q-29 -103 -90 -149t-172 -54z" />
    <glyph glyph-name="scommaaccent" unicode="&#x219;" horiz-adv-x="1081" 
d="M137 -500l2 58q72 12 108 40.5t50 84.5h-78l45 163h174l-39 -143q-29 -103 -90 -149t-172 -54zM475 -25q-131 0 -253.5 49t-215.5 142l92 92q173 -164 391 -164q102 0 180.5 56t78.5 143q0 60 -48 105.5t-172 93.5q-164 61 -236.5 126.5t-72.5 172.5q0 139 113 233
t297 94q115 0 221 -41.5t180 -105.5l-84 -99q-70 57 -156 92t-174 35q-118 0 -188 -55t-70 -131q0 -59 48.5 -103t183.5 -96q159 -63 229 -131t70 -168q0 -146 -120.5 -243t-293.5 -97z" />
    <glyph glyph-name="schwa" unicode="&#x259;" horiz-adv-x="1273" 
d="M102 395q0 105 35 201h875q4 36 4 55q0 155 -92 251.5t-244 96.5q-107 0 -193 -34.5t-170 -102.5l-73 92q94 80 199.5 123t244.5 43q208 0 338.5 -130.5t130.5 -332.5q0 -136 -55.5 -267.5t-153.5 -229.5q-188 -185 -426 -185q-101 0 -182 33.5t-132 91t-78.5 133
t-27.5 162.5zM846 233q101 95 145 252h-743q-8 -31 -8 -88q0 -130 73 -215.5t215 -85.5q184 0 318 137z" />
    <glyph glyph-name="circumflex" unicode="&#x2c6;" horiz-adv-x="1089" 
d="M461 1268l293 270h118l148 -270h-115l-114 143l-205 -143h-125z" />
    <glyph glyph-name="caron" unicode="&#x2c7;" horiz-adv-x="1089" 
d="M678 1268l-148 270h115l113 -143l205 143h127l-295 -270h-117z" />
    <glyph glyph-name="breve" unicode="&#x2d8;" horiz-adv-x="1089" 
d="M741 1264q-133 0 -197 68.5t-44 185.5h102q-2 -66 35.5 -101t122.5 -35q151 0 231 136h111q-41 -118 -137.5 -186t-223.5 -68z" />
    <glyph glyph-name="dotaccent" unicode="&#x2d9;" horiz-adv-x="1089" 
d="M653 1264l54 196h165l-53 -196h-166z" />
    <glyph glyph-name="ring" unicode="&#x2da;" horiz-adv-x="1089" 
d="M1034 1501q0 -96 -77 -166.5t-179 -70.5q-96 0 -155.5 55.5t-59.5 142.5q0 97 75.5 167.5t178.5 70.5q97 0 157 -56t60 -143zM647 1466q0 -57 35.5 -93t97.5 -36q70 0 120 46.5t50 113.5q0 57 -36.5 93t-98.5 36q-68 0 -118 -46.5t-50 -113.5z" />
    <glyph glyph-name="ogonek" unicode="&#x2db;" horiz-adv-x="1089" 
d="M492 -262l-21 -88h-18q-230 12 -230 141q0 63 55 122t156 122l86 -31q-166 -111 -166 -188q0 -35 32.5 -52.5t105.5 -25.5z" />
    <glyph glyph-name="tilde" unicode="&#x2dc;" horiz-adv-x="1089" 
d="M1026 1503l88 -24q-53 -118 -102.5 -164.5t-122.5 -46.5q-49 0 -141 45q-77 41 -121 41q-41 0 -67.5 -23t-59.5 -84l-90 25q54 119 103.5 166t121.5 47q45 0 141 -45q77 -41 121 -41q41 0 67 21.5t62 82.5z" />
    <glyph glyph-name="hungarumlaut" unicode="&#x2dd;" horiz-adv-x="1089" 
d="M399 1268l277 297l121 -72l-285 -225h-113zM737 1268l277 297l121 -72l-285 -225h-113z" />
    <glyph glyph-name="commaaccent" unicode="&#x326;" horiz-adv-x="1089" 
d="M145 -500l2 58q72 12 108 40.5t50 84.5h-78l45 163h174l-38 -143q-29 -103 -90.5 -149t-172.5 -54z" />
    <glyph glyph-name="uni0384" unicode="&#x384;" horiz-adv-x="1089" 
d="M627 1268l221 317l156 -63l-256 -254h-121z" />
    <glyph glyph-name="uni0385" unicode="&#x385;" horiz-adv-x="1089" 
d="M911 1268l52 186h165l-51 -186h-166zM397 1268l52 186h165l-51 -186h-166zM635 1268l172 354l158 -35l-220 -319h-110z" />
    <glyph glyph-name="uni0386" unicode="&#x386;" horiz-adv-x="1642" 
d="M-68 0l1090 1501h137l283 -1501h-146l-71 406h-844l-291 -406h-158zM473 535h727l-145 806zM319 1124l138 369h176l-217 -369h-97z" />
    <glyph glyph-name="uni0387" unicode="&#x387;" horiz-adv-x="552" 
d="M285 889l53 205h172l-55 -205h-170z" />
    <glyph glyph-name="uni0388" unicode="&#x388;" horiz-adv-x="1449" 
d="M41 1122l137 369h176l-217 -369h-96zM82 0l399 1491h1061l-37 -131h-915l-148 -543h822l-35 -131h-821l-148 -555h928l-37 -131h-1069z" />
    <glyph glyph-name="uni0389" unicode="&#x389;" horiz-adv-x="1642" 
d="M86 0l399 1491h144l-180 -676h890l183 676h141l-399 -1491h-144l185 684h-893l-183 -684h-143zM41 1122l137 369h176l-217 -369h-96z" />
    <glyph glyph-name="uni038A" unicode="&#x38a;" horiz-adv-x="628" 
d="M96 0l400 1491h143l-399 -1491h-144zM41 1122l137 369h176l-217 -369h-96z" />
    <glyph glyph-name="uni038C" unicode="&#x38c;" horiz-adv-x="1828" 
d="M23 1126l137 369h176l-217 -369h-96zM1071 1516q189 0 338 -85.5t230 -232t81 -326.5q0 -181 -71.5 -349.5t-200.5 -297.5q-120 -120 -271 -186t-321 -66q-187 0 -336 85t-231 231.5t-82 326.5q0 181 72.5 350t201.5 298q120 120 270.5 186t319.5 66zM862 102
q136 0 257.5 54.5t217.5 150.5q110 110 172 258t62 303q0 223 -140.5 370.5t-365.5 147.5q-268 0 -475 -204q-110 -110 -172 -258t-62 -303q0 -146 61.5 -264t178 -186.5t266.5 -68.5z" />
    <glyph glyph-name="uni038E" unicode="&#x38e;" horiz-adv-x="1441" 
d="M489 0l162 602l-377 889h158l318 -774l735 774h186l-885 -918l-153 -573h-144zM-100 1122l137 369h176l-217 -369h-96z" />
    <glyph glyph-name="uni038F" unicode="&#x38f;" horiz-adv-x="1863" 
d="M406 709q0 -169 68 -308.5t218 -281.5l-33 -119h-622l35 129l463 -4q-277 268 -277 594q0 225 108.5 407.5t300.5 286t429 103.5q301 0 482 -166t181 -439q0 -236 -140.5 -428t-416.5 -358l449 4l-35 -129h-649l32 119q297 167 452 353.5t159 422.5q5 218 -136 354.5
t-391 136.5q-140 0 -264 -48.5t-215.5 -135.5t-144.5 -215t-53 -278zM12 1126l138 369h176l-217 -369h-97z" />
    <glyph glyph-name="uni0390" unicode="&#x390;" horiz-adv-x="624" 
d="M657 1268l52 186h165l-51 -186h-166zM143 1268l52 186h165l-51 -186h-166zM381 1268l172 354l158 -35l-219 -319h-111zM459 115l-31 -119q-44 -12 -96 -12q-105 0 -160 50.5t-55 143.5q0 64 24 152l203 764h137l-211 -793q-14 -58 -14 -98q0 -99 117 -99q37 0 86 11z" />
    <glyph glyph-name="uni0391" unicode="&#x391;" horiz-adv-x="1642" 
d="M-68 0l1090 1501h137l283 -1501h-146l-71 406h-844l-291 -406h-158zM473 535h727l-145 806z" />
    <glyph glyph-name="uni0392" unicode="&#x392;" horiz-adv-x="1552" 
d="M82 0l399 1491h557q213 0 334 -91t121 -251q0 -157 -108 -261.5t-275 -135.5q125 -35 199.5 -112.5t74.5 -199.5q0 -195 -168 -317.5t-454 -122.5h-680zM258 129h516q215 0 340 84t125 231q0 118 -100.5 181t-264.5 63h-466zM442 815h441q211 0 337 86.5t126 228.5
q0 114 -83.5 173t-238.5 59h-436z" />
    <glyph glyph-name="uni0393" unicode="&#x393;" horiz-adv-x="1310" 
d="M82 0l399 1491h1000l-35 -131h-856l-365 -1360h-143z" />
    <glyph glyph-name="uni0394" unicode="&#x394;" horiz-adv-x="1642" 
d="M1159 1501l287 -1395l-41 -106h-1440l17 106l1034 1395h143zM1053 1333l-887 -1202h1126z" />
    <glyph glyph-name="uni0395" unicode="&#x395;" horiz-adv-x="1411" 
d="M82 0l399 1491h1061l-37 -131h-915l-148 -543h822l-35 -131h-821l-148 -555h928l-37 -131h-1069z" />
    <glyph glyph-name="uni0396" unicode="&#x396;" horiz-adv-x="1443" 
d="M-29 0l25 90l1309 1272h-934l37 129h1144l-24 -90l-1309 -1272h975l-35 -129h-1188z" />
    <glyph glyph-name="uni0397" unicode="&#x397;" horiz-adv-x="1634" 
d="M82 0l399 1491h144l-181 -676h891l183 676h141l-399 -1491h-144l184 684h-892l-183 -684h-143z" />
    <glyph glyph-name="uni0398" unicode="&#x398;" horiz-adv-x="1828" 
d="M1382 817l-34 -135h-801l35 135h800zM354 621q0 -223 140.5 -371t367.5 -148q269 0 477 205q110 110 172 258t62 303q0 146 -62 263.5t-178.5 186t-267.5 68.5q-137 0 -258 -54t-217 -150q-111 -111 -173.5 -259t-62.5 -302zM207 616q0 181 72.5 350t201.5 298
q120 120 270.5 186t319.5 66q189 0 338 -85.5t230 -232t81 -326.5q0 -181 -71.5 -349.5t-200.5 -297.5q-120 -120 -271 -186t-321 -66q-187 0 -336 85t-231 231.5t-82 326.5z" />
    <glyph glyph-name="uni0399" unicode="&#x399;" horiz-adv-x="628" 
d="M96 0l400 1491h143l-399 -1491h-144z" />
    <glyph glyph-name="uni039A" unicode="&#x39a;" horiz-adv-x="1550" 
d="M82 0l399 1491h144l-248 -924l1124 924h207l-813 -660l436 -831h-162l-391 748l-452 -371l-101 -377h-143z" />
    <glyph glyph-name="uni039B" unicode="&#x39b;" horiz-adv-x="1603" 
d="M1135 1501l262 -1501h-150l-219 1313l-928 -1313h-161l1067 1501h129z" />
    <glyph glyph-name="uni039C" unicode="&#x39c;" horiz-adv-x="1873" 
d="M82 0l399 1491h129l340 -844l793 844h155l-401 -1491h-141l334 1247l-785 -825h-10l-340 823l-336 -1245h-137z" />
    <glyph glyph-name="uni039D" unicode="&#x39d;" horiz-adv-x="1697" 
d="M82 0l399 1491h133l635 -1251l338 1251h139l-401 -1491h-111l-651 1280l-342 -1280h-139z" />
    <glyph glyph-name="uni039E" unicode="&#x39e;" horiz-adv-x="1378" 
d="M1153 135l-35 -135h-1149l35 135h1149zM342 1356l37 135h1128l-37 -135h-1128zM1268 819l-35 -135h-1012l35 135h1012z" />
    <glyph glyph-name="uni039F" unicode="&#x39f;" horiz-adv-x="1828" 
d="M1071 1516q189 0 338 -85.5t230 -232t81 -326.5q0 -181 -71.5 -349.5t-200.5 -297.5q-120 -120 -271 -186t-321 -66q-187 0 -336 85t-231 231.5t-82 326.5q0 181 72.5 350t201.5 298q120 120 270.5 186t319.5 66zM862 102q136 0 257.5 54.5t217.5 150.5q110 110 172 258
t62 303q0 223 -140.5 370.5t-365.5 147.5q-268 0 -475 -204q-110 -110 -172 -258t-62 -303q0 -146 61.5 -264t178 -186.5t266.5 -68.5z" />
    <glyph glyph-name="uni03A0" unicode="&#x3a0;" horiz-adv-x="1634" 
d="M82 0l399 1491h1180l-401 -1491h-144l365 1360h-891l-365 -1360h-143z" />
    <glyph glyph-name="uni03A1" unicode="&#x3a1;" horiz-adv-x="1441" 
d="M82 0l399 1491h467q281 0 418 -137q104 -101 104 -273q0 -209 -135 -344q-194 -194 -600 -194h-364l-146 -543h-143zM1253 1262q-101 98 -309 98h-354l-184 -690h335q337 0 486 149q98 98 98 254q0 114 -72 189z" />
    <glyph glyph-name="uni03A3" unicode="&#x3a3;" horiz-adv-x="1423" 
d="M995 737l-745 -608h944l-35 -129h-1161l29 106l790 650l-444 628l30 107h1137l-35 -129h-950z" />
    <glyph glyph-name="uni03A4" unicode="&#x3a4;" horiz-adv-x="1335" 
d="M442 0l365 1358h-510l35 133h1163l-35 -133h-510l-364 -1358h-144z" />
    <glyph glyph-name="uni03A5" unicode="&#x3a5;" horiz-adv-x="1441" 
d="M489 0l162 602l-377 889h158l318 -774l735 774h186l-885 -918l-153 -573h-144z" />
    <glyph glyph-name="uni03A6" unicode="&#x3a6;" horiz-adv-x="1945" 
d="M1161 1522h144l-48 -179q280 -25 444.5 -163.5t164.5 -356.5q-2 -145 -68 -268t-184.5 -211.5t-292 -138t-383.5 -49.5l-49 -187h-144l50 191q-280 25 -443.5 163t-163.5 357q0 143 66 266.5t184.5 212t293 139t382.5 50.5zM336 686q0 -174 130.5 -281t364.5 -120
l252 936q-171 0 -313 -41t-236.5 -113t-146 -170t-51.5 -211zM1718 817q0 173 -131 279t-366 123l-252 -936q171 0 312.5 40.5t237 111.5t147.5 169t52 213z" />
    <glyph glyph-name="uni03A7" unicode="&#x3a7;" horiz-adv-x="1501" 
d="M-45 0l770 772l-385 719h158l329 -629l625 629h184l-743 -741l397 -750h-155l-344 659l-652 -659h-184z" />
    <glyph glyph-name="uni03A8" unicode="&#x3a8;" horiz-adv-x="1847" 
d="M1923 1491l-147 -553q-66 -240 -197 -371q-105 -107 -258 -150.5t-369 -43.5h-4l-100 -373h-141l98 377q-120 9 -214.5 38.5t-164.5 82t-107.5 133.5t-37.5 186q0 130 47 291l104 383h143l-110 -410q-41 -152 -41 -252q0 -162 105.5 -236t312.5 -87l266 985h141
l-268 -987h2q170 0 291 33t203 114q105 105 161 312l144 528h141z" />
    <glyph glyph-name="uni03A9" unicode="&#x3a9;" horiz-adv-x="1863" 
d="M406 709q0 -169 68 -308.5t218 -281.5l-33 -119h-622l35 129l463 -4q-277 268 -277 594q0 225 108.5 407.5t300.5 286t429 103.5q301 0 482 -166t181 -439q0 -236 -140.5 -428t-416.5 -358l449 4l-35 -129h-649l32 119q297 167 452 353.5t159 422.5q5 218 -136 354.5
t-391 136.5q-140 0 -264 -48.5t-215.5 -135.5t-144.5 -215t-53 -278z" />
    <glyph glyph-name="uni03AA" unicode="&#x3aa;" horiz-adv-x="628" 
d="M96 0l400 1491h143l-399 -1491h-144zM322 1626l49 178h180l-49 -178h-180zM711 1626l49 178h178l-49 -178h-178z" />
    <glyph glyph-name="uni03AB" unicode="&#x3ab;" horiz-adv-x="1441" 
d="M489 0l162 602l-377 889h158l318 -774l735 774h186l-885 -918l-153 -573h-144zM692 1620l49 178h181l-50 -178h-180zM1081 1620l49 178h179l-49 -178h-179z" />
    <glyph glyph-name="uni03AC" unicode="&#x3ac;" horiz-adv-x="1509" 
d="M786 1268l222 317l155 -63l-256 -254h-121zM1366 1094l-211 -793q-14 -58 -14 -98q0 -99 116 -99q39 0 89 11l-33 -119q-43 -12 -96 -12q-104 0 -159 52t-54 150q-199 -213 -443 -213q-191 0 -314.5 130t-123.5 333q0 150 54 279.5t151 226.5q178 178 411 178
q86 0 157 -24t121 -66t84 -91t58 -108l70 263h137zM590 98q92 0 182.5 41.5t163.5 114.5q78 78 123 177t45 206q0 152 -99 255t-255 103q-182 0 -318 -133q-78 -78 -121 -185.5t-43 -225.5q0 -160 90 -256.5t232 -96.5z" />
    <glyph glyph-name="uni03AD" unicode="&#x3ad;" horiz-adv-x="1218" 
d="M702 1268l222 317l155 -63l-256 -254h-121zM389 569q-156 70 -156 232q0 133 125.5 226t341.5 93q279 0 484 -166l-84 -96q-78 66 -182.5 104.5t-221.5 38.5q-156 0 -239.5 -57t-83.5 -147q0 -85 65.5 -135t194.5 -50h250l-31 -114h-291q-158 0 -246 -57.5t-88 -151.5
q0 -89 81.5 -142t236.5 -53q204 0 432 105l49 -111q-231 -113 -487 -113q-222 0 -338.5 83.5t-116.5 215.5q0 121 84 194.5t221 100.5z" />
    <glyph glyph-name="uni03AE" unicode="&#x3ae;" horiz-adv-x="1329" 
d="M813 1268l221 317l156 -63l-256 -254h-121zM55 0l293 1094h137l-49 -189q88 103 181 159t214 56q159 0 256 -94.5t97 -249.5q0 -64 -25 -162l-254 -954h-137l258 963q16 62 16 129q0 115 -68.5 179t-191.5 64q-135 0 -257 -106.5t-167 -270.5l-163 -618h-140z" />
    <glyph glyph-name="uni03AF" unicode="&#x3af;" horiz-adv-x="624" 
d="M377 1268l221 317l156 -63l-256 -254h-121zM459 115l-31 -119q-44 -12 -96 -12q-105 0 -160 50.5t-55 143.5q0 64 24 152l203 764h137l-211 -793q-14 -58 -14 -98q0 -99 117 -99q37 0 86 11z" />
    <glyph glyph-name="uni03B0" unicode="&#x3b0;" horiz-adv-x="1331" 
d="M1047 1268l51 186h166l-52 -186h-165zM532 1268l52 186h166l-52 -186h-166zM770 1268l172 354l158 -35l-219 -319h-111zM182 537l150 557h137l-158 -586q-22 -99 -22 -166q0 -118 73.5 -181t208.5 -63q88 0 154 25t125 84q90 90 139 270l164 617h137l-172 -645
q-56 -210 -166 -320q-154 -154 -391 -154q-185 0 -297 92t-112 267q0 92 30 203z" />
    <glyph glyph-name="uni03B1" unicode="&#x3b1;" horiz-adv-x="1509" 
d="M1366 1094l-211 -793q-14 -58 -14 -98q0 -99 116 -99q39 0 89 11l-33 -119q-43 -12 -96 -12q-104 0 -159 52t-54 150q-199 -213 -443 -213q-191 0 -314.5 130t-123.5 333q0 150 54 279.5t151 226.5q178 178 411 178q86 0 157 -24t121 -66t84 -91t58 -108l70 263h137z
M590 98q92 0 182.5 41.5t163.5 114.5q78 78 123 177t45 206q0 152 -99 255t-255 103q-182 0 -318 -133q-78 -78 -121 -185.5t-43 -225.5q0 -160 90 -256.5t232 -96.5z" />
    <glyph glyph-name="uni03B2" unicode="&#x3b2;" horiz-adv-x="1415" 
d="M-35 -340l375 1399q60 224 190 354q156 156 398 156q200 0 317 -105.5t117 -269.5q0 -165 -116.5 -281t-307.5 -149q141 -43 221 -131.5t80 -222.5q0 -181 -139.5 -308t-358.5 -127q-179 0 -300 77t-177 210l-162 -602h-137zM643 719h-258l-39 -150q-18 -77 -18 -123
q0 -147 111.5 -247.5t295.5 -100.5q162 0 261.5 90.5t99.5 223.5q0 136 -115 221.5t-338 85.5zM473 1040l-57 -206h278q249 0 387 95t138 257q0 118 -78.5 189t-216.5 71q-94 0 -164.5 -29t-132.5 -88q-109 -114 -154 -289z" />
    <glyph glyph-name="uni03B3" unicode="&#x3b3;" horiz-adv-x="1222" 
d="M422 -340h-137l96 354l-180 1080h145l137 -936l633 936h160l-760 -1084z" />
    <glyph glyph-name="uni03B4" unicode="&#x3b4;" horiz-adv-x="1361" 
d="M684 1438l291 -334q136 -155 199 -282t63 -279q0 -151 -74.5 -280.5t-211.5 -208.5t-306 -79q-158 0 -278.5 68.5t-182 180.5t-61.5 247q0 248 172 412t491 239l-290 332l28 100h832l-33 -118zM1094 539q0 128 -53 240t-171 247q-310 -72 -457 -206t-147 -347
q0 -163 106 -270t275 -107q191 0 319 128.5t128 314.5z" />
    <glyph glyph-name="uni03B5" unicode="&#x3b5;" horiz-adv-x="1218" 
d="M389 569q-156 70 -156 232q0 133 125.5 226t341.5 93q279 0 484 -166l-84 -96q-78 66 -182.5 104.5t-221.5 38.5q-156 0 -239.5 -57t-83.5 -147q0 -85 65.5 -135t194.5 -50h250l-31 -114h-291q-158 0 -246 -57.5t-88 -151.5q0 -89 81.5 -142t236.5 -53q204 0 432 105
l49 -111q-231 -113 -487 -113q-222 0 -338.5 83.5t-116.5 215.5q0 121 84 194.5t221 100.5z" />
    <glyph glyph-name="uni03B6" unicode="&#x3b6;" horiz-adv-x="1167" 
d="M1343 1446l-696 -541q-224 -170 -306.5 -271t-82.5 -202q0 -107 79 -171.5t273 -100.5l365 -68l-96 -364h-134l70 264l-248 47q-236 42 -345 135.5t-109 245.5q0 75 23.5 138.5t83.5 134.5t139.5 140.5t213.5 172.5l557 428h-655l33 120h862z" />
    <glyph glyph-name="uni03B7" unicode="&#x3b7;" horiz-adv-x="1329" 
d="M55 0l293 1094h137l-49 -189q88 103 181 159t214 56q159 0 256 -94.5t97 -249.5q0 -64 -25 -162l-254 -954h-137l258 963q16 62 16 129q0 115 -68.5 179t-191.5 64q-135 0 -257 -106.5t-167 -270.5l-163 -618h-140z" />
    <glyph glyph-name="uni03B8" unicode="&#x3b8;" horiz-adv-x="1431" 
d="M1362 1001q0 -224 -85 -458t-237 -383q-187 -187 -424 -187q-204 0 -317 143.5t-113 415.5q0 227 85.5 461t238.5 383q184 187 424 187q201 0 314.5 -145t113.5 -417zM326 537q0 -204 74 -322.5t221 -118.5q89 0 167 35t156 113q84 84 145.5 206t94.5 261h-846
q-12 -88 -12 -174zM604 1292q-166 -166 -239 -461h845q13 93 13 168q0 203 -73 321t-220 118q-177 0 -326 -146z" />
    <glyph glyph-name="uni03B9" unicode="&#x3b9;" horiz-adv-x="624" 
d="M459 115l-31 -119q-44 -12 -96 -12q-105 0 -160 50.5t-55 143.5q0 64 24 152l203 764h137l-211 -793q-14 -58 -14 -98q0 -99 117 -99q37 0 86 11z" />
    <glyph glyph-name="uni03BA" unicode="&#x3ba;" horiz-adv-x="1234" 
d="M485 1094l-172 -648l797 648h195l-607 -486l312 -608h-156l-268 526l-320 -256l-71 -270h-138l291 1094h137z" />
    <glyph glyph-name="uni03BB" unicode="&#x3bb;" horiz-adv-x="1269" 
d="M903 0l-131 961l-661 -961h-162l794 1128l-6 50q-15 98 -29.5 147t-41.5 76q-37 37 -107 37q-69 0 -127 -21l23 123q58 21 135 21q109 0 174 -62q42 -42 65 -110.5t41 -192.5l179 -1196h-146z" />
    <glyph glyph-name="uni03BC" unicode="&#x3bc;" horiz-adv-x="1435" 
d="M100 -340h-135l383 1434h137l-151 -564q-23 -90 -23 -155q0 -129 74 -203t203 -74q140 0 245 88t146 242l178 666h137l-211 -793q-16 -66 -16 -98q0 -99 117 -99q38 0 88 11l-33 -119q-43 -12 -96 -12q-98 0 -153 46t-60 128q-135 -183 -350 -183q-130 0 -221 67.5
t-123 190.5h-5q-4 -35 -8.5 -67t-8 -53t-10 -52.5t-9.5 -45t-12.5 -51.5t-12.5 -52z" />
    <glyph glyph-name="uni03BD" unicode="&#x3bd;" horiz-adv-x="1222" 
d="M385 -8l-184 1102h145l137 -936l633 936h160l-772 -1102h-119z" />
    <glyph glyph-name="uni03BE" unicode="&#x3be;" horiz-adv-x="1175" 
d="M625 154l342 -62l-97 -364h-133l70 264l-217 39q-113 22 -197 52t-149 75.5t-98 110.5t-33 149q0 159 114.5 261.5t319.5 133.5q-191 101 -191 317q0 85 37 164.5t102 140.5t163 97.5t212 36.5q274 0 465 -195l-96 -96q-76 78 -164.5 122t-206.5 44q-171 0 -269.5 -92
t-98.5 -224q0 -144 94 -215t258 -71h160l-31 -119h-252q-214 0 -341.5 -76t-127.5 -221q0 -113 89 -175.5t276 -96.5z" />
    <glyph glyph-name="uni03BF" unicode="&#x3bf;" horiz-adv-x="1376" 
d="M766 1120q220 0 357 -137.5t137 -351.5q0 -129 -52.5 -249t-146.5 -214q-90 -90 -206.5 -141.5t-242.5 -51.5q-220 0 -356.5 137t-136.5 351q0 129 51.5 249.5t144.5 213.5q94 91 210 142.5t241 51.5zM623 98q181 0 329 148q76 75 120 174.5t44 206.5q0 174 -99 271
t-263 97q-90 0 -176 -38.5t-154 -106.5q-76 -76 -119 -176t-43 -207q0 -174 99 -271.5t262 -97.5z" />
    <glyph glyph-name="uni03C0" unicode="&#x3c0;" horiz-adv-x="1499" 
d="M1290 115l-30 -119q-44 -12 -97 -12q-105 0 -160 50.5t-55 143.5q0 60 25 152l170 641h-586l-260 -971h-137l260 971h-232l33 123h1313l-35 -123h-219l-178 -670q-15 -62 -15 -98q0 -99 117 -99q36 0 86 11z" />
    <glyph glyph-name="uni03C1" unicode="&#x3c1;" horiz-adv-x="1400" 
d="M-61 -340l247 930q61 229 193 358q167 172 420 172q210 0 343.5 -128.5t133.5 -348.5q0 -141 -56.5 -270t-148.5 -221q-176 -179 -414 -179q-161 0 -265.5 80.5t-155.5 206.5l-160 -600h-137zM649 98q185 0 318 133q78 78 120.5 184.5t42.5 223.5q0 166 -90 261t-249 95
q-181 0 -314 -133q-82 -82 -127 -193.5t-45 -215.5q0 -155 95 -255t249 -100z" />
    <glyph glyph-name="uni03C2" unicode="&#x3c2;" horiz-adv-x="1206" 
d="M643 152l315 -60l-96 -364h-133l70 266l-211 37q-239 44 -353 160.5t-114 308.5q0 126 49 239t137 201q180 180 430 180q150 0 262 -66t187 -177l-111 -80q-69 99 -151.5 148.5t-194.5 49.5q-180 0 -313 -133q-69 -69 -109.5 -161t-40.5 -193q0 -156 92.5 -239.5
t284.5 -116.5z" />
    <glyph glyph-name="uni03C3" unicode="&#x3c3;" horiz-adv-x="1452" 
d="M1251 596q0 -250 -180 -430q-197 -191 -463 -191q-221 0 -355 135t-134 351q0 127 48.5 241t137.5 201q188 191 492 191h671l-32 -123l-379 2q90 -57 142 -158t52 -219zM618 98q202 0 345 146q147 147 147 358q0 171 -94.5 270t-253.5 99q-204 0 -354 -150
q-68 -68 -107 -160t-39 -194q0 -174 97 -271.5t259 -97.5z" />
    <glyph glyph-name="uni03C4" unicode="&#x3c4;" horiz-adv-x="1206" 
d="M1264 1094l-35 -123h-461l-160 -598q-24 -84 -24 -142q0 -133 161 -133q83 0 168 27l-32 -121q-83 -27 -164 -27q-133 0 -203 62.5t-70 169.5q0 48 31 176l156 586h-457l33 123h1057z" />
    <glyph glyph-name="uni03C5" unicode="&#x3c5;" horiz-adv-x="1331" 
d="M182 537l150 557h137l-158 -586q-22 -99 -22 -166q0 -118 73.5 -181t208.5 -63q88 0 154 25t125 84q90 90 139 270l164 617h137l-172 -645q-56 -210 -166 -320q-154 -154 -391 -154q-185 0 -297 92t-112 267q0 92 30 203z" />
    <glyph glyph-name="uni03C6" unicode="&#x3c6;" horiz-adv-x="1771" 
d="M1645 600q0 -223 -158 -381q-110 -107 -277.5 -166t-373.5 -59h-31l-88 -334h-137l92 340q-254 29 -399.5 162.5t-145.5 331.5q0 222 158 380q109 109 276 167.5t375 58.5h29l122 454h138l-125 -462q256 -32 400.5 -163t144.5 -329zM270 498q0 -157 110.5 -257
t321.5 -120l232 858h-12q-349 0 -527 -178q-125 -125 -125 -303zM1501 598q0 156 -111.5 255.5t-322.5 119.5l-229 -856h12q350 0 526 176q125 125 125 305z" />
    <glyph glyph-name="uni03C7" unicode="&#x3c7;" horiz-adv-x="1263" 
d="M395 1094l217 -576l506 576h174l-624 -688l297 -746h-148l-252 655l-579 -655h-174l698 770l-264 664h149z" />
    <glyph glyph-name="uni03C8" unicode="&#x3c8;" horiz-adv-x="1724" 
d="M1690 1094l-156 -582q-30 -111 -73 -191.5t-111 -146.5q-174 -180 -547 -180h-23l-88 -334h-137l90 338q-140 12 -244.5 61t-166.5 142.5t-62 220.5q0 97 37 229l119 443h137l-131 -490q-25 -98 -25 -172q0 -136 94.5 -216t274.5 -97l385 1435h137l-387 -1437h6
q154 0 258.5 35t179.5 110q100 100 150 295l145 537h138z" />
    <glyph glyph-name="uni03C9" unicode="&#x3c9;" horiz-adv-x="1902" 
d="M893 571l82 314h135l-76 -297q-26 -107 -26 -189q0 -133 63 -217t195 -84q146 0 251 140t105 372q0 241 -139 484h151q54 -103 91.5 -236t37.5 -254q0 -143 -41 -263t-110.5 -199.5t-161 -123t-193.5 -43.5q-160 0 -248 86t-106 238q-66 -146 -175.5 -235t-252.5 -89
q-172 0 -265 114t-93 294q0 106 32.5 212t89 196.5t119.5 164.5t136 138h180q-414 -354 -414 -703q0 -135 59.5 -214t174.5 -79q134 0 236.5 121.5t162.5 351.5z" />
    <glyph glyph-name="uni03CA" unicode="&#x3ca;" horiz-adv-x="624" 
d="M197 1268l51 188h172l-51 -188h-172zM559 1268l51 188h172l-51 -188h-172zM459 115l-31 -119q-44 -12 -96 -12q-105 0 -160 50.5t-55 143.5q0 64 24 152l203 764h137l-211 -793q-14 -58 -14 -98q0 -99 117 -99q37 0 86 11z" />
    <glyph glyph-name="uni03CB" unicode="&#x3cb;" horiz-adv-x="1331" 
d="M584 1268l51 188h172l-51 -188h-172zM946 1268l51 188h172l-51 -188h-172zM182 537l150 557h137l-158 -586q-22 -99 -22 -166q0 -118 73.5 -181t208.5 -63q88 0 154 25t125 84q90 90 139 270l164 617h137l-172 -645q-56 -210 -166 -320q-154 -154 -391 -154
q-185 0 -297 92t-112 267q0 92 30 203z" />
    <glyph glyph-name="uni03CC" unicode="&#x3cc;" horiz-adv-x="1376" 
d="M782 1268l222 317l155 -63l-256 -254h-121zM766 1120q220 0 357 -137.5t137 -351.5q0 -129 -52.5 -249t-146.5 -214q-90 -90 -206.5 -141.5t-242.5 -51.5q-220 0 -356.5 137t-136.5 351q0 129 51.5 249.5t144.5 213.5q94 91 210 142.5t241 51.5zM623 98q181 0 329 148
q76 75 120 174.5t44 206.5q0 174 -99 271t-263 97q-90 0 -176 -38.5t-154 -106.5q-76 -76 -119 -176t-43 -207q0 -174 99 -271.5t262 -97.5z" />
    <glyph glyph-name="uni03CD" unicode="&#x3cd;" horiz-adv-x="1331" 
d="M766 1268l221 317l156 -63l-256 -254h-121zM182 537l150 557h137l-158 -586q-22 -99 -22 -166q0 -118 73.5 -181t208.5 -63q88 0 154 25t125 84q90 90 139 270l164 617h137l-172 -645q-56 -210 -166 -320q-154 -154 -391 -154q-185 0 -297 92t-112 267q0 92 30 203z" />
    <glyph glyph-name="uni03CE" unicode="&#x3ce;" horiz-adv-x="1902" 
d="M1059 1268l221 317l156 -63l-256 -254h-121zM893 571l82 314h135l-76 -297q-26 -107 -26 -189q0 -133 63 -217t195 -84q146 0 251 140t105 372q0 241 -139 484h151q54 -103 91.5 -236t37.5 -254q0 -143 -41 -263t-110.5 -199.5t-161 -123t-193.5 -43.5q-160 0 -248 86
t-106 238q-66 -146 -175.5 -235t-252.5 -89q-172 0 -265 114t-93 294q0 106 32.5 212t89 196.5t119.5 164.5t136 138h180q-414 -354 -414 -703q0 -135 59.5 -214t174.5 -79q134 0 236.5 121.5t162.5 351.5z" />
    <glyph glyph-name="uni0400" unicode="&#x400;" horiz-adv-x="1411" 
d="M956 1626l-184 195l148 69l137 -264h-101zM82 0l399 1491h1061l-37 -131h-915l-148 -543h822l-35 -131h-821l-148 -555h928l-37 -131h-1069z" />
    <glyph glyph-name="uni0401" unicode="&#x401;" horiz-adv-x="1411" 
d="M752 1626l49 178h180l-49 -178h-180zM1141 1626l49 178h178l-49 -178h-178zM82 0l399 1491h1061l-37 -131h-915l-148 -543h822l-35 -131h-821l-148 -555h928l-37 -131h-1069z" />
    <glyph glyph-name="uni0402" unicode="&#x402;" horiz-adv-x="1804" 
d="M1452 1358h-520l-123 -457q149 31 303 31q276 0 415.5 -105t139.5 -305q0 -237 -186.5 -381.5t-511.5 -144.5h-54l33 129h35q253 0 396 108t143 285q0 287 -426 287q-145 0 -324 -39l-205 -766h-143l364 1358h-489l35 133h1155z" />
    <glyph glyph-name="uni0403" unicode="&#x403;" horiz-adv-x="1310" 
d="M897 1626l279 264l149 -69l-291 -195h-137zM82 0l399 1491h1000l-35 -131h-856l-365 -1360h-143z" />
    <glyph glyph-name="uni0404" unicode="&#x404;" horiz-adv-x="1615" 
d="M1087 1516q196 0 338 -84.5t224 -231.5l-121 -76q-80 133 -186.5 197.5t-262.5 64.5q-144 0 -270 -55.5t-221 -154.5q-148 -151 -207 -361h844l-35 -127h-834q-4 -22 -4 -88q0 -227 136 -361.5t348 -134.5q149 0 263.5 53t217.5 156l92 -92q-117 -117 -254.5 -182.5
t-325.5 -65.5q-172 0 -311.5 72t-224.5 212.5t-88 326.5q-4 188 67 361.5t203 309.5q120 122 279 191.5t333 69.5z" />
    <glyph glyph-name="uni0405" unicode="&#x405;" horiz-adv-x="1382" 
d="M647 -20q-398 0 -602 282l111 84q96 -122 216 -181t287 -59q171 0 285.5 86t114.5 216q0 91 -69.5 153t-246.5 131q-226 90 -320.5 176t-94.5 222q0 154 110 264q157 157 432 157q165 0 299.5 -61t225.5 -164l-107 -92q-175 190 -430 190q-172 0 -277.5 -83t-105.5 -197
q0 -49 19 -87t63 -72.5t104.5 -63.5t155.5 -66q205 -78 298 -167t93 -226q0 -160 -121 -281q-161 -161 -440 -161z" />
    <glyph glyph-name="uni0406" unicode="&#x406;" horiz-adv-x="628" 
d="M96 0l400 1491h143l-399 -1491h-144z" />
    <glyph glyph-name="uni0407" unicode="&#x407;" horiz-adv-x="628" 
d="M96 0l400 1491h143l-399 -1491h-144zM322 1626l49 178h180l-49 -178h-180zM711 1626l49 178h178l-49 -178h-178z" />
    <glyph glyph-name="uni0408" unicode="&#x408;" horiz-adv-x="1200" 
d="M428 -20q-172 0 -280.5 88.5t-157.5 238.5l119 60q45 -132 120.5 -195t196.5 -63q152 0 260 108q103 103 160 322l256 952h145l-262 -977q-35 -136 -82 -227.5t-119 -163.5q-143 -143 -356 -143z" />
    <glyph glyph-name="uni0409" unicode="&#x409;" horiz-adv-x="2265" 
d="M920 0l366 1364h-10l-1170 -1364h-172l1287 1491h243l-147 -551h293q259 0 394.5 -106t135.5 -299q0 -205 -137 -342q-193 -193 -602 -193h-481zM1995 530q0 139 -102 210t-300 71h-313l-182 -680h315q335 0 481 143q101 104 101 256z" />
    <glyph glyph-name="uni040A" unicode="&#x40a;" horiz-adv-x="2439" 
d="M1094 0l184 684h-870l-183 -684h-143l399 1491h144l-181 -676h869l182 676h143l-147 -551h293q259 0 394.5 -106t135.5 -299q0 -205 -137 -342q-193 -193 -602 -193h-481zM2169 530q0 281 -402 281h-311l-182 -680h313q335 0 481 143q101 104 101 256z" />
    <glyph glyph-name="uni040B" unicode="&#x40b;" horiz-adv-x="1863" 
d="M1452 1358h-520l-123 -459q158 37 348 37q110 0 199 -21.5t157.5 -66t106 -118.5t37.5 -173q0 -97 -33 -223l-90 -334h-143l94 348q28 97 28 197q0 131 -99.5 196.5t-278.5 65.5q-158 0 -363 -41l-205 -766h-143l364 1358h-489l35 133h1155z" />
    <glyph glyph-name="uni040C" unicode="&#x40c;" horiz-adv-x="1550" 
d="M975 1620l278 264l150 -69l-291 -195h-137zM82 0l399 1491h144l-179 -664h256l803 664h205l-895 -731l547 -760h-164l-502 700h-284l-187 -700h-143z" />
    <glyph glyph-name="uni040D" unicode="&#x40d;" horiz-adv-x="1701" 
d="M1042 1620l-184 195l148 69l137 -264h-101zM1581 1491h148l-400 -1491h-143l338 1264l-1317 -1264h-125l399 1491h144l-332 -1235z" />
    <glyph glyph-name="uni040E" unicode="&#x40e;" horiz-adv-x="1525" 
d="M1008 1616q-130 0 -195 60t-45 169h106q5 -56 41 -83t119 -27q154 0 217 110h119q-36 -108 -134 -168.5t-228 -60.5zM1700 1491l-1258 -1491h-172l439 520l-383 971h149l336 -860l719 860h170z" />
    <glyph glyph-name="uni040F" unicode="&#x40f;" horiz-adv-x="1634" 
d="M1661 1491l-401 -1491h-521l-84 -313h-137l84 313h-520l399 1491h144l-365 -1360h893l365 1360h143z" />
    <glyph glyph-name="uni0410" unicode="&#x410;" horiz-adv-x="1642" 
d="M-68 0l1090 1501h137l283 -1501h-146l-71 406h-844l-291 -406h-158zM473 535h727l-145 806z" />
    <glyph glyph-name="uni0411" unicode="&#x411;" horiz-adv-x="1544" 
d="M451 848h405q299 0 428 -129q90 -90 90 -242q0 -176 -121 -297q-180 -180 -565 -180h-606l399 1491h1043l-35 -131h-901zM416 719l-158 -588h444q311 0 441 133q86 83 86 211q0 95 -62 154q-87 90 -323 90h-428z" />
    <glyph glyph-name="uni0412" unicode="&#x412;" horiz-adv-x="1552" 
d="M82 0l399 1491h557q213 0 334 -91t121 -251q0 -157 -108 -261.5t-275 -135.5q125 -35 199.5 -112.5t74.5 -199.5q0 -195 -168 -317.5t-454 -122.5h-680zM258 129h516q215 0 340 84t125 231q0 118 -100.5 181t-264.5 63h-466zM442 815h441q211 0 337 86.5t126 228.5
q0 114 -83.5 173t-238.5 59h-436z" />
    <glyph glyph-name="uni0413" unicode="&#x413;" horiz-adv-x="1310" 
d="M82 0l399 1491h1000l-35 -131h-856l-365 -1360h-143z" />
    <glyph glyph-name="uni0414" unicode="&#x414;" horiz-adv-x="1820" 
d="M-18 131h141l969 1370h149l238 -1370h145l-121 -444h-137l84 313h-1366l-84 -313h-137zM1133 1339l-848 -1210h1046z" />
    <glyph glyph-name="uni0415" unicode="&#x415;" horiz-adv-x="1411" 
d="M82 0l399 1491h1061l-37 -131h-915l-148 -543h822l-35 -131h-821l-148 -555h928l-37 -131h-1069z" />
    <glyph glyph-name="uni0416" unicode="&#x416;" horiz-adv-x="2314" 
d="M1491 1491l-180 -664h207l757 664h193l-852 -733l493 -758h-157l-447 700h-227l-186 -700h-144l189 700h-209l-797 -700h-192l903 780l-469 711h159l429 -664h208l179 664h143z" />
    <glyph glyph-name="uni0417" unicode="&#x417;" horiz-adv-x="1458" 
d="M395 1235l-67 113q263 168 561 168q236 0 373 -108t137 -273q0 -81 -32 -149.5t-89 -117.5t-128 -81.5t-155 -49.5q123 -38 195 -119t72 -194q0 -136 -84.5 -240t-219.5 -156.5t-296 -52.5q-369 0 -623 236l96 100q112 -106 241.5 -157.5t291.5 -51.5q122 0 222 36
t162 110.5t62 175.5q0 120 -103 192t-311 72h-229l35 125h244q238 0 368.5 79.5t130.5 231.5q0 109 -96 187t-272 78q-124 0 -250.5 -41.5t-235.5 -112.5z" />
    <glyph glyph-name="uni0418" unicode="&#x418;" horiz-adv-x="1701" 
d="M1581 1491h148l-400 -1491h-143l338 1264l-1317 -1264h-125l399 1491h144l-332 -1235z" />
    <glyph glyph-name="uni0419" unicode="&#x419;" horiz-adv-x="1701" 
d="M1126 1616q-129 0 -194 60t-45 169h106q5 -56 41 -83t119 -27q154 0 217 110h119q-36 -108 -134.5 -168.5t-228.5 -60.5zM1581 1491h148l-400 -1491h-143l338 1264l-1317 -1264h-125l399 1491h144l-332 -1235z" />
    <glyph glyph-name="uni041A" unicode="&#x41a;" horiz-adv-x="1550" 
d="M82 0l399 1491h144l-179 -664h256l803 664h205l-895 -731l547 -760h-164l-502 700h-284l-187 -700h-143z" />
    <glyph glyph-name="uni041B" unicode="&#x41b;" horiz-adv-x="1597" 
d="M1130 1501l263 -1501h-150l-219 1313l-928 -1313h-162l1067 1501h129z" />
    <glyph glyph-name="uni041C" unicode="&#x41c;" horiz-adv-x="1873" 
d="M82 0l399 1491h129l340 -844l793 844h155l-401 -1491h-141l334 1247l-785 -825h-10l-340 823l-336 -1245h-137z" />
    <glyph glyph-name="uni041D" unicode="&#x41d;" horiz-adv-x="1634" 
d="M86 0l399 1491h144l-180 -676h890l183 676h141l-399 -1491h-144l185 684h-893l-183 -684h-143z" />
    <glyph glyph-name="uni041E" unicode="&#x41e;" horiz-adv-x="1822" 
d="M1071 1516q189 0 338 -85.5t230 -232t81 -326.5q0 -181 -71.5 -349.5t-200.5 -297.5q-120 -120 -271 -186t-321 -66q-187 0 -336 85t-231 231.5t-82 326.5q0 181 72.5 350t201.5 298q120 120 270.5 186t319.5 66zM862 102q136 0 257.5 54.5t217.5 150.5q110 110 172 258
t62 303q0 223 -140.5 370.5t-365.5 147.5q-268 0 -475 -204q-110 -110 -172 -258t-62 -303q0 -146 61.5 -264t178 -186.5t266.5 -68.5z" />
    <glyph glyph-name="uni041F" unicode="&#x41f;" horiz-adv-x="1634" 
d="M82 0l399 1491h1180l-401 -1491h-144l365 1360h-891l-365 -1360h-143z" />
    <glyph glyph-name="uni0420" unicode="&#x420;" horiz-adv-x="1441" 
d="M82 0l399 1491h467q281 0 418 -137q104 -101 104 -273q0 -209 -135 -344q-194 -194 -600 -194h-364l-146 -543h-143zM1253 1262q-101 98 -309 98h-354l-184 -690h335q337 0 486 149q98 98 98 254q0 114 -72 189z" />
    <glyph glyph-name="uni0421" unicode="&#x421;" horiz-adv-x="1593" 
d="M823 -27q-128 0 -241.5 42.5t-198 120t-133.5 193.5t-49 255q0 189 74.5 363.5t207.5 307.5q126 123 282 192t329 69q196 0 336.5 -86.5t218.5 -233.5l-123 -72q-76 129 -180.5 195.5t-264.5 66.5q-138 0 -261.5 -55t-223.5 -155q-117 -117 -182.5 -269.5t-65.5 -316.5
q0 -222 136.5 -354t349.5 -132q147 0 262 54.5t219 158.5l94 -92q-245 -252 -586 -252z" />
    <glyph glyph-name="uni0422" unicode="&#x422;" horiz-adv-x="1335" 
d="M442 0l365 1358h-510l35 133h1163l-35 -133h-510l-364 -1358h-144z" />
    <glyph glyph-name="uni0423" unicode="&#x423;" horiz-adv-x="1525" 
d="M1700 1491l-1258 -1491h-172l439 520l-383 971h149l336 -860l719 860h170z" />
    <glyph glyph-name="uni0424" unicode="&#x424;" horiz-adv-x="1945" 
d="M1161 1522h144l-48 -179q280 -25 444.5 -163.5t164.5 -356.5q-2 -145 -68 -268t-184.5 -211.5t-292 -138t-383.5 -49.5l-49 -187h-144l50 191q-280 25 -443.5 163t-163.5 357q0 143 66 266.5t184.5 212t293 139t382.5 50.5zM336 686q0 -174 130.5 -281t364.5 -120
l252 936q-171 0 -313 -41t-236.5 -113t-146 -170t-51.5 -211zM1718 817q0 173 -131 279t-366 123l-252 -936q171 0 312.5 40.5t237 111.5t147.5 169t52 213z" />
    <glyph glyph-name="uni0425" unicode="&#x425;" horiz-adv-x="1501" 
d="M-45 0l770 772l-385 719h158l329 -629l625 629h184l-743 -741l397 -750h-155l-344 659l-652 -659h-184z" />
    <glyph glyph-name="uni0426" unicode="&#x426;" horiz-adv-x="1662" 
d="M1661 1491l-367 -1360h156l-121 -444h-137l84 313h-1194l399 1491h144l-365 -1360h893l365 1360h143z" />
    <glyph glyph-name="uni0427" unicode="&#x427;" horiz-adv-x="1490" 
d="M971 0l153 573q-157 -34 -348 -34q-111 0 -201 21.5t-159 65.5t-106.5 118.5t-37.5 173.5q0 92 35 223l94 350h144l-99 -365q-30 -104 -30 -196q0 -131 101 -196.5t280 -65.5q181 0 364 43l211 780h144l-402 -1491h-143z" />
    <glyph glyph-name="uni0428" unicode="&#x428;" horiz-adv-x="2422" 
d="M2449 1491l-401 -1491h-1966l399 1491h144l-365 -1360h768l365 1360h143l-365 -1360h768l367 1360h143z" />
    <glyph glyph-name="uni0429" unicode="&#x429;" horiz-adv-x="2451" 
d="M2449 1491l-366 -1360h155l-120 -444h-138l84 313h-1982l399 1491h144l-365 -1360h768l365 1360h143l-365 -1360h768l367 1360h143z" />
    <glyph glyph-name="uni042A" unicode="&#x42a;" horiz-adv-x="1785" 
d="M420 0l364 1360h-495l35 131h639l-148 -551h315q259 0 395 -106t136 -299q0 -205 -137 -342q-193 -193 -602 -193h-502zM1516 530q0 139 -102 210t-300 71h-334l-182 -680h336q335 0 481 143q101 104 101 256z" />
    <glyph glyph-name="uni042B" unicode="&#x42b;" horiz-adv-x="2000" 
d="M1487 0l401 1491h144l-402 -1491h-143zM82 0l399 1491h144l-148 -551h316q259 0 394.5 -106t135.5 -299q0 -205 -137 -342q-193 -193 -602 -193h-502zM1178 530q0 139 -102 210t-300 71h-334l-182 -680h336q335 0 481 143q101 104 101 256z" />
    <glyph glyph-name="uni042C" unicode="&#x42c;" horiz-adv-x="1447" 
d="M82 0l399 1491h144l-148 -551h316q259 0 394.5 -106t135.5 -299q0 -205 -137 -342q-193 -193 -602 -193h-502zM1178 530q0 139 -102 210t-300 71h-334l-182 -680h336q335 0 481 143q101 104 101 256z" />
    <glyph glyph-name="uni042D" unicode="&#x42d;" horiz-adv-x="1615" 
d="M653 -27q-193 0 -340.5 81t-238.5 218l108 86q90 -124 203 -190t266 -66q146 0 270.5 55t219.5 154q151 154 205 377h-846l35 127h831q4 54 4 74q0 225 -132.5 360t-342.5 135q-141 0 -258 -50t-229 -148l-84 98q253 232 577 232q128 0 240 -43t194 -121t130.5 -193
t52.5 -254q4 -190 -66.5 -367t-200.5 -309q-121 -121 -273.5 -188.5t-324.5 -67.5z" />
    <glyph glyph-name="uni042E" unicode="&#x42e;" horiz-adv-x="2326" 
d="M82 0l399 1491h144l-181 -676h344q61 270 248 457q244 244 572 244q184 0 325 -84.5t216 -230.5t75 -329q0 -181 -70 -351.5t-200 -303.5q-244 -244 -572 -244q-184 0 -325 84t-216 230t-75 329q0 45 2 68h-360l-183 -684h-143zM1389 102q264 0 454 197
q108 108 170 257.5t62 311.5q0 225 -129 371.5t-344 146.5q-259 0 -455 -196q-108 -108 -170 -257.5t-62 -311.5q0 -224 130 -371.5t344 -147.5z" />
    <glyph glyph-name="uni042F" unicode="&#x42f;" horiz-adv-x="1570" 
d="M1597 1491l-401 -1491h-143l161 596h-466h-3l-585 -596h-185l619 625q-142 42 -220.5 138.5t-78.5 235.5q0 183 127 310q179 182 547 182h628zM1419 1360h-467q-287 0 -420 -133q-92 -92 -92 -221q0 -131 99.5 -206t291.5 -75h416z" />
    <glyph glyph-name="uni0430" unicode="&#x430;" horiz-adv-x="1243" 
d="M408 -25q-92 0 -171 34t-130.5 105.5t-51.5 166.5q0 153 107 260q135 135 385 135q192 0 403 -60l6 27q17 70 17 107q0 116 -79 176.5t-232 60.5q-163 0 -314 -59l-24 119q176 63 354 63q203 0 315.5 -90t112.5 -250q0 -60 -23 -147l-165 -623h-134l47 178
q-174 -203 -423 -203zM444 90q151 0 284.5 96t172.5 246l23 86q-189 49 -381 49q-170 0 -273 -96q-71 -71 -71 -174q0 -94 66.5 -150.5t178.5 -56.5z" />
    <glyph glyph-name="uni0431" unicode="&#x431;" horiz-adv-x="1409" 
d="M1286 602q0 -97 -28.5 -190t-83.5 -171.5t-129.5 -138.5t-172 -93.5t-204.5 -33.5q-228 0 -359 131q-141 141 -141 402q0 211 79 433.5t226 369.5q102 102 235 156.5t345 74.5l321 33l6 -127l-319 -33q-185 -20 -302.5 -66t-193.5 -122q-71 -70 -122.5 -155.5
t-98.5 -225.5q85 104 205 161.5t254 57.5q224 0 353.5 -130t129.5 -333zM307 475q0 -169 94.5 -273t270.5 -104q135 0 243.5 68.5t168 182.5t59.5 249q0 162 -95 255t-266 93q-130 0 -237.5 -56.5t-172.5 -165.5t-65 -249z" />
    <glyph glyph-name="uni0432" unicode="&#x432;" horiz-adv-x="1298" 
d="M55 0l293 1094h477q170 0 262.5 -68t92.5 -186q0 -116 -78 -191.5t-191 -97.5q84 -24 134.5 -83.5t50.5 -143.5q0 -108 -67 -183t-171.5 -108t-236.5 -33h-566zM356 610h340q99 0 172.5 19.5t121.5 69.5t48 128q0 70 -56 111t-169 41h-360zM223 115h402q64 0 121 12
t104.5 36t75.5 67t28 100q0 80 -64.5 124t-191.5 44h-372z" />
    <glyph glyph-name="uni0433" unicode="&#x433;" horiz-adv-x="1067" 
d="M55 0l293 1094h791l-33 -125h-653l-258 -969h-140z" />
    <glyph glyph-name="uni0434" unicode="&#x434;" horiz-adv-x="1396" 
d="M-45 125h121l704 979h142l172 -979h123l-113 -418h-127l78 293h-1006l-78 -293h-127zM817 961l-592 -838h731z" />
    <glyph glyph-name="uni0435" unicode="&#x435;" horiz-adv-x="1273" 
d="M1137 500h-877q-2 -18 -2 -58q0 -155 92 -251.5t244 -96.5q106 0 191.5 35t170.5 102l74 -92q-95 -79 -200 -121.5t-244 -42.5q-209 0 -339 129t-130 334q0 136 55 266.5t154 229.5q186 186 426 186q133 0 230 -58.5t143 -152t46 -209.5q0 -110 -34 -200zM428 862
q-97 -97 -147 -252h745q8 24 8 86q0 132 -73.5 217.5t-215.5 85.5q-180 0 -317 -137z" />
    <glyph glyph-name="uni0436" unicode="&#x436;" horiz-adv-x="1845" 
d="M1139 1094l-131 -484h174l538 484h187l-623 -547l361 -547h-154l-320 494h-196l-129 -494h-137l133 494h-172l-557 -494h-187l654 563l-336 531h153l299 -484h176l129 484h138z" />
    <glyph glyph-name="uni0437" unicode="&#x437;" horiz-adv-x="1220" 
d="M1010 307q0 -144 -135 -237t-353 -93q-287 0 -516 168l78 97q102 -75 202.5 -109.5t231.5 -34.5q163 0 256.5 58t93.5 157q0 85 -74 135t-233 50h-229l30 114h236q172 0 267.5 56.5t95.5 154.5q0 81 -73.5 128.5t-205.5 47.5q-189 0 -410 -108l-57 104q241 125 475 125
q197 0 306.5 -81t109.5 -205q0 -61 -24 -111.5t-66.5 -85t-94.5 -58t-114 -36.5q203 -64 203 -236z" />
    <glyph glyph-name="uni0438" unicode="&#x438;" horiz-adv-x="1376" 
d="M1174 1094h145l-293 -1094h-135l233 889l-923 -889h-146l293 1094h137l-237 -887z" />
    <glyph glyph-name="uni0439" unicode="&#x439;" horiz-adv-x="1376" 
d="M1174 1094h145l-293 -1094h-135l233 889l-923 -889h-146l293 1094h137l-237 -887zM883 1264q-133 0 -197.5 68.5t-44.5 185.5h102q-2 -66 35.5 -101t122.5 -35q152 0 232 136h110q-41 -118 -137 -186t-223 -68z" />
    <glyph glyph-name="uni043A" unicode="&#x43a;" horiz-adv-x="1230" 
d="M55 0l293 1094h137l-129 -482h181l569 482h192l-661 -547l397 -547h-155l-353 492h-200l-131 -492h-140z" />
    <glyph glyph-name="uni043B" unicode="&#x43b;" horiz-adv-x="1271" 
d="M858 1104l203 -1104h-143l-160 932l-660 -932h-159l794 1104h125z" />
    <glyph glyph-name="uni043C" unicode="&#x43c;" horiz-adv-x="1554" 
d="M690 242l-266 635l-234 -877h-135l293 1094h127l262 -641l594 641h168l-293 -1094h-137l236 887l-609 -645h-6z" />
    <glyph glyph-name="uni043D" unicode="&#x43d;" horiz-adv-x="1366" 
d="M1309 1094l-291 -1094h-137l131 489h-686l-131 -489h-140l293 1094h137l-127 -480h686l127 480h138z" />
    <glyph glyph-name="uni043E" unicode="&#x43e;" horiz-adv-x="1376" 
d="M766 1120q220 0 357 -137.5t137 -351.5q0 -129 -52.5 -249t-146.5 -214q-90 -90 -206.5 -141.5t-242.5 -51.5q-220 0 -356.5 137t-136.5 351q0 129 51.5 249.5t144.5 213.5q94 91 210 142.5t241 51.5zM623 98q181 0 329 148q76 75 120 174.5t44 206.5q0 174 -99 271
t-263 97q-90 0 -176 -38.5t-154 -106.5q-76 -76 -119 -176t-43 -207q0 -174 99 -271.5t262 -97.5z" />
    <glyph glyph-name="uni043F" unicode="&#x43f;" horiz-adv-x="1361" 
d="M1307 1094l-293 -1094h-137l260 969h-684l-258 -969h-140l293 1094h959z" />
    <glyph glyph-name="uni0440" unicode="&#x440;" horiz-adv-x="1423" 
d="M684 -27q-161 0 -268 81.5t-152 205.5l-162 -600h-137l383 1434h137l-53 -199q191 225 432 225q190 0 313 -130t123 -333q0 -150 -54 -280t-150 -225q-176 -179 -412 -179zM674 98q184 0 317 133q78 78 121 186t43 226q0 157 -89.5 254.5t-231.5 97.5q-93 0 -183.5 -41
t-163.5 -114q-78 -78 -123 -177.5t-45 -205.5q0 -154 99.5 -256.5t255.5 -102.5z" />
    <glyph glyph-name="uni0441" unicode="&#x441;" horiz-adv-x="1222" 
d="M598 -25q-128 0 -236 55t-176.5 165.5t-68.5 255.5q0 134 53 258.5t147 218.5q90 90 204.5 141t238.5 51q159 0 268 -74t164 -188l-113 -70q-35 62 -74.5 105t-105 72.5t-147.5 29.5q-181 0 -326 -145q-77 -77 -121.5 -179.5t-44.5 -215.5q0 -164 101.5 -260.5
t242.5 -96.5q97 0 177.5 38.5t160.5 111.5l86 -90q-199 -183 -430 -183z" />
    <glyph glyph-name="uni0442" unicode="&#x442;" horiz-adv-x="1185" 
d="M219 1094h1045l-33 -123h-455l-260 -971h-137l260 971h-453z" />
    <glyph glyph-name="uni0443" unicode="&#x443;" horiz-adv-x="1241" 
d="M406 0l-209 1094h145l166 -940l618 940h162l-764 -1131q-115 -169 -219 -240t-229 -71q-129 0 -236 76l74 104q83 -59 178 -59q78 0 152 51.5t162 175.5z" />
    <glyph glyph-name="uni0444" unicode="&#x444;" horiz-adv-x="1771" 
d="M1645 600q0 -223 -158 -381q-110 -107 -277.5 -166t-373.5 -59h-31l-88 -334h-137l92 340q-254 29 -399.5 162.5t-145.5 331.5q0 222 158 380q109 109 276 167.5t375 58.5h29l122 454h138l-125 -462q256 -32 400.5 -163t144.5 -329zM270 498q0 -157 110.5 -257
t321.5 -120l232 858h-12q-349 0 -527 -178q-125 -125 -125 -303zM1501 598q0 156 -111.5 255.5t-322.5 119.5l-229 -856h12q350 0 526 176q125 125 125 305z" />
    <glyph glyph-name="uni0445" unicode="&#x445;" horiz-adv-x="1220" 
d="M414 1094l221 -437l446 437h176l-565 -539l293 -555h-151l-234 465l-479 -465h-176l596 567l-281 527h154z" />
    <glyph glyph-name="uni0446" unicode="&#x446;" horiz-adv-x="1392" 
d="M55 0l293 1094h137l-258 -969h684l258 969h138l-260 -969h137l-113 -418h-127l78 293h-967z" />
    <glyph glyph-name="uni0447" unicode="&#x447;" horiz-adv-x="1247" 
d="M1190 1094l-291 -1094h-137l100 375q-158 -29 -266 -29q-416 0 -416 309q0 51 31 191l68 248h137l-72 -267q-25 -113 -25 -159q0 -195 291 -195q156 0 285 31l158 590h137z" />
    <glyph glyph-name="uni0448" unicode="&#x448;" horiz-adv-x="2029" 
d="M55 0l293 1094h137l-258 -969h607l258 969h137l-258 -969h606l260 969h137l-293 -1094h-1626z" />
    <glyph glyph-name="uni0449" unicode="&#x449;" horiz-adv-x="2060" 
d="M55 0l293 1094h137l-258 -969h607l258 969h137l-258 -969h606l260 969h137l-260 -969h137l-112 -418h-127l78 293h-1635z" />
    <glyph glyph-name="uni044A" unicode="&#x44a;" horiz-adv-x="1464" 
d="M618 707h277q208 0 313 -83t105 -227q0 -125 -73 -216.5t-194 -136t-276 -44.5h-479l260 971h-373l33 123h510zM885 588h-299l-125 -467h327q175 0 279 70t104 196q0 201 -286 201z" />
    <glyph glyph-name="uni044B" unicode="&#x44b;" horiz-adv-x="1679" 
d="M1194 0l291 1094h137l-291 -1094h-137zM649 588h-299l-125 -467h330q174 0 278.5 71t104.5 197q0 199 -289 199zM383 707h279q208 0 312.5 -83t104.5 -227q0 -125 -72 -216.5t-192 -136t-274 -44.5h-486l293 1094h137z" />
    <glyph glyph-name="uni044C" unicode="&#x44c;" horiz-adv-x="1228" 
d="M649 588h-299l-125 -467h328q175 0 279 70t104 196q0 201 -287 201zM383 707h276q208 0 313 -83t105 -227q0 -187 -152.5 -292t-389.5 -105h-480l293 1094h137z" />
    <glyph glyph-name="uni044D" unicode="&#x44d;" horiz-adv-x="1239" 
d="M41 219l102 80q68 -97 150 -149t201 -52q185 0 327 142q107 107 144 256h-631l31 118h616v25q0 168 -98 263t-244 95q-173 0 -360 -139l-72 96q207 166 440 166q98 0 184.5 -32.5t151.5 -92.5t103 -152t38 -204q0 -133 -53 -258t-147 -219q-187 -187 -435 -187
q-284 0 -448 244z" />
    <glyph glyph-name="uni044E" unicode="&#x44e;" horiz-adv-x="1849" 
d="M55 0l293 1094h137l-127 -478h275q46 180 184 318q88 88 200 137t234 49q215 0 347.5 -137.5t132.5 -353.5q0 -129 -54 -251.5t-149 -217.5q-185 -185 -434 -185q-215 0 -347.5 137t-132.5 353v24h-288l-131 -489h-140zM1102 98q177 0 319 142q77 80 121.5 181t44.5 204
q0 174 -93 272t-249 98q-178 0 -319 -141q-78 -75 -122 -177t-44 -208q0 -172 93.5 -271.5t248.5 -99.5z" />
    <glyph glyph-name="uni044F" unicode="&#x44f;" horiz-adv-x="1323" 
d="M1268 1094l-293 -1094h-137l110 416h-370h-11l-393 -416h-172l424 440q-101 36 -158.5 109.5t-56.5 175.5q0 117 67.5 202t177 126t246.5 41h566zM1098 977h-404q-152 0 -248 -62t-96 -186q0 -94 68.5 -146.5t195.5 -52.5h365z" />
    <glyph glyph-name="uni0450" unicode="&#x450;" horiz-adv-x="1273" 
d="M1137 500h-877q-2 -18 -2 -58q0 -155 92 -251.5t244 -96.5q106 0 191.5 35t170.5 102l74 -92q-95 -79 -200 -121.5t-244 -42.5q-209 0 -339 129t-130 334q0 136 55 266.5t154 229.5q186 186 426 186q133 0 230 -58.5t143 -152t46 -209.5q0 -110 -34 -200zM428 862
q-97 -97 -147 -252h745q8 24 8 86q0 132 -73.5 217.5t-215.5 85.5q-180 0 -317 -137zM768 1268l-172 225l154 72l114 -297h-96z" />
    <glyph glyph-name="uni0451" unicode="&#x451;" horiz-adv-x="1273" 
d="M569 1268l52 188h172l-52 -188h-172zM932 1268l51 188h172l-51 -188h-172zM1137 500h-877q-2 -18 -2 -58q0 -155 92 -251.5t244 -96.5q106 0 191.5 35t170.5 102l74 -92q-95 -79 -200 -121.5t-244 -42.5q-209 0 -339 129t-130 334q0 136 55 266.5t154 229.5
q186 186 426 186q133 0 230 -58.5t143 -152t46 -209.5q0 -110 -34 -200zM428 862q-97 -97 -147 -252h745q8 24 8 86q0 132 -73.5 217.5t-215.5 85.5q-180 0 -317 -137z" />
    <glyph glyph-name="uni0452" unicode="&#x452;" horiz-adv-x="1282" 
d="M844 43l110 408q25 112 25 159q0 195 -291 195q-147 0 -287 -31l-206 -774h-138l330 1227h-244l33 119h242l57 208h137l-57 -208h399l-30 -119h-400l-88 -326q132 31 266 31q416 0 416 -309q0 -67 -31 -191l-110 -405q-56 -209 -147.5 -292t-249.5 -83q-99 0 -177 29
l31 118q72 -28 150 -28q100 0 159.5 61.5t100.5 210.5z" />
    <glyph glyph-name="uni0453" unicode="&#x453;" horiz-adv-x="1067" 
d="M674 1268l276 297l154 -72l-297 -225h-133zM55 0l293 1094h791l-33 -125h-653l-258 -969h-140z" />
    <glyph glyph-name="uni0454" unicode="&#x454;" horiz-adv-x="1234" 
d="M117 455q0 134 52.5 259t145.5 218q88 88 203.5 138t241.5 50q272 0 440 -231l-102 -82q-66 88 -146.5 138t-199.5 50q-93 0 -180 -37t-154 -104q-98 -98 -139 -240h628l-33 -118h-616v-41q0 -169 99.5 -263t246.5 -94q192 0 357 133l73 -96q-103 -80 -206 -120t-230 -40
q-131 0 -239 54.5t-175 165.5t-67 260z" />
    <glyph glyph-name="uni0455" unicode="&#x455;" horiz-adv-x="1081" 
d="M475 -25q-131 0 -253.5 49t-215.5 142l92 92q173 -164 391 -164q102 0 180.5 56t78.5 143q0 60 -48 105.5t-172 93.5q-164 61 -236.5 126.5t-72.5 172.5q0 139 113 233t297 94q115 0 221 -41.5t180 -105.5l-84 -99q-70 57 -156 92t-174 35q-118 0 -188 -55t-70 -131
q0 -59 48.5 -103t183.5 -96q159 -63 229 -131t70 -168q0 -146 -120.5 -243t-293.5 -97z" />
    <glyph glyph-name="uni0456" unicode="&#x456;" horiz-adv-x="571" 
d="M72 0l293 1094h137l-293 -1094h-137zM424 1354l43 166h162l-43 -166h-162z" />
    <glyph glyph-name="uni0457" unicode="&#x457;" horiz-adv-x="573" 
d="M215 1268l51 188h172l-51 -188h-172zM578 1268l51 188h172l-51 -188h-172zM72 0l293 1094h137l-293 -1094h-137z" />
    <glyph glyph-name="uni0458" unicode="&#x458;" horiz-adv-x="571" 
d="M-96 -348q-72 0 -142 22l33 117q62 -16 96 -16q116 0 160 149l314 1170h137l-318 -1184q-35 -127 -107 -192.5t-173 -65.5zM424 1354l43 166h162l-43 -166h-162z" />
    <glyph glyph-name="uni0459" unicode="&#x459;" horiz-adv-x="1804" 
d="M-109 0l963 1094h229l-102 -387h254q208 0 314 -83t106 -227q0 -125 -73.5 -216.5t-195 -136t-276.5 -44.5h-455l260 981h-4l-860 -981h-160zM1225 588h-277l-125 -467h305q175 0 280 70.5t105 195.5q0 201 -288 201z" />
    <glyph glyph-name="uni045A" unicode="&#x45a;" horiz-adv-x="2017" 
d="M1192 707h254q209 0 314.5 -83t105.5 -227q0 -125 -73 -216.5t-194 -136t-276 -44.5h-457l131 489h-671l-131 -489h-140l293 1094h137l-127 -478h672l129 478h137zM1436 588h-277l-123 -467h305q173 0 278 71t105 195q0 201 -288 201z" />
    <glyph glyph-name="uni045B" unicode="&#x45b;" horiz-adv-x="1282" 
d="M924 1227h-400l-88 -326q132 31 266 31q416 0 416 -309q0 -67 -31 -191l-116 -432h-137l120 451q25 112 25 159q0 195 -291 195q-147 0 -287 -31l-206 -774h-138l330 1227h-244l33 119h242l57 208h137l-57 -208h399z" />
    <glyph glyph-name="uni045C" unicode="&#x45c;" horiz-adv-x="1230" 
d="M741 1268l277 297l153 -72l-297 -225h-133zM55 0l293 1094h137l-129 -482h181l569 482h192l-661 -547l397 -547h-155l-353 492h-200l-131 -492h-140z" />
    <glyph glyph-name="uni045D" unicode="&#x45d;" horiz-adv-x="1376" 
d="M803 1268l-172 225l153 72l115 -297h-96zM1174 1094h145l-293 -1094h-135l233 889l-923 -889h-146l293 1094h137l-237 -887z" />
    <glyph glyph-name="uni045E" unicode="&#x45e;" horiz-adv-x="1241" 
d="M406 0l-209 1094h145l166 -940l618 940h162l-764 -1131q-115 -169 -219 -240t-229 -71q-129 0 -236 76l74 104q83 -59 178 -59q78 0 152 51.5t162 175.5zM768 1264q-133 0 -197.5 68.5t-44.5 185.5h103q-2 -66 35.5 -101t121.5 -35q152 0 232 136h110q-41 -118 -137 -186
t-223 -68z" />
    <glyph glyph-name="uni045F" unicode="&#x45f;" horiz-adv-x="1361" 
d="M55 0l293 1094h137l-258 -969h684l258 969h138l-293 -1094h-420l-78 -293h-127l78 293h-412z" />
    <glyph glyph-name="uni0462" unicode="&#x462;" horiz-adv-x="1785" 
d="M1419 1139h-553l-88 -332h408q221 0 337.5 -91t116.5 -257q0 -183 -116 -293q-166 -166 -516 -166h-588l303 1139h-494l35 127h492l69 256h144l-70 -256h553zM1495 453q0 225 -324 225h-428l-147 -549h432q267 0 387 117q80 80 80 207z" />
    <glyph glyph-name="uni0463" unicode="&#x463;" horiz-adv-x="1466" 
d="M614 694h289q203 0 307.5 -82.5t104.5 -222.5q0 -124 -71 -213.5t-190 -132.5t-272 -43h-489l260 973h-377l33 121h377l123 460h137l-125 -460h461l-33 -121h-461zM889 575h-307l-121 -456h336q170 0 272 69.5t102 192.5q0 194 -282 194z" />
    <glyph glyph-name="uni0472" unicode="&#x472;" horiz-adv-x="1820" 
d="M1071 1516q188 0 336.5 -85.5t229.5 -232t81 -326.5q0 -181 -71.5 -349.5t-200.5 -297.5q-120 -120 -271 -186t-319 -66q-142 0 -263.5 50t-206 136t-132 204t-47.5 253q0 180 72.5 349t199.5 299q120 120 271 186t321 66zM1339 305q160 160 213 381h-1198q-2 -23 -2 -65
q0 -225 140.5 -373t369.5 -148q137 0 259 54.5t218 150.5zM1575 868q0 225 -140.5 373t-369.5 148q-271 0 -479 -205q-157 -164 -209 -369h1196q0 8 1 26t1 27z" />
    <glyph glyph-name="uni0473" unicode="&#x473;" horiz-adv-x="1376" 
d="M764 1120q220 0 356.5 -137.5t136.5 -351.5q0 -129 -52 -249t-146 -214q-90 -90 -206.5 -141.5t-242.5 -51.5q-221 0 -356 137t-135 351q0 129 51.5 249.5t144.5 213.5q201 194 449 194zM623 96q188 0 333 148q108 108 148 250h-850v-27q0 -176 100 -273.5t269 -97.5z
M418 852q-108 -114 -146 -242h850v17q0 174 -100.5 272t-267.5 98q-188 0 -336 -145z" />
    <glyph glyph-name="uni0474" unicode="&#x474;" horiz-adv-x="1667" 
d="M1335 975l-661 -985h-127l-238 1501h152l190 -1321l584 889q120 184 201 272.5t169.5 127t219.5 38.5h51l-33 -129h-22q-54 0 -93.5 -6t-79 -26.5t-68.5 -44t-71 -74.5t-78 -101.5t-96 -140.5z" />
    <glyph glyph-name="uni0475" unicode="&#x475;" horiz-adv-x="1273" 
d="M494 -8h-121l-172 1102h145l127 -936l420 653q105 165 202 228t257 63h39l-35 -123h-21q-101 0 -173.5 -48t-149.5 -169z" />
    <glyph glyph-name="uni0490" unicode="&#x490;" horiz-adv-x="1310" 
d="M1446 1360h-856l-365 -1360h-143l399 1491h860l80 299h138z" />
    <glyph glyph-name="uni0491" unicode="&#x491;" horiz-adv-x="1067" 
d="M1106 969h-653l-258 -969h-140l293 1094h662l75 284h129z" />
    <glyph glyph-name="uni0492" unicode="&#x492;" horiz-adv-x="1372" 
d="M141 0l178 668h-159l33 120h159l189 703h999l-35 -131h-856l-153 -572h436l-33 -120h-436l-178 -668h-144z" />
    <glyph glyph-name="uni0493" unicode="&#x493;" horiz-adv-x="1105" 
d="M94 0l125 469h-145l28 109h146l139 516h791l-33 -125h-653l-105 -391h311l-28 -109h-312l-125 -469h-139z" />
    <glyph glyph-name="uni0496" unicode="&#x496;" horiz-adv-x="2338" 
d="M2468 1491l-852 -733l407 -627h181l-121 -444h-137l84 313h-78l-447 700h-227l-186 -700h-144l189 700h-209l-797 -700h-192l903 780l-469 711h159l429 -664h208l179 664h143l-180 -664h207l757 664h193z" />
    <glyph glyph-name="uni0497" unicode="&#x497;" horiz-adv-x="1869" 
d="M1907 1094l-623 -547l279 -422h153l-112 -418h-127l77 293h-63l-320 494h-196l-129 -494h-137l133 494h-172l-557 -494h-187l654 563l-336 531h153l299 -484h176l129 484h138l-131 -484h174l538 484h187z" />
    <glyph glyph-name="uni0498" unicode="&#x498;" horiz-adv-x="1458" 
d="M395 1235l-67 113q263 168 561 168q236 0 373 -108t137 -273q0 -81 -32 -149.5t-89 -117.5t-128 -81.5t-155 -49.5q123 -38 195 -119t72 -194q0 -135 -83 -239t-217 -157t-294 -53h-2l-80 -288h-142l86 297q-279 31 -491 227l96 100q112 -106 241.5 -157.5t291.5 -51.5
q122 0 222 36t162 110.5t62 175.5q0 120 -103 192t-311 72h-229l35 125h244q238 0 368.5 79.5t130.5 231.5q0 109 -96 187t-272 78q-124 0 -250.5 -41.5t-235.5 -112.5z" />
    <glyph glyph-name="uni0499" unicode="&#x499;" horiz-adv-x="1220" 
d="M1010 307q0 -142 -129 -234t-340 -96l-72 -270h-129l78 277q-226 21 -412 161l78 97q102 -75 202.5 -109.5t231.5 -34.5q163 0 256.5 58t93.5 157q0 85 -74 135t-233 50h-229l30 114h236q172 0 267.5 56.5t95.5 154.5q0 81 -73.5 128.5t-205.5 47.5q-189 0 -410 -108
l-57 104q241 125 475 125q197 0 306.5 -81t109.5 -205q0 -61 -24 -111.5t-66.5 -85t-94.5 -58t-114 -36.5q203 -64 203 -236z" />
    <glyph glyph-name="uni049A" unicode="&#x49a;" horiz-adv-x="1574" 
d="M1710 1491l-895 -731l453 -629h168l-121 -444h-137l84 313h-64l-502 700h-284l-187 -700h-143l399 1491h144l-179 -664h256l803 664h205z" />
    <glyph glyph-name="uni049B" unicode="&#x49b;" horiz-adv-x="1243" 
d="M1298 1094l-661 -547l307 -422h152l-113 -418h-127l78 293h-55l-353 492h-200l-131 -492h-140l293 1094h137l-129 -482h181l569 482h192z" />
    <glyph glyph-name="uni049C" unicode="&#x49c;" horiz-adv-x="1603" 
d="M1382 0h-159l-385 688h-17l-123 -473h-118l125 473h-295l-185 -688h-143l399 1491h144l-183 -676h297l129 483h119l-133 -483h14l703 676h190l-794 -750z" />
    <glyph glyph-name="uni049D" unicode="&#x49d;" horiz-adv-x="1337" 
d="M1090 0h-152l-246 498h-69l-91 -334h-106l90 334h-188l-133 -498h-140l295 1094h137l-129 -478h189l90 334h106l-90 -334h56l505 478h179l-586 -541z" />
    <glyph glyph-name="uni04A0" unicode="&#x4a0;" horiz-adv-x="1888" 
d="M420 0l364 1360h-495l35 131h639l-179 -664h256l803 664h205l-895 -731l547 -760h-164l-500 700h-286l-187 -700h-143z" />
    <glyph glyph-name="uni04A1" unicode="&#x4a1;" horiz-adv-x="1466" 
d="M287 0l260 971h-373l33 123h510l-129 -482h180l569 482h193l-662 -547l398 -547h-156l-352 492h-201l-131 -492h-139z" />
    <glyph glyph-name="uni04A2" unicode="&#x4a2;" horiz-adv-x="1660" 
d="M86 0l399 1491h144l-180 -676h890l183 676h141l-365 -1360h154l-121 -444h-137l84 313h-158l185 684h-893l-183 -684h-143z" />
    <glyph glyph-name="uni04A3" unicode="&#x4a3;" horiz-adv-x="1394" 
d="M1309 1094l-258 -969h133l-113 -418h-127l78 293h-141l131 489h-686l-131 -489h-140l293 1094h137l-127 -480h686l127 480h138z" />
    <glyph glyph-name="uni04A4" unicode="&#x4a4;" horiz-adv-x="2242" 
d="M1096 0l182 684h-870l-183 -684h-143l399 1491h144l-181 -676h869l182 676h918l-37 -131h-772l-365 -1360h-143z" />
    <glyph glyph-name="uni04A5" unicode="&#x4a5;" horiz-adv-x="1855" 
d="M866 0l131 489h-671l-131 -489h-140l293 1094h137l-127 -478h672l129 478h768l-33 -125h-632l-258 -969h-138z" />
    <glyph glyph-name="uni04AA" unicode="&#x4aa;" horiz-adv-x="1593" 
d="M614 -313l86 297q-221 38 -360 196.5t-139 403.5q0 189 74.5 363.5t207.5 307.5q126 123 282 192t329 69q196 0 336.5 -86.5t218.5 -233.5l-123 -72q-76 129 -180.5 195.5t-264.5 66.5q-138 0 -261.5 -55t-223.5 -155q-117 -117 -182.5 -269.5t-65.5 -316.5
q0 -222 136.5 -354t349.5 -132q147 0 262 54.5t219 158.5l94 -92q-241 -252 -578 -252l-77 -286h-140z" />
    <glyph glyph-name="uni04AB" unicode="&#x4ab;" horiz-adv-x="1222" 
d="M397 -293l80 283q-155 34 -257.5 156.5t-102.5 304.5q0 134 53 258.5t147 218.5q90 90 204.5 141t238.5 51q159 0 268 -74t164 -188l-113 -70q-35 62 -74.5 105t-105 72.5t-147.5 29.5q-181 0 -326 -145q-77 -77 -121.5 -179.5t-44.5 -215.5q0 -164 101.5 -260.5
t242.5 -96.5q97 0 177.5 38.5t160.5 111.5l86 -90q-199 -183 -430 -183l-72 -268h-129z" />
    <glyph glyph-name="uni04AE" unicode="&#x4ae;" horiz-adv-x="1441" 
d="M489 0l162 602l-377 889h158l318 -774l735 774h186l-885 -918l-153 -573h-144z" />
    <glyph glyph-name="uni04AF" unicode="&#x4af;" horiz-adv-x="1222" 
d="M422 -340h-137l96 354l-180 1080h145l137 -936l633 936h160l-760 -1084z" />
    <glyph glyph-name="uni04B0" unicode="&#x4b0;" horiz-adv-x="1441" 
d="M489 0l132 487h-392l31 121h387l-373 883h158l318 -774l735 774h186l-852 -883h402l-33 -121h-426l-129 -487h-144z" />
    <glyph glyph-name="uni04B1" unicode="&#x4b1;" horiz-adv-x="1224" 
d="M911 109l-28 -109h-367l-92 -340h-137l92 340h-336l29 109h295l-164 985h145l137 -936l633 936h160l-690 -985h323z" />
    <glyph glyph-name="uni04B2" unicode="&#x4b2;" horiz-adv-x="1568" 
d="M-45 0l770 772l-385 719h158l329 -629l625 629h184l-743 -741l328 -619h163l-120 -444h-138l84 313h-75l-344 659l-652 -659h-184z" />
    <glyph glyph-name="uni04B3" unicode="&#x4b3;" horiz-adv-x="1234" 
d="M414 1094l221 -437l446 437h176l-565 -539l228 -430h149l-113 -418h-127l78 293h-73l-234 465l-479 -465h-176l596 567l-281 527h154z" />
    <glyph glyph-name="uni04B6" unicode="&#x4b6;" horiz-adv-x="1517" 
d="M971 0l153 573q-157 -34 -348 -34q-111 0 -201 21.5t-159 65.5t-106.5 118.5t-37.5 173.5q0 92 35 223l94 350h144l-99 -365q-30 -104 -30 -196q0 -131 101 -196.5t280 -65.5q181 0 364 43l211 780h144l-367 -1360h156l-121 -444h-137l83 313h-159z" />
    <glyph glyph-name="uni04B7" unicode="&#x4b7;" horiz-adv-x="1275" 
d="M1190 1094l-258 -969h133l-113 -418h-127l78 293h-141l100 375q-158 -29 -266 -29q-416 0 -416 309q0 51 31 191l68 248h137l-72 -267q-25 -113 -25 -159q0 -195 291 -195q156 0 285 31l158 590h137z" />
    <glyph glyph-name="uni04B8" unicode="&#x4b8;" horiz-adv-x="1490" 
d="M1372 1491h144l-402 -1491h-143l153 573q-157 -34 -348 -34h-6l-94 -359h-119l96 365q-177 21 -279 113.5t-102 259.5q0 92 35 223l94 350h144l-99 -365q-30 -104 -30 -196q0 -216 272 -256l127 477h121l-133 -483h2q162 0 356 43z" />
    <glyph glyph-name="uni04B9" unicode="&#x4b9;" horiz-adv-x="1247" 
d="M1190 1094l-291 -1094h-137l100 377q-152 -31 -274 -31l-60 -231h-108l61 237q-147 18 -225 90.5t-78 212.5q0 59 31 183l70 256h137l-74 -273q-25 -113 -25 -153q0 -85 48.5 -131t148.5 -60l90 334h109l-90 -338q132 0 274 37l156 584h137z" />
    <glyph glyph-name="uni04BA" unicode="&#x4ba;" horiz-adv-x="1490" 
d="M625 1491l-156 -576q175 37 350 37q110 0 199.5 -21.5t159 -65.5t107.5 -118.5t38 -173.5q0 -102 -33 -223l-94 -350h-143l98 365q29 101 29 196q0 130 -101 196t-278 66q-175 0 -367 -45l-209 -778h-143l399 1491h144z" />
    <glyph glyph-name="uni04BB" unicode="&#x4bb;" horiz-adv-x="1325" 
d="M55 0l418 1554h137l-174 -649q88 103 181 159t214 56q159 0 256 -94.5t97 -249.5q0 -64 -25 -162l-162 -614h-137l166 623q16 62 16 129q0 115 -68.5 179t-191.5 64q-135 0 -257 -106.5t-167 -270.5l-163 -618h-140z" />
    <glyph glyph-name="uni04C0" unicode="&#x4c0;" horiz-adv-x="628" 
d="M96 0l400 1491h143l-399 -1491h-144z" />
    <glyph glyph-name="uni04C1" unicode="&#x4c1;" horiz-adv-x="2314" 
d="M1458 1622q-129 0 -194 60t-45 169h106q5 -56 41 -83t119 -27q154 0 217 110h119q-36 -108 -134.5 -168.5t-228.5 -60.5zM1491 1491l-180 -664h207l757 664h193l-852 -733l493 -758h-157l-447 700h-227l-186 -700h-144l189 700h-209l-797 -700h-192l903 780l-469 711h159
l429 -664h208l179 664h143z" />
    <glyph glyph-name="uni04C2" unicode="&#x4c2;" horiz-adv-x="1845" 
d="M1139 1094l-131 -484h174l538 484h187l-623 -547l361 -547h-154l-320 494h-196l-129 -494h-137l133 494h-172l-557 -494h-187l654 563l-336 531h153l299 -484h176l129 484h138zM1126 1264q-133 0 -197 68.5t-44 185.5h102q-2 -66 35.5 -101t122.5 -35q151 0 231 136h111
q-41 -118 -137.5 -186t-223.5 -68z" />
    <glyph glyph-name="uni04CF" unicode="&#x4cf;" horiz-adv-x="573" 
d="M72 0l417 1554h138l-418 -1554h-137z" />
    <glyph glyph-name="uni04D0" unicode="&#x4d0;" horiz-adv-x="1642" 
d="M-68 0l1090 1501h137l283 -1501h-146l-71 406h-844l-291 -406h-158zM473 535h727l-145 806zM1139 1642q-129 0 -194.5 60.5t-45.5 169.5h107q5 -57 40.5 -84t118.5 -27q154 0 217 111h119q-36 -108 -134 -169t-228 -61z" />
    <glyph glyph-name="uni04D1" unicode="&#x4d1;" horiz-adv-x="1245" 
d="M408 -25q-92 0 -171 34t-130.5 105.5t-51.5 166.5q0 153 107 260q135 135 385 135q192 0 403 -60l6 27q17 70 17 107q0 116 -79 176.5t-232 60.5q-163 0 -314 -59l-24 119q176 63 354 63q203 0 315.5 -90t112.5 -250q0 -60 -23 -147l-165 -623h-134l47 178
q-174 -203 -423 -203zM444 90q151 0 284.5 96t172.5 246l23 86q-189 49 -381 49q-170 0 -273 -96q-71 -71 -71 -174q0 -94 66.5 -150.5t178.5 -56.5zM788 1264q-133 0 -197 68.5t-44 185.5h102q-2 -66 35.5 -101t122.5 -35q151 0 231 136h111q-41 -118 -137.5 -186
t-223.5 -68z" />
    <glyph glyph-name="uni04D2" unicode="&#x4d2;" horiz-adv-x="1642" 
d="M-68 0l1090 1501h137l283 -1501h-146l-71 406h-844l-291 -406h-158zM473 535h727l-145 806zM848 1647l49 178h180l-49 -178h-180zM1237 1647l49 178h178l-49 -178h-178z" />
    <glyph glyph-name="uni04D3" unicode="&#x4d3;" horiz-adv-x="1245" 
d="M408 -25q-92 0 -171 34t-130.5 105.5t-51.5 166.5q0 153 107 260q135 135 385 135q192 0 403 -60l6 27q17 70 17 107q0 116 -79 176.5t-232 60.5q-163 0 -314 -59l-24 119q176 63 354 63q203 0 315.5 -90t112.5 -250q0 -60 -23 -147l-165 -623h-134l47 178
q-174 -203 -423 -203zM444 90q151 0 284.5 96t172.5 246l23 86q-189 49 -381 49q-170 0 -273 -96q-71 -71 -71 -174q0 -94 66.5 -150.5t178.5 -56.5zM510 1268l51 188h172l-51 -188h-172zM872 1268l52 188h172l-52 -188h-172z" />
    <glyph glyph-name="uni04D4" unicode="&#x4d4;" horiz-adv-x="2267" 
d="M-66 0l1287 1491h1175l-35 -131h-893l-145 -543h797l-35 -131h-797l-149 -555h903l-35 -131h-1046l110 406h-620l-349 -406h-168zM559 535h545l223 829h-55z" />
    <glyph glyph-name="uni04D5" unicode="&#x4d5;" horiz-adv-x="2074" 
d="M1405 -25q-159 0 -269.5 68.5t-166.5 189.5q-243 -258 -549 -258q-100 0 -181 33.5t-132.5 104t-51.5 168.5q0 153 107 260q135 135 385 135q192 0 403 -60l6 27q17 70 17 107q0 116 -79 176.5t-232 60.5q-163 0 -314 -59l-24 119q176 63 354 63q167 0 272.5 -63.5
t134.5 -180.5q89 115 211.5 184.5t257.5 69.5q197 0 307.5 -120.5t110.5 -299.5q0 -110 -33 -200h-878q-2 -23 -2 -58q0 -158 94 -253t252 -95q107 0 186.5 34t167.5 103l74 -92q-201 -164 -428 -164zM455 90q249 0 483 248q-14 79 -4 176q-164 53 -391 53q-170 0 -273 -96
q-71 -71 -71 -174q0 -94 69 -150.5t187 -56.5zM1229 862q-106 -109 -146 -252h744q10 33 10 86q0 132 -73.5 217.5t-215.5 85.5q-179 0 -319 -137z" />
    <glyph glyph-name="uni04D6" unicode="&#x4d6;" horiz-adv-x="1411" 
d="M1040 1622q-129 0 -194 60t-45 169h106q5 -56 41 -83t119 -27q154 0 217 110h119q-36 -108 -134.5 -168.5t-228.5 -60.5zM82 0l399 1491h1061l-37 -131h-915l-148 -543h822l-35 -131h-821l-148 -555h928l-37 -131h-1069z" />
    <glyph glyph-name="uni04D7" unicode="&#x4d7;" horiz-adv-x="1273" 
d="M1137 500h-877q-2 -18 -2 -58q0 -155 92 -251.5t244 -96.5q106 0 191.5 35t170.5 102l74 -92q-95 -79 -200 -121.5t-244 -42.5q-209 0 -339 129t-130 334q0 136 55 266.5t154 229.5q186 186 426 186q133 0 230 -58.5t143 -152t46 -209.5q0 -110 -34 -200zM428 862
q-97 -97 -147 -252h745q8 24 8 86q0 132 -73.5 217.5t-215.5 85.5q-180 0 -317 -137zM846 1264q-133 0 -197.5 68.5t-44.5 185.5h103q-2 -66 35.5 -101t121.5 -35q152 0 232 136h110q-41 -118 -137 -186t-223 -68z" />
    <glyph glyph-name="uni04D8" unicode="&#x4d8;" horiz-adv-x="1738" 
d="M205 545q0 144 47 268h1237q4 54 4 80q0 227 -134 359t-362 132q-271 0 -522 -196l-78 110q292 218 607 218q285 0 458.5 -170t173.5 -455q0 -184 -75 -366.5t-205 -303.5q-259 -246 -586 -246q-138 0 -247.5 45t-178 123t-104 180.5t-35.5 221.5zM1245 301
q159 155 221 387h-1099q-17 -70 -17 -151q0 -89 25 -165t75.5 -136.5t136.5 -95t199 -34.5q130 0 248.5 52.5t210.5 142.5z" />
    <glyph glyph-name="uni04D9" unicode="&#x4d9;" horiz-adv-x="1273" 
d="M102 395q0 105 35 201h875q4 36 4 55q0 155 -92 251.5t-244 96.5q-107 0 -193 -34.5t-170 -102.5l-73 92q94 80 199.5 123t244.5 43q208 0 338.5 -130.5t130.5 -332.5q0 -136 -55.5 -267.5t-153.5 -229.5q-188 -185 -426 -185q-101 0 -182 33.5t-132 91t-78.5 133
t-27.5 162.5zM846 233q101 95 145 252h-743q-8 -31 -8 -88q0 -130 73 -215.5t215 -85.5q184 0 318 137z" />
    <glyph glyph-name="uni04DC" unicode="&#x4dc;" horiz-adv-x="2314" 
d="M1167 1626l50 178h180l-49 -178h-181zM1556 1626l50 178h178l-49 -178h-179zM1491 1491l-180 -664h207l757 664h193l-852 -733l493 -758h-157l-447 700h-227l-186 -700h-144l189 700h-209l-797 -700h-192l903 780l-469 711h159l429 -664h208l179 664h143z" />
    <glyph glyph-name="uni04DD" unicode="&#x4dd;" horiz-adv-x="1845" 
d="M848 1268l51 188h172l-51 -188h-172zM1210 1268l52 188h172l-52 -188h-172zM1139 1094l-131 -484h174l538 484h187l-623 -547l361 -547h-154l-320 494h-196l-129 -494h-137l133 494h-172l-557 -494h-187l654 563l-336 531h153l299 -484h176l129 484h138z" />
    <glyph glyph-name="uni04DE" unicode="&#x4de;" horiz-adv-x="1458" 
d="M666 1647l49 178h180l-49 -178h-180zM1055 1647l49 178h178l-49 -178h-178zM395 1235l-67 113q263 168 561 168q236 0 373 -108t137 -273q0 -81 -32 -149.5t-89 -117.5t-128 -81.5t-155 -49.5q123 -38 195 -119t72 -194q0 -136 -84.5 -240t-219.5 -156.5t-296 -52.5
q-369 0 -623 236l96 100q112 -106 241.5 -157.5t291.5 -51.5q122 0 222 36t162 110.5t62 175.5q0 120 -103 192t-311 72h-229l35 125h244q238 0 368.5 79.5t130.5 231.5q0 109 -96 187t-272 78q-124 0 -250.5 -41.5t-235.5 -112.5z" />
    <glyph glyph-name="uni04DF" unicode="&#x4df;" horiz-adv-x="1220" 
d="M479 1268l51 188h172l-51 -188h-172zM842 1268l51 188h172l-51 -188h-172zM1010 307q0 -144 -135 -237t-353 -93q-287 0 -516 168l78 97q102 -75 202.5 -109.5t231.5 -34.5q163 0 256.5 58t93.5 157q0 85 -74 135t-233 50h-229l30 114h236q172 0 267.5 56.5t95.5 154.5
q0 81 -73.5 128.5t-205.5 47.5q-189 0 -410 -108l-57 104q241 125 475 125q197 0 306.5 -81t109.5 -205q0 -61 -24 -111.5t-66.5 -85t-94.5 -58t-114 -36.5q203 -64 203 -236z" />
    <glyph glyph-name="uni04E2" unicode="&#x4e2;" horiz-adv-x="1701" 
d="M795 1669l32 123h682l-32 -123h-682zM1581 1491h148l-400 -1491h-143l338 1264l-1317 -1264h-125l399 1491h144l-332 -1235z" />
    <glyph glyph-name="uni04E3" unicode="&#x4e3;" horiz-adv-x="1376" 
d="M553 1317l33 117h665l-32 -117h-666zM1174 1094h145l-293 -1094h-135l233 889l-923 -889h-146l293 1094h137l-237 -887z" />
    <glyph glyph-name="uni04E4" unicode="&#x4e4;" horiz-adv-x="1701" 
d="M838 1620l49 178h180l-49 -178h-180zM1227 1620l49 178h178l-49 -178h-178zM1581 1491h148l-400 -1491h-143l338 1264l-1317 -1264h-125l399 1491h144l-332 -1235z" />
    <glyph glyph-name="uni04E5" unicode="&#x4e5;" horiz-adv-x="1376" 
d="M606 1268l51 188h172l-51 -188h-172zM969 1268l51 188h172l-51 -188h-172zM1174 1094h145l-293 -1094h-135l233 889l-923 -889h-146l293 1094h137l-237 -887z" />
    <glyph glyph-name="uni04E6" unicode="&#x4e6;" horiz-adv-x="1822" 
d="M895 1647l49 178h180l-49 -178h-180zM1284 1647l49 178h178l-49 -178h-178zM1071 1516q189 0 338 -85.5t230 -232t81 -326.5q0 -181 -71.5 -349.5t-200.5 -297.5q-120 -120 -271 -186t-321 -66q-187 0 -336 85t-231 231.5t-82 326.5q0 181 72.5 350t201.5 298
q120 120 270.5 186t319.5 66zM862 102q136 0 257.5 54.5t217.5 150.5q110 110 172 258t62 303q0 223 -140.5 370.5t-365.5 147.5q-268 0 -475 -204q-110 -110 -172 -258t-62 -303q0 -146 61.5 -264t178 -186.5t266.5 -68.5z" />
    <glyph glyph-name="uni04E7" unicode="&#x4e7;" horiz-adv-x="1376" 
d="M602 1268l51 188h172l-51 -188h-172zM965 1268l51 188h172l-51 -188h-172zM766 1120q220 0 357 -137.5t137 -351.5q0 -129 -52.5 -249t-146.5 -214q-90 -90 -206.5 -141.5t-242.5 -51.5q-220 0 -356.5 137t-136.5 351q0 129 51.5 249.5t144.5 213.5q94 91 210 142.5
t241 51.5zM623 98q181 0 329 148q76 75 120 174.5t44 206.5q0 174 -99 271t-263 97q-90 0 -176 -38.5t-154 -106.5q-76 -76 -119 -176t-43 -207q0 -174 99 -271.5t262 -97.5z" />
    <glyph glyph-name="uni04E8" unicode="&#x4e8;" horiz-adv-x="1820" 
d="M1071 1516q188 0 336.5 -85.5t229.5 -232t81 -326.5q0 -181 -71.5 -349.5t-200.5 -297.5q-120 -120 -271 -186t-319 -66q-142 0 -263.5 50t-206 136t-132 204t-47.5 253q0 180 72.5 349t199.5 299q120 120 271 186t321 66zM1339 305q160 160 213 381h-1198q-2 -23 -2 -65
q0 -225 140.5 -373t369.5 -148q137 0 259 54.5t218 150.5zM1575 868q0 225 -140.5 373t-369.5 148q-271 0 -479 -205q-157 -164 -209 -369h1196q0 8 1 26t1 27z" />
    <glyph glyph-name="uni04E9" unicode="&#x4e9;" horiz-adv-x="1376" 
d="M764 1120q220 0 356.5 -137.5t136.5 -351.5q0 -129 -52 -249t-146 -214q-90 -90 -206.5 -141.5t-242.5 -51.5q-221 0 -356 137t-135 351q0 129 51.5 249.5t144.5 213.5q201 194 449 194zM623 96q188 0 333 148q108 108 148 250h-850v-27q0 -176 100 -273.5t269 -97.5z
M418 852q-108 -114 -146 -242h850v17q0 174 -100.5 272t-267.5 98q-188 0 -336 -145z" />
    <glyph glyph-name="uni04EE" unicode="&#x4ee;" horiz-adv-x="1525" 
d="M676 1669l33 123h682l-33 -123h-682zM1700 1491l-1258 -1491h-172l439 520l-383 971h149l336 -860l719 860h170z" />
    <glyph glyph-name="uni04EF" unicode="&#x4ef;" horiz-adv-x="1241" 
d="M406 0l-209 1094h145l166 -940l618 940h162l-764 -1131q-115 -169 -219 -240t-229 -71q-129 0 -236 76l74 104q83 -59 178 -59q78 0 152 51.5t162 175.5zM438 1317l33 117h666l-33 -117h-666z" />
    <glyph glyph-name="uni04F0" unicode="&#x4f0;" horiz-adv-x="1525" 
d="M719 1620l49 178h180l-49 -178h-180zM1108 1620l49 178h178l-49 -178h-178zM1700 1491l-1258 -1491h-172l439 520l-383 971h149l336 -860l719 860h170z" />
    <glyph glyph-name="uni04F1" unicode="&#x4f1;" horiz-adv-x="1241" 
d="M406 0l-209 1094h145l166 -940l618 940h162l-764 -1131q-115 -169 -219 -240t-229 -71q-129 0 -236 76l74 104q83 -59 178 -59q78 0 152 51.5t162 175.5zM492 1268l51 188h172l-51 -188h-172zM854 1268l51 188h172l-51 -188h-172z" />
    <glyph glyph-name="uni04F2" unicode="&#x4f2;" horiz-adv-x="1525" 
d="M1700 1491l-1258 -1491h-172l439 520l-383 971h149l336 -860l719 860h170zM739 1620l277 264l147 -69l-289 -195h-135zM1055 1620l276 264l148 -69l-289 -195h-135z" />
    <glyph glyph-name="uni04F3" unicode="&#x4f3;" horiz-adv-x="1241" 
d="M406 0l-209 1094h145l166 -940l618 940h162l-764 -1131q-115 -169 -219 -240t-229 -71q-129 0 -236 76l74 104q83 -59 178 -59q78 0 152 51.5t162 175.5zM489 1268l277 297l121 -72l-285 -225h-113zM827 1268l277 297l121 -72l-285 -225h-113z" />
    <glyph glyph-name="uni04F4" unicode="&#x4f4;" horiz-adv-x="1490" 
d="M971 0l153 573q-157 -34 -348 -34q-111 0 -201 21.5t-159 65.5t-106.5 118.5t-37.5 173.5q0 92 35 223l94 350h144l-99 -365q-30 -104 -30 -196q0 -131 101 -196.5t280 -65.5q181 0 364 43l211 780h144l-402 -1491h-143zM684 1620l49 178h180l-49 -178h-180zM1073 1620
l49 178h178l-49 -178h-178z" />
    <glyph glyph-name="uni04F5" unicode="&#x4f5;" horiz-adv-x="1247" 
d="M483 1268l52 188h172l-52 -188h-172zM846 1268l51 188h172l-51 -188h-172zM1190 1094l-291 -1094h-137l100 375q-158 -29 -266 -29q-416 0 -416 309q0 51 31 191l68 248h137l-72 -267q-25 -113 -25 -159q0 -195 291 -195q156 0 285 31l158 590h137z" />
    <glyph glyph-name="uni04F8" unicode="&#x4f8;" horiz-adv-x="2000" 
d="M1487 0l401 1491h144l-402 -1491h-143zM82 0l399 1491h144l-148 -551h316q259 0 394.5 -106t135.5 -299q0 -205 -137 -342q-193 -193 -602 -193h-502zM1178 530q0 139 -102 210t-300 71h-334l-182 -680h336q335 0 481 143q101 104 101 256zM965 1620l49 178h180l-49 -178
h-180zM1354 1620l49 178h178l-49 -178h-178z" />
    <glyph glyph-name="uni04F9" unicode="&#x4f9;" horiz-adv-x="1679" 
d="M752 1268l51 188h172l-51 -188h-172zM1114 1268l51 188h172l-51 -188h-172zM1194 0l291 1094h137l-291 -1094h-137zM649 588h-299l-125 -467h330q174 0 278.5 71t104.5 197q0 199 -289 199zM383 707h279q208 0 312.5 -83t104.5 -227q0 -125 -72 -216.5t-192 -136
t-274 -44.5h-486l293 1094h137z" />
    <glyph glyph-name="baht" unicode="&#xe3f;" horiz-adv-x="1372" 
d="M68 0l401 1491h438q24 0 70 -4l76 172h116l-82 -191q125 -35 189.5 -116.5t64.5 -202.5q0 -159 -108.5 -263.5t-290.5 -137.5q128 -30 199 -106.5t71 -201.5q0 -195 -169 -317.5t-455 -122.5h-137l-107 -252h-117l107 252h-266zM1077 444q0 243 -332 252l-247 -575h104
q227 0 351 84.5t124 238.5zM416 807h274l242 561q-10 2 -33 2h-332zM1206 1130q0 179 -176 226l-235 -549q194 10 302.5 97.5t108.5 225.5zM233 121h160l250 575h-258z" />
    <glyph glyph-name="Wgrave" unicode="&#x1e80;" horiz-adv-x="2322" 
d="M1350 1626l-185 195l148 69l137 -264h-100zM459 -10l-133 1501h149l100 -1280l764 1284h115l80 -1284l786 1280h162l-940 -1501h-121l-88 1243l-753 -1243h-121z" />
    <glyph glyph-name="wgrave" unicode="&#x1e81;" horiz-adv-x="1828" 
d="M315 -8l-96 1102h141l66 -908l555 914h113l67 -914l553 908h148l-688 -1102h-123l-68 895l-551 -895h-117zM1014 1268l-172 225l153 72l115 -297h-96z" />
    <glyph glyph-name="Wacute" unicode="&#x1e82;" horiz-adv-x="2322" 
d="M1352 1626l278 264l150 -69l-291 -195h-137zM459 -10l-133 1501h149l100 -1280l764 1284h115l80 -1284l786 1280h162l-940 -1501h-121l-88 1243l-753 -1243h-121z" />
    <glyph glyph-name="wacute" unicode="&#x1e83;" horiz-adv-x="1828" 
d="M1012 1268l276 297l154 -72l-297 -225h-133zM315 -8l-96 1102h141l66 -908l555 914h113l67 -914l553 908h148l-688 -1102h-123l-68 895l-551 -895h-117z" />
    <glyph glyph-name="Wdieresis" unicode="&#x1e84;" horiz-adv-x="2322" 
d="M1145 1626l49 178h180l-49 -178h-180zM1534 1626l49 178h178l-49 -178h-178zM459 -10l-133 1501h149l100 -1280l764 1284h115l80 -1284l786 1280h162l-940 -1501h-121l-88 1243l-753 -1243h-121z" />
    <glyph glyph-name="wdieresis" unicode="&#x1e85;" horiz-adv-x="1828" 
d="M817 1268l51 188h172l-51 -188h-172zM1180 1268l51 188h172l-51 -188h-172zM315 -8l-96 1102h141l66 -908l555 914h113l67 -914l553 908h148l-688 -1102h-123l-68 895l-551 -895h-117z" />
    <glyph glyph-name="Ygrave" unicode="&#x1ef2;" horiz-adv-x="1441" 
d="M489 0l162 602l-377 889h158l318 -774l735 774h186l-885 -918l-153 -573h-144zM897 1620l-184 195l147 69l137 -264h-100z" />
    <glyph glyph-name="ygrave" unicode="&#x1ef3;" horiz-adv-x="1241" 
d="M406 0l-209 1094h145l166 -940l618 940h162l-764 -1131q-115 -169 -219 -240t-229 -71q-129 0 -236 76l74 104q83 -59 178 -59q78 0 152 51.5t162 175.5zM690 1268l-172 225l154 72l114 -297h-96z" />
    <glyph glyph-name="enspace" unicode="&#x2002;" horiz-adv-x="1024" 
 />
    <glyph glyph-name="emspace" unicode="&#x2003;" horiz-adv-x="2048" 
 />
    <glyph glyph-name="threeperemspace" unicode="&#x2004;" horiz-adv-x="681" 
 />
    <glyph glyph-name="fourperemspace" unicode="&#x2005;" horiz-adv-x="512" 
 />
    <glyph glyph-name="figurespace" unicode="&#x2007;" horiz-adv-x="1290" 
 />
    <glyph glyph-name="thinspace" unicode="&#x2009;" horiz-adv-x="272" 
 />
    <glyph glyph-name="hairspace" unicode="&#x200a;" horiz-adv-x="153" 
 />
    <glyph glyph-name="endash" unicode="&#x2013;" horiz-adv-x="1150" 
d="M160 567l39 140h837l-37 -140h-839z" />
    <glyph glyph-name="emdash" unicode="&#x2014;" horiz-adv-x="1937" 
d="M160 567l39 140h1626l-37 -140h-1628z" />
    <glyph glyph-name="quoteleft" unicode="&#x2018;" horiz-adv-x="544" 
d="M307 1051l49 178q32 124 96 184.5t185 85.5l16 -63q-165 -46 -186 -181h68l-56 -204h-172z" />
    <glyph glyph-name="quoteright" unicode="&#x2019;" horiz-adv-x="544" 
d="M272 1042l-16 64q162 46 186 180h-69l55 205h172l-47 -176q-37 -127 -99.5 -187.5t-181.5 -85.5z" />
    <glyph glyph-name="quotesinglbase" unicode="&#x201a;" horiz-adv-x="544" 
d="M-61 -244l-17 64q85 24 130 68.5t57 111.5h-70l57 205h170l-47 -176q-37 -127 -99 -187.5t-181 -85.5z" />
    <glyph glyph-name="quotedblleft" unicode="&#x201c;" horiz-adv-x="952" 
d="M307 1051l47 178q32 124 96 184.5t185 85.5l16 -63q-162 -46 -186 -181h67l-55 -204h-170zM713 1051l49 178q32 124 96 184.5t184 85.5l17 -63q-166 -47 -187 -181h68l-55 -204h-172z" />
    <glyph glyph-name="quotedblright" unicode="&#x201d;" horiz-adv-x="952" 
d="M270 1042l-16 64q165 47 186 180h-67l55 205h170l-47 -176q-37 -127 -99.5 -187.5t-181.5 -85.5zM678 1042l-16 64q162 46 186 180h-70l56 205h172l-48 -176q-37 -127 -99 -187.5t-181 -85.5z" />
    <glyph glyph-name="quotedblbase" unicode="&#x201e;" horiz-adv-x="954" 
d="M-61 -244l-17 64q85 24 130 68.5t57 111.5h-70l57 205h170l-47 -176q-37 -127 -99 -187.5t-181 -85.5zM346 -244l-14 64q162 46 186 180h-69l55 205h172l-49 -176q-37 -127 -99.5 -187.5t-181.5 -85.5z" />
    <glyph glyph-name="dagger" unicode="&#x2020;" horiz-adv-x="899" 
d="M352 508l172 602l-266 -14l29 106l258 -14l63 303h121l-98 -303l266 14l-29 -106l-262 14l-147 -602h-107z" />
    <glyph glyph-name="daggerdbl" unicode="&#x2021;" horiz-adv-x="933" 
d="M227 0l99 303l-267 -14l29 106l258 -14l88 364l109 365l-269 -14l31 106l258 -14l64 303h121l-99 -303l266 14l-28 -106l-262 14l-84 -365l-111 -364l268 14l-28 -106l-258 14l-66 -303h-119z" />
    <glyph glyph-name="bullet" unicode="&#x2022;" horiz-adv-x="1034" 
d="M596 1034q101 0 164 -63t63 -170q0 -148 -100 -242q-91 -94 -213 -94q-101 0 -163 63.5t-62 171.5q0 142 100 242q92 92 211 92z" />
    <glyph glyph-name="ellipsis" unicode="&#x2026;" horiz-adv-x="1540" 
d="M39 0l55 203h170l-55 -203h-170zM539 0l55 203h170l-55 -203h-170zM1036 0l56 203h170l-56 -203h-170z" />
    <glyph glyph-name="perthousand" unicode="&#x2030;" horiz-adv-x="2613" 
d="M504 737q-130 0 -213.5 88t-83.5 219q0 99 38 190.5t105 158.5q114 114 264 114q132 0 215.5 -88t83.5 -219q0 -98 -38 -188.5t-105 -159.5q-115 -115 -266 -115zM514 842q90 0 168 78q51 51 81 123t30 147q0 98 -49 155.5t-138 57.5q-92 0 -168 -76q-52 -55 -81 -126.5
t-29 -145.5q0 -99 48.5 -156t137.5 -57zM150 0l724 745l725 746h150l-725 -746l-725 -745h-149zM1282 -16q-130 0 -213.5 88t-83.5 219q0 98 38 188.5t105 159.5q115 115 265 115q132 0 215.5 -88.5t83.5 -219.5q0 -98 -38.5 -189.5t-105.5 -158.5q-114 -114 -266 -114z
M1292 88q92 0 168 76q52 55 81.5 126.5t29.5 145.5q0 98 -49 155.5t-138 57.5t-167 -78q-51 -51 -81 -123t-30 -147q0 -99 48.5 -156t137.5 -57zM2105 -16q-130 0 -213.5 88t-83.5 219q0 99 38 189.5t106 158.5q115 115 264 115q130 0 213.5 -88.5t83.5 -219.5
q0 -99 -38 -190t-105 -158q-114 -114 -265 -114zM2114 88q91 0 167 76q53 53 82 124.5t29 147.5q0 99 -48.5 156t-137.5 57q-88 0 -166 -78q-53 -51 -83 -122.5t-30 -147.5q0 -98 49 -155.5t138 -57.5z" />
    <glyph glyph-name="guilsinglleft" unicode="&#x2039;" horiz-adv-x="706" 
d="M334 86l-225 451l4 16l471 453l88 -76l-400 -404l172 -383z" />
    <glyph glyph-name="guilsinglright" unicode="&#x203a;" horiz-adv-x="706" 
d="M371 1006l225 -451l-4 -16l-471 -453l-88 76l399 403l-172 385z" />
    <glyph glyph-name="fraction" unicode="&#x2044;" horiz-adv-x="237" 
d="M-643 0l727 762l684 729h115l-729 -762l-682 -729h-115z" />
    <glyph glyph-name="zero.sup" unicode="&#x2070;" 
d="M969 1481q0 -126 -53 -262.5t-142 -229.5q-109 -104 -231 -104q-110 0 -174 72.5t-64 195.5q0 127 52 264t143 228q109 104 231 104q110 0 174 -72.5t64 -195.5zM408 1161q0 -89 36 -138.5t107 -49.5q80 0 149 69q74 74 120 202t46 229q0 89 -36 138.5t-107 49.5
q-80 0 -150 -70q-74 -74 -119.5 -201.5t-45.5 -228.5z" />
    <glyph glyph-name="four.sup" unicode="&#x2074;" 
d="M643 901l49 191h-403v90l553 559h119l-152 -565h115l-23 -84h-115l-51 -191h-92zM395 1176h320l121 444h-2z" />
    <glyph glyph-name="five.sup" unicode="&#x2075;" 
d="M569 885q-101 0 -175 40t-115 105l77 53q74 -112 217 -112q103 0 166.5 56.5t63.5 143.5q0 70 -50 109t-128 39q-90 0 -170 -45l-70 51l137 404h467l-26 -97h-383l-91 -260q28 13 72 23t78 10q122 0 193 -61.5t71 -167.5q0 -121 -92.5 -206t-241.5 -85z" />
    <glyph glyph-name="six.sup" unicode="&#x2076;" 
d="M555 885q-122 0 -195 75.5t-73 219.5q0 128 48 248t134 206q115 115 262 115q151 0 240 -111l-64 -65q-77 88 -180 88q-111 0 -192 -84q-96 -96 -138 -258q28 43 88 78t136 35q101 0 169 -62.5t68 -171.5q0 -123 -90 -218t-213 -95zM557 969q85 0 144 65.5t59 153.5
q0 73 -42.5 117.5t-115.5 44.5q-89 0 -153 -64q-60 -60 -60 -147q0 -76 45.5 -123t122.5 -47z" />
    <glyph glyph-name="seven.sup" unicode="&#x2077;" 
d="M326 901l548 731h-454l26 97h568l-21 -74l-553 -754h-114z" />
    <glyph glyph-name="eight.sup" unicode="&#x2078;" 
d="M580 885q-134 0 -219 63.5t-85 157.5q0 99 65 159t173 78q-115 57 -115 175q0 98 86 164.5t215 66.5q122 0 199.5 -60.5t77.5 -156.5q0 -84 -57 -141.5t-146 -75.5q58 -22 95.5 -71.5t37.5 -117.5q0 -104 -92.5 -172.5t-234.5 -68.5zM584 967q99 0 161 46.5t62 119.5
q0 67 -56 110t-149 43q-103 0 -166 -46.5t-63 -119.5q0 -66 59 -109.5t152 -43.5zM676 1366q96 0 150.5 45t54.5 111q0 63 -52.5 105t-130.5 42q-87 0 -143.5 -45t-56.5 -113q0 -65 49.5 -105t128.5 -40z" />
    <glyph glyph-name="nine.sup" unicode="&#x2079;" 
d="M545 885q-155 0 -254 123l63 65q89 -100 195 -100q110 0 196 86q90 90 134 252q-31 -45 -89.5 -81t-136.5 -36q-100 0 -167.5 63.5t-67.5 174.5q0 123 86 220t211 97q122 0 197 -75.5t75 -219.5q0 -129 -47 -250t-129 -203q-116 -116 -266 -116zM674 1276q88 0 149 61
q64 64 64 154q0 78 -46 126t-124 48q-88 0 -145.5 -68.5t-57.5 -154.5q0 -75 43 -120.5t117 -45.5z" />
    <glyph glyph-name="zero.inf" unicode="&#x2080;" 
d="M651 297q0 -126 -52.5 -262.5t-141.5 -229.5q-109 -104 -232 -104q-110 0 -173.5 72.5t-63.5 195.5q0 127 52 264.5t142 227.5q109 104 232 104q110 0 173.5 -72.5t63.5 -195.5zM90 -23q0 -89 36 -138.5t107 -49.5q80 0 150 70q74 74 120 201.5t46 228.5q0 89 -36 138.5
t-107 49.5q-81 0 -150 -69q-74 -74 -120 -202t-46 -229z" />
    <glyph glyph-name="one.inf" unicode="&#x2081;" horiz-adv-x="700" 
d="M127 -279l195 730l-203 -70l-2 90l252 88h82l-226 -838h-98z" />
    <glyph glyph-name="two.inf" unicode="&#x2082;" 
d="M-82 -279l21 84l456 345q73 55 108.5 99t35.5 99q0 60 -43 94.5t-115 34.5q-67 0 -120 -30.5t-107 -86.5l-62 60q131 145 297 145q112 0 180 -57.5t68 -151.5q0 -72 -43 -133.5t-141 -134.5l-371 -274h446l-24 -93h-586z" />
    <glyph glyph-name="three.inf" unicode="&#x2083;" 
d="M242 -299q-106 0 -180 41.5t-111 112.5l74 51q76 -117 213 -117q98 0 160.5 48.5t62.5 125.5q0 72 -53 107.5t-148 35.5h-39l-24 60l344 287h-408l27 92h538l-22 -80l-348 -285q101 -8 167 -59.5t66 -147.5q0 -117 -94 -194.5t-225 -77.5z" />
    <glyph glyph-name="four.inf" unicode="&#x2084;" 
d="M326 -283l49 191h-404v90l553 559h119l-151 -565h114l-22 -84h-115l-51 -191h-92zM78 -8h319l121 444h-2z" />
    <glyph glyph-name="five.inf" unicode="&#x2085;" 
d="M250 -299q-101 0 -175.5 40t-115.5 105l78 54q75 -113 217 -113q103 0 166 56.5t63 144.5q0 70 -50 108.5t-128 38.5q-90 0 -170 -45l-69 51l137 404h467l-27 -96h-383l-90 -261q28 13 71.5 23t77.5 10q122 0 193.5 -61.5t71.5 -167.5q0 -121 -92.5 -206t-241.5 -85z" />
    <glyph glyph-name="six.inf" unicode="&#x2086;" 
d="M238 -299q-122 0 -195.5 75.5t-73.5 219.5q0 128 48.5 248.5t134.5 206.5q114 114 262 114q151 0 239 -110l-63 -66q-77 88 -180 88q-112 0 -193 -84q-94 -94 -137 -258q28 43 88 78t135 35q101 0 169.5 -62.5t68.5 -171.5q0 -123 -90 -218t-213 -95zM240 -215
q85 0 143.5 65.5t58.5 153.5q0 73 -42 117.5t-115 44.5q-90 0 -154 -64q-59 -59 -59 -147q0 -76 45.5 -123t122.5 -47z" />
    <glyph glyph-name="seven.inf" unicode="&#x2087;" 
d="M31 -283l549 732h-455l27 96h567l-21 -74l-553 -754h-114z" />
    <glyph glyph-name="eight.inf" unicode="&#x2088;" 
d="M262 -299q-134 0 -218.5 63.5t-84.5 157.5q0 99 65 159.5t173 78.5q-115 57 -115 174q0 98 86 164.5t215 66.5q122 0 199 -60.5t77 -156.5q0 -84 -56.5 -141.5t-145.5 -75.5q58 -22 95.5 -71t37.5 -117q0 -104 -93 -173t-235 -69zM266 -217q99 0 161 46.5t62 119.5
q0 67 -56 110t-148 43q-103 0 -166.5 -46t-63.5 -119q0 -67 59 -110.5t152 -43.5zM358 182q96 0 150.5 45t54.5 111q0 63 -52 105t-130 42q-87 0 -144 -44.5t-57 -112.5q0 -66 49.5 -106t128.5 -40z" />
    <glyph glyph-name="nine.inf" unicode="&#x2089;" 
d="M227 -299q-155 0 -254 123l64 65q89 -100 194 -100q111 0 197 86q88 88 133 252q-31 -46 -89 -81.5t-136 -35.5q-100 0 -168 63.5t-68 174.5q0 123 86 220t211 97q122 0 197.5 -75.5t75.5 -219.5q0 -129 -47 -249.5t-129 -202.5q-117 -117 -267 -117zM356 92q88 0 150 62
q63 63 63 153q0 78 -46 126t-124 48q-88 0 -145 -68t-57 -155q0 -75 42.5 -120.5t116.5 -45.5z" />
    <glyph glyph-name="colonmonetary" unicode="&#x20a1;" horiz-adv-x="1308" 
d="M1294 1659h107l-123 -287q63 -56 98 -102l-88 -90q-24 33 -67 73l-484 -1140q70 4 135.5 27.5t100 45.5t88.5 62l65 -98q-203 -154 -434 -156l-104 -246h-107l107 254q-101 16 -185 66l-135 -320h-106l160 379q-181 157 -181 448q0 208 73 393t204 316q204 204 487 213
l70 162h106l-71 -170q106 -15 184 -62zM279 573q3 -193 102 -319l477 1122q-188 -14 -338 -164q-116 -117 -179 -285t-62 -354zM954 1374l-501 -1188q74 -57 190 -69l506 1192q-91 55 -195 65z" />
    <glyph glyph-name="naira" unicode="&#x20a6;" horiz-adv-x="1777" 
d="M1651 494h-213l-131 -494h-166l-174 494h-525l-131 -494h-133l131 494h-211l29 106h211l80 299h-211l31 107h208l129 485h181l172 -485h514l131 485h133l-131 -485h213l-29 -107h-213l-80 -299h213zM551 901l-82 -303h467l-109 303h-276zM958 901l107 -303h268l80 303
h-455zM670 1343l-92 -342h215l-121 342h-2zM1217 168h2l88 330h-207z" />
    <glyph glyph-name="rupee" unicode="&#x20a8;" horiz-adv-x="2316" 
d="M2001 293q0 61 -46 108.5t-167 92.5q-156 59 -225.5 124.5t-69.5 172.5q0 138 111 232.5t286 94.5q109 0 210.5 -40.5t176.5 -102.5l-79 -96q-69 57 -153 91t-167 34q-114 0 -182 -57t-68 -134q0 -61 45.5 -105t175.5 -96q156 -63 222.5 -130t66.5 -169
q0 -145 -119 -241.5t-282 -96.5q-125 0 -244 48.5t-211 140.5l86 92q175 -164 379 -164q100 0 177 57t77 144zM952 0l-241 588h-377l-158 -588h-133l399 1491h420q219 0 348 -105.5t129 -289.5q0 -102 -40 -189.5t-108.5 -148.5t-155 -101.5t-185.5 -56.5l254 -600h-152z
M367 709h323q84 0 158.5 14t139.5 44.5t111.5 75.5t73.5 109.5t27 143.5q0 129 -87.5 199.5t-248.5 70.5h-321z" />
    <glyph glyph-name="won" unicode="&#x20a9;" horiz-adv-x="2373" 
d="M2261 496h-383l-276 -502h-166l-17 502h-495l-283 -502h-166l-8 502h-379l27 104h350l-6 297h-264l28 104h234l-8 490h145v-490h477l277 494h174l6 -494h481l262 490h160l-272 -490h237l-29 -104h-266l-164 -297h353zM1176 946l-193 -346h434l-6 346h-235zM590 899
l-2 -299h264l162 299h-424zM1532 899l6 -299h260l158 299h-424zM588 135h10l197 361h-207v-361zM1546 135h8l189 361h-203zM1393 1337l-160 -286h176l-6 286h-10z" />
    <glyph glyph-name="sheqel" unicode="&#x20aa;" horiz-adv-x="1347" 
d="M25 0l292 1094h312q307 0 307 -230q0 -58 -18 -129l-97 -356h-106l86 330q18 53 18 110q0 83 -51.5 118.5t-153.5 35.5h-208l-261 -973h-120zM1028 0h-258q-344 0 -311 350l39 385h102l-33 -350q-12 -144 36.5 -204t166.5 -60h170l262 973h121z" />
    <glyph glyph-name="Euro" unicode="&#x20ac;" horiz-adv-x="1492" 
d="M182 877l33 118h154q77 191 204 312q206 209 490 209q184 0 304 -92.5t173 -247.5l-123 -54q-56 131 -142.5 197.5t-230.5 66.5q-201 0 -362 -161q-102 -99 -160 -230h611l-33 -118h-621q-36 -114 -45 -244h602l-32 -121h-570q12 -187 112 -297.5t269 -110.5
q125 0 222 50t188 149l96 -82q-101 -118 -224 -182t-284 -64q-223 0 -368.5 144.5t-157.5 392.5h-201l33 121h168q9 127 43 244h-148z" />
    <glyph glyph-name="peso" unicode="&#x20b1;" horiz-adv-x="1554" 
d="M1593 956h-184q-30 -137 -129 -239q-199 -199 -600 -199h-246l-137 -518h-143l256 956h-207l28 107h207l115 428h346q281 0 418 -137q107 -107 104 -291h203zM467 641h219q328 0 485 154q69 69 95 166h-715zM659 1364l-81 -305h702q3 128 -74 205q-100 100 -309 100h-238
z" />
    <glyph glyph-name="hryvnia" unicode="&#x20b4;" horiz-adv-x="1374" 
d="M244 936l35 94l653 -100q120 70 171.5 135t51.5 139q0 88 -68.5 136.5t-201.5 48.5q-184 0 -391 -119l-58 116q238 130 461 130q204 0 307 -86.5t103 -217.5q0 -174 -189 -311l248 -39l-37 -94l-338 51l-293 -166l553 -84l-34 -94l-658 100q-130 -79 -179.5 -144
t-49.5 -142q0 -88 70.5 -138.5t203.5 -50.5q205 0 440 131l58 -116q-257 -140 -504 -140q-208 0 -314 87t-106 221q0 92 47.5 169.5t147.5 151.5l-240 37l35 94l330 -51l295 166z" />
    <glyph glyph-name="numero" unicode="&#x2116;" horiz-adv-x="2414" 
d="M61 0l398 1491h131l473 -1243l330 1243h135l-398 -1491h-110l-485 1274l-338 -1274h-136zM1964 602q-151 0 -237.5 99t-86.5 260q0 114 43.5 222t112.5 179q138 135 307 135q152 0 239 -97t87 -259q0 -113 -44.5 -223t-113.5 -179q-137 -137 -307 -137zM1970 705
q112 0 207 92q60 62 95.5 153t35.5 189q0 118 -54.5 187t-156.5 69q-115 0 -207 -92q-60 -60 -95.5 -151t-35.5 -189q0 -118 54.5 -188t156.5 -70zM1487 311l29 101h704l-29 -101h-704z" />
    <glyph glyph-name="published" unicode="&#x2117;" horiz-adv-x="1792" 
d="M801 1155h258q130 0 206 -57t76 -170q0 -138 -104 -213.5t-285 -75.5h-182l-72 -270h-106zM1233 924q0 133 -176 133h-174l-86 -322h166q55 0 100 9t85 29t62.5 58.5t22.5 92.5zM1030 1516q204 0 361 -89.5t240 -243.5t83 -345q0 -173 -66 -334t-188 -283
q-243 -246 -594 -246q-152 0 -281 52t-217 143t-137 215.5t-49 267.5q0 173 66 334t188 283q246 246 594 246zM872 39q312 0 533 221q237 237 237 580q0 126 -41.5 236.5t-118.5 194.5t-194.5 132.5t-261.5 48.5q-310 0 -534 -221q-114 -117 -176 -265t-62 -313
q0 -127 42 -238t119 -195t195 -132.5t262 -48.5z" />
    <glyph glyph-name="servicemark" unicode="&#x2120;" horiz-adv-x="1531" 
d="M446 823q-83 0 -154.5 34.5t-115.5 92.5l64 51q87 -104 215 -104q69 0 113 34t44 85q0 36 -27.5 61.5t-103.5 55.5q-98 37 -140 75t-42 101q0 70 53 123q69 69 197 69q71 0 131 -27t100 -73l-59 -55q-78 81 -182 81q-69 0 -110.5 -32t-41.5 -76q0 -37 32 -62t116 -57
t123.5 -72.5t39.5 -101.5q0 -76 -55 -131q-72 -72 -197 -72zM815 836l184 655h82l144 -373l342 373h98l-186 -655h-84l147 512l-342 -367h-10l-146 367l-145 -512h-84z" />
    <glyph glyph-name="trademark" unicode="&#x2122;" horiz-adv-x="1497" 
d="M336 836l162 573h-213l24 82h510l-24 -82h-211l-162 -573h-86zM780 836l187 655h80l145 -373l342 373h98l-186 -655h-84l145 512l-340 -367h-12l-143 367l-148 -512h-84z" />
    <glyph glyph-name="Omega" unicode="&#x2126;" horiz-adv-x="1863" 
d="M406 709q0 -169 68 -308.5t218 -281.5l-33 -119h-622l35 129l463 -4q-277 268 -277 594q0 225 108.5 407.5t300.5 286t429 103.5q301 0 482 -166t181 -439q0 -236 -140.5 -428t-416.5 -358l449 4l-35 -129h-649l32 119q297 167 452 353.5t159 422.5q5 218 -136 354.5
t-391 136.5q-140 0 -264 -48.5t-215.5 -135.5t-144.5 -215t-53 -278z" />
    <glyph glyph-name="onethird" unicode="&#x2153;" horiz-adv-x="1775" 
d="M1194 -20q-106 0 -180 41t-111 112l74 51q76 -116 213 -116q98 0 160.5 48.5t62.5 125.5q0 72 -53 107.5t-148 35.5h-38l-25 59l344 287h-408l27 92h539l-23 -80l-348 -284q101 -8 167 -59.5t66 -147.5q0 -117 -94 -194.5t-225 -77.5zM330 668l192 729l-203 -70l-2 90
l254 88h80l-223 -837h-98zM53 0l727 762l684 729h115l-729 -762l-682 -729h-115z" />
    <glyph glyph-name="twothirds" unicode="&#x2154;" horiz-adv-x="1935" 
d="M1354 -20q-106 0 -180 41t-111 112l74 51q76 -116 213 -116q98 0 160.5 48.5t62.5 125.5q0 72 -53 107.5t-148 35.5h-39l-24 59l344 287h-408l27 92h538l-22 -80l-348 -284q101 -8 167 -59.5t66 -147.5q0 -117 -94 -194.5t-225 -77.5zM106 668l21 84l457 344
q73 52 108 97t35 101q0 60 -43 94.5t-115 34.5q-67 0 -119 -30t-106 -86l-63 59q138 145 297 145q112 0 180.5 -57t68.5 -151q0 -72 -43.5 -133.5t-142.5 -135.5l-371 -274h447l-25 -92h-586zM207 0l727 762l684 729h115l-729 -762l-682 -729h-115z" />
    <glyph glyph-name="onefifth" unicode="&#x2155;" horiz-adv-x="1775" 
d="M1202 -20q-101 0 -175.5 40t-115.5 105l78 53q74 -112 217 -112q103 0 166.5 56.5t63.5 143.5q0 70 -50.5 109t-128.5 39q-90 0 -170 -45l-69 51l137 403h467l-27 -96h-383l-90 -260q28 13 72 23t78 10q121 0 192.5 -62t71.5 -168q0 -121 -92.5 -205.5t-241.5 -84.5z
M330 668l192 729l-203 -70l-2 90l254 88h80l-223 -837h-98zM63 0l728 762l684 729h114l-729 -762l-682 -729h-115z" />
    <glyph glyph-name="twofifths" unicode="&#x2156;" horiz-adv-x="1935" 
d="M1362 -20q-101 0 -175.5 40t-115.5 105l78 53q74 -112 217 -112q103 0 166 56.5t63 143.5q0 70 -50 109t-128 39q-90 0 -170 -45l-69 51l137 403h467l-27 -96h-383l-90 -260q28 13 72 23t78 10q121 0 192.5 -62t71.5 -168q0 -121 -92.5 -205.5t-241.5 -84.5zM227 0
l727 762l684 729h115l-729 -762l-682 -729h-115zM106 668l21 84l457 344q73 52 108 97t35 101q0 60 -43 94.5t-115 34.5q-67 0 -119 -30t-106 -86l-63 59q138 145 297 145q112 0 180.5 -57t68.5 -151q0 -72 -43.5 -133.5t-142.5 -135.5l-371 -274h447l-25 -92h-586z" />
    <glyph glyph-name="threefifths" unicode="&#x2157;" horiz-adv-x="1935" 
d="M1362 -20q-101 0 -175.5 40t-115.5 105l78 53q74 -112 217 -112q103 0 166 56.5t63 143.5q0 70 -50 109t-128 39q-90 0 -170 -45l-69 51l137 403h467l-27 -96h-383l-90 -260q28 13 72 23t78 10q121 0 192.5 -62t71.5 -168q0 -121 -92.5 -205.5t-241.5 -84.5zM197 0
l727 762l684 729h114l-729 -762l-682 -729h-114zM428 647q-106 0 -179 41.5t-112 112.5l74 51q76 -117 213 -117q99 0 161 48t62 126q0 72 -53 108t-148 36h-38l-25 59l346 287h-410l27 92h539l-23 -80l-348 -285q102 -8 168 -59t66 -147q0 -117 -94.5 -195t-225.5 -78z" />
    <glyph glyph-name="fourfifths" unicode="&#x2158;" horiz-adv-x="1935" 
d="M514 664l51 190h-405v90l553 559h118l-151 -565h115l-23 -84h-115l-51 -190h-92zM266 938h320l121 442h-2zM1362 -20q-101 0 -175.5 40t-115.5 105l78 53q74 -112 217 -112q103 0 166 56.5t63 143.5q0 70 -50 109t-128 39q-90 0 -170 -45l-69 51l137 403h467l-27 -96
h-383l-90 -260q28 13 72 23t78 10q121 0 192.5 -62t71.5 -168q0 -121 -92.5 -205.5t-241.5 -84.5zM227 0l727 762l684 729h115l-729 -762l-682 -729h-115z" />
    <glyph glyph-name="onesixth" unicode="&#x2159;" horiz-adv-x="1775" 
d="M1190 -20q-122 0 -195 75t-73 219q0 128 48 248.5t134 206.5q115 115 262 115q152 0 240 -111l-64 -65q-77 88 -180 88q-112 0 -193 -84q-94 -94 -137 -258q28 42 87.5 77t135.5 35q101 0 169.5 -62.5t68.5 -170.5q0 -123 -90 -218t-213 -95zM1192 63q85 0 144 66t59 154
q0 73 -42.5 117t-115.5 44q-91 0 -154 -63q-59 -59 -59 -148q0 -76 45.5 -123t122.5 -47zM330 668l192 729l-203 -70l-2 90l254 88h80l-223 -837h-98zM80 0l727 762l684 729h115l-729 -762l-682 -729h-115z" />
    <glyph glyph-name="fivesixths" unicode="&#x215a;" horiz-adv-x="1935" 
d="M1350 -20q-122 0 -195.5 75t-73.5 219q0 128 48.5 248.5t134.5 206.5q115 115 262 115q150 0 239 -111l-63 -65q-77 88 -180 88q-112 0 -193 -84q-94 -94 -137 -258q28 42 87.5 77t135.5 35q101 0 169.5 -62.5t68.5 -170.5q0 -123 -90 -218t-213 -95zM1352 63
q85 0 143.5 66t58.5 154q0 73 -42 117t-115 44q-91 0 -154 -63q-59 -59 -59 -148q0 -76 45.5 -123t122.5 -47zM207 0l727 762l684 729h115l-729 -762l-682 -729h-115zM438 647q-101 0 -175.5 40t-115.5 106l78 53q73 -113 217 -113q103 0 166.5 57t63.5 144q0 70 -50 108.5
t-128 38.5q-92 0 -170 -47l-70 53l137 404h467l-27 -96h-382l-91 -260q27 12 71.5 22t78.5 10q123 0 193.5 -61.5t70.5 -169.5q0 -121 -92 -205t-242 -84z" />
    <glyph glyph-name="oneeighth" unicode="&#x215b;" horiz-adv-x="1775" 
d="M1217 -20q-134 0 -219 63.5t-85 157.5q0 99 65 159t173 78q-115 57 -115 174q0 99 86 165.5t215 66.5q122 0 199.5 -60.5t77.5 -156.5q0 -84 -57 -141.5t-146 -75.5q58 -22 95.5 -71.5t37.5 -117.5q0 -104 -92.5 -172.5t-234.5 -68.5zM1221 61q99 0 161 46.5t62 119.5
q0 67 -56.5 110.5t-148.5 43.5q-103 0 -166 -46.5t-63 -119.5q0 -67 59 -110.5t152 -43.5zM1313 461q96 0 150.5 44.5t54.5 110.5q0 63 -52.5 105.5t-130.5 42.5q-87 0 -143.5 -45t-56.5 -113q0 -65 49.5 -105t128.5 -40zM330 668l192 729l-203 -70l-2 90l254 88h80
l-223 -837h-98zM78 0l727 762l684 729h115l-730 -762l-681 -729h-115z" />
    <glyph glyph-name="threeeighths" unicode="&#x215c;" horiz-adv-x="1935" 
d="M1376 -20q-134 0 -218.5 63.5t-84.5 157.5q0 99 65 159t173 78q-115 57 -115 174q0 99 86 165.5t215 66.5q122 0 199.5 -60.5t77.5 -156.5q0 -84 -57 -141.5t-146 -75.5q58 -22 95.5 -71.5t37.5 -117.5q0 -104 -93 -172.5t-235 -68.5zM1380 61q99 0 161.5 47t62.5 119
q0 67 -56.5 110.5t-148.5 43.5q-103 0 -166.5 -46.5t-63.5 -119.5q0 -67 59 -110.5t152 -43.5zM1473 461q96 0 150 44.5t54 110.5q0 63 -52 105.5t-130 42.5q-87 0 -144 -45t-57 -113q0 -65 50 -105t129 -40zM207 0l727 762l684 729h115l-729 -762l-682 -729h-115zM428 647
q-106 0 -179 41.5t-112 112.5l74 51q76 -117 213 -117q99 0 161 48t62 126q0 72 -53 108t-148 36h-38l-25 59l346 287h-410l27 92h539l-23 -80l-348 -285q102 -8 168 -59t66 -147q0 -117 -94.5 -195t-225.5 -78z" />
    <glyph glyph-name="fiveeighths" unicode="&#x215d;" horiz-adv-x="1935" 
d="M1376 -20q-134 0 -218.5 63.5t-84.5 157.5q0 99 65 159t173 78q-115 57 -115 174q0 99 86 165.5t215 66.5q122 0 199.5 -60.5t77.5 -156.5q0 -84 -57 -141.5t-146 -75.5q58 -22 95.5 -71.5t37.5 -117.5q0 -104 -93 -172.5t-235 -68.5zM1380 61q99 0 161.5 47t62.5 119
q0 67 -56.5 110.5t-148.5 43.5q-103 0 -166.5 -46.5t-63.5 -119.5q0 -67 59 -110.5t152 -43.5zM1473 461q96 0 150 44.5t54 110.5q0 63 -52 105.5t-130 42.5q-87 0 -144 -45t-57 -113q0 -65 50 -105t129 -40zM207 0l727 762l684 729h115l-729 -762l-682 -729h-115zM438 647
q-101 0 -175.5 40t-115.5 106l78 53q73 -113 217 -113q103 0 166.5 57t63.5 144q0 70 -50 108.5t-128 38.5q-92 0 -170 -47l-70 53l137 404h467l-27 -96h-382l-91 -260q27 12 71.5 22t78.5 10q123 0 193.5 -61.5t70.5 -169.5q0 -121 -92 -205t-242 -84z" />
    <glyph glyph-name="seveneighths" unicode="&#x215e;" horiz-adv-x="1935" 
d="M1376 -20q-134 0 -218.5 63.5t-84.5 157.5q0 99 65 159t173 78q-115 57 -115 174q0 99 86 165.5t215 66.5q122 0 199.5 -60.5t77.5 -156.5q0 -84 -57 -141.5t-146 -75.5q58 -22 95.5 -71.5t37.5 -117.5q0 -104 -93 -172.5t-235 -68.5zM1380 61q99 0 161.5 47t62.5 119
q0 67 -56.5 110.5t-148.5 43.5q-103 0 -166.5 -46.5t-63.5 -119.5q0 -67 59 -110.5t152 -43.5zM1473 461q96 0 150 44.5t54 110.5q0 63 -52 105.5t-130 42.5q-87 0 -144 -45t-57 -113q0 -65 50 -105t129 -40zM238 664l548 731h-452l24 96h568l-19 -74l-553 -753h-116zM143 0
l727 762l684 729h115l-729 -762l-682 -729h-115z" />
    <glyph glyph-name="Delta" unicode="&#x2206;" horiz-adv-x="1642" 
d="M1159 1501l287 -1395l-41 -106h-1440l17 106l1034 1395h143zM1053 1333l-887 -1202h1126z" />
    <glyph glyph-name="minus" unicode="&#x2212;" horiz-adv-x="1351" 
d="M195 682l34 135h1039l-35 -135h-1038z" />
    <glyph glyph-name="NUL" horiz-adv-x="0" 
 />
    <glyph glyph-name="CR" horiz-adv-x="663" 
 />
    <glyph glyph-name="Q.alt" horiz-adv-x="1822" 
d="M1071 1516q189 0 338 -85.5t230 -232t81 -326.5q0 -183 -78 -360t-223 -311l154 -174l-111 -84l-143 176q-211 -146 -463 -146q-187 0 -336 85t-231 231.5t-82 326.5q0 181 72.5 350t201.5 298q120 120 270.5 186t319.5 66zM862 102q201 0 371 119l-240 277l111 86
l227 -283q116 111 178 260.5t62 306.5q0 223 -140.5 370.5t-365.5 147.5q-268 0 -475 -204q-110 -110 -172 -258t-62 -303q0 -146 61.5 -264t178 -186.5t266.5 -68.5z" />
    <glyph glyph-name="a.alt" horiz-adv-x="1423" 
d="M559 -27q-190 0 -313 130t-123 333q0 149 54.5 279t150.5 227q181 178 411 178q85 0 156.5 -24t122 -66t85 -91t58.5 -108l70 263h137l-293 -1094h-137l53 199q-192 -226 -432 -226zM592 98q91 0 181 41.5t163 114.5q78 78 123 177t45 206q0 152 -99 255t-255 103
q-182 0 -318 -133q-78 -78 -121 -185.5t-43 -225.5q0 -160 90 -256.5t234 -96.5z" />
    <glyph glyph-name="uni039E.alt" horiz-adv-x="1538" 
d="M1430 817l-37 -131h-512l-150 -555h584l-37 -131h-1309l35 131h586l147 555h-516l35 131h516l146 543h-574l35 131h1290l-35 -131h-573l-146 -543h515z" />
    <glyph glyph-name="uni0424.bgr" horiz-adv-x="1986" 
d="M207 633q0 175 67 325.5t183 266.5q137 134 314.5 202t377.5 68h25l57 209h143l-57 -219q256 -41 411.5 -213t155.5 -414q0 -175 -67 -325.5t-183 -266.5q-137 -134 -314.5 -202t-377.5 -68h-27l-55 -209h-143l59 217q-257 36 -413 210.5t-156 418.5zM356 633
q0 -198 121.5 -335.5t333.5 -166.5l334 1235h-10q-347 0 -570 -223q-97 -97 -153 -227t-56 -283zM1737 858q0 195 -123.5 334t-333.5 168l-332 -1235h8q347 0 570 223q98 98 154.5 227.5t56.5 282.5z" />
    <glyph glyph-name="uni0432.bgr" horiz-adv-x="1374" 
d="M150 422q0 17 1 32.5t3.5 33t4 28.5t6 31t6.5 27.5t8 31t7 29.5l113 424q60 224 190 354q156 156 398 156q203 0 319.5 -107t116.5 -268q0 -166 -116.5 -281t-309.5 -149q141 -43 221 -131.5t80 -222.5q0 -189 -146.5 -312t-387.5 -123q-245 0 -379.5 117.5t-134.5 329.5
zM602 719h-258l-29 -111q-28 -103 -28 -182q0 -151 99 -239.5t282 -88.5q177 0 282 90t105 224q0 136 -115 221.5t-338 85.5zM885 1446q-180 0 -297 -117q-109 -109 -156 -289l-57 -206h278q249 0 387 95t138 257q0 118 -77.5 189t-215.5 71z" />
    <glyph glyph-name="uni0433.bgr" horiz-adv-x="1105" 
d="M92 246q0 128 97.5 211t342.5 155q117 34 189.5 63.5t109 59t48.5 56t12 63.5q0 68 -53.5 104.5t-161.5 36.5q-152 0 -359 -96l-49 115q212 102 410 102q176 0 265 -69.5t89 -194.5q0 -129 -99 -205.5t-355 -150.5q-110 -32 -182 -63t-106.5 -62t-46.5 -57.5t-12 -61.5
q0 -152 230 -152q188 0 411 101l48 -113q-235 -108 -467 -108q-173 0 -267 69t-94 197z" />
    </font>
</defs>
</svg>
