<?xml version="1.0" standalone="no"?>
<!DOCTYPE svg PUBLIC "-//W3C//DTD SVG 1.1//EN" "http://www.w3.org/Graphics/SVG/1.1/DTD/svg11.dtd" >
<svg xmlns="http://www.w3.org/2000/svg" xmlns:xlink="http://www.w3.org/1999/xlink" version="1.1">
<metadata>
Created by FontForge 20201107 at Mon Apr  7 19:28:51 2025
 By 
Copyright (C) 2001, 2010 Hoefler &#38; Co. http://www.typography.com |DCNT
</metadata>
<defs>
<font id="GothamSSm-Medium" horiz-adv-x="1081" >
  <font-face 
    font-family="GothamSSm Medium"
    font-weight="500"
    font-stretch="normal"
    units-per-em="2048"
    panose-1="0 0 0 0 0 0 0 0 0 0"
    ascent="1638"
    descent="-410"
    x-height="1122"
    cap-height="1491"
    bbox="-465 -575 2517 2142"
    underline-thickness="102"
    underline-position="-204"
    unicode-range="U+0020-FB04"
  />
<missing-glyph horiz-adv-x="1024" 
d="M0 -410v2048h1024v-2048h-1024zM145 1536l367 -799l367 799h-734zM102 -156l353 770l-353 770v-1540zM922 1384l-353 -770l353 -770v1540zM512 492l-367 -799h734z" />
    <glyph glyph-name="f_f" unicode="ff" horiz-adv-x="1613" 
d="M229 0v909h-141v207h141v84q0 190 95 279q88 88 249 88q115 0 207 -29v-209q-93 27 -153 27q-152 0 -152 -176v-66h301v-205h-299v-909h-248zM1028 0v909h-141v207h141v84q0 191 94 279q88 88 250 88q115 0 207 -29v-209q-93 27 -154 27q-151 0 -151 -176v-66h301v-205
h-299v-909h-248z" />
    <glyph glyph-name="fi" unicode="fi" horiz-adv-x="1419" 
d="M229 0v909h-141v207h141v84q0 190 95 279q88 88 249 88q115 0 207 -29v-209q-93 27 -153 27q-152 0 -152 -176v-66h301v-205h-299v-909h-248zM975 1303v237h268v-237h-268zM985 0v1122h248v-1122h-248z" />
    <glyph glyph-name="fl" unicode="fl" horiz-adv-x="1419" 
d="M229 0v909h-141v207h141v84q0 190 95 279q88 88 249 88q115 0 207 -29v-209q-93 27 -153 27q-152 0 -152 -176v-66h301v-205h-299v-909h-248zM985 0v1554h248v-1554h-248z" />
    <glyph glyph-name="f_f_i" unicode="ffi" horiz-adv-x="2217" 
d="M229 0v909h-141v207h141v84q0 190 95 279q88 88 249 88q115 0 207 -29v-209q-93 27 -153 27q-152 0 -152 -176v-66h301v-205h-299v-909h-248zM1028 0v909h-141v207h141v84q0 191 94 279q88 88 250 88q115 0 207 -29v-209q-93 27 -154 27q-151 0 -151 -176v-66h301v-205
h-299v-909h-248zM1774 1303v237h268v-237h-268zM1784 0v1122h248v-1122h-248z" />
    <glyph glyph-name="f_f_l" unicode="ffl" horiz-adv-x="2217" 
d="M229 0v909h-141v207h141v84q0 190 95 279q88 88 249 88q115 0 207 -29v-209q-93 27 -153 27q-152 0 -152 -176v-66h301v-205h-299v-909h-248zM1028 0v909h-141v207h141v84q0 191 94 279q88 88 250 88q115 0 207 -29v-209q-93 27 -154 27q-151 0 -151 -176v-66h301v-205
h-299v-909h-248zM1784 0v1554h248v-1554h-248z" />
    <glyph glyph-name=".notdef" horiz-adv-x="1024" 
d="M0 -410v2048h1024v-2048h-1024zM145 1536l367 -799l367 799h-734zM102 -156l353 770l-353 770v-1540zM922 1384l-353 -770l353 -770v1540zM512 492l-367 -799h734z" />
    <glyph glyph-name=".null" horiz-adv-x="0" 
 />
    <glyph glyph-name="nonmarkingreturn" horiz-adv-x="682" 
 />
    <glyph glyph-name="space" unicode=" " horiz-adv-x="651" 
 />
    <glyph glyph-name="exclam" unicode="!" horiz-adv-x="653" 
d="M258 467l-76 944v80h289v-80l-76 -944h-137zM190 0v285h273v-285h-273z" />
    <glyph glyph-name="quotedbl" unicode="&#x22;" horiz-adv-x="1042" 
d="M598 860l51 631h281v-10l-203 -621h-129zM137 860l51 631h281v-10l-203 -621h-129z" />
    <glyph glyph-name="numbersign" unicode="#" horiz-adv-x="1507" 
d="M1335 559v-213h-256l-59 -346h-217l57 346h-354l-60 -346h-217l60 346h-197v213h232l65 381h-217v213h254l57 338h219l-57 -338h354l60 338h217l-57 -338h194v-213h-231l-66 -381h219zM606 946l-67 -393h362l68 393h-363z" />
    <glyph glyph-name="dollar" unicode="$" horiz-adv-x="1382" 
d="M1198 1323l-117 -190q-136 102 -293 139v-422q243 -60 352.5 -162.5t108.5 -271.5v-4q0 -173 -123.5 -284t-328.5 -128v-209h-181v213q-279 34 -501 213l131 186q194 -158 379 -188v434q-241 63 -348 160.5t-107 271.5v4q0 170 122 278.5t324 125.5v125h181v-129
q212 -24 401 -162zM1010 397v4q0 75 -48.5 123.5t-173.5 85.5v-403q106 10 164 60t58 130zM410 1100v-2q0 -74 45 -120.5t170 -86.5v393q-103 -10 -160 -60.5t-55 -123.5z" />
    <glyph glyph-name="percent" unicode="%" horiz-adv-x="1820" 
d="M459 745q-151 0 -249.5 110t-98.5 267v4q0 158 99.5 269.5t252.5 111.5t250.5 -109.5t97.5 -267.5v-4q0 -158 -98.5 -269.5t-253.5 -111.5zM459 1350q-73 0 -118.5 -63.5t-45.5 -156.5v-4q0 -94 47.5 -158.5t120.5 -64.5q76 0 120 62.5t44 156.5v4q0 94 -47.5 159
t-120.5 65zM848 791l506 700h205l-588 -793l-504 -698h-205zM1358 -16q-153 0 -250.5 109.5t-97.5 266.5v5q0 158 98.5 269t253.5 111q153 0 250.5 -109.5t97.5 -266.5v-4q0 -158 -98.5 -269.5t-253.5 -111.5zM1362 141q76 0 120 62.5t44 156.5v5q0 93 -47.5 158t-120.5 65
q-76 0 -120 -62.5t-44 -156.5v-4q0 -95 47.5 -159.5t120.5 -64.5z" />
    <glyph glyph-name="ampersand" unicode="&#x26;" horiz-adv-x="1499" 
d="M1241 -31l-203 207q-209 -196 -460 -196q-211 0 -348.5 116.5t-137.5 306.5v5q0 279 324 417q-67 86 -97 159.5t-30 154.5v4q0 157 116.5 265t307.5 108q172 0 282.5 -103t110.5 -254v-4q0 -269 -332 -387l266 -270q90 139 162 293l191 -101q-119 -232 -205 -344
l239 -242zM641 903q121 42 180.5 100t59.5 138v4q0 78 -48 125t-126 47q-82 0 -133.5 -51t-51.5 -131v-5q0 -56 26 -105t93 -122zM602 186q148 0 293 138l-340 348q-106 -45 -157.5 -111.5t-51.5 -142.5v-4q0 -100 72 -164t184 -64z" />
    <glyph glyph-name="quotesingle" unicode="'" horiz-adv-x="583" 
d="M137 860l51 631h285v-10l-205 -621h-131z" />
    <glyph glyph-name="parenleft" unicode="(" horiz-adv-x="952" 
d="M842 -135l-109 -166q-590 321 -590 911v2q0 591 590 912l109 -166q-233 -155 -342 -332.5t-109 -415.5v-2q0 -234 109.5 -411t341.5 -332z" />
    <glyph glyph-name="parenright" unicode=")" horiz-adv-x="952" 
d="M221 -301l-108 166q231 155 340.5 332.5t109.5 412.5v2q0 234 -109.5 412.5t-340.5 333.5l108 166q590 -325 590 -914v-2q0 -584 -590 -909z" />
    <glyph glyph-name="asterisk" unicode="*" horiz-adv-x="931" 
d="M393 817l29 262l-213 -157l-74 129l242 106l-242 107l74 127l213 -156l-29 260h146l-29 -260l213 156l74 -127l-242 -107l242 -106l-74 -129l-213 157l29 -262h-146z" />
    <glyph glyph-name="plus" unicode="+" horiz-adv-x="1363" 
d="M565 227v410h-411v225h411v410h234v-410h413v-225h-413v-410h-234z" />
    <glyph glyph-name="comma" unicode="," horiz-adv-x="583" 
d="M111 -303l-27 104q190 40 178 199h-106v285h272v-242q0 -168 -79 -250t-238 -96z" />
    <glyph glyph-name="hyphen" unicode="-" horiz-adv-x="884" 
d="M129 528v244h627v-244h-627z" />
    <glyph glyph-name="period" unicode="." horiz-adv-x="583" 
d="M156 0v285h272v-285h-272z" />
    <glyph glyph-name="slash" unicode="/" horiz-adv-x="1122" 
d="M-43 -272l965 1972h215l-965 -1972h-215z" />
    <glyph glyph-name="zero" unicode="0" horiz-adv-x="1556" 
d="M776 -25q-143 0 -265 60t-204.5 163t-129 243.5t-46.5 299.5v4q0 159 46.5 300t130 245.5t206 165t266.5 60.5q142 0 263.5 -60t204.5 -163t130 -243.5t47 -299.5v-5q0 -159 -46.5 -300t-130 -245t-206 -164.5t-266.5 -60.5zM780 203q116 0 204.5 73t134.5 194.5
t46 270.5v4q0 149 -47.5 272t-137 197t-204.5 74q-116 0 -204.5 -72t-134.5 -193.5t-46 -272.5v-5q0 -149 47 -271.5t136.5 -196.5t205.5 -74z" />
    <glyph glyph-name="one" unicode="1" horiz-adv-x="849" 
d="M387 0v1245l-268 -76l-56 205l398 127h176v-1501h-250z" />
    <glyph glyph-name="two" unicode="2" horiz-adv-x="1318" 
d="M113 0v199l516 440q159 137 220.5 224t61.5 186q0 110 -70 173.5t-177 63.5q-102 0 -181 -53.5t-170 -171.5l-178 139q77 107 147.5 171t170.5 102t229 38q216 0 351.5 -122.5t135.5 -319.5v-4q0 -70 -16 -130.5t-42.5 -110.5t-78 -107.5t-105.5 -106.5t-143 -123
l-317 -266h719v-221h-1073z" />
    <glyph glyph-name="three" unicode="3" horiz-adv-x="1331" 
d="M670 -25q-354 0 -570 261l179 163q81 -99 177 -148.5t218 -49.5q117 0 191.5 64t74.5 169v4q0 113 -94.5 174.5t-257.5 61.5h-117l-43 157l412 441h-656v219h981v-188l-422 -437q72 -8 135.5 -27t121.5 -53t99.5 -79.5t66 -111.5t24.5 -146v-5q0 -205 -145.5 -337
t-374.5 -132z" />
    <glyph glyph-name="four" unicode="4" horiz-adv-x="1464" 
d="M891 0v336h-756l-49 180l832 985h215v-958h215v-207h-215v-336h-242zM385 543h506v610z" />
    <glyph glyph-name="five" unicode="5" horiz-adv-x="1339" 
d="M655 -25q-314 0 -544 230l155 180q195 -182 387 -182q139 0 221 72t82 194v4q0 116 -87 186t-228 70q-135 0 -279 -70l-153 101l43 731h889v-223h-672l-25 -365q120 45 244 45q110 0 203.5 -30t164 -87t110.5 -147t40 -203v-4q0 -227 -152 -364.5t-399 -137.5z" />
    <glyph glyph-name="six" unicode="6" horiz-adv-x="1411" 
d="M725 -25q-258 0 -414 156q-90 90 -135 222t-45 347v5q0 173 41.5 320t120 257t200.5 172t275 62q136 0 243.5 -41.5t211.5 -124.5l-138 -195q-85 68 -159 100.5t-168 32.5t-167 -45.5t-115 -120t-63.5 -158t-23.5 -171.5h2q148 162 365 159q108 0 202.5 -32t165 -90.5
t111.5 -147.5t41 -197v-4q0 -146 -72 -262t-198 -180t-281 -64zM719 193q139 0 222 78t83 198v4q0 118 -84.5 193t-224.5 75q-141 0 -226.5 -78t-85.5 -192v-4q0 -119 88 -196.5t228 -77.5z" />
    <glyph glyph-name="seven" unicode="7" horiz-adv-x="1310" 
d="M242 0l669 1270h-757v221h1042v-188l-672 -1303h-282z" />
    <glyph glyph-name="eight" unicode="8" horiz-adv-x="1357" 
d="M680 -20q-247 0 -408 118t-161 308v4q0 253 272 362q-221 120 -221 334v4q0 172 148.5 286.5t369.5 114.5q222 0 369 -114t147 -287v-4q0 -218 -221 -334q131 -58 201.5 -143.5t70.5 -212.5v-4q0 -197 -159.5 -314.5t-407.5 -117.5zM680 858q119 0 195.5 62.5t76.5 160.5
v6q0 90 -76 151.5t-196 61.5q-122 0 -198 -60.5t-76 -152.5v-4q0 -98 77.5 -161.5t196.5 -63.5zM680 190q148 0 233.5 65t85.5 165v4q0 103 -91 167t-228 64q-139 0 -230.5 -64t-91.5 -167v-4q0 -98 86.5 -164t235.5 -66z" />
    <glyph glyph-name="nine" unicode="9" horiz-adv-x="1411" 
d="M651 203q95 0 169.5 45.5t117.5 119t64.5 156t21.5 166.5h-2q-150 -167 -360 -164q-238 0 -382.5 129t-144.5 342v4q0 109 40.5 204t112.5 163.5t175.5 108t224.5 39.5q137 0 234 -38.5t178 -119.5q89 -89 134.5 -223t45.5 -347v-4q0 -239 -74.5 -421t-219.5 -285
t-341 -103q-145 0 -258.5 46.5t-216.5 132.5l135 192q89 -74 169.5 -108.5t176.5 -34.5zM698 737q140 0 226 81t86 196v4q0 120 -88.5 200t-231.5 80q-139 0 -221 -81t-82 -203v-4q0 -120 85.5 -196.5t225.5 -76.5z" />
    <glyph glyph-name="colon" unicode=":" horiz-adv-x="604" 
d="M166 838v284h272v-284h-272zM166 0v285h272v-285h-272z" />
    <glyph glyph-name="semicolon" unicode=";" horiz-adv-x="604" 
d="M166 838v284h272v-284h-272zM121 -303l-27 104q190 40 178 199h-106v285h272v-242q0 -169 -78 -250.5t-239 -95.5z" />
    <glyph glyph-name="less" unicode="&#x3c;" horiz-adv-x="1363" 
d="M1165 166l-1015 473v221l1015 473v-235l-768 -346l768 -349v-237z" />
    <glyph glyph-name="equal" unicode="=" horiz-adv-x="1363" 
d="M172 899v229h1022v-229h-1022zM172 371v229h1022v-229h-1022z" />
    <glyph glyph-name="greater" unicode="&#x3e;" horiz-adv-x="1363" 
d="M199 166v235l770 347l-770 348v237l1015 -473v-221z" />
    <glyph glyph-name="question" unicode="?" horiz-adv-x="1167" 
d="M453 467l-43 344l10 10q397 14 397 246v4q0 94 -67.5 152.5t-182.5 58.5q-194 0 -352 -172l-154 162q207 237 512 237q223 0 359.5 -118t136.5 -314v-4q0 -97 -33 -173.5t-93 -127.5t-135.5 -82.5t-168.5 -46.5l-23 -176h-163zM393 0v285h275v-285h-275z" />
    <glyph glyph-name="at" unicode="@" horiz-adv-x="2103" 
d="M1071 -344q-201 0 -378.5 74t-302.5 199t-197 296t-72 359t73 360t197.5 297.5t298 200t365.5 74.5q153 0 295.5 -45t256 -125t198.5 -185t131 -231t46 -256q0 -131 -33.5 -234t-91 -166.5t-130.5 -96t-156 -32.5q-116 0 -196 42.5t-118 109.5q-148 -152 -331 -152
q-165 0 -275 109.5t-110 290.5q0 110 41 209.5t108 169.5t155 111.5t179 41.5q195 0 303 -159l25 129l198 -31l-92 -531q-10 -65 -10 -96q0 -70 44.5 -111.5t123.5 -41.5q122 0 202 114t80 324q0 145 -65 284t-175.5 245t-269 170.5t-333.5 64.5q-178 0 -336.5 -68
t-271 -183t-177.5 -272t-65 -331q0 -234 110 -428t309 -308t447 -114q155 0 277 34.5t249 108.5l39 -61q-266 -160 -565 -160zM981 322q113 0 193 86q106 106 106 258q0 103 -64 168t-163 65q-117 0 -199 -88q-102 -102 -102 -254q0 -111 62.5 -173t166.5 -62z" />
    <glyph glyph-name="A" unicode="A" horiz-adv-x="1699" 
d="M74 0l659 1501h234l657 -1501h-264l-156 362h-717l-155 -362h-258zM580 588h532l-266 614z" />
    <glyph glyph-name="B" unicode="B" horiz-adv-x="1554" 
d="M203 0v1491h665q256 0 387 -131q101 -101 101 -248v-4q0 -226 -215 -334q142 -49 220.5 -134t78.5 -228v-4q0 -195 -148.5 -301.5t-402.5 -106.5h-686zM1106 1069v4q0 92 -70.5 143.5t-199.5 51.5h-387v-410h368q133 0 211 54t78 157zM1188 434v4q0 100 -79.5 153.5
t-236.5 53.5h-423v-422h442q141 0 219 54t78 157z" />
    <glyph glyph-name="C" unicode="C" horiz-adv-x="1591" 
d="M893 -25q-160 0 -301 60t-241 162.5t-158 244t-58 299.5v4q0 158 57.5 300t157.5 245.5t244 164.5t309 61q193 0 329.5 -59.5t254.5 -172.5l-164 -186q-97 92 -197.5 139t-224.5 47q-142 0 -257.5 -71.5t-180 -193.5t-64.5 -269v-5q0 -227 143.5 -382.5t358.5 -155.5
q132 0 231 47.5t203 146.5l162 -163q-87 -87 -166 -141t-190.5 -88t-247.5 -34z" />
    <glyph glyph-name="D" unicode="D" horiz-adv-x="1681" 
d="M203 0v1491h551q172 0 320 -57t251.5 -155.5t162 -235.5t58.5 -293v-5q0 -156 -58.5 -293.5t-161.5 -237t-251.5 -157t-320.5 -57.5h-551zM754 1264h-299v-1037h299q236 0 382 145t146 369v4q0 110 -38 205.5t-106 165t-167.5 109t-216.5 39.5z" />
    <glyph glyph-name="E" unicode="E" horiz-adv-x="1443" 
d="M203 0v1491h1102v-225h-852v-402h755v-225h-755v-414h862v-225h-1112z" />
    <glyph glyph-name="F" unicode="F" horiz-adv-x="1413" 
d="M203 0v1491h1104v-229h-852v-420h757v-230h-757v-612h-252z" />
    <glyph glyph-name="G" unicode="G" horiz-adv-x="1685" 
d="M907 -25q-229 0 -406 101t-271.5 275t-94.5 390v4q0 155 57 296.5t156.5 246t243.5 166.5t309 62q187 0 319.5 -49.5t254.5 -151.5l-160 -191q-96 81 -192 120.5t-230 39.5q-139 0 -253 -73t-177.5 -195t-63.5 -266v-5q0 -155 63.5 -278t181.5 -193.5t271 -70.5
q221 0 369 116v289h-389v221h633v-622q-120 -105 -278 -168.5t-343 -63.5z" />
    <glyph glyph-name="H" unicode="H" horiz-adv-x="1634" 
d="M203 0v1491h252v-625h727v625h252v-1491h-252v633h-727v-633h-252z" />
    <glyph glyph-name="I" unicode="I" horiz-adv-x="686" 
d="M217 0v1491h252v-1491h-252z" />
    <glyph glyph-name="J" unicode="J" horiz-adv-x="1206" 
d="M530 -20q-303 0 -475 241l166 170q70 -92 140.5 -136t164.5 -44q114 0 179 75.5t65 225.5v979h258v-985q0 -256 -139 -395q-131 -131 -359 -131z" />
    <glyph glyph-name="K" unicode="K" horiz-adv-x="1560" 
d="M203 0v1491h252v-766l723 766h313l-623 -641l650 -850h-308l-514 676l-241 -248v-428h-252z" />
    <glyph glyph-name="L" unicode="L" horiz-adv-x="1331" 
d="M203 0v1491h252v-1262h788v-229h-1040z" />
    <glyph glyph-name="M" unicode="M" horiz-adv-x="1865" 
d="M203 0v1491h266l463 -719l465 719h266v-1491h-250v1085l-479 -714h-8l-477 710v-1081h-246z" />
    <glyph glyph-name="N" unicode="N" horiz-adv-x="1699" 
d="M203 0v1491h231l815 -1051v1051h248v-1491h-211l-835 1079v-1079h-248z" />
    <glyph glyph-name="O" unicode="O" horiz-adv-x="1826" 
d="M911 -25q-223 0 -402 104t-276.5 278.5t-97.5 383.5v4q0 155 58 296.5t159 246t248 166.5t315 62q167 0 313.5 -61.5t247 -165.5t158.5 -244t58 -295v-5q0 -155 -58 -296t-159.5 -245.5t-248.5 -166.5t-315 -62zM915 207q147 0 265 72t182.5 193.5t64.5 268.5v4
q0 147 -65 270t-184 196t-267 73q-147 0 -265 -72t-182.5 -193.5t-64.5 -268.5v-5q0 -147 65 -269.5t184 -195.5t267 -73z" />
    <glyph glyph-name="P" unicode="P" horiz-adv-x="1439" 
d="M203 0v1491h583q257 0 411.5 -136t154.5 -358v-6q0 -123 -46.5 -220.5t-128.5 -159t-188.5 -94t-230.5 -32.5h-303v-485h-252zM455 711h311q152 0 242 75.5t90 198.5v4q0 133 -88.5 204t-243.5 71h-311v-553z" />
    <glyph glyph-name="Q" unicode="Q" horiz-adv-x="1826" 
d="M1710 135l-162 -180l-180 162q-208 -142 -457 -142q-223 0 -402 104t-276.5 278.5t-97.5 383.5v4q0 155 58 296.5t159 246t248 166.5t315 62q167 0 313.5 -61.5t247 -165.5t158.5 -244t58 -295v-5q0 -252 -154 -462zM915 207q151 0 267 72l-260 223l163 184l265 -240
q77 132 77 295v4q0 147 -65 270t-184 196t-267 73q-147 0 -265 -72t-182.5 -193.5t-64.5 -268.5v-5q0 -147 65 -269.5t184 -195.5t267 -73z" />
    <glyph glyph-name="R" unicode="R" horiz-adv-x="1556" 
d="M203 0v1491h661q280 0 430 -150q121 -121 121 -319v-4q0 -178 -96.5 -291t-263.5 -158l409 -569h-299l-372 526h-338v-526h-252zM455 750h391q143 0 229 69.5t86 186.5v4q0 122 -83.5 188t-233.5 66h-389v-514z" />
    <glyph glyph-name="S" unicode="S" horiz-adv-x="1380" 
d="M723 -20q-358 0 -621 237l152 180q114 -98 226.5 -146t248.5 -48q124 0 198 53t74 141v4q0 56 -27 94t-102 72.5t-213 67.5q-129 31 -215 64t-153 84t-98 123.5t-31 172.5v4q0 189 142 308.5t364 119.5q162 0 292 -46t248 -140l-137 -190q-199 153 -407 153
q-116 0 -184 -51t-68 -131v-4q0 -62 29.5 -102t107.5 -73.5t225 -66.5q248 -59 362.5 -157.5t114.5 -276.5v-4q0 -204 -146 -323t-382 -119z" />
    <glyph glyph-name="T" unicode="T" horiz-adv-x="1388" 
d="M569 0v1260h-477v231h1204v-231h-475v-1260h-252z" />
    <glyph glyph-name="U" unicode="U" horiz-adv-x="1630" 
d="M811 -23q-295 0 -464 169t-169 487v858h252v-850q0 -209 101.5 -320.5t285.5 -111.5q181 0 281 107t100 315v860h252v-848q0 -325 -171 -495.5t-468 -170.5z" />
    <glyph glyph-name="V" unicode="V" horiz-adv-x="1613" 
d="M696 -10l-622 1501h278l459 -1163l459 1163h270l-622 -1501h-222z" />
    <glyph glyph-name="W" unicode="W" horiz-adv-x="2392" 
d="M608 -10l-522 1501h272l365 -1120l371 1124h213l370 -1124l365 1120h262l-520 -1501h-217l-371 1087l-373 -1087h-215z" />
    <glyph glyph-name="X" unicode="X" horiz-adv-x="1568" 
d="M1169 1491h289l-524 -729l545 -762h-295l-404 578l-403 -578h-287l543 758l-522 733h295l380 -547z" />
    <glyph glyph-name="Y" unicode="Y" horiz-adv-x="1542" 
d="M645 0v588l-596 903h297l426 -670l432 670h289l-596 -897v-594h-252z" />
    <glyph glyph-name="Z" unicode="Z" horiz-adv-x="1509" 
d="M145 0v184l891 1086h-860v221h1190v-184l-891 -1086h891v-221h-1221z" />
    <glyph glyph-name="bracketleft" unicode="[" horiz-adv-x="980" 
d="M197 -276v1767h651v-193h-416v-1382h416v-192h-651z" />
    <glyph glyph-name="backslash" unicode="\" horiz-adv-x="1122" 
d="M952 -272l-966 1972h215l966 -1972h-215z" />
    <glyph glyph-name="bracketright" unicode="]" horiz-adv-x="980" 
d="M133 -276v192h416v1382h-416v193h651v-1767h-651z" />
    <glyph glyph-name="asciicircum" unicode="^" 
d="M129 1051l324 442h176l323 -442h-192l-221 286l-222 -286h-188z" />
    <glyph glyph-name="underscore" unicode="_" horiz-adv-x="1294" 
d="M4 -340v193h1286v-193h-1286z" />
    <glyph glyph-name="grave" unicode="`" 
d="M537 1268l-258 241l225 103l219 -344h-186z" />
    <glyph glyph-name="a" unicode="a" horiz-adv-x="1263" 
d="M498 -23q-109 0 -199 39.5t-146.5 119.5t-56.5 188v4q0 175 126.5 267.5t338.5 92.5q174 0 307 -47v29q0 123 -72.5 187.5t-211.5 64.5q-91 0 -164.5 -17t-159.5 -53l-65 192q103 46 200 69.5t221 23.5q246 0 371 -125q119 -116 119 -344v-668h-240v143
q-137 -166 -368 -166zM563 158q132 0 220.5 68.5t88.5 176.5v82q-122 45 -264 45q-129 0 -199.5 -50.5t-70.5 -141.5v-4q0 -83 63.5 -129.5t161.5 -46.5z" />
    <glyph glyph-name="b" unicode="b" horiz-adv-x="1443" 
d="M807 -23q-234 0 -389 201v-178h-246v1554h246v-624q149 215 389 215q100 0 193 -39.5t166.5 -111.5t118 -184t44.5 -247v-4q0 -135 -43.5 -247t-117 -184t-167 -111.5t-194.5 -39.5zM750 190q139 0 234 101.5t95 267.5v4q0 162 -96 265.5t-233 103.5q-138 0 -237 -104
t-99 -265v-4q0 -161 99 -265t237 -104z" />
    <glyph glyph-name="c" unicode="c" horiz-adv-x="1232" 
d="M690 -25q-163 0 -296.5 78.5t-208 211.5t-74.5 290v4q0 158 74.5 292t208.5 214t298 80q149 0 256.5 -50.5t192.5 -144.5l-156 -166q-68 71 -136 108.5t-159 37.5q-143 0 -238.5 -106.5t-95.5 -260.5v-4q0 -156 98 -262.5t248 -106.5q87 0 157.5 36.5t139.5 105.5
l150 -146q-94 -102 -201 -156.5t-258 -54.5z" />
    <glyph glyph-name="d" unicode="d" horiz-adv-x="1443" 
d="M637 -23q-100 0 -193 39.5t-166.5 111.5t-118 184t-44.5 247v4q0 135 43.5 247t117 184t167 111.5t194.5 39.5q235 0 387 -201v610h248v-1554h-248v193q-146 -216 -387 -216zM694 190q138 0 237 104t99 265v4q0 161 -99 265t-237 104q-139 0 -234 -101.5t-95 -267.5v-4
q0 -162 96 -265.5t233 -103.5z" />
    <glyph glyph-name="e" unicode="e" horiz-adv-x="1300" 
d="M684 -25q-161 0 -291.5 72.5t-206 206t-75.5 303.5v4q0 120 41 227t112 186t173.5 125t219.5 46q104 0 191.5 -31.5t150 -87t106.5 -131.5t65.5 -165t21.5 -187q0 -45 -2 -70h-832q20 -140 109.5 -217.5t220.5 -77.5q95 0 167.5 33t141.5 102l148 -129
q-177 -209 -461 -209zM354 637h594q-12 134 -90 219.5t-203 85.5q-121 0 -201.5 -84t-99.5 -221z" />
    <glyph glyph-name="f" unicode="f" horiz-adv-x="815" 
d="M229 0v909h-141v207h141v84q0 190 95 279q88 88 249 88q115 0 207 -29v-209q-93 27 -153 27q-152 0 -152 -176v-66h301v-205h-299v-909h-248z" />
    <glyph glyph-name="g" unicode="g" horiz-adv-x="1443" 
d="M672 -344q-278 0 -504 135l94 186q184 -120 404 -120q174 0 267 89t93 261v90q-157 -207 -399 -207q-100 0 -192 36.5t-163.5 102t-114 166t-42.5 219.5v4q0 121 43 222t115 166.5t163.5 102t190.5 36.5q235 0 397 -195v172h248v-895q0 -278 -144 -422
q-149 -149 -456 -149zM690 299q140 0 240 89t100 226v4q0 139 -100 228.5t-240 89.5q-137 0 -231 -88t-94 -227v-5q0 -139 94 -228t231 -89z" />
    <glyph glyph-name="h" unicode="h" horiz-adv-x="1335" 
d="M172 0v1554h246v-608q135 199 356 199q189 0 296.5 -117t107.5 -315v-713h-248v639q0 135 -64.5 208t-183.5 73t-191.5 -76t-72.5 -209v-635h-246z" />
    <glyph glyph-name="i" unicode="i" horiz-adv-x="620" 
d="M176 1303v237h268v-237h-268zM186 0v1122h248v-1122h-248z" />
    <glyph glyph-name="j" unicode="j" horiz-adv-x="620" 
d="M176 1303v237h268v-237h-268zM115 -348q-61 0 -123 12v197q40 -6 74 -6q120 0 120 139v1128h248v-1142q0 -165 -81.5 -246.5t-237.5 -81.5z" />
    <glyph glyph-name="k" unicode="k" horiz-adv-x="1253" 
d="M172 0v1554h246v-946l483 514h299l-448 -460l465 -662h-291l-340 489l-168 -172v-317h-246z" />
    <glyph glyph-name="l" unicode="l" horiz-adv-x="620" 
d="M186 0v1554h248v-1554h-248z" />
    <glyph glyph-name="m" unicode="m" horiz-adv-x="2039" 
d="M172 0v1122h246v-174q135 197 346 197q120 0 206 -53t132 -146q148 199 381 199q187 0 291 -113t104 -319v-713h-246v639q0 135 -62 208t-173 73q-112 0 -180 -74.5t-68 -210.5v-635h-248v643q0 134 -61 205.5t-172 71.5q-112 0 -181 -77.5t-69 -209.5v-633h-246z" />
    <glyph glyph-name="n" unicode="n" horiz-adv-x="1335" 
d="M172 0v1122h246v-176q135 199 356 199q189 0 296.5 -117t107.5 -315v-713h-248v639q0 135 -64.5 208t-183.5 73t-191.5 -76t-72.5 -209v-635h-246z" />
    <glyph glyph-name="o" unicode="o" horiz-adv-x="1413" 
d="M705 -25q-126 0 -237 46t-189 124t-123 185t-45 225v4q0 157 77 291.5t215 214.5t306 80q126 0 237 -46.5t189 -125t123 -185.5t45 -225v-4q0 -118 -45.5 -225.5t-124 -186.5t-190.5 -125.5t-238 -46.5zM709 190q155 0 251.5 106t96.5 259v4q0 153 -100.5 262t-251.5 109
q-154 0 -251.5 -107.5t-97.5 -259.5v-4q0 -153 100.5 -261t252.5 -108z" />
    <glyph glyph-name="p" unicode="p" horiz-adv-x="1443" 
d="M172 -340v1462h246v-192q149 215 389 215q100 0 193 -39.5t166.5 -111.5t118 -184t44.5 -247v-4q0 -135 -43.5 -247t-117 -184t-167 -111.5t-194.5 -39.5q-234 0 -389 201v-518h-246zM750 190q139 0 234 101.5t95 267.5v4q0 162 -96 265.5t-233 103.5q-138 0 -237 -104
t-99 -265v-4q0 -161 99 -265t237 -104z" />
    <glyph glyph-name="q" unicode="q" horiz-adv-x="1443" 
d="M1024 -340v533q-146 -216 -387 -216q-100 0 -193 39.5t-166.5 111.5t-118 184t-44.5 247v4q0 135 43.5 247t117 184t167 111.5t194.5 39.5q235 0 387 -201v178h248v-1462h-248zM694 190q138 0 237 104t99 265v4q0 161 -99 265t-237 104q-139 0 -234 -101.5t-95 -267.5v-4
q0 -162 96 -265.5t233 -103.5z" />
    <glyph glyph-name="r" unicode="r" horiz-adv-x="892" 
d="M172 0v1122h246v-258q58 136 160 210.5t245 68.5v-260h-14q-178 0 -284.5 -117t-106.5 -336v-430h-246z" />
    <glyph glyph-name="s" unicode="s" 
d="M555 -20q-126 0 -250 41.5t-225 123.5l113 168q190 -139 370 -139q86 0 133 34.5t47 94.5v4q0 17 -6 31.5t-14.5 26t-25.5 22.5t-30.5 18.5t-39 17t-42 15t-48 15.5t-48.5 16q-42 13 -72 22.5t-69.5 26.5t-67 34t-56.5 42t-46.5 53.5t-29 67t-11.5 82.5v4
q0 155 112.5 247.5t282.5 92.5q106 0 215 -33.5t197 -93.5l-98 -176q-175 106 -318 106q-76 0 -119.5 -32.5t-43.5 -84.5v-4q0 -20 8.5 -37.5t28 -32.5t39 -26.5t54 -24.5t59 -21t67.5 -22q58 -17 100.5 -33.5t92.5 -44.5t82 -60t53.5 -80.5t21.5 -106.5v-4
q0 -170 -115.5 -260t-300.5 -90z" />
    <glyph glyph-name="t" unicode="t" horiz-adv-x="888" 
d="M549 -18q-322 0 -322 325v602h-145v213h145v312h246v-312h307v-213h-307v-563q0 -145 143 -145q80 0 160 39v-203q-99 -55 -227 -55z" />
    <glyph glyph-name="u" unicode="u" horiz-adv-x="1335" 
d="M563 -23q-190 0 -297.5 117t-107.5 316v712h248v-639q0 -134 64.5 -207t182.5 -73q119 0 192 75.5t73 208.5v635h245v-1122h-245v176q-139 -199 -355 -199z" />
    <glyph glyph-name="v" unicode="v" horiz-adv-x="1280" 
d="M528 -8l-462 1130h266l309 -835l313 835h260l-462 -1130h-224z" />
    <glyph glyph-name="w" unicode="w" horiz-adv-x="1849" 
d="M446 -8l-368 1130h254l233 -784l256 788h209l256 -788l238 784h248l-371 -1130h-219l-256 780l-260 -780h-220z" />
    <glyph glyph-name="x" unicode="x" horiz-adv-x="1249" 
d="M360 1122l267 -383l268 383h264l-399 -547l416 -575h-271l-284 406l-283 -406h-264l413 571l-397 551h270z" />
    <glyph glyph-name="y" unicode="y" horiz-adv-x="1286" 
d="M657 276l299 846h258l-448 -1153q-70 -173 -153 -245t-218 -72q-137 0 -262 67l84 187q78 -45 154 -45q58 0 95.5 31t72.5 108l-473 1122h264z" />
    <glyph glyph-name="z" unicode="z" horiz-adv-x="1208" 
d="M121 0v170l657 750h-635v202h951v-170l-658 -749h658v-203h-973z" />
    <glyph glyph-name="braceleft" unicode="{" horiz-adv-x="1052" 
d="M936 -137l-41 -164q-143 27 -238 65t-148 92.5t-74 118t-21 150.5q0 16 2 76t2 80q0 126 -54.5 180.5t-187.5 54.5h-55v191h55q133 0 187.5 54.5t54.5 180.5q0 20 -2 80t-2 76q0 87 21 150.5t74 118t148 92.5t238 65l41 -164q-98 -27 -156.5 -53.5t-89.5 -63.5t-40 -76
t-9 -104q0 -21 2 -78.5t2 -81.5q0 -120 -55 -188t-166 -105q114 -37 167.5 -103.5t53.5 -189.5q0 -21 -2 -78t-2 -79q0 -65 9 -104t40 -76t89.5 -63.5t156.5 -53.5z" />
    <glyph glyph-name="bar" unicode="|" horiz-adv-x="714" 
d="M258 -272v1972h199v-1972h-199z" />
    <glyph glyph-name="braceright" unicode="}" horiz-adv-x="1052" 
d="M158 -301l-41 164q98 27 156.5 53.5t89.5 63.5t40 76t9 104q0 22 -3 79t-3 78q0 122 56 190.5t167 102.5q-113 37 -168 105t-55 188q0 24 3 81.5t3 78.5q0 65 -9 104t-40 76t-89.5 63.5t-156.5 53.5l41 164q143 -27 238 -65t148 -92.5t74 -118t21 -150.5q0 -16 -2 -76
t-2 -80q0 -126 54.5 -180.5t187.5 -54.5h55v-191h-55q-133 0 -187.5 -54.5t-54.5 -180.5q0 -20 2 -80t2 -76q0 -87 -21 -150.5t-74 -118t-148 -92.5t-238 -65z" />
    <glyph glyph-name="asciitilde" unicode="~" horiz-adv-x="1064" 
d="M694 512q-66 0 -174 45q-9 3 -34.5 13t-37 14t-28.5 8t-29 4q-45 0 -68.5 -23t-48.5 -81l-137 40q37 136 89 198.5t145 62.5q68 0 176 -45q80 -39 127 -39q45 0 68.5 22.5t48.5 81.5l137 -41q-37 -136 -89 -198t-145 -62z" />
    <glyph glyph-name="uni00A0" unicode="&#xa0;" horiz-adv-x="0" 
 />
    <glyph glyph-name="exclamdown" unicode="&#xa1;" horiz-adv-x="653" 
d="M190 1206v285h273v-285h-273zM182 0v80l76 946h137l76 -946v-80h-289z" />
    <glyph glyph-name="cent" unicode="&#xa2;" horiz-adv-x="1253" 
d="M934 1503l-37 -190q143 -43 254 -166l-152 -162q-73 77 -153 111l-139 -709h2q163 0 301 141l143 -143q-93 -103 -203 -159t-258 -56h-20l-35 -182h-180l41 215q-168 62 -273.5 211.5t-105.5 337.5v4q0 157 74.5 291t209 214t297.5 80h19l33 162h182zM362 760v-4
q0 -110 49.5 -199t135.5 -133l141 702h-2q-139 -4 -231.5 -109.5t-92.5 -256.5z" />
    <glyph glyph-name="sterling" unicode="&#xa3;" horiz-adv-x="1388" 
d="M143 0v158l170 51v389h-170v211h170v201q0 239 131 370t357 131q300 0 469 -237l-193 -154q-66 83 -127 121.5t-147 38.5q-99 0 -162 -63q-74 -74 -74 -213v-195h537v-211h-537v-379h699v-219h-1123z" />
    <glyph glyph-name="yen" unicode="&#xa5;" horiz-adv-x="1476" 
d="M205 563v182h342l-496 746h293l397 -637l402 637h282l-497 -746h346v-182h-414v-160h414v-182h-414v-221h-242v221h-413v182h413v160h-413z" />
    <glyph glyph-name="section" unicode="&#xa7;" horiz-adv-x="1361" 
d="M995 496q59 -35 91 -89t32 -116v-4q0 -142 -110.5 -224.5t-305.5 -82.5q-297 0 -491 200l143 142q154 -154 348 -154q89 0 133 29t44 79v5q0 48 -63.5 84t-225.5 71q-248 54 -352.5 124.5t-104.5 184.5v5q0 187 234 245q-60 37 -91.5 90t-31.5 115v4q0 141 111.5 224
t303.5 83q298 0 492 -200l-141 -142q-157 154 -348 154q-85 0 -132 -30t-47 -79v-4q0 -47 60 -81.5t229 -73.5q253 -60 355 -127t102 -183v-4q0 -98 -62.5 -158.5t-171.5 -86.5zM834 588q78 0 126 33.5t48 87.5v4q0 48 -59 83t-199 70q-145 37 -222 37q-78 0 -125 -33.5
t-47 -87.5v-4q0 -48 58 -83t198 -70q145 -37 222 -37z" />
    <glyph glyph-name="dieresis" unicode="&#xa8;" 
d="M618 1268v245h254v-245h-254zM209 1268v245h254v-245h-254z" />
    <glyph glyph-name="copyright" unicode="&#xa9;" horiz-adv-x="1783" 
d="M891 -25q-213 0 -390.5 103.5t-278.5 279.5t-101 383v4q0 155 60.5 297t163.5 246t247 166t303 62q212 0 389 -103.5t278 -279.5t101 -383v-5q0 -207 -101.5 -384t-279.5 -281.5t-391 -104.5zM891 51q144 0 273 55t220.5 148.5t145 221.5t53.5 269v5q0 141 -52.5 268
t-143.5 220t-219 147.5t-273 54.5q-144 0 -273.5 -55.5t-221.5 -149t-145.5 -221.5t-53.5 -269v-4q0 -142 53 -269t144 -219.5t219.5 -147t273.5 -54.5zM901 340q-175 0 -292 120t-117 292v6q0 111 52.5 206t148 152.5t212.5 57.5q104 0 176 -32t140 -95l-99 -113
q-108 98 -217 98t-182.5 -79t-73.5 -193v-4q0 -114 73.5 -194.5t182.5 -80.5q67 0 117 24.5t106 76.5l99 -99q-68 -71 -144 -107t-182 -36z" />
    <glyph glyph-name="ordfeminine" unicode="&#xaa;" horiz-adv-x="847" 
d="M350 858q-91 0 -156 51.5t-65 141.5v4q0 97 69.5 147.5t186.5 50.5q81 0 162 -24v10q0 133 -150 133q-81 0 -178 -41l-39 113q116 53 236 53q135 0 205 -70q65 -65 65 -188v-367h-139v74q-75 -88 -197 -88zM385 967q70 0 117 36.5t47 92.5v41q-61 22 -137 22
q-67 0 -104.5 -25.5t-37.5 -72.5v-4q0 -42 32 -66t83 -24zM123 602v121h571v-121h-571z" />
    <glyph glyph-name="guillemotleft" unicode="&#xab;" horiz-adv-x="1292" 
d="M997 90l-366 463v16l366 463l174 -90l-268 -379l268 -381zM469 90l-367 463v16l367 463l174 -90l-268 -379l268 -381z" />
    <glyph glyph-name="registered" unicode="&#xae;" horiz-adv-x="835" 
d="M418 766q-155 0 -263 109t-108 262v2q0 153 108.5 262.5t262.5 109.5q155 0 262.5 -108.5t107.5 -261.5v-2q0 -153 -108 -263t-262 -110zM418 807q139 0 233 97.5t94 234.5v2q0 137 -94 234.5t-233 97.5q-137 0 -232.5 -98.5t-95.5 -235.5v-2q0 -137 94.5 -233.5
t233.5 -96.5zM264 954v385h180q70 0 113 -32t43 -95v-2q0 -42 -23.5 -73.5t-62.5 -42.5l98 -140h-108l-84 123h-64v-123h-92zM356 1151h82q32 0 50 15t18 40v2q0 24 -18.5 38.5t-49.5 13.5h-82v-109z" />
    <glyph glyph-name="macron" unicode="&#xaf;" 
d="M182 1294v181h717v-181h-717z" />
    <glyph glyph-name="degree" unicode="&#xb0;" horiz-adv-x="1015" 
d="M508 817q-140 0 -246 102t-106 238v6q0 136 106 238t246 102t246 -102t106 -238v-6q0 -136 -106 -238t-246 -102zM508 952q86 0 144.5 61t58.5 144v6q0 83 -58.5 144t-144.5 61t-144.5 -61t-58.5 -144v-6q0 -83 58.5 -144t144.5 -61z" />
    <glyph glyph-name="plusminus" unicode="&#xb1;" horiz-adv-x="1363" 
d="M1198 793h-403v-396h-226l2 396h-403v217h403l-2 395h226v-395h403v-217zM1198 0h-1030v211h1030v-211z" />
    <glyph glyph-name="two.sup" unicode="&#xb2;" horiz-adv-x="860" 
d="M121 899v129l297 248q83 70 117 116t34 99t-38.5 86t-96.5 33q-107 0 -198 -127l-109 84q65 92 136.5 137t180.5 45q124 0 202.5 -68.5t78.5 -177.5q0 -84 -42 -150.5t-140 -144.5l-217 -176h405v-133h-610z" />
    <glyph glyph-name="three.sup" unicode="&#xb3;" horiz-adv-x="860" 
d="M424 879q-190 0 -324 137l93 108q107 -110 233 -110q61 0 104 35.5t43 91.5q0 60 -51 92.5t-133 32.5h-86l-24 94l243 231h-368v135h557v-116l-248 -232q116 -8 189 -67t73 -166q0 -119 -83 -192.5t-218 -73.5z" />
    <glyph glyph-name="acute" unicode="&#xb4;" 
d="M358 1268l220 344l225 -103l-258 -241h-187z" />
    <glyph glyph-name="mu" unicode="&#xb5;" horiz-adv-x="1437" 
d="M1382 201v-197q-70 -18 -143 -18q-110 0 -174.5 38t-93.5 123q-108 -163 -287 -163q-97 0 -177 45.5t-120 134.5h-4q2 -13 9 -52.5t9 -55t6 -45t5.5 -54.5t1.5 -53v-244h-242v1462h246v-639q0 -133 70 -210.5t188 -77.5t190 78t72 210v639h246v-807q4 -65 35 -93.5
t92 -28.5q50 0 71 8z" />
    <glyph glyph-name="paragraph" unicode="&#xb6;" horiz-adv-x="1191" 
d="M743 0v524h-36q-178 0 -314 53.5t-216.5 164t-80.5 264.5v4q0 223 158.5 352t417.5 129h325v-1491h-254z" />
    <glyph glyph-name="periodcentered" unicode="&#xb7;" horiz-adv-x="583" 
d="M156 508v285h272v-285h-272z" />
    <glyph glyph-name="cedilla" unicode="&#xb8;" 
d="M510 -350l-217 92l199 293h184z" />
    <glyph glyph-name="one.sup" unicode="&#xb9;" horiz-adv-x="700" 
d="M475 899h-149v682l-170 -63l-41 124l245 97h115v-840z" />
    <glyph glyph-name="ordmasculine" unicode="&#xba;" horiz-adv-x="847" 
d="M422 858q-138 0 -229 92t-91 226v4q0 132 93 226.5t231 94.5t227.5 -91.5t89.5 -225.5v-4q0 -135 -92 -228.5t-229 -93.5zM117 602v121h614v-121h-614zM426 987q76 0 124 54.5t48 134.5v4q0 80 -49.5 136t-126.5 56t-125.5 -54.5t-48.5 -133.5v-4q0 -80 50.5 -136.5
t127.5 -56.5z" />
    <glyph glyph-name="guillemotright" unicode="&#xbb;" horiz-adv-x="1292" 
d="M825 90l-174 90l267 379l-267 381l174 92l365 -463v-16zM297 90l-176 90l268 379l-268 381l176 92l365 -463v-16z" />
    <glyph glyph-name="onequarter" unicode="&#xbc;" horiz-adv-x="1775" 
d="M475 664h-149v682l-170 -64l-41 125l245 96h115v-839zM281 0l534 774l477 717h148l-535 -774l-477 -717h-147zM1569 176v-180h-139v180h-402l-20 139l405 523h156v-541h112v-121h-112zM1432 297v371l-287 -371h287z" />
    <glyph glyph-name="onehalf" unicode="&#xbd;" horiz-adv-x="1775" 
d="M1051 0v129l297 248q83 70 117 116t34 99t-38.5 86t-96.5 33q-108 0 -199 -127l-108 84q65 92 136.5 137t180.5 45q124 0 202.5 -68.5t78.5 -177.5q0 -84 -42 -150.5t-140 -144.5l-218 -176h406v-133h-610zM260 0l535 774l477 717h147l-534 -774l-477 -717h-148zM475 664
h-149v682l-170 -64l-41 125l245 96h115v-839z" />
    <glyph glyph-name="threequarters" unicode="&#xbe;" horiz-adv-x="1935" 
d="M1729 176v-180h-140v180h-401l-21 139l406 523h156v-541h112v-121h-112zM1591 297v371l-286 -371h286zM430 0l535 774l477 717h147l-534 -774l-477 -717h-148zM428 641q-188 0 -324 139l93 109q108 -111 233 -111q62 0 105 34.5t43 92.5q0 60 -51.5 92.5t-133.5 32.5h-86
l-24 94l243 232h-368v135h557v-119l-248 -229q115 -8 188.5 -68.5t73.5 -165.5q0 -121 -83 -194.5t-218 -73.5z" />
    <glyph glyph-name="questiondown" unicode="&#xbf;" horiz-adv-x="1167" 
d="M502 1206v285h272v-285h-272zM596 -18q-225 0 -361.5 118t-136.5 314v4q0 352 430 430l23 178h166l41 -346l-10 -10q-398 -14 -398 -246v-4q0 -94 67.5 -152.5t182.5 -58.5q194 0 352 172l154 -162q-207 -237 -510 -237z" />
    <glyph glyph-name="Agrave" unicode="&#xc0;" horiz-adv-x="1699" 
d="M74 0l659 1501h234l657 -1501h-264l-156 362h-717l-155 -362h-258zM580 588h532l-266 614zM950 1636h-194l-269 205l226 101z" />
    <glyph glyph-name="Aacute" unicode="&#xc1;" horiz-adv-x="1699" 
d="M74 0l659 1501h234l657 -1501h-264l-156 362h-717l-155 -362h-258zM580 588h532l-266 614zM750 1636l235 306l225 -101l-268 -205h-192z" />
    <glyph glyph-name="Acircumflex" unicode="&#xc2;" horiz-adv-x="1699" 
d="M74 0l659 1501h234l657 -1501h-264l-156 362h-717l-155 -362h-258zM580 588h532l-266 614zM479 1630l254 283h234l254 -283h-209l-164 123l-164 -123h-205z" />
    <glyph glyph-name="Atilde" unicode="&#xc3;" horiz-adv-x="1699" 
d="M74 0l659 1501h234l657 -1501h-264l-156 362h-717l-155 -362h-258zM580 588h532l-266 614zM1024 1636q-65 0 -186 47q-91 35 -123 35q-45 0 -69.5 -22.5t-49.5 -79.5l-139 41q38 132 90.5 195t144.5 63q71 0 187 -49q91 -35 122 -35q45 0 68.5 22.5t48.5 79.5l139 -41
q-37 -130 -90 -193t-143 -63z" />
    <glyph glyph-name="Adieresis" unicode="&#xc4;" horiz-adv-x="1699" 
d="M74 0l659 1501h234l657 -1501h-264l-156 362h-717l-155 -362h-258zM580 588h532l-266 614zM938 1636v232h256v-232h-256zM504 1636v232h258v-232h-258z" />
    <glyph glyph-name="Aring" unicode="&#xc5;" horiz-adv-x="1699" 
d="M74 0l618 1413q-94 64 -94 176q0 97 73.5 160t178.5 63q103 0 176.5 -63.5t73.5 -159.5q0 -108 -94 -176l618 -1413h-264l-156 362h-717l-155 -362h-258zM580 588h532l-266 614zM850 1464q60 0 98.5 35.5t38.5 89.5t-38.5 88.5t-98.5 34.5q-61 0 -100 -34.5t-39 -88.5
t39 -89.5t100 -35.5z" />
    <glyph glyph-name="AE" unicode="&#xc6;" horiz-adv-x="2242" 
d="M35 0l839 1491h1229v-225h-807v-402h711v-225h-711v-414h818v-225h-1067v362h-549l-203 -362h-260zM618 588h429v684h-46z" />
    <glyph glyph-name="Ccedilla" unicode="&#xc7;" horiz-adv-x="1591" 
d="M799 -350l-217 92l166 248q-270 50 -441.5 258.5t-171.5 492.5v4q0 158 57.5 300t157.5 245.5t244 164.5t309 61q193 0 329.5 -59.5t254.5 -172.5l-164 -186q-97 92 -197.5 139t-224.5 47q-142 0 -257.5 -71.5t-180 -193.5t-64.5 -269v-5q0 -227 143.5 -382.5
t358.5 -155.5q132 0 231 47.5t203 146.5l162 -163q-118 -123 -249 -188.5t-308 -72.5z" />
    <glyph glyph-name="Egrave" unicode="&#xc8;" horiz-adv-x="1443" 
d="M858 1616h-194l-269 205l226 100zM203 0v1491h1102v-225h-852v-402h755v-225h-755v-414h862v-225h-1112z" />
    <glyph glyph-name="Eacute" unicode="&#xc9;" horiz-adv-x="1443" 
d="M657 1616l236 305l225 -100l-268 -205h-193zM203 0v1491h1102v-225h-852v-402h755v-225h-755v-414h862v-225h-1112z" />
    <glyph glyph-name="Ecircumflex" unicode="&#xca;" horiz-adv-x="1443" 
d="M203 0v1491h1102v-225h-852v-402h755v-225h-755v-414h862v-225h-1112zM387 1616l254 282h233l254 -282h-208l-164 123l-164 -123h-205z" />
    <glyph glyph-name="Edieresis" unicode="&#xcb;" horiz-adv-x="1443" 
d="M846 1616v231h256v-231h-256zM412 1616v231h258v-231h-258zM203 0v1491h1102v-225h-852v-402h755v-225h-755v-414h862v-225h-1112z" />
    <glyph glyph-name="Igrave" unicode="&#xcc;" horiz-adv-x="686" 
d="M217 0v1491h252v-1491h-252zM446 1616h-194l-268 205l225 100z" />
    <glyph glyph-name="Iacute" unicode="&#xcd;" horiz-adv-x="686" 
d="M217 0v1491h252v-1491h-252zM244 1616l235 305l226 -100l-269 -205h-192z" />
    <glyph glyph-name="Icircumflex" unicode="&#xce;" horiz-adv-x="686" 
d="M217 0v1491h252v-1491h-252zM-27 1616l254 282h234l254 -282h-209l-164 123l-164 -123h-205z" />
    <glyph glyph-name="Idieresis" unicode="&#xcf;" horiz-adv-x="686" 
d="M217 0v1491h252v-1491h-252zM434 1616v231h256v-231h-256zM0 1616v231h258v-231h-258z" />
    <glyph glyph-name="Eth" unicode="&#xd0;" horiz-adv-x="1744" 
d="M266 0v659h-160v183h160v649h551q229 0 411 -97.5t282 -266.5t100 -377v-5q0 -208 -100 -378t-282 -268.5t-411 -98.5h-551zM899 659h-381v-432h299q237 0 384 145t147 369v4q0 224 -147.5 371.5t-383.5 147.5h-299v-422h381v-183z" />
    <glyph glyph-name="Ntilde" unicode="&#xd1;" horiz-adv-x="1699" 
d="M1024 1614q-65 0 -186 47q-91 35 -123 35q-45 0 -69.5 -23t-49.5 -80l-139 41q38 132 90.5 195t144.5 63q71 0 187 -49q91 -35 122 -35q45 0 68.5 22.5t48.5 80.5l139 -41q-37 -130 -90 -193t-143 -63zM203 0v1491h231l815 -1051v1051h248v-1491h-211l-835 1079v-1079
h-248z" />
    <glyph glyph-name="Ograve" unicode="&#xd2;" horiz-adv-x="1826" 
d="M1014 1636h-195l-268 205l225 101zM911 -25q-223 0 -402 104t-276.5 278.5t-97.5 383.5v4q0 155 58 296.5t159 246t248 166.5t315 62q167 0 313.5 -61.5t247 -165.5t158.5 -244t58 -295v-5q0 -155 -58 -296t-159.5 -245.5t-248.5 -166.5t-315 -62zM915 207q147 0 265 72
t182.5 193.5t64.5 268.5v4q0 147 -65 270t-184 196t-267 73q-147 0 -265 -72t-182.5 -193.5t-64.5 -268.5v-5q0 -147 65 -269.5t184 -195.5t267 -73z" />
    <glyph glyph-name="Oacute" unicode="&#xd3;" horiz-adv-x="1826" 
d="M813 1636l236 306l225 -101l-268 -205h-193zM911 -25q-223 0 -402 104t-276.5 278.5t-97.5 383.5v4q0 155 58 296.5t159 246t248 166.5t315 62q167 0 313.5 -61.5t247 -165.5t158.5 -244t58 -295v-5q0 -155 -58 -296t-159.5 -245.5t-248.5 -166.5t-315 -62zM915 207
q147 0 265 72t182.5 193.5t64.5 268.5v4q0 147 -65 270t-184 196t-267 73q-147 0 -265 -72t-182.5 -193.5t-64.5 -268.5v-5q0 -147 65 -269.5t184 -195.5t267 -73z" />
    <glyph glyph-name="Ocircumflex" unicode="&#xd4;" horiz-adv-x="1826" 
d="M911 -25q-223 0 -402 104t-276.5 278.5t-97.5 383.5v4q0 155 58 296.5t159 246t248 166.5t315 62q167 0 313.5 -61.5t247 -165.5t158.5 -244t58 -295v-5q0 -155 -58 -296t-159.5 -245.5t-248.5 -166.5t-315 -62zM915 207q147 0 265 72t182.5 193.5t64.5 268.5v4
q0 147 -65 270t-184 196t-267 73q-147 0 -265 -72t-182.5 -193.5t-64.5 -268.5v-5q0 -147 65 -269.5t184 -195.5t267 -73zM543 1636l254 283h233l254 -283h-209l-164 123l-163 -123h-205z" />
    <glyph glyph-name="Otilde" unicode="&#xd5;" horiz-adv-x="1826" 
d="M1087 1636q-65 0 -186 47q-91 35 -123 35q-45 0 -69.5 -22.5t-49.5 -79.5l-139 41q38 132 91 195t145 63q70 0 186 -49q91 -35 123 -35q45 0 68.5 22.5t48.5 79.5l139 -41q-37 -130 -90.5 -193t-143.5 -63zM911 -25q-223 0 -402 104t-276.5 278.5t-97.5 383.5v4
q0 155 58 296.5t159 246t248 166.5t315 62q167 0 313.5 -61.5t247 -165.5t158.5 -244t58 -295v-5q0 -155 -58 -296t-159.5 -245.5t-248.5 -166.5t-315 -62zM915 207q147 0 265 72t182.5 193.5t64.5 268.5v4q0 147 -65 270t-184 196t-267 73q-147 0 -265 -72t-182.5 -193.5
t-64.5 -268.5v-5q0 -147 65 -269.5t184 -195.5t267 -73z" />
    <glyph glyph-name="Odieresis" unicode="&#xd6;" horiz-adv-x="1826" 
d="M1001 1636v232h256v-232h-256zM567 1636v232h258v-232h-258zM911 -25q-223 0 -402 104t-276.5 278.5t-97.5 383.5v4q0 155 58 296.5t159 246t248 166.5t315 62q167 0 313.5 -61.5t247 -165.5t158.5 -244t58 -295v-5q0 -155 -58 -296t-159.5 -245.5t-248.5 -166.5
t-315 -62zM915 207q147 0 265 72t182.5 193.5t64.5 268.5v4q0 147 -65 270t-184 196t-267 73q-147 0 -265 -72t-182.5 -193.5t-64.5 -268.5v-5q0 -147 65 -269.5t184 -195.5t267 -73z" />
    <glyph glyph-name="multiply" unicode="&#xd7;" horiz-adv-x="1363" 
d="M1030 244l-350 356l-350 -356l-154 153l356 351l-356 350l160 157l348 -356l350 356l154 -153l-357 -350l357 -351z" />
    <glyph glyph-name="Oslash" unicode="&#xd8;" horiz-adv-x="1826" 
d="M1460 1501h248l-211 -237q195 -220 195 -514v-5q0 -155 -58 -296t-159.5 -245.5t-248.5 -166.5t-315 -62q-245 0 -440 127l-104 -112h-248l209 237q-93 104 -143 235.5t-50 278.5v4q0 155 58 296.5t159 246t248 166.5t315 62q246 0 441 -130zM395 750v-2q0 -188 103 -332
l700 788q-128 86 -287 86q-148 0 -267 -73.5t-184 -196.5t-65 -270zM915 201q148 0 267.5 73.5t185.5 196.5t66 270v2q0 186 -105 332l-700 -788q125 -86 286 -86z" />
    <glyph glyph-name="Ugrave" unicode="&#xd9;" horiz-adv-x="1630" 
d="M915 1614h-194l-268 205l225 100zM811 -23q-295 0 -464 169t-169 487v858h252v-850q0 -209 101.5 -320.5t285.5 -111.5q181 0 281 107t100 315v860h252v-848q0 -325 -171 -495.5t-468 -170.5z" />
    <glyph glyph-name="Uacute" unicode="&#xda;" horiz-adv-x="1630" 
d="M715 1614l235 305l226 -100l-269 -205h-192zM811 -23q-295 0 -464 169t-169 487v858h252v-850q0 -209 101.5 -320.5t285.5 -111.5q181 0 281 107t100 315v860h252v-848q0 -325 -171 -495.5t-468 -170.5z" />
    <glyph glyph-name="Ucircumflex" unicode="&#xdb;" horiz-adv-x="1630" 
d="M811 -23q-295 0 -464 169t-169 487v858h252v-850q0 -209 101.5 -320.5t285.5 -111.5q181 0 281 107t100 315v860h252v-848q0 -325 -171 -495.5t-468 -170.5zM444 1614l254 282h234l254 -282h-209l-164 123l-164 -123h-205z" />
    <glyph glyph-name="Udieresis" unicode="&#xdc;" horiz-adv-x="1630" 
d="M903 1614v231h256v-231h-256zM469 1614v231h258v-231h-258zM811 -23q-295 0 -464 169t-169 487v858h252v-850q0 -209 101.5 -320.5t285.5 -111.5q181 0 281 107t100 315v860h252v-848q0 -325 -171 -495.5t-468 -170.5z" />
    <glyph glyph-name="Yacute" unicode="&#xdd;" horiz-adv-x="1542" 
d="M645 0v588l-596 903h297l426 -670l432 670h289l-596 -897v-594h-252zM670 1614l235 305l225 -100l-268 -205h-192z" />
    <glyph glyph-name="Thorn" unicode="&#xde;" horiz-adv-x="1449" 
d="M203 0v1491h252v-236h331q258 0 412 -135t154 -360v-4q0 -122 -47 -220t-128 -160t-188 -95t-231 -33h-303v-248h-252zM455 475h311q152 0 242 76t90 199v4q0 133 -88.5 202.5t-243.5 69.5h-311v-551z" />
    <glyph glyph-name="germandbls" unicode="&#xdf;" horiz-adv-x="1337" 
d="M637 -4v190q162 5 250 65t88 171v4q0 103 -90 166t-248 82v170q250 119 250 301v4q0 97 -60 153t-163 56q-110 0 -178 -76.5t-68 -204.5v-1077h-246v1069q0 231 137 365.5t367 134.5q211 0 334 -113t123 -285v-4q0 -242 -242 -368q332 -107 332 -379v-4
q0 -203 -158 -315.5t-428 -104.5z" />
    <glyph glyph-name="agrave" unicode="&#xe0;" horiz-adv-x="1263" 
d="M498 -23q-109 0 -199 39.5t-146.5 119.5t-56.5 188v4q0 175 126.5 267.5t338.5 92.5q174 0 307 -47v29q0 123 -72.5 187.5t-211.5 64.5q-91 0 -164.5 -17t-159.5 -53l-65 192q103 46 200 69.5t221 23.5q246 0 371 -125q119 -116 119 -344v-668h-240v143
q-137 -166 -368 -166zM563 158q132 0 220.5 68.5t88.5 176.5v82q-122 45 -264 45q-129 0 -199.5 -50.5t-70.5 -141.5v-4q0 -83 63.5 -129.5t161.5 -46.5zM547 1268l-258 241l225 103l219 -344h-186z" />
    <glyph glyph-name="aacute" unicode="&#xe1;" horiz-adv-x="1263" 
d="M498 -23q-109 0 -199 39.5t-146.5 119.5t-56.5 188v4q0 175 126.5 267.5t338.5 92.5q174 0 307 -47v29q0 123 -72.5 187.5t-211.5 64.5q-91 0 -164.5 -17t-159.5 -53l-65 192q103 46 200 69.5t221 23.5q246 0 371 -125q119 -116 119 -344v-668h-240v143
q-137 -166 -368 -166zM563 158q132 0 220.5 68.5t88.5 176.5v82q-122 45 -264 45q-129 0 -199.5 -50.5t-70.5 -141.5v-4q0 -83 63.5 -129.5t161.5 -46.5zM537 1268l219 344l225 -103l-258 -241h-186z" />
    <glyph glyph-name="acircumflex" unicode="&#xe2;" horiz-adv-x="1263" 
d="M498 -23q-109 0 -199 39.5t-146.5 119.5t-56.5 188v4q0 175 126.5 267.5t338.5 92.5q174 0 307 -47v29q0 123 -72.5 187.5t-211.5 64.5q-91 0 -164.5 -17t-159.5 -53l-65 192q103 46 200 69.5t221 23.5q246 0 371 -125q119 -116 119 -344v-668h-240v143
q-137 -166 -368 -166zM563 158q132 0 220.5 68.5t88.5 176.5v82q-122 45 -264 45q-129 0 -199.5 -50.5t-70.5 -141.5v-4q0 -83 63.5 -129.5t161.5 -46.5zM276 1268l244 307h230l245 -307h-198l-164 141l-164 -141h-193z" />
    <glyph glyph-name="atilde" unicode="&#xe3;" horiz-adv-x="1263" 
d="M498 -23q-109 0 -199 39.5t-146.5 119.5t-56.5 188v4q0 175 126.5 267.5t338.5 92.5q174 0 307 -47v29q0 123 -72.5 187.5t-211.5 64.5q-91 0 -164.5 -17t-159.5 -53l-65 192q103 46 200 69.5t221 23.5q246 0 371 -125q119 -116 119 -344v-668h-240v143
q-137 -166 -368 -166zM563 158q132 0 220.5 68.5t88.5 176.5v82q-122 45 -264 45q-129 0 -199.5 -50.5t-70.5 -141.5v-4q0 -83 63.5 -129.5t161.5 -46.5zM805 1268q-66 0 -174 45q-83 39 -129 39q-45 0 -68.5 -23.5t-48.5 -81.5l-137 41q37 136 88.5 198t144.5 62
q66 0 174 -45q83 -39 129 -39q45 0 68.5 23.5t48.5 81.5l137 -41q-37 -136 -88.5 -198t-144.5 -62z" />
    <glyph glyph-name="adieresis" unicode="&#xe4;" horiz-adv-x="1263" 
d="M498 -23q-109 0 -199 39.5t-146.5 119.5t-56.5 188v4q0 175 126.5 267.5t338.5 92.5q174 0 307 -47v29q0 123 -72.5 187.5t-211.5 64.5q-91 0 -164.5 -17t-159.5 -53l-65 192q103 46 200 69.5t221 23.5q246 0 371 -125q119 -116 119 -344v-668h-240v143
q-137 -166 -368 -166zM563 158q132 0 220.5 68.5t88.5 176.5v82q-122 45 -264 45q-129 0 -199.5 -50.5t-70.5 -141.5v-4q0 -83 63.5 -129.5t161.5 -46.5zM713 1268v245h254v-245h-254zM303 1268v245h254v-245h-254z" />
    <glyph glyph-name="aring" unicode="&#xe5;" horiz-adv-x="1263" 
d="M498 -23q-109 0 -199 39.5t-146.5 119.5t-56.5 188v4q0 175 126.5 267.5t338.5 92.5q174 0 307 -47v29q0 123 -72.5 187.5t-211.5 64.5q-91 0 -164.5 -17t-159.5 -53l-65 192q103 46 200 69.5t221 23.5q246 0 371 -125q119 -116 119 -344v-668h-240v143
q-137 -166 -368 -166zM563 158q132 0 220.5 68.5t88.5 176.5v82q-122 45 -264 45q-129 0 -199.5 -50.5t-70.5 -141.5v-4q0 -83 63.5 -129.5t161.5 -46.5zM635 1264q-102 0 -174 68.5t-72 166.5t72.5 168t173.5 70t173.5 -70t72.5 -168t-72 -166.5t-174 -68.5zM635 1356
q60 0 101.5 41.5t41.5 101.5t-41.5 101.5t-101.5 41.5t-101.5 -41.5t-41.5 -101.5t41.5 -101.5t101.5 -41.5z" />
    <glyph glyph-name="ae" unicode="&#xe6;" horiz-adv-x="2043" 
d="M518 -23q-180 0 -301 93t-121 254v4q0 175 126 267.5t335 92.5q168 0 301 -47v29q0 123 -71.5 187.5t-206.5 64.5q-151 0 -320 -70l-65 192q104 47 198.5 70t218.5 23q294 0 396 -191q69 95 171 147t228 52t228 -48.5t167 -131.5t100 -191t35 -231q0 -20 -4 -70h-831
q20 -140 110 -217.5t220 -77.5q95 0 168 33t143 102l145 -129q-177 -209 -461 -209q-132 0 -244.5 51t-191.5 144q-218 -193 -473 -193zM1098 637h594q-13 135 -89.5 220t-203.5 85q-121 0 -201.5 -84t-99.5 -221zM559 160q183 0 342 149q-34 81 -43 178q-127 43 -252 43
q-128 0 -198 -50.5t-70 -141.5v-4q0 -78 64 -126t157 -48z" />
    <glyph glyph-name="ccedilla" unicode="&#xe7;" horiz-adv-x="1232" 
d="M594 -350l-217 92l170 252q-193 46 -314.5 202t-121.5 359v4q0 158 74.5 292t208.5 214t298 80q149 0 256.5 -50.5t192.5 -144.5l-156 -166q-68 71 -136 108.5t-159 37.5q-143 0 -238.5 -106.5t-95.5 -260.5v-4q0 -156 98 -262.5t248 -106.5q87 0 157.5 36.5t139.5 105.5
l150 -146q-86 -95 -184 -148.5t-232 -60.5z" />
    <glyph glyph-name="egrave" unicode="&#xe8;" horiz-adv-x="1300" 
d="M684 -25q-161 0 -291.5 72.5t-206 206t-75.5 303.5v4q0 120 41 227t112 186t173.5 125t219.5 46q104 0 191.5 -31.5t150 -87t106.5 -131.5t65.5 -165t21.5 -187q0 -45 -2 -70h-832q20 -140 109.5 -217.5t220.5 -77.5q95 0 167.5 33t141.5 102l148 -129
q-177 -209 -461 -209zM354 637h594q-12 134 -90 219.5t-203 85.5q-121 0 -201.5 -84t-99.5 -221zM565 1268l-258 241l225 103l220 -344h-187z" />
    <glyph glyph-name="eacute" unicode="&#xe9;" horiz-adv-x="1300" 
d="M557 1268l219 344l225 -103l-258 -241h-186zM684 -25q-161 0 -291.5 72.5t-206 206t-75.5 303.5v4q0 120 41 227t112 186t173.5 125t219.5 46q104 0 191.5 -31.5t150 -87t106.5 -131.5t65.5 -165t21.5 -187q0 -45 -2 -70h-832q20 -140 109.5 -217.5t220.5 -77.5
q95 0 167.5 33t141.5 102l148 -129q-177 -209 -461 -209zM354 637h594q-12 134 -90 219.5t-203 85.5q-121 0 -201.5 -84t-99.5 -221z" />
    <glyph glyph-name="ecircumflex" unicode="&#xea;" horiz-adv-x="1300" 
d="M295 1268l244 307h229l246 -307h-199l-164 141l-164 -141h-192zM684 -25q-161 0 -291.5 72.5t-206 206t-75.5 303.5v4q0 120 41 227t112 186t173.5 125t219.5 46q104 0 191.5 -31.5t150 -87t106.5 -131.5t65.5 -165t21.5 -187q0 -45 -2 -70h-832q20 -140 109.5 -217.5
t220.5 -77.5q95 0 167.5 33t141.5 102l148 -129q-177 -209 -461 -209zM354 637h594q-12 134 -90 219.5t-203 85.5q-121 0 -201.5 -84t-99.5 -221z" />
    <glyph glyph-name="edieresis" unicode="&#xeb;" horiz-adv-x="1300" 
d="M731 1268v245h254v-245h-254zM322 1268v245h253v-245h-253zM684 -25q-161 0 -291.5 72.5t-206 206t-75.5 303.5v4q0 120 41 227t112 186t173.5 125t219.5 46q104 0 191.5 -31.5t150 -87t106.5 -131.5t65.5 -165t21.5 -187q0 -45 -2 -70h-832q20 -140 109.5 -217.5
t220.5 -77.5q95 0 167.5 33t141.5 102l148 -129q-177 -209 -461 -209zM354 637h594q-12 134 -90 219.5t-203 85.5q-121 0 -201.5 -84t-99.5 -221z" />
    <glyph glyph-name="igrave" unicode="&#xec;" horiz-adv-x="620" 
d="M186 0v1122h248v-1122h-248zM223 1268l-258 241l225 103l220 -344h-187z" />
    <glyph glyph-name="iacute" unicode="&#xed;" horiz-adv-x="620" 
d="M213 1268l219 344l225 -103l-258 -241h-186zM186 0v1122h248v-1122h-248z" />
    <glyph glyph-name="icircumflex" unicode="&#xee;" horiz-adv-x="620" 
d="M-47 1268l244 307h229l246 -307h-199l-164 141l-164 -141h-192zM186 0v1122h248v-1122h-248z" />
    <glyph glyph-name="idieresis" unicode="&#xef;" horiz-adv-x="620" 
d="M389 1268v245h254v-245h-254zM-20 1268v245h253v-245h-253zM186 0v1122h248v-1122h-248z" />
    <glyph glyph-name="eth" unicode="&#xf0;" horiz-adv-x="1413" 
d="M1108 1423l-172 -55q364 -364 364 -754v-4q0 -177 -72 -321t-210 -229t-318 -85q-165 0 -300.5 78.5t-212 214t-76.5 299.5v4q0 155 69.5 281.5t187 197t255.5 70.5q96 0 169.5 -29t149.5 -83q-80 135 -235 286l-254 -82l-54 138l183 57q-94 77 -189 147h336l86 -71
l242 78zM709 190q154 0 250 103.5t96 259.5v4q0 152 -100 255t-257 103q-155 0 -248.5 -101.5t-93.5 -254.5v-4q0 -152 100.5 -258.5t252.5 -106.5z" />
    <glyph glyph-name="ntilde" unicode="&#xf1;" horiz-adv-x="1335" 
d="M172 0v1122h246v-176q135 199 356 199q189 0 296.5 -117t107.5 -315v-713h-248v639q0 135 -64.5 208t-183.5 73t-191.5 -76t-72.5 -209v-635h-246zM844 1268q-66 0 -174 45q-83 39 -129 39q-45 0 -68.5 -23.5t-48.5 -81.5l-137 41q37 136 88.5 198t144.5 62q66 0 174 -45
q83 -39 129 -39q45 0 68.5 23.5t48.5 81.5l137 -41q-37 -136 -88.5 -198t-144.5 -62z" />
    <glyph glyph-name="ograve" unicode="&#xf2;" horiz-adv-x="1413" 
d="M705 -25q-126 0 -237 46t-189 124t-123 185t-45 225v4q0 157 77 291.5t215 214.5t306 80q126 0 237 -46.5t189 -125t123 -185.5t45 -225v-4q0 -118 -45.5 -225.5t-124 -186.5t-190.5 -125.5t-238 -46.5zM709 190q155 0 251.5 106t96.5 259v4q0 153 -100.5 262t-251.5 109
q-154 0 -251.5 -107.5t-97.5 -259.5v-4q0 -153 100.5 -261t252.5 -108zM618 1268l-258 241l226 103l219 -344h-187z" />
    <glyph glyph-name="oacute" unicode="&#xf3;" horiz-adv-x="1413" 
d="M608 1268l219 344l226 -103l-258 -241h-187zM705 -25q-126 0 -237 46t-189 124t-123 185t-45 225v4q0 157 77 291.5t215 214.5t306 80q126 0 237 -46.5t189 -125t123 -185.5t45 -225v-4q0 -118 -45.5 -225.5t-124 -186.5t-190.5 -125.5t-238 -46.5zM709 190
q155 0 251.5 106t96.5 259v4q0 153 -100.5 262t-251.5 109q-154 0 -251.5 -107.5t-97.5 -259.5v-4q0 -153 100.5 -261t252.5 -108z" />
    <glyph glyph-name="ocircumflex" unicode="&#xf4;" horiz-adv-x="1413" 
d="M348 1268l244 307h229l246 -307h-199l-163 141l-164 -141h-193zM705 -25q-126 0 -237 46t-189 124t-123 185t-45 225v4q0 157 77 291.5t215 214.5t306 80q126 0 237 -46.5t189 -125t123 -185.5t45 -225v-4q0 -118 -45.5 -225.5t-124 -186.5t-190.5 -125.5t-238 -46.5z
M709 190q155 0 251.5 106t96.5 259v4q0 153 -100.5 262t-251.5 109q-154 0 -251.5 -107.5t-97.5 -259.5v-4q0 -153 100.5 -261t252.5 -108z" />
    <glyph glyph-name="otilde" unicode="&#xf5;" horiz-adv-x="1413" 
d="M705 -25q-126 0 -237 46t-189 124t-123 185t-45 225v4q0 157 77 291.5t215 214.5t306 80q126 0 237 -46.5t189 -125t123 -185.5t45 -225v-4q0 -118 -45.5 -225.5t-124 -186.5t-190.5 -125.5t-238 -46.5zM709 190q155 0 251.5 106t96.5 259v4q0 153 -100.5 262t-251.5 109
q-154 0 -251.5 -107.5t-97.5 -259.5v-4q0 -153 100.5 -261t252.5 -108zM877 1268q-67 0 -175 45q-83 39 -129 39q-45 0 -68 -23t-48 -82l-138 41q37 136 89 198t145 62q66 0 174 -45q83 -39 129 -39q45 0 68.5 23.5t48.5 81.5l137 -41q-37 -136 -88.5 -198t-144.5 -62z" />
    <glyph glyph-name="odieresis" unicode="&#xf6;" horiz-adv-x="1413" 
d="M784 1268v245h254v-245h-254zM375 1268v245h254v-245h-254zM705 -25q-126 0 -237 46t-189 124t-123 185t-45 225v4q0 157 77 291.5t215 214.5t306 80q126 0 237 -46.5t189 -125t123 -185.5t45 -225v-4q0 -118 -45.5 -225.5t-124 -186.5t-190.5 -125.5t-238 -46.5z
M709 190q155 0 251.5 106t96.5 259v4q0 153 -100.5 262t-251.5 109q-154 0 -251.5 -107.5t-97.5 -259.5v-4q0 -153 100.5 -261t252.5 -108z" />
    <glyph glyph-name="divide" unicode="&#xf7;" horiz-adv-x="1363" 
d="M545 1059v264h274v-264h-274zM1212 643h-1058v213h1058v-213zM545 176v266h274v-266h-274z" />
    <glyph glyph-name="oslash" unicode="&#xf8;" horiz-adv-x="1413" 
d="M1108 1135h227l-172 -193q140 -159 140 -379v-4q0 -118 -45.5 -225.5t-124 -186.5t-190.5 -125.5t-238 -46.5q-181 0 -328 91l-72 -76h-227l170 188q-137 162 -137 377v4q0 157 77 291.5t215 214.5t306 80q177 0 325 -92zM709 184q156 0 255 107.5t99 263.5v4
q0 114 -59 209l-480 -535q87 -49 185 -49zM350 563v-2q0 -118 58 -209l481 531q-88 53 -184 53q-156 0 -255.5 -108.5t-99.5 -264.5z" />
    <glyph glyph-name="ugrave" unicode="&#xf9;" horiz-adv-x="1335" 
d="M563 -23q-190 0 -297.5 117t-107.5 316v712h248v-639q0 -134 64.5 -207t182.5 -73q119 0 192 75.5t73 208.5v635h245v-1122h-245v176q-139 -199 -355 -199zM571 1268l-258 241l226 103l219 -344h-187z" />
    <glyph glyph-name="uacute" unicode="&#xfa;" horiz-adv-x="1335" 
d="M563 1268l219 344l226 -103l-258 -241h-187zM563 -23q-190 0 -297.5 117t-107.5 316v712h248v-639q0 -134 64.5 -207t182.5 -73q119 0 192 75.5t73 208.5v635h245v-1122h-245v176q-139 -199 -355 -199z" />
    <glyph glyph-name="ucircumflex" unicode="&#xfb;" horiz-adv-x="1335" 
d="M301 1268l244 307h229l246 -307h-199l-164 141l-163 -141h-193zM563 -23q-190 0 -297.5 117t-107.5 316v712h248v-639q0 -134 64.5 -207t182.5 -73q119 0 192 75.5t73 208.5v635h245v-1122h-245v176q-139 -199 -355 -199z" />
    <glyph glyph-name="udieresis" unicode="&#xfc;" horiz-adv-x="1335" 
d="M737 1268v245h254v-245h-254zM328 1268v245h254v-245h-254zM563 -23q-190 0 -297.5 117t-107.5 316v712h248v-639q0 -134 64.5 -207t182.5 -73q119 0 192 75.5t73 208.5v635h245v-1122h-245v176q-139 -199 -355 -199z" />
    <glyph glyph-name="yacute" unicode="&#xfd;" horiz-adv-x="1286" 
d="M657 276l299 846h258l-448 -1153q-70 -173 -153 -245t-218 -72q-137 0 -262 67l84 187q78 -45 154 -45q58 0 95.5 31t72.5 108l-473 1122h264zM547 1268l219 344l225 -103l-258 -241h-186z" />
    <glyph glyph-name="thorn" unicode="&#xfe;" horiz-adv-x="1443" 
d="M172 -340v1894h246v-624q149 215 389 215q100 0 193 -39.5t166.5 -111.5t118 -184t44.5 -247v-4q0 -135 -43.5 -247t-117 -184t-167 -111.5t-194.5 -39.5q-234 0 -389 201v-518h-246zM750 190q139 0 234 101.5t95 267.5v4q0 162 -96 265.5t-233 103.5q-138 0 -237 -104
t-99 -265v-4q0 -161 99 -265t237 -104z" />
    <glyph glyph-name="ydieresis" unicode="&#xff;" horiz-adv-x="1286" 
d="M657 276l299 846h258l-448 -1153q-70 -173 -153 -245t-218 -72q-137 0 -262 67l84 187q78 -45 154 -45q58 0 95.5 31t72.5 108l-473 1122h264zM723 1268v245h254v-245h-254zM313 1268v245h254v-245h-254z" />
    <glyph glyph-name="Amacron" unicode="&#x100;" horiz-adv-x="1699" 
d="M74 0l659 1501h234l657 -1501h-264l-156 362h-717l-155 -362h-258zM580 588h532l-266 614zM471 1663v184h758v-184h-758z" />
    <glyph glyph-name="amacron" unicode="&#x101;" horiz-adv-x="1263" 
d="M498 -23q-109 0 -199 39.5t-146.5 119.5t-56.5 188v4q0 175 126.5 267.5t338.5 92.5q174 0 307 -47v29q0 123 -72.5 187.5t-211.5 64.5q-91 0 -164.5 -17t-159.5 -53l-65 192q103 46 200 69.5t221 23.5q246 0 371 -125q119 -116 119 -344v-668h-240v143
q-137 -166 -368 -166zM563 158q132 0 220.5 68.5t88.5 176.5v82q-122 45 -264 45q-129 0 -199.5 -50.5t-70.5 -141.5v-4q0 -83 63.5 -129.5t161.5 -46.5zM276 1294v181h717v-181h-717z" />
    <glyph glyph-name="Abreve" unicode="&#x102;" horiz-adv-x="1699" 
d="M74 0l659 1501h234l657 -1501h-264l-156 362h-717l-155 -362h-258zM580 588h532l-266 614zM850 1632q-156 0 -253.5 74t-109.5 207h177q42 -107 186 -107t186 107h176q-12 -133 -109 -207t-253 -74z" />
    <glyph glyph-name="abreve" unicode="&#x103;" horiz-adv-x="1263" 
d="M498 -23q-109 0 -199 39.5t-146.5 119.5t-56.5 188v4q0 175 126.5 267.5t338.5 92.5q174 0 307 -47v29q0 123 -72.5 187.5t-211.5 64.5q-91 0 -164.5 -17t-159.5 -53l-65 192q103 46 200 69.5t221 23.5q246 0 371 -125q119 -116 119 -344v-668h-240v143
q-137 -166 -368 -166zM563 158q132 0 220.5 68.5t88.5 176.5v82q-122 45 -264 45q-129 0 -199.5 -50.5t-70.5 -141.5v-4q0 -83 63.5 -129.5t161.5 -46.5zM635 1264q-156 0 -252.5 79.5t-106.5 223.5h170q41 -131 189 -131q147 0 188 131h172q-12 -145 -108 -224t-252 -79z
" />
    <glyph glyph-name="Aogonek" unicode="&#x104;" horiz-adv-x="1699" 
d="M1642 -229v-121q-46 -4 -63 -4q-134 4 -206.5 52.5t-72.5 127.5q0 85 86 174h-26l-156 362h-717l-155 -362h-258l659 1501h234l657 -1501h-61q-74 -69 -74 -137q0 -92 153 -92zM580 588h532l-266 614z" />
    <glyph glyph-name="aogonek" unicode="&#x105;" horiz-adv-x="1263" 
d="M1124 -229v-121q-46 -4 -63 -4q-134 4 -206.5 52.5t-72.5 127.5q0 85 86 174h-2v143q-137 -166 -368 -166q-109 0 -199 39.5t-146.5 119.5t-56.5 188v4q0 175 126.5 267.5t338.5 92.5q174 0 307 -47v29q0 123 -72.5 187.5t-211.5 64.5q-91 0 -164.5 -17t-159.5 -53
l-65 192q103 46 200 69.5t221 23.5q246 0 371 -125q119 -116 119 -344v-668h-62q-73 -68 -73 -137q0 -92 153 -92zM563 158q132 0 220.5 68.5t88.5 176.5v82q-122 45 -264 45q-129 0 -199.5 -50.5t-70.5 -141.5v-4q0 -83 63.5 -129.5t161.5 -46.5z" />
    <glyph glyph-name="Cacute" unicode="&#x106;" horiz-adv-x="1591" 
d="M893 -25q-160 0 -301 60t-241 162.5t-158 244t-58 299.5v4q0 158 57.5 300t157.5 245.5t244 164.5t309 61q193 0 329.5 -59.5t254.5 -172.5l-164 -186q-97 92 -197.5 139t-224.5 47q-142 0 -257.5 -71.5t-180 -193.5t-64.5 -269v-5q0 -227 143.5 -382.5t358.5 -155.5
q132 0 231 47.5t203 146.5l162 -163q-87 -87 -166 -141t-190.5 -88t-247.5 -34zM780 1636l236 306l225 -101l-268 -205h-193z" />
    <glyph glyph-name="cacute" unicode="&#x107;" horiz-adv-x="1232" 
d="M582 1268l219 344l225 -103l-258 -241h-186zM690 -25q-163 0 -296.5 78.5t-208 211.5t-74.5 290v4q0 158 74.5 292t208.5 214t298 80q149 0 256.5 -50.5t192.5 -144.5l-156 -166q-68 71 -136 108.5t-159 37.5q-143 0 -238.5 -106.5t-95.5 -260.5v-4q0 -156 98 -262.5
t248 -106.5q87 0 157.5 36.5t139.5 105.5l150 -146q-94 -102 -201 -156.5t-258 -54.5z" />
    <glyph glyph-name="Cdotaccent" unicode="&#x10a;" horiz-adv-x="1591" 
d="M748 1636v232h266v-232h-266zM893 -25q-160 0 -301 60t-241 162.5t-158 244t-58 299.5v4q0 158 57.5 300t157.5 245.5t244 164.5t309 61q193 0 329.5 -59.5t254.5 -172.5l-164 -186q-97 92 -197.5 139t-224.5 47q-142 0 -257.5 -71.5t-180 -193.5t-64.5 -269v-5
q0 -227 143.5 -382.5t358.5 -155.5q132 0 231 47.5t203 146.5l162 -163q-87 -87 -166 -141t-190.5 -88t-247.5 -34z" />
    <glyph glyph-name="cdotaccent" unicode="&#x10b;" horiz-adv-x="1232" 
d="M690 -25q-163 0 -296.5 78.5t-208 211.5t-74.5 290v4q0 158 74.5 292t208.5 214t298 80q149 0 256.5 -50.5t192.5 -144.5l-156 -166q-68 71 -136 108.5t-159 37.5q-143 0 -238.5 -106.5t-95.5 -260.5v-4q0 -156 98 -262.5t248 -106.5q87 0 157.5 36.5t139.5 105.5
l150 -146q-94 -102 -201 -156.5t-258 -54.5zM549 1268v248h262v-248h-262z" />
    <glyph glyph-name="Ccaron" unicode="&#x10c;" horiz-adv-x="1591" 
d="M893 -25q-160 0 -301 60t-241 162.5t-158 244t-58 299.5v4q0 158 57.5 300t157.5 245.5t244 164.5t309 61q193 0 329.5 -59.5t254.5 -172.5l-164 -186q-97 92 -197.5 139t-224.5 47q-142 0 -257.5 -71.5t-180 -193.5t-64.5 -269v-5q0 -227 143.5 -382.5t358.5 -155.5
q132 0 231 47.5t203 146.5l162 -163q-87 -87 -166 -141t-190.5 -88t-247.5 -34zM1251 1919l-254 -283h-233l-254 283h209l164 -123l164 123h204z" />
    <glyph glyph-name="ccaron" unicode="&#x10d;" horiz-adv-x="1232" 
d="M1040 1575l-245 -307h-230l-243 307h196l164 -141l164 141h194zM690 -25q-163 0 -296.5 78.5t-208 211.5t-74.5 290v4q0 158 74.5 292t208.5 214t298 80q149 0 256.5 -50.5t192.5 -144.5l-156 -166q-68 71 -136 108.5t-159 37.5q-143 0 -238.5 -106.5t-95.5 -260.5v-4
q0 -156 98 -262.5t248 -106.5q87 0 157.5 36.5t139.5 105.5l150 -146q-94 -102 -201 -156.5t-258 -54.5z" />
    <glyph glyph-name="Dcaron" unicode="&#x10e;" horiz-adv-x="1681" 
d="M1182 1898l-254 -282h-234l-254 282h209l164 -122l164 122h205zM203 0v1491h551q172 0 320 -57t251.5 -155.5t162 -235.5t58.5 -293v-5q0 -156 -58.5 -293.5t-161.5 -237t-251.5 -157t-320.5 -57.5h-551zM754 1264h-299v-1037h299q236 0 382 145t146 369v4
q0 110 -38 205.5t-106 165t-167.5 109t-216.5 39.5z" />
    <glyph glyph-name="dcaron" unicode="&#x10f;" horiz-adv-x="1443" 
d="M1393 1159l26 400h197v-9l-119 -391h-104zM637 -23q-100 0 -193 39.5t-166.5 111.5t-118 184t-44.5 247v4q0 135 43.5 247t117 184t167 111.5t194.5 39.5q235 0 387 -201v610h248v-1554h-248v193q-146 -216 -387 -216zM694 190q138 0 237 104t99 265v4q0 161 -99 265
t-237 104q-139 0 -234 -101.5t-95 -267.5v-4q0 -162 96 -265.5t233 -103.5z" />
    <glyph glyph-name="Dcroat" unicode="&#x110;" horiz-adv-x="1744" 
d="M266 0v659h-160v183h160v649h551q229 0 411 -97.5t282 -266.5t100 -377v-5q0 -208 -100 -378t-282 -268.5t-411 -98.5h-551zM899 659h-381v-432h299q237 0 384 145t147 369v4q0 224 -147.5 371.5t-383.5 147.5h-299v-422h381v-183z" />
    <glyph glyph-name="dcroat" unicode="&#x111;" horiz-adv-x="1443" 
d="M672 1282v152h352v120h248v-120h145v-152h-145v-1282h-248v193q-146 -216 -387 -216q-100 0 -193 39.5t-166.5 111.5t-118 184t-44.5 247v4q0 135 43.5 247t117 184t167 111.5t194.5 39.5q235 0 387 -201v338h-352zM694 190q138 0 237 104t99 265v4q0 161 -99 265
t-237 104q-139 0 -234 -101.5t-95 -267.5v-4q0 -162 96 -265.5t233 -103.5z" />
    <glyph glyph-name="Emacron" unicode="&#x112;" horiz-adv-x="1443" 
d="M379 1642v185h758v-185h-758zM203 0v1491h1102v-225h-852v-402h755v-225h-755v-414h862v-225h-1112z" />
    <glyph glyph-name="emacron" unicode="&#x113;" horiz-adv-x="1300" 
d="M684 -25q-161 0 -291.5 72.5t-206 206t-75.5 303.5v4q0 120 41 227t112 186t173.5 125t219.5 46q104 0 191.5 -31.5t150 -87t106.5 -131.5t65.5 -165t21.5 -187q0 -45 -2 -70h-832q20 -140 109.5 -217.5t220.5 -77.5q95 0 167.5 33t141.5 102l148 -129
q-177 -209 -461 -209zM354 637h594q-12 134 -90 219.5t-203 85.5q-121 0 -201.5 -84t-99.5 -221zM295 1294v181h717v-181h-717z" />
    <glyph glyph-name="Ebreve" unicode="&#x114;" horiz-adv-x="1443" 
d="M758 1612q-156 0 -253.5 73.5t-109.5 206.5h176q42 -106 187 -106q144 0 186 106h176q-12 -133 -109 -206.5t-253 -73.5zM203 0v1491h1102v-225h-852v-402h755v-225h-755v-414h862v-225h-1112z" />
    <glyph glyph-name="ebreve" unicode="&#x115;" horiz-adv-x="1300" 
d="M684 -25q-161 0 -291.5 72.5t-206 206t-75.5 303.5v4q0 120 41 227t112 186t173.5 125t219.5 46q104 0 191.5 -31.5t150 -87t106.5 -131.5t65.5 -165t21.5 -187q0 -45 -2 -70h-832q20 -140 109.5 -217.5t220.5 -77.5q95 0 167.5 33t141.5 102l148 -129
q-177 -209 -461 -209zM354 637h594q-12 134 -90 219.5t-203 85.5q-121 0 -201.5 -84t-99.5 -221zM653 1264q-156 0 -252 79.5t-106 223.5h170q41 -131 188 -131q148 0 189 131h172q-12 -144 -108.5 -223.5t-252.5 -79.5z" />
    <glyph glyph-name="Edotaccent" unicode="&#x116;" horiz-adv-x="1443" 
d="M625 1616v231h266v-231h-266zM203 0v1491h1102v-225h-852v-402h755v-225h-755v-414h862v-225h-1112z" />
    <glyph glyph-name="edotaccent" unicode="&#x117;" horiz-adv-x="1300" 
d="M684 -25q-161 0 -291.5 72.5t-206 206t-75.5 303.5v4q0 120 41 227t112 186t173.5 125t219.5 46q104 0 191.5 -31.5t150 -87t106.5 -131.5t65.5 -165t21.5 -187q0 -45 -2 -70h-832q20 -140 109.5 -217.5t220.5 -77.5q95 0 167.5 33t141.5 102l148 -129
q-177 -209 -461 -209zM354 637h594q-12 134 -90 219.5t-203 85.5q-121 0 -201.5 -84t-99.5 -221zM522 1268v248h262v-248h-262z" />
    <glyph glyph-name="Eogonek" unicode="&#x118;" horiz-adv-x="1443" 
d="M203 0v1491h1102v-225h-852v-402h755v-225h-755v-414h862v-225h-80q-74 -69 -74 -137q0 -92 154 -92v-121q-46 -4 -64 -4q-134 4 -206 52.5t-72 127.5q0 85 86 174h-856z" />
    <glyph glyph-name="eogonek" unicode="&#x119;" horiz-adv-x="1300" 
d="M354 637h594q-12 134 -90 219.5t-203 85.5q-121 0 -201.5 -84t-99.5 -221zM997 313l148 -129q-48 -52 -123 -121q-123 -109 -123 -188q0 -53 38.5 -77.5t117.5 -26.5v-121q-46 -4 -64 -4q-134 4 -206 51.5t-72 124.5q0 79 71 162q-46 -9 -100 -9q-161 0 -291.5 72.5
t-206 206t-75.5 303.5v4q0 120 41 227t112 186t173.5 125t219.5 46q104 0 191.5 -31.5t150 -87t106.5 -131.5t65.5 -165t21.5 -187q0 -45 -2 -70h-832q20 -140 109.5 -217.5t220.5 -77.5q95 0 167.5 33t141.5 102z" />
    <glyph glyph-name="Ecaron" unicode="&#x11a;" horiz-adv-x="1443" 
d="M1128 1898l-254 -282h-233l-254 282h209l164 -122l164 122h204zM203 0v1491h1102v-225h-852v-402h755v-225h-755v-414h862v-225h-1112z" />
    <glyph glyph-name="ecaron" unicode="&#x11b;" horiz-adv-x="1300" 
d="M1014 1575l-246 -307h-229l-244 307h197l163 -141l164 141h195zM684 -25q-161 0 -291.5 72.5t-206 206t-75.5 303.5v4q0 120 41 227t112 186t173.5 125t219.5 46q104 0 191.5 -31.5t150 -87t106.5 -131.5t65.5 -165t21.5 -187q0 -45 -2 -70h-832q20 -140 109.5 -217.5
t220.5 -77.5q95 0 167.5 33t141.5 102l148 -129q-177 -209 -461 -209zM354 637h594q-12 134 -90 219.5t-203 85.5q-121 0 -201.5 -84t-99.5 -221z" />
    <glyph glyph-name="Gbreve" unicode="&#x11e;" horiz-adv-x="1685" 
d="M885 1632q-156 0 -253.5 74t-109.5 207h176q42 -107 187 -107q144 0 186 107h176q-12 -133 -109 -207t-253 -74zM907 -25q-229 0 -406 101t-271.5 275t-94.5 390v4q0 155 57 296.5t156.5 246t243.5 166.5t309 62q187 0 319.5 -49.5t254.5 -151.5l-160 -191
q-96 81 -192 120.5t-230 39.5q-139 0 -253 -73t-177.5 -195t-63.5 -266v-5q0 -155 63.5 -278t181.5 -193.5t271 -70.5q221 0 369 116v289h-389v221h633v-622q-120 -105 -278 -168.5t-343 -63.5z" />
    <glyph glyph-name="gbreve" unicode="&#x11f;" horiz-adv-x="1443" 
d="M672 -344q-278 0 -504 135l94 186q184 -120 404 -120q174 0 267 89t93 261v90q-157 -207 -399 -207q-100 0 -192 36.5t-163.5 102t-114 166t-42.5 219.5v4q0 121 43 222t115 166.5t163.5 102t190.5 36.5q235 0 397 -195v172h248v-895q0 -278 -144 -422
q-149 -149 -456 -149zM690 299q140 0 240 89t100 226v4q0 139 -100 228.5t-240 89.5q-137 0 -231 -88t-94 -227v-5q0 -139 94 -228t231 -89zM733 1264q-156 0 -252 79.5t-106 223.5h170q41 -131 188 -131q148 0 189 131h172q-12 -144 -108.5 -223.5t-252.5 -79.5z" />
    <glyph glyph-name="Gdotaccent" unicode="&#x120;" horiz-adv-x="1685" 
d="M752 1636v232h266v-232h-266zM907 -25q-229 0 -406 101t-271.5 275t-94.5 390v4q0 155 57 296.5t156.5 246t243.5 166.5t309 62q187 0 319.5 -49.5t254.5 -151.5l-160 -191q-96 81 -192 120.5t-230 39.5q-139 0 -253 -73t-177.5 -195t-63.5 -266v-5q0 -155 63.5 -278
t181.5 -193.5t271 -70.5q221 0 369 116v289h-389v221h633v-622q-120 -105 -278 -168.5t-343 -63.5z" />
    <glyph glyph-name="gdotaccent" unicode="&#x121;" horiz-adv-x="1443" 
d="M672 -344q-278 0 -504 135l94 186q184 -120 404 -120q174 0 267 89t93 261v90q-157 -207 -399 -207q-100 0 -192 36.5t-163.5 102t-114 166t-42.5 219.5v4q0 121 43 222t115 166.5t163.5 102t190.5 36.5q235 0 397 -195v172h248v-895q0 -278 -144 -422
q-149 -149 -456 -149zM690 299q140 0 240 89t100 226v4q0 139 -100 228.5t-240 89.5q-137 0 -231 -88t-94 -227v-5q0 -139 94 -228t231 -89zM602 1268v248h262v-248h-262z" />
    <glyph glyph-name="Gcommaaccent" unicode="&#x122;" horiz-adv-x="1685" 
d="M907 -25q-229 0 -406 101t-271.5 275t-94.5 390v4q0 155 57 296.5t156.5 246t243.5 166.5t309 62q187 0 319.5 -49.5t254.5 -151.5l-160 -191q-96 81 -192 120.5t-230 39.5q-139 0 -253 -73t-177.5 -195t-63.5 -266v-5q0 -155 63.5 -278t181.5 -193.5t271 -70.5
q221 0 369 116v289h-389v221h633v-622q-120 -105 -278 -168.5t-343 -63.5zM743 -575l-16 81q156 18 147 142h-112v211h246v-181q0 -126 -66.5 -186.5t-198.5 -66.5z" />
    <glyph glyph-name="gcommaaccent" unicode="&#x123;" horiz-adv-x="1443" 
d="M672 -344q-278 0 -504 135l94 186q184 -120 404 -120q174 0 267 89t93 261v90q-157 -207 -399 -207q-100 0 -192 36.5t-163.5 102t-114 166t-42.5 219.5v4q0 121 43 222t115 166.5t163.5 102t190.5 36.5q235 0 397 -195v172h248v-895q0 -278 -144 -422
q-149 -149 -456 -149zM690 299q140 0 240 89t100 226v4q0 139 -100 228.5t-240 89.5q-137 0 -231 -88t-94 -227v-5q0 -139 94 -228t231 -89zM870 1702l17 -82q-157 -18 -148 -141h113v-211h-246v180q0 126 66 187t198 67z" />
    <glyph glyph-name="Hbar" unicode="&#x126;" horiz-adv-x="1679" 
d="M72 1087v181h153v223h252v-223h727v223h252v-223h152v-181h-152v-1087h-252v631h-727v-631h-252v1087h-153zM477 862h727v230h-727v-230z" />
    <glyph glyph-name="hbar" unicode="&#x127;" horiz-adv-x="1335" 
d="M772 1282h-354v-336q135 199 356 199q189 0 296.5 -117t107.5 -315v-713h-248v639q0 135 -64.5 208t-183.5 73t-191.5 -76t-72.5 -209v-635h-246v1282h-147v152h147v120h246v-120h354v-152z" />
    <glyph glyph-name="Imacron" unicode="&#x12a;" horiz-adv-x="686" 
d="M217 0v1491h252v-1491h-252zM-35 1642v185h758v-185h-758z" />
    <glyph glyph-name="imacron" unicode="&#x12b;" horiz-adv-x="620" 
d="M186 0v1122h248v-1122h-248zM-47 1294v181h717v-181h-717z" />
    <glyph glyph-name="Ibreve" unicode="&#x12c;" horiz-adv-x="686" 
d="M217 0v1491h252v-1491h-252zM344 1612q-156 0 -253 73.5t-109 206.5h176q42 -106 186 -106t186 106h177q-12 -133 -109.5 -206.5t-253.5 -73.5z" />
    <glyph glyph-name="ibreve" unicode="&#x12d;" horiz-adv-x="620" 
d="M186 0v1122h248v-1122h-248zM311 1264q-156 0 -252 79.5t-106 223.5h170q41 -131 188 -131q148 0 189 131h172q-12 -144 -108.5 -223.5t-252.5 -79.5z" />
    <glyph glyph-name="Iogonek" unicode="&#x12e;" horiz-adv-x="686" 
d="M217 0v1491h252v-1491h-45q-74 -69 -74 -137q0 -92 154 -92v-121q-46 -4 -64 -4q-134 4 -206 52.5t-72 127.5q0 85 86 174h-31z" />
    <glyph glyph-name="iogonek" unicode="&#x12f;" horiz-adv-x="620" 
d="M186 0v1122h248v-1122h-43q-74 -69 -74 -137q0 -92 154 -92v-121q-46 -4 -63 -4q-134 4 -206.5 52.5t-72.5 127.5q0 85 86 174h-29zM176 1303v237h268v-237h-268z" />
    <glyph glyph-name="Idotaccent" unicode="&#x130;" horiz-adv-x="686" 
d="M217 0v1491h252v-1491h-252zM211 1616v231h266v-231h-266z" />
    <glyph glyph-name="dotlessi" unicode="&#x131;" horiz-adv-x="620" 
d="M186 0v1122h248v-1122h-248z" />
    <glyph glyph-name="Kcommaaccent" unicode="&#x136;" horiz-adv-x="1560" 
d="M203 0v1491h252v-766l723 766h313l-623 -641l650 -850h-308l-514 676l-241 -248v-428h-252zM643 -561l-16 82q156 18 147 141h-112v211h245v-180q0 -126 -66 -187t-198 -67z" />
    <glyph glyph-name="kcommaaccent" unicode="&#x137;" horiz-adv-x="1253" 
d="M512 -571l-16 82q156 18 147 141h-113v211h246v-180q0 -126 -66 -187t-198 -67zM172 0v1554h246v-946l483 514h299l-448 -460l465 -662h-291l-340 489l-168 -172v-317h-246z" />
    <glyph glyph-name="Lacute" unicode="&#x139;" horiz-adv-x="1331" 
d="M264 1616l236 305l225 -100l-268 -205h-193zM203 0v1491h252v-1262h788v-229h-1040z" />
    <glyph glyph-name="lacute" unicode="&#x13a;" horiz-adv-x="620" 
d="M217 1655l236 305l225 -100l-268 -205h-193zM186 0v1554h248v-1554h-248z" />
    <glyph glyph-name="Lcommaaccent" unicode="&#x13b;" horiz-adv-x="1331" 
d="M203 0v1491h252v-1262h788v-229h-1040zM578 -571l-17 82q157 18 148 141h-113v211h246v-180q0 -126 -66 -187t-198 -67z" />
    <glyph glyph-name="lcommaaccent" unicode="&#x13c;" horiz-adv-x="620" 
d="M170 -571l-16 82q156 18 147 141h-113v211h246v-180q0 -126 -66 -187t-198 -67zM186 0v1554h248v-1554h-248z" />
    <glyph glyph-name="Lcaron" unicode="&#x13d;" horiz-adv-x="1331" 
d="M203 0v1491h252v-1262h788v-229h-1040zM625 1094l26 399h197v-8l-119 -391h-104z" />
    <glyph glyph-name="lcaron" unicode="&#x13e;" horiz-adv-x="620" 
d="M555 1159l27 400h196v-9l-119 -391h-104zM186 0v1554h248v-1554h-248z" />
    <glyph glyph-name="Ldot" unicode="&#x13f;" horiz-adv-x="1331" 
d="M889 676v248h254v-248h-254zM203 0v1491h252v-1262h788v-229h-1040z" />
    <glyph glyph-name="ldot" unicode="&#x140;" horiz-adv-x="788" 
d="M588 680v233h219v-233h-219zM186 0v1554h248v-1554h-248z" />
    <glyph glyph-name="Lslash" unicode="&#x141;" horiz-adv-x="1394" 
d="M862 825l-348 -157v-439h793v-229h-1041v557l-160 -72v238l160 72v696h248v-584l348 158v-240z" />
    <glyph glyph-name="lslash" unicode="&#x142;" horiz-adv-x="747" 
d="M657 817l-161 -84v-733h-244v608l-162 -82v238l162 82v708h244v-583l161 84v-238z" />
    <glyph glyph-name="Nacute" unicode="&#x143;" horiz-adv-x="1699" 
d="M750 1614l235 305l225 -100l-268 -205h-192zM203 0v1491h231l815 -1051v1051h248v-1491h-211l-835 1079v-1079h-248z" />
    <glyph glyph-name="nacute" unicode="&#x144;" horiz-adv-x="1335" 
d="M575 1268l220 344l225 -103l-258 -241h-187zM172 0v1122h246v-176q135 199 356 199q189 0 296.5 -117t107.5 -315v-713h-248v639q0 135 -64.5 208t-183.5 73t-191.5 -76t-72.5 -209v-635h-246z" />
    <glyph glyph-name="Ncommaaccent" unicode="&#x145;" horiz-adv-x="1699" 
d="M707 -561l-17 82q157 18 148 141h-113v211h246v-180q0 -126 -66 -187t-198 -67zM203 0v1491h231l815 -1051v1051h248v-1491h-211l-835 1079v-1079h-248z" />
    <glyph glyph-name="ncommaaccent" unicode="&#x146;" horiz-adv-x="1335" 
d="M530 -571l-16 82q157 18 148 141h-113v211h246v-180q0 -126 -66.5 -187t-198.5 -67zM172 0v1122h246v-176q135 199 356 199q189 0 296.5 -117t107.5 -315v-713h-248v639q0 135 -64.5 208t-183.5 73t-191.5 -76t-72.5 -209v-635h-246z" />
    <glyph glyph-name="Ncaron" unicode="&#x147;" horiz-adv-x="1699" 
d="M1221 1896l-254 -282h-234l-254 282h209l164 -122l164 122h205zM203 0v1491h231l815 -1051v1051h248v-1491h-211l-835 1079v-1079h-248z" />
    <glyph glyph-name="ncaron" unicode="&#x148;" horiz-adv-x="1335" 
d="M1034 1575l-246 -307h-229l-244 307h197l164 -141l164 141h194zM172 0v1122h246v-176q135 199 356 199q189 0 296.5 -117t107.5 -315v-713h-248v639q0 135 -64.5 208t-183.5 73t-191.5 -76t-72.5 -209v-635h-246z" />
    <glyph glyph-name="Omacron" unicode="&#x14c;" horiz-adv-x="1826" 
d="M535 1663v184h757v-184h-757zM911 -25q-223 0 -402 104t-276.5 278.5t-97.5 383.5v4q0 155 58 296.5t159 246t248 166.5t315 62q167 0 313.5 -61.5t247 -165.5t158.5 -244t58 -295v-5q0 -155 -58 -296t-159.5 -245.5t-248.5 -166.5t-315 -62zM915 207q147 0 265 72
t182.5 193.5t64.5 268.5v4q0 147 -65 270t-184 196t-267 73q-147 0 -265 -72t-182.5 -193.5t-64.5 -268.5v-5q0 -147 65 -269.5t184 -195.5t267 -73z" />
    <glyph glyph-name="omacron" unicode="&#x14d;" horiz-adv-x="1413" 
d="M348 1294v181h717v-181h-717zM705 -25q-126 0 -237 46t-189 124t-123 185t-45 225v4q0 157 77 291.5t215 214.5t306 80q126 0 237 -46.5t189 -125t123 -185.5t45 -225v-4q0 -118 -45.5 -225.5t-124 -186.5t-190.5 -125.5t-238 -46.5zM709 190q155 0 251.5 106t96.5 259v4
q0 153 -100.5 262t-251.5 109q-154 0 -251.5 -107.5t-97.5 -259.5v-4q0 -153 100.5 -261t252.5 -108z" />
    <glyph glyph-name="Obreve" unicode="&#x14e;" horiz-adv-x="1826" 
d="M913 1632q-156 0 -253 74t-109 207h176q42 -107 186 -107q145 0 187 107h176q-12 -133 -109.5 -207t-253.5 -74zM911 -25q-223 0 -402 104t-276.5 278.5t-97.5 383.5v4q0 155 58 296.5t159 246t248 166.5t315 62q167 0 313.5 -61.5t247 -165.5t158.5 -244t58 -295v-5
q0 -155 -58 -296t-159.5 -245.5t-248.5 -166.5t-315 -62zM915 207q147 0 265 72t182.5 193.5t64.5 268.5v4q0 147 -65 270t-184 196t-267 73q-147 0 -265 -72t-182.5 -193.5t-64.5 -268.5v-5q0 -147 65 -269.5t184 -195.5t267 -73z" />
    <glyph glyph-name="obreve" unicode="&#x14f;" horiz-adv-x="1413" 
d="M705 -25q-126 0 -237 46t-189 124t-123 185t-45 225v4q0 157 77 291.5t215 214.5t306 80q126 0 237 -46.5t189 -125t123 -185.5t45 -225v-4q0 -118 -45.5 -225.5t-124 -186.5t-190.5 -125.5t-238 -46.5zM709 190q155 0 251.5 106t96.5 259v4q0 153 -100.5 262t-251.5 109
q-154 0 -251.5 -107.5t-97.5 -259.5v-4q0 -153 100.5 -261t252.5 -108zM707 1264q-156 0 -252.5 79.5t-106.5 223.5h170q41 -131 189 -131q147 0 188 131h172q-12 -145 -108 -224t-252 -79z" />
    <glyph glyph-name="Ohungarumlaut" unicode="&#x150;" horiz-adv-x="1826" 
d="M911 -25q-223 0 -402 104t-276.5 278.5t-97.5 383.5v4q0 155 58 296.5t159 246t248 166.5t315 62q167 0 313.5 -61.5t247 -165.5t158.5 -244t58 -295v-5q0 -155 -58 -296t-159.5 -245.5t-248.5 -166.5t-315 -62zM915 207q147 0 265 72t182.5 193.5t64.5 268.5v4
q0 147 -65 270t-184 196t-267 73q-147 0 -265 -72t-182.5 -193.5t-64.5 -268.5v-5q0 -147 65 -269.5t184 -195.5t267 -73zM612 1636l236 306l219 -101l-268 -205h-187zM979 1636l238 306l217 -101l-269 -205h-186z" />
    <glyph glyph-name="ohungarumlaut" unicode="&#x151;" horiz-adv-x="1413" 
d="M774 1268l219 344l219 -101l-258 -243h-180zM416 1268l217 344l219 -101l-256 -243h-180zM705 -25q-126 0 -237 46t-189 124t-123 185t-45 225v4q0 157 77 291.5t215 214.5t306 80q126 0 237 -46.5t189 -125t123 -185.5t45 -225v-4q0 -118 -45.5 -225.5t-124 -186.5
t-190.5 -125.5t-238 -46.5zM709 190q155 0 251.5 106t96.5 259v4q0 153 -100.5 262t-251.5 109q-154 0 -251.5 -107.5t-97.5 -259.5v-4q0 -153 100.5 -261t252.5 -108z" />
    <glyph glyph-name="OE" unicode="&#x152;" horiz-adv-x="2363" 
d="M2234 0h-1306q-229 0 -411 97.5t-282 266.5t-100 377v4q0 156 59 293.5t162 237t251.5 157.5t320.5 58h1296v-225h-805v-402h709v-225h-709v-414h815v-225zM928 227h239v1037h-239q-237 0 -383 -145t-146 -369v-5q0 -224 146.5 -371t382.5 -147z" />
    <glyph glyph-name="oe" unicode="&#x153;" horiz-adv-x="2232" 
d="M690 -25q-158 0 -291.5 78t-210.5 211.5t-77 290.5v4q0 157 77 291.5t213 214.5t299 80q145 0 263 -64.5t192 -175.5q70 112 183 176t251 64q129 0 232.5 -48t169 -131.5t100.5 -191.5t35 -231q0 -20 -4 -70h-832q20 -140 110 -217.5t220 -77.5q95 0 168 33t143 102
l146 -129q-177 -209 -459 -209q-148 0 -270 63.5t-195 178.5q-75 -113 -196 -177.5t-267 -64.5zM1288 637h592q-13 135 -89.5 220t-203.5 85q-120 0 -201 -84t-98 -221zM702 190q150 0 245 106t95 259v4q0 154 -98 262.5t-248 108.5t-245 -107.5t-95 -259.5v-4
q0 -153 98 -261t248 -108z" />
    <glyph glyph-name="Racute" unicode="&#x154;" horiz-adv-x="1556" 
d="M203 0v1491h661q280 0 430 -150q121 -121 121 -319v-4q0 -178 -96.5 -291t-263.5 -158l409 -569h-299l-372 526h-338v-526h-252zM455 750h391q143 0 229 69.5t86 186.5v4q0 122 -83.5 188t-233.5 66h-389v-514zM657 1616l236 305l225 -100l-268 -205h-193z" />
    <glyph glyph-name="racute" unicode="&#x155;" horiz-adv-x="892" 
d="M385 1268l219 344l225 -103l-258 -241h-186zM172 0v1122h246v-258q58 136 160 210.5t245 68.5v-260h-14q-178 0 -284.5 -117t-106.5 -336v-430h-246z" />
    <glyph glyph-name="Rcommaaccent" unicode="&#x156;" horiz-adv-x="1556" 
d="M203 0v1491h661q280 0 430 -150q121 -121 121 -319v-4q0 -178 -96.5 -291t-263.5 -158l409 -569h-299l-372 526h-338v-526h-252zM455 750h391q143 0 229 69.5t86 186.5v4q0 122 -83.5 188t-233.5 66h-389v-514zM616 -561l-16 82q157 18 148 141h-113v211h246v-180
q0 -126 -66.5 -187t-198.5 -67z" />
    <glyph glyph-name="rcommaaccent" unicode="&#x157;" horiz-adv-x="892" 
d="M170 -571l-16 82q156 18 147 141h-113v211h246v-180q0 -126 -66 -187t-198 -67zM172 0v1122h246v-258q58 136 160 210.5t245 68.5v-260h-14q-178 0 -284.5 -117t-106.5 -336v-430h-246z" />
    <glyph glyph-name="Rcaron" unicode="&#x158;" horiz-adv-x="1556" 
d="M1128 1898l-254 -282h-233l-254 282h209l164 -122l164 122h204zM203 0v1491h661q280 0 430 -150q121 -121 121 -319v-4q0 -178 -96.5 -291t-263.5 -158l409 -569h-299l-372 526h-338v-526h-252zM455 750h391q143 0 229 69.5t86 186.5v4q0 122 -83.5 188t-233.5 66h-389
v-514z" />
    <glyph glyph-name="rcaron" unicode="&#x159;" horiz-adv-x="892" 
d="M846 1575l-246 -307h-229l-244 307h197l163 -141l164 141h195zM172 0v1122h246v-258q58 136 160 210.5t245 68.5v-260h-14q-178 0 -284.5 -117t-106.5 -336v-430h-246z" />
    <glyph glyph-name="Sacute" unicode="&#x15a;" horiz-adv-x="1380" 
d="M723 -20q-358 0 -621 237l152 180q114 -98 226.5 -146t248.5 -48q124 0 198 53t74 141v4q0 56 -27 94t-102 72.5t-213 67.5q-129 31 -215 64t-153 84t-98 123.5t-31 172.5v4q0 189 142 308.5t364 119.5q162 0 292 -46t248 -140l-137 -190q-199 153 -407 153
q-116 0 -184 -51t-68 -131v-4q0 -62 29.5 -102t107.5 -73.5t225 -66.5q248 -59 362.5 -157.5t114.5 -276.5v-4q0 -204 -146 -323t-382 -119zM600 1636l236 306l225 -101l-268 -205h-193z" />
    <glyph glyph-name="sacute" unicode="&#x15b;" 
d="M451 1268l219 344l225 -103l-258 -241h-186zM555 -20q-126 0 -250 41.5t-225 123.5l113 168q190 -139 370 -139q86 0 133 34.5t47 94.5v4q0 17 -6 31.5t-14.5 26t-25.5 22.5t-30.5 18.5t-39 17t-42 15t-48 15.5t-48.5 16q-42 13 -72 22.5t-69.5 26.5t-67 34t-56.5 42
t-46.5 53.5t-29 67t-11.5 82.5v4q0 155 112.5 247.5t282.5 92.5q106 0 215 -33.5t197 -93.5l-98 -176q-175 106 -318 106q-76 0 -119.5 -32.5t-43.5 -84.5v-4q0 -20 8.5 -37.5t28 -32.5t39 -26.5t54 -24.5t59 -21t67.5 -22q58 -17 100.5 -33.5t92.5 -44.5t82 -60t53.5 -80.5
t21.5 -106.5v-4q0 -170 -115.5 -260t-300.5 -90z" />
    <glyph glyph-name="Scedilla" unicode="&#x15e;" horiz-adv-x="1380" 
d="M659 -350l-217 92l166 246q-292 36 -506 229l152 180q114 -98 226.5 -146t248.5 -48q124 0 198 53t74 141v4q0 56 -27 94t-102 72.5t-213 67.5q-129 31 -215 64t-153 84t-98 123.5t-31 172.5v4q0 189 142 308.5t364 119.5q162 0 292 -46t248 -140l-137 -190
q-199 153 -407 153q-116 0 -184 -51t-68 -131v-4q0 -62 29.5 -102t107.5 -73.5t225 -66.5q248 -59 362.5 -157.5t114.5 -276.5v-4q0 -187 -122 -302t-326 -136z" />
    <glyph glyph-name="scedilla" unicode="&#x15f;" 
d="M483 -350l-217 92l168 248q-210 39 -354 155l113 168q190 -139 370 -139q86 0 133 34.5t47 94.5v4q0 17 -6 31.5t-14.5 26t-25.5 22.5t-30.5 18.5t-39 17t-42 15t-48 15.5t-48.5 16q-42 13 -72 22.5t-69.5 26.5t-67 34t-56.5 42t-46.5 53.5t-29 67t-11.5 82.5v4
q0 155 112.5 247.5t282.5 92.5q106 0 215 -33.5t197 -93.5l-98 -176q-175 106 -318 106q-76 0 -119.5 -32.5t-43.5 -84.5v-4q0 -20 8.5 -37.5t28 -32.5t39 -26.5t54 -24.5t59 -21t67.5 -22q58 -17 100.5 -33.5t92.5 -44.5t82 -60t53.5 -80.5t21.5 -106.5v-4
q0 -151 -94 -239.5t-250 -106.5z" />
    <glyph glyph-name="Scaron" unicode="&#x160;" horiz-adv-x="1380" 
d="M723 -20q-358 0 -621 237l152 180q114 -98 226.5 -146t248.5 -48q124 0 198 53t74 141v4q0 56 -27 94t-102 72.5t-213 67.5q-129 31 -215 64t-153 84t-98 123.5t-31 172.5v4q0 189 142 308.5t364 119.5q162 0 292 -46t248 -140l-137 -190q-199 153 -407 153
q-116 0 -184 -51t-68 -131v-4q0 -62 29.5 -102t107.5 -73.5t225 -66.5q248 -59 362.5 -157.5t114.5 -276.5v-4q0 -204 -146 -323t-382 -119zM1071 1919l-254 -283h-233l-254 283h209l163 -123l164 123h205z" />
    <glyph glyph-name="scaron" unicode="&#x161;" 
d="M907 1575l-245 -307h-230l-244 307h197l164 -141l164 141h194zM555 -20q-126 0 -250 41.5t-225 123.5l113 168q190 -139 370 -139q86 0 133 34.5t47 94.5v4q0 17 -6 31.5t-14.5 26t-25.5 22.5t-30.5 18.5t-39 17t-42 15t-48 15.5t-48.5 16q-42 13 -72 22.5t-69.5 26.5
t-67 34t-56.5 42t-46.5 53.5t-29 67t-11.5 82.5v4q0 155 112.5 247.5t282.5 92.5q106 0 215 -33.5t197 -93.5l-98 -176q-175 106 -318 106q-76 0 -119.5 -32.5t-43.5 -84.5v-4q0 -20 8.5 -37.5t28 -32.5t39 -26.5t54 -24.5t59 -21t67.5 -22q58 -17 100.5 -33.5t92.5 -44.5
t82 -60t53.5 -80.5t21.5 -106.5v-4q0 -170 -115.5 -260t-300.5 -90z" />
    <glyph glyph-name="Tcommaaccent" unicode="&#x162;" horiz-adv-x="1388" 
d="M569 0v1260h-477v231h1204v-231h-475v-1260h-252zM553 -571l-16 82q156 18 147 141h-113v211h246v-180q0 -126 -66 -187t-198 -67z" />
    <glyph glyph-name="Tcommaaccent" unicode="&#x21a;" horiz-adv-x="1388" 
d="M569 0v1260h-477v231h1204v-231h-475v-1260h-252zM553 -571l-16 82q156 18 147 141h-113v211h246v-180q0 -126 -66 -187t-198 -67z" />
    <glyph glyph-name="tcommaaccent" unicode="&#x163;" horiz-adv-x="888" 
d="M344 -571l-16 82q156 18 147 141h-113v211h246v-180q0 -126 -66 -187t-198 -67zM549 -18q-322 0 -322 325v602h-145v213h145v312h246v-312h307v-213h-307v-563q0 -145 143 -145q80 0 160 39v-203q-99 -55 -227 -55z" />
    <glyph glyph-name="tcommaaccent" unicode="&#x21b;" horiz-adv-x="888" 
d="M344 -571l-16 82q156 18 147 141h-113v211h246v-180q0 -126 -66 -187t-198 -67zM549 -18q-322 0 -322 325v602h-145v213h145v312h246v-312h307v-213h-307v-563q0 -145 143 -145q80 0 160 39v-203q-99 -55 -227 -55z" />
    <glyph glyph-name="Tcaron" unicode="&#x164;" horiz-adv-x="1388" 
d="M1065 1898l-254 -282h-233l-254 282h208l164 -122l164 122h205zM569 0v1260h-477v231h1204v-231h-475v-1260h-252z" />
    <glyph glyph-name="tcaron" unicode="&#x165;" horiz-adv-x="888" 
d="M631 1253l26 400h197v-8l-119 -392h-104zM549 -18q-322 0 -322 325v602h-145v213h145v312h246v-312h307v-213h-307v-563q0 -145 143 -145q80 0 160 39v-203q-99 -55 -227 -55z" />
    <glyph glyph-name="Umacron" unicode="&#x16a;" horiz-adv-x="1630" 
d="M436 1640v185h758v-185h-758zM811 -23q-295 0 -464 169t-169 487v858h252v-850q0 -209 101.5 -320.5t285.5 -111.5q181 0 281 107t100 315v860h252v-848q0 -325 -171 -495.5t-468 -170.5z" />
    <glyph glyph-name="umacron" unicode="&#x16b;" horiz-adv-x="1335" 
d="M563 -23q-190 0 -297.5 117t-107.5 316v712h248v-639q0 -134 64.5 -207t182.5 -73q119 0 192 75.5t73 208.5v635h245v-1122h-245v176q-139 -199 -355 -199zM301 1294v181h717v-181h-717z" />
    <glyph glyph-name="Ubreve" unicode="&#x16c;" horiz-adv-x="1630" 
d="M815 1595q-156 0 -253 74t-109 207h176q42 -107 186 -107t186 107h177q-12 -133 -109.5 -207t-253.5 -74zM811 -23q-295 0 -464 169t-169 487v858h252v-850q0 -209 101.5 -320.5t285.5 -111.5q181 0 281 107t100 315v860h252v-848q0 -325 -171 -495.5t-468 -170.5z" />
    <glyph glyph-name="ubreve" unicode="&#x16d;" horiz-adv-x="1335" 
d="M563 -23q-190 0 -297.5 117t-107.5 316v712h248v-639q0 -134 64.5 -207t182.5 -73q119 0 192 75.5t73 208.5v635h245v-1122h-245v176q-139 -199 -355 -199zM659 1264q-156 0 -252 79.5t-106 223.5h170q41 -131 188 -131q148 0 189 131h172q-12 -144 -108.5 -223.5
t-252.5 -79.5z" />
    <glyph glyph-name="Uring" unicode="&#x16e;" horiz-adv-x="1630" 
d="M811 -23q-295 0 -464 169t-169 487v858h252v-850q0 -209 101.5 -320.5t285.5 -111.5q181 0 281 107t100 315v860h252v-848q0 -325 -171 -495.5t-468 -170.5zM815 1569q-103 0 -176.5 63.5t-73.5 159.5t73.5 159.5t176.5 63.5t176.5 -63.5t73.5 -159.5t-73.5 -159.5
t-176.5 -63.5zM815 1667q61 0 99 35t38 90q0 54 -38 88.5t-99 34.5t-99 -34.5t-38 -88.5q0 -55 38 -90t99 -35z" />
    <glyph glyph-name="uring" unicode="&#x16f;" horiz-adv-x="1335" 
d="M659 1237q-101 0 -173 69t-72 167t72 167.5t173 69.5t173.5 -69.5t72.5 -167.5t-72 -167t-174 -69zM659 1329q60 0 102 42t42 102t-42 101.5t-102 41.5t-101.5 -41.5t-41.5 -101.5t41.5 -102t101.5 -42zM563 -23q-190 0 -297.5 117t-107.5 316v712h248v-639
q0 -134 64.5 -207t182.5 -73q119 0 192 75.5t73 208.5v635h245v-1122h-245v176q-139 -199 -355 -199z" />
    <glyph glyph-name="Uhungarumlaut" unicode="&#x170;" horiz-adv-x="1630" 
d="M811 -23q-295 0 -464 169t-169 487v858h252v-850q0 -209 101.5 -320.5t285.5 -111.5q181 0 281 107t100 315v860h252v-848q0 -325 -171 -495.5t-468 -170.5zM514 1614l236 305l219 -100l-269 -205h-186zM881 1614l237 305l217 -100l-268 -205h-186z" />
    <glyph glyph-name="uhungarumlaut" unicode="&#x171;" horiz-adv-x="1335" 
d="M563 -23q-190 0 -297.5 117t-107.5 316v712h248v-639q0 -134 64.5 -207t182.5 -73q119 0 192 75.5t73 208.5v635h245v-1122h-245v176q-139 -199 -355 -199zM727 1268l219 344l219 -101l-258 -243h-180zM369 1268l217 344l219 -101l-256 -243h-180z" />
    <glyph glyph-name="Uogonek" unicode="&#x172;" horiz-adv-x="1630" 
d="M981 -229v-121q-46 -4 -63 -4q-134 4 -206.5 52.5t-72.5 127.5q0 82 70 158q-251 30 -391 194.5t-140 454.5v858h252v-850q0 -209 101.5 -320.5t285.5 -111.5q181 0 281 107t100 315v860h252v-848q0 -306 -150.5 -474.5t-416.5 -186.5q-56 -59 -56 -119q0 -92 154 -92z
" />
    <glyph glyph-name="uogonek" unicode="&#x173;" horiz-adv-x="1335" 
d="M563 -23q-190 0 -297.5 117t-107.5 316v712h248v-639q0 -134 64.5 -207t182.5 -73q119 0 192 75.5t73 208.5v635h245v-1122h-51q-74 -69 -74 -137q0 -92 154 -92v-121q-46 -4 -64 -4q-134 4 -206 52.5t-72 127.5q0 85 86 174h-18v176q-139 -199 -355 -199z" />
    <glyph glyph-name="Wcircumflex" unicode="&#x174;" horiz-adv-x="2392" 
d="M608 -10l-522 1501h272l365 -1120l371 1124h213l370 -1124l365 1120h262l-520 -1501h-217l-371 1087l-373 -1087h-215zM825 1616l254 282h234l254 -282h-209l-164 123l-164 -123h-205z" />
    <glyph glyph-name="wcircumflex" unicode="&#x175;" horiz-adv-x="1849" 
d="M565 1268l244 307h229l246 -307h-199l-163 141l-164 -141h-193zM446 -8l-368 1130h254l233 -784l256 788h209l256 -788l238 784h248l-371 -1130h-219l-256 780l-260 -780h-220z" />
    <glyph glyph-name="Ycircumflex" unicode="&#x176;" horiz-adv-x="1542" 
d="M645 0v588l-596 903h297l426 -670l432 670h289l-596 -897v-594h-252zM399 1614l254 282h234l254 -282h-209l-164 123l-164 -123h-205z" />
    <glyph glyph-name="ycircumflex" unicode="&#x177;" horiz-adv-x="1286" 
d="M657 276l299 846h258l-448 -1153q-70 -173 -153 -245t-218 -72q-137 0 -262 67l84 187q78 -45 154 -45q58 0 95.5 31t72.5 108l-473 1122h264zM287 1268l243 307h230l246 -307h-199l-164 141l-164 -141h-192z" />
    <glyph glyph-name="Ydieresis" unicode="&#x178;" horiz-adv-x="1542" 
d="M645 0v588l-596 903h297l426 -670l432 670h289l-596 -897v-594h-252zM860 1614v231h256v-231h-256zM426 1614v231h258v-231h-258z" />
    <glyph glyph-name="Zacute" unicode="&#x179;" horiz-adv-x="1509" 
d="M145 0v184l891 1086h-860v221h1190v-184l-891 -1086h891v-221h-1221zM670 1616l235 305l225 -100l-268 -205h-192z" />
    <glyph glyph-name="zacute" unicode="&#x17a;" horiz-adv-x="1208" 
d="M512 1268l219 344l225 -103l-258 -241h-186zM121 0v170l657 750h-635v202h951v-170l-658 -749h658v-203h-973z" />
    <glyph glyph-name="Zdotaccent" unicode="&#x17b;" horiz-adv-x="1509" 
d="M637 1616v231h266v-231h-266zM145 0v184l891 1086h-860v221h1190v-184l-891 -1086h891v-221h-1221z" />
    <glyph glyph-name="zdotaccent" unicode="&#x17c;" horiz-adv-x="1208" 
d="M121 0v170l657 750h-635v202h951v-170l-658 -749h658v-203h-973zM479 1268v248h262v-248h-262z" />
    <glyph glyph-name="Zcaron" unicode="&#x17d;" horiz-adv-x="1509" 
d="M1141 1898l-254 -282h-234l-254 282h209l164 -122l164 122h205zM145 0v184l891 1086h-860v221h1190v-184l-891 -1086h891v-221h-1221z" />
    <glyph glyph-name="zcaron" unicode="&#x17e;" horiz-adv-x="1208" 
d="M971 1575l-246 -307h-229l-244 307h197l163 -141l164 141h195zM121 0v170l657 750h-635v202h951v-170l-658 -749h658v-203h-973z" />
    <glyph glyph-name="uni018F" unicode="&#x18f;" horiz-adv-x="1714" 
d="M362 1073l-161 162q240 281 628 281q160 0 299 -56.5t237.5 -156.5t155 -243t56.5 -310v-7q0 -211 -93 -386.5t-260.5 -278.5t-375.5 -103q-138 0 -254.5 41.5t-200 115t-142.5 173.5t-87.5 217t-28.5 246v2q0 22 4 88h1168q-29 196 -158 311t-320 115
q-139 0 -250.5 -51.5t-216.5 -159.5zM848 203q185 0 310.5 121t150.5 317h-906q18 -194 138 -316t307 -122z" />
    <glyph glyph-name="florin" unicode="&#x192;" horiz-adv-x="1136" 
d="M213 -10q-73 0 -117 10v203q36 -8 84 -8q69 0 108 34t52 111l74 422h-174v207h211l38 205q32 167 117.5 247t251.5 80q111 0 193 -24v-207q-80 22 -146 22q-77 0 -118 -39.5t-58 -128.5l-27 -155h275v-207h-311l-84 -457q-30 -168 -118 -241.5t-251 -73.5z" />
    <glyph glyph-name="Aringacute" unicode="&#x1fa;" horiz-adv-x="1699" 
d="M74 0l618 1413q-94 64 -94 176q0 97 73.5 160t178.5 63q103 0 176.5 -63.5t73.5 -159.5q0 -108 -94 -176l618 -1413h-264l-156 362h-717l-155 -362h-258zM580 588h532l-266 614zM850 1464q60 0 98.5 35.5t38.5 89.5t-38.5 88.5t-98.5 34.5q-61 0 -100 -34.5t-39 -88.5
t39 -89.5t100 -35.5zM737 1872l246 270l223 -98l-274 -172h-195z" />
    <glyph glyph-name="aringacute" unicode="&#x1fb;" horiz-adv-x="1263" 
d="M498 -23q-109 0 -199 39.5t-146.5 119.5t-56.5 188v4q0 175 126.5 267.5t338.5 92.5q174 0 307 -47v29q0 123 -72.5 187.5t-211.5 64.5q-91 0 -164.5 -17t-159.5 -53l-65 192q103 46 200 69.5t221 23.5q246 0 371 -125q119 -116 119 -344v-668h-240v143
q-137 -166 -368 -166zM563 158q132 0 220.5 68.5t88.5 176.5v82q-122 45 -264 45q-129 0 -199.5 -50.5t-70.5 -141.5v-4q0 -83 63.5 -129.5t161.5 -46.5zM635 1264q-102 0 -174 68.5t-72 166.5t72.5 168t173.5 70t173.5 -70t72.5 -168t-72 -166.5t-174 -68.5zM635 1356
q60 0 101.5 41.5t41.5 101.5t-41.5 101.5t-101.5 41.5t-101.5 -41.5t-41.5 -101.5t41.5 -101.5t101.5 -41.5zM535 1804l231 291l221 -102l-266 -189h-186z" />
    <glyph glyph-name="AEacute" unicode="&#x1fc;" horiz-adv-x="2242" 
d="M1233 1616l235 305l226 -100l-269 -205h-192zM35 0l839 1491h1229v-225h-807v-402h711v-225h-711v-414h818v-225h-1067v362h-549l-203 -362h-260zM618 588h429v684h-46z" />
    <glyph glyph-name="aeacute" unicode="&#x1fd;" horiz-adv-x="2043" 
d="M918 1268l219 344l225 -103l-258 -241h-186zM518 -23q-180 0 -301 93t-121 254v4q0 175 126 267.5t335 92.5q168 0 301 -47v29q0 123 -71.5 187.5t-206.5 64.5q-151 0 -320 -70l-65 192q104 47 198.5 70t218.5 23q294 0 396 -191q69 95 171 147t228 52t228 -48.5
t167 -131.5t100 -191t35 -231q0 -20 -4 -70h-831q20 -140 110 -217.5t220 -77.5q95 0 168 33t143 102l145 -129q-177 -209 -461 -209q-132 0 -244.5 51t-191.5 144q-218 -193 -473 -193zM1098 637h594q-13 135 -89.5 220t-203.5 85q-121 0 -201.5 -84t-99.5 -221zM559 160
q183 0 342 149q-34 81 -43 178q-127 43 -252 43q-128 0 -198 -50.5t-70 -141.5v-4q0 -78 64 -126t157 -48z" />
    <glyph glyph-name="Oslashacute" unicode="&#x1fe;" horiz-adv-x="1826" 
d="M1460 1501h248l-211 -237q195 -220 195 -514v-5q0 -155 -58 -296t-159.5 -245.5t-248.5 -166.5t-315 -62q-245 0 -440 127l-104 -112h-248l209 237q-93 104 -143 235.5t-50 278.5v4q0 155 58 296.5t159 246t248 166.5t315 62q246 0 441 -130zM395 750v-2q0 -188 103 -332
l700 788q-128 86 -287 86q-148 0 -267 -73.5t-184 -196.5t-65 -270zM915 201q148 0 267.5 73.5t185.5 196.5t66 270v2q0 186 -105 332l-700 -788q125 -86 286 -86zM813 1636l236 306l225 -101l-268 -205h-193z" />
    <glyph glyph-name="oslashacute" unicode="&#x1ff;" horiz-adv-x="1413" 
d="M1108 1135h227l-172 -193q140 -159 140 -379v-4q0 -118 -45.5 -225.5t-124 -186.5t-190.5 -125.5t-238 -46.5q-181 0 -328 91l-72 -76h-227l170 188q-137 162 -137 377v4q0 157 77 291.5t215 214.5t306 80q177 0 325 -92zM709 184q156 0 255 107.5t99 263.5v4
q0 114 -59 209l-480 -535q87 -49 185 -49zM350 563v-2q0 -118 58 -209l481 531q-88 53 -184 53q-156 0 -255.5 -108.5t-99.5 -264.5zM608 1268l219 344l226 -103l-258 -241h-187z" />
    <glyph glyph-name="Scommaaccent" unicode="&#x218;" horiz-adv-x="1380" 
d="M723 -20q-358 0 -621 237l152 180q114 -98 226.5 -146t248.5 -48q124 0 198 53t74 141v4q0 56 -27 94t-102 72.5t-213 67.5q-129 31 -215 64t-153 84t-98 123.5t-31 172.5v4q0 189 142 308.5t364 119.5q162 0 292 -46t248 -140l-137 -190q-199 153 -407 153
q-116 0 -184 -51t-68 -131v-4q0 -62 29.5 -102t107.5 -73.5t225 -66.5q248 -59 362.5 -157.5t114.5 -276.5v-4q0 -204 -146 -323t-382 -119zM559 -575l-16 81q156 18 147 142h-112v211h245v-181q0 -126 -66 -186.5t-198 -66.5z" />
    <glyph glyph-name="scommaaccent" unicode="&#x219;" 
d="M406 -571l-17 82q157 18 148 141h-113v211h246v-180q0 -126 -66 -187t-198 -67zM555 -20q-126 0 -250 41.5t-225 123.5l113 168q190 -139 370 -139q86 0 133 34.5t47 94.5v4q0 17 -6 31.5t-14.5 26t-25.5 22.5t-30.5 18.5t-39 17t-42 15t-48 15.5t-48.5 16
q-42 13 -72 22.5t-69.5 26.5t-67 34t-56.5 42t-46.5 53.5t-29 67t-11.5 82.5v4q0 155 112.5 247.5t282.5 92.5q106 0 215 -33.5t197 -93.5l-98 -176q-175 106 -318 106q-76 0 -119.5 -32.5t-43.5 -84.5v-4q0 -20 8.5 -37.5t28 -32.5t39 -26.5t54 -24.5t59 -21t67.5 -22
q58 -17 100.5 -33.5t92.5 -44.5t82 -60t53.5 -80.5t21.5 -106.5v-4q0 -170 -115.5 -260t-300.5 -90z" />
    <glyph glyph-name="schwa" unicode="&#x259;" horiz-adv-x="1300" 
d="M616 1147q246 0 410 -163t164 -419v-4q0 -160 -69.5 -293.5t-195.5 -212t-282 -78.5q-129 0 -232 48.5t-168 132t-99.5 191.5t-34.5 231q0 44 2 69h831q-20 140 -110 217.5t-220 77.5q-95 0 -167.5 -33t-141.5 -102l-147 129q177 209 460 209zM946 485h-594
q12 -134 90 -219.5t203 -85.5q121 0 201.5 84t99.5 221z" />
    <glyph glyph-name="circumflex" unicode="&#x2c6;" 
d="M182 1268l244 307h229l246 -307h-199l-163 141l-164 -141h-193z" />
    <glyph glyph-name="caron" unicode="&#x2c7;" 
d="M901 1575l-246 -307h-229l-244 307h197l164 -141l164 141h194z" />
    <glyph glyph-name="breve" unicode="&#x2d8;" 
d="M541 1264q-156 0 -252.5 79.5t-106.5 223.5h170q41 -131 189 -131q147 0 188 131h172q-12 -145 -108 -224t-252 -79z" />
    <glyph glyph-name="dotaccent" unicode="&#x2d9;" 
d="M410 1268v248h262v-248h-262z" />
    <glyph glyph-name="ring" unicode="&#x2da;" 
d="M541 1264q-102 0 -174 68.5t-72 166.5t72.5 168t173.5 70t173 -70t72 -168t-71.5 -166.5t-173.5 -68.5zM541 1356q60 0 101.5 41.5t41.5 101.5t-41.5 101.5t-101.5 41.5t-102 -41.5t-42 -101.5t42 -101.5t102 -41.5z" />
    <glyph glyph-name="ogonek" unicode="&#x2db;" 
d="M741 -229v-121q-46 -4 -63 -4q-134 4 -206.5 52.5t-72.5 127.5q0 94 113 201l166 -13q-90 -80 -90 -151q0 -92 153 -92z" />
    <glyph glyph-name="tilde" unicode="&#x2dc;" 
d="M702 1268q-66 0 -174 45q-83 39 -129 39q-45 0 -68 -23t-48 -82l-138 41q37 136 89 198t145 62q66 0 174 -45q83 -39 129 -39q45 0 68.5 23.5t48.5 81.5l137 -41q-37 -136 -89 -198t-145 -62z" />
    <glyph glyph-name="hungarumlaut" unicode="&#x2dd;" 
d="M508 1268l219 344l219 -101l-258 -243h-180zM150 1268l217 344l219 -101l-256 -243h-180z" />
    <glyph glyph-name="commaaccent" unicode="&#x326;" 
d="M399 -571l-16 82q156 18 147 141h-112v211h246v-180q0 -126 -66.5 -187t-198.5 -67z" />
    <glyph glyph-name="uni0384" unicode="&#x384;" 
d="M385 1268l145 358l222 -96l-203 -262h-164z" />
    <glyph glyph-name="uni0385" unicode="&#x385;" 
d="M729 1268v243h227v-243h-227zM125 1268v243h227v-243h-227zM418 1268l90 405l215 -47l-164 -358h-141z" />
    <glyph glyph-name="uni0386" unicode="&#x386;" horiz-adv-x="1699" 
d="M74 0l659 1501h234l657 -1501h-264l-156 362h-717l-155 -362h-258zM580 588h532l-266 614zM145 1077l29 414h248l-146 -414h-131z" />
    <glyph glyph-name="uni0387" unicode="&#x387;" horiz-adv-x="604" 
d="M166 838v284h272v-284h-272z" />
    <glyph glyph-name="uni0388" unicode="&#x388;" horiz-adv-x="1443" 
d="M-170 1077l29 414h247l-145 -414h-131zM203 0v1491h1102v-225h-852v-402h755v-225h-755v-414h862v-225h-1112z" />
    <glyph glyph-name="uni0389" unicode="&#x389;" horiz-adv-x="1634" 
d="M203 0v1491h252v-625h727v625h252v-1491h-252v633h-727v-633h-252zM-170 1077l29 414h247l-145 -414h-131z" />
    <glyph glyph-name="uni038A" unicode="&#x38a;" horiz-adv-x="686" 
d="M217 0v1491h252v-1491h-252zM-164 1077l29 414h248l-146 -414h-131z" />
    <glyph glyph-name="uni038C" unicode="&#x38c;" horiz-adv-x="1826" 
d="M-104 1077l28 414h248l-145 -414h-131zM911 -25q-223 0 -402 104t-276.5 278.5t-97.5 383.5v4q0 155 58 296.5t159 246t248 166.5t315 62q167 0 313.5 -61.5t247 -165.5t158.5 -244t58 -295v-5q0 -155 -58 -296t-159.5 -245.5t-248.5 -166.5t-315 -62zM915 207
q147 0 265 72t182.5 193.5t64.5 268.5v4q0 147 -65 270t-184 196t-267 73q-147 0 -265 -72t-182.5 -193.5t-64.5 -268.5v-5q0 -147 65 -269.5t184 -195.5t267 -73z" />
    <glyph glyph-name="uni038E" unicode="&#x38e;" horiz-adv-x="1542" 
d="M645 0v588l-596 903h297l426 -670l432 670h289l-596 -897v-594h-252zM-274 1077l28 414h248l-145 -414h-131z" />
    <glyph glyph-name="uni038F" unicode="&#x38f;" horiz-adv-x="1867" 
d="M936 1516q172 0 315 -53.5t239 -147t149 -221t53 -275.5v-2q0 -192 -90 -338t-254 -264l385 2v-217h-650v211q80 56 137 108.5t107 122t75 157t25 192.5v2q0 219 -135 355t-360 136q-224 0 -358 -135t-134 -352v-2q0 -131 45 -241t117.5 -189t181.5 -154v-211h-649v217
l383 -2q-163 119 -252.5 265.5t-89.5 338.5v2q0 141 53 267.5t149 221.5t240.5 150.5t317.5 55.5zM-100 1077l28 414h248l-145 -414h-131z" />
    <glyph glyph-name="uni0390" unicode="&#x390;" horiz-adv-x="669" 
d="M498 1268v243h227v-243h-227zM-106 1268v243h227v-243h-227zM186 1268l90 405l216 -47l-164 -358h-142zM168 319v803h246v-792q0 -137 127 -137q49 0 73 8v-197q-70 -18 -149 -18q-151 0 -224 79t-73 254z" />
    <glyph glyph-name="uni0391" unicode="&#x391;" horiz-adv-x="1699" 
d="M74 0l659 1501h234l657 -1501h-264l-156 362h-717l-155 -362h-258zM580 588h532l-266 614z" />
    <glyph glyph-name="uni0392" unicode="&#x392;" horiz-adv-x="1554" 
d="M203 0v1491h665q256 0 387 -131q101 -101 101 -248v-4q0 -226 -215 -334q142 -49 220.5 -134t78.5 -228v-4q0 -195 -148.5 -301.5t-402.5 -106.5h-686zM1106 1069v4q0 92 -70.5 143.5t-199.5 51.5h-387v-410h368q133 0 211 54t78 157zM1188 434v4q0 100 -79.5 153.5
t-236.5 53.5h-423v-422h442q141 0 219 54t78 157z" />
    <glyph glyph-name="uni0393" unicode="&#x393;" horiz-adv-x="1331" 
d="M203 0v1491h1040v-229h-788v-1262h-252z" />
    <glyph glyph-name="uni0394" unicode="&#x394;" horiz-adv-x="1693" 
d="M127 0l-21 182l611 1319h260l610 -1319l-20 -182h-1440zM844 1223l-453 -1000h901z" />
    <glyph glyph-name="uni0395" unicode="&#x395;" horiz-adv-x="1443" 
d="M203 0v1491h1102v-225h-852v-402h755v-225h-755v-414h862v-225h-1112z" />
    <glyph glyph-name="uni0396" unicode="&#x396;" horiz-adv-x="1509" 
d="M145 0v184l891 1086h-860v221h1190v-184l-891 -1086h891v-221h-1221z" />
    <glyph glyph-name="uni0397" unicode="&#x397;" horiz-adv-x="1634" 
d="M203 0v1491h252v-625h727v625h252v-1491h-252v633h-727v-633h-252z" />
    <glyph glyph-name="uni0398" unicode="&#x398;" horiz-adv-x="1826" 
d="M911 -25q-223 0 -402 104t-276.5 278.5t-97.5 383.5v4q0 155 58 296.5t159 246t248 166.5t315 62q167 0 313.5 -61.5t247 -165.5t158.5 -244t58 -295v-5q0 -155 -58 -296t-159.5 -245.5t-248.5 -166.5t-315 -62zM915 203q230 0 374.5 153t144.5 385v4q0 152 -65.5 275.5
t-186 195.5t-271.5 72q-230 0 -374 -153t-144 -385v-5q0 -152 65.5 -275.5t185.5 -195t271 -71.5zM1249 866v-231h-671v231h671z" />
    <glyph glyph-name="uni0399" unicode="&#x399;" horiz-adv-x="686" 
d="M217 0v1491h252v-1491h-252z" />
    <glyph glyph-name="uni039A" unicode="&#x39a;" horiz-adv-x="1560" 
d="M203 0v1491h252v-766l723 766h313l-623 -641l650 -850h-308l-514 676l-241 -248v-428h-252z" />
    <glyph glyph-name="uni039B" unicode="&#x39b;" horiz-adv-x="1658" 
d="M940 1501l643 -1501h-278l-482 1155l-479 -1155h-270l643 1501h223z" />
    <glyph glyph-name="uni039C" unicode="&#x39c;" horiz-adv-x="1865" 
d="M203 0v1491h266l463 -719l465 719h266v-1491h-250v1085l-479 -714h-8l-477 710v-1081h-246z" />
    <glyph glyph-name="uni039D" unicode="&#x39d;" horiz-adv-x="1699" 
d="M203 0v1491h231l815 -1051v1051h248v-1491h-211l-835 1079v-1079h-248z" />
    <glyph glyph-name="uni039E" unicode="&#x39e;" horiz-adv-x="1429" 
d="M1290 1262h-1151v229h1151v-229zM1235 637h-1040v229h1040v-229zM1300 0h-1171v229h1171v-229z" />
    <glyph glyph-name="uni039F" unicode="&#x39f;" horiz-adv-x="1826" 
d="M911 -25q-223 0 -402 104t-276.5 278.5t-97.5 383.5v4q0 155 58 296.5t159 246t248 166.5t315 62q167 0 313.5 -61.5t247 -165.5t158.5 -244t58 -295v-5q0 -155 -58 -296t-159.5 -245.5t-248.5 -166.5t-315 -62zM915 207q147 0 265 72t182.5 193.5t64.5 268.5v4
q0 147 -65 270t-184 196t-267 73q-147 0 -265 -72t-182.5 -193.5t-64.5 -268.5v-5q0 -147 65 -269.5t184 -195.5t267 -73z" />
    <glyph glyph-name="uni03A0" unicode="&#x3a0;" horiz-adv-x="1628" 
d="M203 0v1491h1222v-1491h-251v1262h-719v-1262h-252z" />
    <glyph glyph-name="uni03A1" unicode="&#x3a1;" horiz-adv-x="1439" 
d="M203 0v1491h583q257 0 411.5 -136t154.5 -358v-6q0 -123 -46.5 -220.5t-128.5 -159t-188.5 -94t-230.5 -32.5h-303v-485h-252zM455 711h311q152 0 242 75.5t90 198.5v4q0 133 -88.5 204t-243.5 71h-311v-553z" />
    <glyph glyph-name="uni03A3" unicode="&#x3a3;" horiz-adv-x="1474" 
d="M1024 745l-520 -522h848v-223h-1202v186l552 559l-548 560v186h1185v-223h-831z" />
    <glyph glyph-name="uni03A4" unicode="&#x3a4;" horiz-adv-x="1388" 
d="M569 0v1260h-477v231h1204v-231h-475v-1260h-252z" />
    <glyph glyph-name="uni03A5" unicode="&#x3a5;" horiz-adv-x="1542" 
d="M645 0v588l-596 903h297l426 -670l432 670h289l-596 -897v-594h-252z" />
    <glyph glyph-name="uni03A6" unicode="&#x3a6;" horiz-adv-x="2033" 
d="M891 -23v164q-180 2 -326.5 48t-243.5 126.5t-149.5 191.5t-52.5 243v2q0 174 89 308.5t265 214.5t418 85v153h252v-153q360 -7 566 -172.5t206 -435.5v-2q0 -129 -52 -239.5t-149 -192t-243.5 -128.5t-327.5 -49v-164h-252zM381 750v-2q0 -172 131.5 -279t382.5 -107
v777q-252 -4 -383 -109t-131 -280zM1653 750v2q0 172 -130.5 277.5t-383.5 109.5v-777q252 4 383 109t131 279z" />
    <glyph glyph-name="uni03A7" unicode="&#x3a7;" horiz-adv-x="1568" 
d="M1169 1491h289l-524 -729l545 -762h-295l-404 578l-403 -578h-287l543 758l-522 733h295l380 -547z" />
    <glyph glyph-name="uni03A8" unicode="&#x3a8;" horiz-adv-x="1837" 
d="M1679 1491v-524q0 -311 -166.5 -468t-470.5 -165v-334h-247v334q-304 8 -470.5 162.5t-166.5 461.5v533h250v-526q0 -206 96 -300.5t293 -99.5v926h243v-926q196 5 293 97t97 294v535h249z" />
    <glyph glyph-name="uni03A9" unicode="&#x3a9;" horiz-adv-x="1867" 
d="M936 1516q172 0 315 -53.5t239 -147t149 -221t53 -275.5v-2q0 -192 -90 -338t-254 -264l385 2v-217h-650v211q80 56 137 108.5t107 122t75 157t25 192.5v2q0 219 -135 355t-360 136q-224 0 -358 -135t-134 -352v-2q0 -131 45 -241t117.5 -189t181.5 -154v-211h-649v217
l383 -2q-163 119 -252.5 265.5t-89.5 338.5v2q0 141 53 267.5t149 221.5t240.5 150.5t317.5 55.5z" />
    <glyph glyph-name="uni03AA" unicode="&#x3aa;" horiz-adv-x="686" 
d="M217 0v1491h252v-1491h-252zM434 1616v231h256v-231h-256zM0 1616v231h258v-231h-258z" />
    <glyph glyph-name="uni03AB" unicode="&#x3ab;" horiz-adv-x="1542" 
d="M645 0v588l-596 903h297l426 -670l432 670h289l-596 -897v-594h-252zM860 1614v231h256v-231h-256zM426 1614v231h258v-231h-258z" />
    <glyph glyph-name="uni03AC" unicode="&#x3ac;" horiz-adv-x="1525" 
d="M680 1268l145 358l222 -96l-203 -262h-164zM1470 201v-197q-70 -18 -145 -18q-117 0 -184.5 46.5t-93.5 145.5q-154 -201 -400 -201q-82 0 -159.5 24.5t-145 74t-118.5 118t-80 163t-29 202.5v4q0 135 43.5 247t117 184t167 111.5t194.5 39.5q235 0 387 -201v178h248
v-807q4 -65 34 -93.5t91 -28.5q49 0 73 8zM694 190q138 0 237 104t99 265v4q0 161 -99 265t-237 104q-139 0 -234 -101.5t-95 -267.5v-4q0 -162 96 -265.5t233 -103.5z" />
    <glyph glyph-name="uni03AD" unicode="&#x3ad;" horiz-adv-x="1216" 
d="M539 1268l145 358l221 -96l-203 -262h-163zM852 473h-246q-123 0 -184.5 -38.5t-61.5 -102.5v-2q0 -71 68 -111.5t199 -40.5q203 0 399 121l104 -166q-228 -156 -512 -156q-242 0 -370.5 89t-128.5 239v2q0 99 59.5 163.5t155.5 96.5q-88 39 -137.5 97.5t-49.5 150.5v4
q0 141 126.5 232.5t355.5 91.5q276 0 489 -154l-123 -170q-166 123 -358 123q-118 0 -183 -41t-65 -104v-2q0 -138 215 -138h248v-184z" />
    <glyph glyph-name="uni03AE" unicode="&#x3ae;" horiz-adv-x="1335" 
d="M590 1268l145 358l221 -96l-202 -262h-164zM1178 -340h-248v979q0 135 -64.5 208t-183.5 73t-191.5 -76t-72.5 -209v-635h-246v1122h246v-176q135 199 356 199q189 0 296.5 -117t107.5 -315v-1053z" />
    <glyph glyph-name="uni03AF" unicode="&#x3af;" horiz-adv-x="669" 
d="M215 1268l145 358l222 -96l-203 -262h-164zM168 319v803h246v-792q0 -137 127 -137q49 0 73 8v-197q-70 -18 -149 -18q-151 0 -224 79t-73 254z" />
    <glyph glyph-name="uni03B0" unicode="&#x3b0;" horiz-adv-x="1341" 
d="M858 1268v243h227v-243h-227zM254 1268v243h227v-243h-227zM547 1268l90 405l215 -47l-164 -358h-141zM668 -25q-238 0 -374 128t-136 370v649h245v-639q0 -145 69 -220t200 -75q129 0 196.5 74t67.5 215v645h248v-643q0 -246 -138.5 -375t-377.5 -129z" />
    <glyph glyph-name="uni03B1" unicode="&#x3b1;" horiz-adv-x="1525" 
d="M1470 201v-197q-70 -18 -145 -18q-117 0 -184.5 46.5t-93.5 145.5q-154 -201 -400 -201q-82 0 -159.5 24.5t-145 74t-118.5 118t-80 163t-29 202.5v4q0 135 43.5 247t117 184t167 111.5t194.5 39.5q235 0 387 -201v178h248v-807q4 -65 34 -93.5t91 -28.5q49 0 73 8z
M694 190q138 0 237 104t99 265v4q0 161 -99 265t-237 104q-139 0 -234 -101.5t-95 -267.5v-4q0 -162 96 -265.5t233 -103.5z" />
    <glyph glyph-name="uni03B2" unicode="&#x3b2;" horiz-adv-x="1415" 
d="M418 -340h-246v1358q0 258 147 404.5t408 146.5q243 0 378.5 -117t135.5 -303v-2q0 -141 -78 -237.5t-221 -133.5q173 -39 265.5 -130.5t92.5 -254.5v-2q0 -179 -123 -295.5t-337 -116.5q-143 0 -250.5 55t-171.5 146v-518zM621 678h-205v-90q0 -196 99.5 -299
t264.5 -103q129 0 201 64t72 164q0 131 -105 197.5t-327 66.5zM416 1018v-160h202q180 0 278.5 71t98.5 199q0 103 -72 168.5t-196 65.5q-147 0 -229 -91.5t-82 -252.5z" />
    <glyph glyph-name="uni03B3" unicode="&#x3b3;" horiz-adv-x="1280" 
d="M1214 1122l-450 -1087v-375h-248v381l-450 1081h268l307 -821l313 821h260z" />
    <glyph glyph-name="uni03B4" unicode="&#x3b4;" horiz-adv-x="1380" 
d="M1126 1350l-536 6l293 -223q135 -99 216.5 -186.5t125 -189.5t43.5 -222q0 -115 -41.5 -217t-116 -178t-186 -120.5t-244.5 -44.5q-127 0 -234.5 43t-180.5 116.5t-113.5 173.5t-40.5 212q0 142 50.5 247.5t145 183.5t256.5 161l-305 258v184h868v-204zM733 973h-2
q-210 -108 -294.5 -211.5t-84.5 -239.5q0 -143 92.5 -240.5t241.5 -97.5q148 0 243 99.5t95 238.5q0 118 -61 210t-230 241z" />
    <glyph glyph-name="uni03B5" unicode="&#x3b5;" horiz-adv-x="1216" 
d="M852 473h-246q-123 0 -184.5 -38.5t-61.5 -102.5v-2q0 -71 68 -111.5t199 -40.5q203 0 399 121l104 -166q-228 -156 -512 -156q-242 0 -370.5 89t-128.5 239v2q0 99 59.5 163.5t155.5 96.5q-88 39 -137.5 97.5t-49.5 150.5v4q0 141 126.5 232.5t355.5 91.5
q276 0 489 -154l-123 -170q-166 123 -358 123q-118 0 -183 -41t-65 -104v-2q0 -138 215 -138h248v-184z" />
    <glyph glyph-name="uni03B6" unicode="&#x3b6;" horiz-adv-x="1183" 
d="M858 -272v245l-229 29q-267 35 -393.5 142.5t-126.5 289.5q0 132 58.5 239t215.5 267l395 408h-585v206h901v-190l-545 -576q-113 -119 -154 -185t-41 -144q0 -102 79.5 -160t240.5 -78l416 -55v-438h-232z" />
    <glyph glyph-name="uni03B7" unicode="&#x3b7;" horiz-adv-x="1335" 
d="M1178 -340h-248v979q0 135 -64.5 208t-183.5 73t-191.5 -76t-72.5 -209v-635h-246v1122h246v-176q135 199 356 199q189 0 296.5 -117t107.5 -315v-1053z" />
    <glyph glyph-name="uni03B8" unicode="&#x3b8;" horiz-adv-x="1439" 
d="M719 -25q-177 0 -311.5 99t-205.5 273t-71 396v54q0 223 72.5 398t207.5 273.5t312 98.5t311.5 -99t205.5 -273t71 -398v-54q0 -222 -72.5 -396t-208 -273t-311.5 -99zM721 184q156 0 248 133t100 355h-698q5 -218 101.5 -353t248.5 -135zM719 1356q-154 0 -248.5 -132.5
t-99.5 -349.5h696q-8 218 -101 350t-247 132z" />
    <glyph glyph-name="uni03B9" unicode="&#x3b9;" horiz-adv-x="669" 
d="M168 319v803h246v-792q0 -137 127 -137q49 0 73 8v-197q-70 -18 -149 -18q-151 0 -224 79t-73 254z" />
    <glyph glyph-name="uni03BA" unicode="&#x3ba;" horiz-adv-x="1253" 
d="M418 1122v-551l485 551h305l-446 -479l455 -643h-291l-330 471l-178 -190v-281h-246v1122h246z" />
    <glyph glyph-name="uni03BB" unicode="&#x3bb;" horiz-adv-x="1310" 
d="M211 1327v207q79 33 180 33q96 0 159.5 -32t105.5 -94t89 -177l502 -1264h-264l-321 846l-332 -846h-260l477 1126l-25 66q-36 89 -75 125.5t-105 36.5q-73 0 -131 -27z" />
    <glyph glyph-name="uni03BC" unicode="&#x3bc;" horiz-adv-x="1437" 
d="M1382 201v-197q-70 -18 -143 -18q-110 0 -174.5 38t-93.5 123q-108 -163 -287 -163q-97 0 -177 45.5t-120 134.5h-4q2 -13 9 -52.5t9 -55t6 -45t5.5 -54.5t1.5 -53v-244h-242v1462h246v-639q0 -133 70 -210.5t188 -77.5t190 78t72 210v639h246v-807q4 -65 35 -93.5
t92 -28.5q50 0 71 8z" />
    <glyph glyph-name="uni03BD" unicode="&#x3bd;" horiz-adv-x="1280" 
d="M528 -8l-462 1130h266l309 -835l313 835h260l-462 -1130h-224z" />
    <glyph glyph-name="uni03BE" unicode="&#x3be;" horiz-adv-x="1193" 
d="M1155 1407l-127 -190q-160 137 -334 137q-122 0 -194 -64.5t-72 -171.5q0 -114 89.5 -179t234.5 -65h188v-204h-235q-163 0 -255 -62t-92 -164q0 -104 82.5 -156.5t243.5 -72.5l406 -51v-436h-232v245l-227 29q-121 13 -213.5 41.5t-162.5 77t-107 122t-37 171.5
q0 271 317 368q-248 106 -248 357q0 184 140 307t376 123q143 0 252 -42.5t207 -119.5z" />
    <glyph glyph-name="uni03BF" unicode="&#x3bf;" horiz-adv-x="1413" 
d="M705 -25q-126 0 -237 46t-189 124t-123 185t-45 225v4q0 157 77 291.5t215 214.5t306 80q126 0 237 -46.5t189 -125t123 -185.5t45 -225v-4q0 -118 -45.5 -225.5t-124 -186.5t-190.5 -125.5t-238 -46.5zM709 190q155 0 251.5 106t96.5 259v4q0 153 -100.5 262t-251.5 109
q-154 0 -251.5 -107.5t-97.5 -259.5v-4q0 -153 100.5 -261t252.5 -108z" />
    <glyph glyph-name="uni03C0" unicode="&#x3c0;" horiz-adv-x="1507" 
d="M63 1122h1344v-221h-197v-571q0 -137 125 -137q50 0 74 8v-197q-70 -18 -147 -18q-154 0 -226.5 79t-72.5 254v582h-455v-901h-248v901h-197v221z" />
    <glyph glyph-name="uni03C1" unicode="&#x3c1;" horiz-adv-x="1421" 
d="M150 -340v879q0 176 70.5 313.5t203 215t305.5 77.5q164 0 296 -74.5t207 -207.5t75 -300v-4q0 -106 -29 -199.5t-78.5 -162.5t-115 -119t-140.5 -75.5t-153 -25.5q-251 0 -394 205v-522h-247zM727 190q139 0 234.5 101.5t95.5 267.5v4q0 162 -95.5 265.5t-232.5 103.5
q-143 0 -238.5 -103t-95.5 -266v-4q0 -161 98 -265t234 -104z" />
    <glyph glyph-name="uni03C2" unicode="&#x3c2;" horiz-adv-x="1236" 
d="M864 -272v249l-157 19q-291 39 -443.5 185t-152.5 399v2q0 152 69.5 279.5t202.5 205.5t303 78q156 0 263 -52t194 -151l-160 -170q-67 77 -137.5 117.5t-163.5 40.5q-142 0 -234 -100t-92 -244v-2q0 -322 412 -373l328 -43v-440h-232z" />
    <glyph glyph-name="uni03C3" unicode="&#x3c3;" horiz-adv-x="1476" 
d="M1407 909l-326 2q209 -134 209 -383v-2q0 -151 -75.5 -277t-212 -200t-304.5 -74q-125 0 -234.5 44.5t-186.5 120.5t-121.5 181t-44.5 222v2q0 118 44.5 223.5t123.5 184t196.5 124t255.5 45.5h676v-213zM705 190q153 0 247.5 100t94.5 251v2q0 156 -96 260t-253 104
q-153 0 -247.5 -104t-94.5 -256v-2q0 -151 98.5 -253t250.5 -102z" />
    <glyph glyph-name="uni03C4" unicode="&#x3c4;" horiz-adv-x="1224" 
d="M1137 901h-422v-528q0 -101 41.5 -142t130.5 -41q66 0 145 23v-199q-95 -30 -201 -30q-192 0 -277 85t-85 291v541h-401v221h1069v-221z" />
    <glyph glyph-name="uni03C5" unicode="&#x3c5;" horiz-adv-x="1341" 
d="M668 -25q-238 0 -374 128t-136 370v649h245v-639q0 -145 69 -220t200 -75q129 0 196.5 74t67.5 215v645h248v-643q0 -246 -138.5 -375t-377.5 -129z" />
    <glyph glyph-name="uni03C6" unicode="&#x3c6;" horiz-adv-x="1806" 
d="M1026 -340h-246v336q-158 4 -286.5 48.5t-212 120t-128 176.5t-44.5 218v2q0 116 44.5 217t128 176.5t212 120.5t286.5 49v430h246v-428q317 -12 494.5 -167t177.5 -396v-2q0 -116 -45 -217t-128.5 -176.5t-212 -120.5t-286.5 -49v-338zM1454 559v2q0 157 -112 255
t-320 102v-713q211 4 321.5 100.5t110.5 253.5zM352 563v-2q0 -157 112 -254.5t320 -101.5v713q-211 -6 -321.5 -102t-110.5 -253z" />
    <glyph glyph-name="uni03C7" unicode="&#x3c7;" horiz-adv-x="1306" 
d="M352 1122l303 -514l306 514h270l-438 -692l487 -770h-276l-355 586l-352 -586h-272l487 766l-438 696h278z" />
    <glyph glyph-name="uni03C8" unicode="&#x3c8;" horiz-adv-x="1763" 
d="M1004 -340h-244v336q-286 5 -445 149.5t-159 411.5v565h245v-559q0 -163 95.5 -256t263.5 -98v1345h241v-1345q167 1 264 96t97 256v561h244v-557q0 -271 -159.5 -417.5t-442.5 -151.5v-336z" />
    <glyph glyph-name="uni03C9" unicode="&#x3c9;" horiz-adv-x="1892" 
d="M825 905h242v-360q0 -165 60.5 -257.5t170.5 -92.5q106 0 166 85.5t60 249.5q0 158 -64.5 296t-195.5 296h270q233 -265 233 -598q0 -253 -116.5 -401t-323.5 -148q-151 0 -245 81t-138 214q-43 -133 -139 -214t-246 -81q-207 0 -321.5 147t-114.5 402q0 330 235 598h267
q-130 -150 -194 -290.5t-64 -301.5q0 -163 59 -249t164 -86q112 0 173.5 92.5t61.5 257.5v360z" />
    <glyph glyph-name="uni03CA" unicode="&#x3ca;" horiz-adv-x="669" 
d="M377 1268v245h254v-245h-254zM-33 1268v245h254v-245h-254zM168 319v803h246v-792q0 -137 127 -137q49 0 73 8v-197q-70 -18 -149 -18q-151 0 -224 79t-73 254z" />
    <glyph glyph-name="uni03CB" unicode="&#x3cb;" horiz-adv-x="1341" 
d="M748 1268v245h253v-245h-253zM338 1268v245h254v-245h-254zM668 -25q-238 0 -374 128t-136 370v649h245v-639q0 -145 69 -220t200 -75q129 0 196.5 74t67.5 215v645h248v-643q0 -246 -138.5 -375t-377.5 -129z" />
    <glyph glyph-name="uni03CC" unicode="&#x3cc;" horiz-adv-x="1413" 
d="M623 1268l145 358l221 -96l-203 -262h-163zM705 -25q-126 0 -237 46t-189 124t-123 185t-45 225v4q0 157 77 291.5t215 214.5t306 80q126 0 237 -46.5t189 -125t123 -185.5t45 -225v-4q0 -118 -45.5 -225.5t-124 -186.5t-190.5 -125.5t-238 -46.5zM709 190
q155 0 251.5 106t96.5 259v4q0 153 -100.5 262t-251.5 109q-154 0 -251.5 -107.5t-97.5 -259.5v-4q0 -153 100.5 -261t252.5 -108z" />
    <glyph glyph-name="uni03CD" unicode="&#x3cd;" horiz-adv-x="1341" 
d="M586 1268l145 358l221 -96l-202 -262h-164zM668 -25q-238 0 -374 128t-136 370v649h245v-639q0 -145 69 -220t200 -75q129 0 196.5 74t67.5 215v645h248v-643q0 -246 -138.5 -375t-377.5 -129z" />
    <glyph glyph-name="uni03CE" unicode="&#x3ce;" horiz-adv-x="1892" 
d="M862 1268l146 358l221 -96l-203 -262h-164zM825 905h242v-360q0 -165 60.5 -257.5t170.5 -92.5q106 0 166 85.5t60 249.5q0 158 -64.5 296t-195.5 296h270q233 -265 233 -598q0 -253 -116.5 -401t-323.5 -148q-151 0 -245 81t-138 214q-43 -133 -139 -214t-246 -81
q-207 0 -321.5 147t-114.5 402q0 330 235 598h267q-130 -150 -194 -290.5t-64 -301.5q0 -163 59 -249t164 -86q112 0 173.5 92.5t61.5 257.5v360z" />
    <glyph glyph-name="uni0400" unicode="&#x400;" horiz-adv-x="1443" 
d="M858 1616h-194l-269 205l226 100zM203 0v1491h1102v-225h-852v-402h755v-225h-755v-414h862v-225h-1112z" />
    <glyph glyph-name="uni0401" unicode="&#x401;" horiz-adv-x="1443" 
d="M846 1616v231h256v-231h-256zM412 1616v231h258v-231h-258zM203 0v1491h1102v-225h-852v-402h755v-225h-755v-414h862v-225h-1112z" />
    <glyph glyph-name="uni0402" unicode="&#x402;" horiz-adv-x="1792" 
d="M1284 1491v-231h-487v-369q175 39 342 39q268 0 411.5 -119t143.5 -342q0 -213 -147 -343t-408 -130h-45v223h16q166 0 249 64.5t83 177.5q0 246 -332 246q-144 0 -313 -37v-670h-252v1260h-457v231h1196z" />
    <glyph glyph-name="uni0403" unicode="&#x403;" horiz-adv-x="1331" 
d="M606 1616l236 305l225 -100l-268 -205h-193zM203 0v1491h1040v-229h-788v-1262h-252z" />
    <glyph glyph-name="uni0404" unicode="&#x404;" horiz-adv-x="1587" 
d="M887 -25q-213 0 -386 102t-269.5 277t-96.5 387v4q0 212 96 387.5t272 279.5t396 104q193 0 329.5 -59.5t254.5 -172.5l-162 -182q-98 93 -196.5 139.5t-225.5 46.5q-193 0 -331 -120t-167 -310h738v-215h-738q30 -194 166 -317t332 -123q132 0 229.5 48t202.5 148
l160 -161q-126 -131 -265.5 -197t-338.5 -66z" />
    <glyph glyph-name="uni0405" unicode="&#x405;" horiz-adv-x="1380" 
d="M723 -20q-358 0 -621 237l152 180q114 -98 226.5 -146t248.5 -48q124 0 198 53t74 141v4q0 56 -27 94t-102 72.5t-213 67.5q-129 31 -215 64t-153 84t-98 123.5t-31 172.5v4q0 189 142 308.5t364 119.5q162 0 292 -46t248 -140l-137 -190q-199 153 -407 153
q-116 0 -184 -51t-68 -131v-4q0 -62 29.5 -102t107.5 -73.5t225 -66.5q248 -59 362.5 -157.5t114.5 -276.5v-4q0 -204 -146 -323t-382 -119z" />
    <glyph glyph-name="uni0406" unicode="&#x406;" horiz-adv-x="686" 
d="M217 0v1491h252v-1491h-252z" />
    <glyph glyph-name="uni0407" unicode="&#x407;" horiz-adv-x="686" 
d="M217 0v1491h252v-1491h-252zM434 1616v231h256v-231h-256zM0 1616v231h258v-231h-258z" />
    <glyph glyph-name="uni0408" unicode="&#x408;" horiz-adv-x="1206" 
d="M530 -20q-303 0 -475 241l166 170q70 -92 140.5 -136t164.5 -44q114 0 179 75.5t65 225.5v979h258v-985q0 -256 -139 -395q-131 -131 -359 -131z" />
    <glyph glyph-name="uni0409" unicode="&#x409;" horiz-adv-x="2230" 
d="M1010 0v1280h-11l-702 -1280h-260l825 1491h398v-502h301q266 0 420.5 -126.5t154.5 -360.5v-2q0 -233 -161 -366.5t-433 -133.5h-532zM1260 227h290q154 0 243 71.5t89 199.5v2q0 128 -86.5 196t-241.5 68h-294v-537z" />
    <glyph glyph-name="uni040A" unicode="&#x40a;" horiz-adv-x="2381" 
d="M1159 0v633h-704v-633h-252v1491h252v-625h704v625h252v-502h301q265 0 420.5 -127t155.5 -360v-2q0 -233 -161 -366.5t-433 -133.5h-535zM1411 227h289q154 0 243 71.5t89 199.5v2q0 128 -85.5 196t-240.5 68h-295v-537z" />
    <glyph glyph-name="uni040B" unicode="&#x40b;" horiz-adv-x="1855" 
d="M1284 1491v-231h-487v-369q175 41 338 41q269 0 414 -124.5t145 -383.5v-424h-252v391q0 164 -81 239t-253 75q-161 0 -311 -39v-666h-252v1260h-457v231h1196z" />
    <glyph glyph-name="uni040C" unicode="&#x40c;" horiz-adv-x="1574" 
d="M692 1614l236 305l225 -100l-268 -205h-193zM203 0v1491h252l-4 -625h174l567 625h317l-682 -721l719 -770h-325l-590 645h-180l4 -645h-252z" />
    <glyph glyph-name="uni040D" unicode="&#x40d;" horiz-adv-x="1699" 
d="M950 1614h-194l-269 205l226 100zM1497 0h-252v1096l-825 -1096h-217v1491h252v-1067l802 1067h240v-1491z" />
    <glyph glyph-name="uni040E" unicode="&#x40e;" horiz-adv-x="1544" 
d="M795 1610q-156 0 -253.5 73.5t-109.5 206.5h176q42 -106 187 -106q144 0 186 106h176q-12 -133 -109 -206.5t-253 -73.5zM645 0h-280l301 514l-600 977h284l457 -754l410 754h280z" />
    <glyph glyph-name="uni040F" unicode="&#x40f;" horiz-adv-x="1634" 
d="M696 -307v307h-493v1491h252v-1262h719v1262h251v-1491h-491v-307h-238z" />
    <glyph glyph-name="uni0410" unicode="&#x410;" horiz-adv-x="1699" 
d="M74 0l659 1501h234l657 -1501h-264l-156 362h-717l-155 -362h-258zM580 588h532l-266 614z" />
    <glyph glyph-name="uni0411" unicode="&#x411;" horiz-adv-x="1517" 
d="M203 0v1491h1079v-223h-833v-383h419q253 0 397 -110t144 -318v-4q0 -215 -151.5 -334t-407.5 -119h-647zM449 223h407q137 0 219 57.5t82 165.5v3q0 108 -78 162.5t-217 54.5h-413v-443z" />
    <glyph glyph-name="uni0412" unicode="&#x412;" horiz-adv-x="1554" 
d="M203 0v1491h665q256 0 387 -131q101 -101 101 -248v-4q0 -226 -215 -334q142 -49 220.5 -134t78.5 -228v-4q0 -195 -148.5 -301.5t-402.5 -106.5h-686zM1106 1069v4q0 92 -70.5 143.5t-199.5 51.5h-387v-410h368q133 0 211 54t78 157zM1188 434v4q0 100 -79.5 153.5
t-236.5 53.5h-423v-422h442q141 0 219 54t78 157z" />
    <glyph glyph-name="uni0413" unicode="&#x413;" horiz-adv-x="1331" 
d="M203 0v1491h1040v-229h-788v-1262h-252z" />
    <glyph glyph-name="uni0414" unicode="&#x414;" horiz-adv-x="1814" 
d="M80 229h145l551 1272h264l547 -1272h148v-536h-238v307h-1180v-307h-237v536zM903 1223l-418 -1002h836z" />
    <glyph glyph-name="uni0415" unicode="&#x415;" horiz-adv-x="1443" 
d="M203 0v1491h1102v-225h-852v-402h755v-225h-755v-414h862v-225h-1112z" />
    <glyph glyph-name="uni0416" unicode="&#x416;" horiz-adv-x="2312" 
d="M74 1491h301l530 -627h129l-2 627h248l-2 -627h129l532 627h299l-624 -725l663 -766h-303l-557 647h-139l2 -647h-248l2 647h-147l-555 -647h-297l665 766z" />
    <glyph glyph-name="uni0417" unicode="&#x417;" horiz-adv-x="1429" 
d="M270 1108l-153 170q127 113 271.5 175.5t330.5 62.5q252 0 399.5 -109.5t147.5 -290.5v-2q0 -260 -275 -350q314 -79 314 -350v-2q0 -193 -164 -315t-443 -122q-347 0 -606 220l150 180q106 -84 217 -129t246 -45q152 0 248 61.5t96 165.5v2q0 104 -93.5 160.5
t-259.5 54.5h-266v213h272q141 0 224.5 59t83.5 164v2q0 95 -80 151.5t-215 55.5q-230 0 -445 -182z" />
    <glyph glyph-name="uni0418" unicode="&#x418;" horiz-adv-x="1699" 
d="M1497 0h-252v1096l-825 -1096h-217v1491h252v-1067l802 1067h240v-1491z" />
    <glyph glyph-name="uni0419" unicode="&#x419;" horiz-adv-x="1699" 
d="M850 1610q-156 0 -253.5 73.5t-109.5 206.5h177q42 -106 186 -106t186 106h176q-12 -133 -109 -206.5t-253 -73.5zM1497 0h-252v1096l-825 -1096h-217v1491h252v-1067l802 1067h240v-1491z" />
    <glyph glyph-name="uni041A" unicode="&#x41a;" horiz-adv-x="1574" 
d="M203 0v1491h252l-4 -625h174l567 625h317l-682 -721l719 -770h-325l-590 645h-180l4 -645h-252z" />
    <glyph glyph-name="uni041B" unicode="&#x41b;" horiz-adv-x="1658" 
d="M940 1501l643 -1501h-278l-482 1155l-479 -1155h-270l643 1501h223z" />
    <glyph glyph-name="uni041C" unicode="&#x41c;" horiz-adv-x="1865" 
d="M203 0v1491h266l463 -719l465 719h266v-1491h-250v1085l-479 -714h-8l-477 710v-1081h-246z" />
    <glyph glyph-name="uni041D" unicode="&#x41d;" horiz-adv-x="1634" 
d="M203 0v1491h252v-625h727v625h252v-1491h-252v633h-727v-633h-252z" />
    <glyph glyph-name="uni041E" unicode="&#x41e;" horiz-adv-x="1826" 
d="M911 -25q-223 0 -402 104t-276.5 278.5t-97.5 383.5v4q0 155 58 296.5t159 246t248 166.5t315 62q167 0 313.5 -61.5t247 -165.5t158.5 -244t58 -295v-5q0 -155 -58 -296t-159.5 -245.5t-248.5 -166.5t-315 -62zM915 207q147 0 265 72t182.5 193.5t64.5 268.5v4
q0 147 -65 270t-184 196t-267 73q-147 0 -265 -72t-182.5 -193.5t-64.5 -268.5v-5q0 -147 65 -269.5t184 -195.5t267 -73z" />
    <glyph glyph-name="uni041F" unicode="&#x41f;" horiz-adv-x="1628" 
d="M203 0v1491h1222v-1491h-251v1262h-719v-1262h-252z" />
    <glyph glyph-name="uni0420" unicode="&#x420;" horiz-adv-x="1439" 
d="M203 0v1491h583q257 0 411.5 -136t154.5 -358v-6q0 -123 -46.5 -220.5t-128.5 -159t-188.5 -94t-230.5 -32.5h-303v-485h-252zM455 711h311q152 0 242 75.5t90 198.5v4q0 133 -88.5 204t-243.5 71h-311v-553z" />
    <glyph glyph-name="uni0421" unicode="&#x421;" horiz-adv-x="1591" 
d="M893 -25q-160 0 -301 60t-241 162.5t-158 244t-58 299.5v4q0 158 57.5 300t157.5 245.5t244 164.5t309 61q193 0 329.5 -59.5t254.5 -172.5l-164 -186q-97 92 -197.5 139t-224.5 47q-142 0 -257.5 -71.5t-180 -193.5t-64.5 -269v-5q0 -227 143.5 -382.5t358.5 -155.5
q132 0 231 47.5t203 146.5l162 -163q-87 -87 -166 -141t-190.5 -88t-247.5 -34z" />
    <glyph glyph-name="uni0422" unicode="&#x422;" horiz-adv-x="1388" 
d="M569 0v1260h-477v231h1204v-231h-475v-1260h-252z" />
    <glyph glyph-name="uni0423" unicode="&#x423;" horiz-adv-x="1544" 
d="M645 0h-280l301 514l-600 977h284l457 -754l410 754h280z" />
    <glyph glyph-name="uni0424" unicode="&#x424;" horiz-adv-x="2033" 
d="M891 -23v164q-180 2 -326.5 48t-243.5 126.5t-149.5 191.5t-52.5 243v2q0 174 89 308.5t265 214.5t418 85v153h252v-153q360 -7 566 -172.5t206 -435.5v-2q0 -129 -52 -239.5t-149 -192t-243.5 -128.5t-327.5 -49v-164h-252zM381 750v-2q0 -172 131.5 -279t382.5 -107
v777q-252 -4 -383 -109t-131 -280zM1653 750v2q0 172 -130.5 277.5t-383.5 109.5v-777q252 4 383 109t131 279z" />
    <glyph glyph-name="uni0425" unicode="&#x425;" horiz-adv-x="1568" 
d="M1169 1491h289l-524 -729l545 -762h-295l-404 578l-403 -578h-287l543 758l-522 733h295l380 -547z" />
    <glyph glyph-name="uni0426" unicode="&#x426;" horiz-adv-x="1681" 
d="M1364 -307v307h-1161v1491h252v-1262h719v1262h251v-1262h177v-536h-238z" />
    <glyph glyph-name="uni0427" unicode="&#x427;" horiz-adv-x="1531" 
d="M1077 0v530q-167 -45 -352 -45q-267 0 -414 125t-147 383v498h252v-465q0 -164 81 -237.5t253 -73.5q173 0 327 45v731h252v-1491h-252z" />
    <glyph glyph-name="uni0428" unicode="&#x428;" horiz-adv-x="2390" 
d="M203 0v1491h252v-1262h614v1262h252v-1262h616v1262h252v-1491h-1986z" />
    <glyph glyph-name="uni0429" unicode="&#x429;" horiz-adv-x="2443" 
d="M203 0v1491h252v-1262h614v1262h252v-1262h616v1262h252v-1262h174v-536h-237v307h-1923z" />
    <glyph glyph-name="uni042A" unicode="&#x42a;" horiz-adv-x="1800" 
d="M557 0v1266h-469v225h721v-502h321q265 0 420.5 -126.5t155.5 -358.5v-2q0 -235 -160.5 -368.5t-433.5 -133.5h-555zM809 227h309q154 0 244 71t90 198v4q0 128 -86.5 196t-241.5 68h-315v-537z" />
    <glyph glyph-name="uni042B" unicode="&#x42b;" horiz-adv-x="2056" 
d="M203 0v1491h252v-502h321q265 0 420.5 -127t155.5 -360v-2q0 -233 -161 -366.5t-433 -133.5h-555zM455 227h309q155 0 244.5 71.5t89.5 199.5v2q0 128 -86.5 196t-241.5 68h-315v-537zM1602 0v1491h251v-1491h-251z" />
    <glyph glyph-name="uni042C" unicode="&#x42c;" horiz-adv-x="1445" 
d="M203 0v1491h252v-502h321q265 0 420.5 -126.5t155.5 -358.5v-2q0 -235 -160.5 -368.5t-433.5 -133.5h-555zM455 227h309q154 0 244 71t90 198v4q0 128 -86.5 196t-241.5 68h-315v-537z" />
    <glyph glyph-name="uni042D" unicode="&#x42d;" horiz-adv-x="1589" 
d="M262 1104l-151 172q126 115 269 177.5t339 62.5q211 0 379 -99t262 -274t94 -393v-5q0 -161 -55.5 -302.5t-153.5 -244.5t-240 -163t-307 -60q-354 0 -600 246l160 176q109 -101 210 -147.5t230 -46.5q195 0 327.5 121t162.5 319h-735v215h733q-33 192 -161.5 311
t-315.5 119q-134 0 -241.5 -47t-205.5 -137z" />
    <glyph glyph-name="uni042E" unicode="&#x42e;" horiz-adv-x="2371" 
d="M203 0v1491h252v-625h288q21 134 84.5 252.5t159 206.5t225.5 139.5t275 51.5q162 0 303 -62t238 -166.5t152.5 -244.5t55.5 -293v-5q0 -153 -56 -294t-154 -246t-239.5 -167.5t-303.5 -62.5q-147 0 -277.5 51.5t-226 140t-158 209t-80.5 257.5h-286v-633h-252zM1487 207
q141 0 253 72t172 193.5t60 268.5v4q0 146 -61 269t-174 196.5t-254 73.5q-140 0 -251.5 -72t-172 -193.5t-60.5 -268.5v-5q0 -146 61.5 -268.5t174 -196t252.5 -73.5z" />
    <glyph glyph-name="uni042F" unicode="&#x42f;" horiz-adv-x="1556" 
d="M139 1006v2q0 234 159.5 358.5t436.5 124.5h619v-1491h-252v526h-322l-387 -526h-301l418 559q-168 43 -269.5 158t-101.5 289zM1102 750v514h-391q-149 0 -232.5 -66.5t-83.5 -187.5v-2q0 -123 87 -190.5t237 -67.5h383z" />
    <glyph glyph-name="uni0430" unicode="&#x430;" horiz-adv-x="1263" 
d="M498 -23q-109 0 -199 39.5t-146.5 119.5t-56.5 188v4q0 175 126.5 267.5t338.5 92.5q174 0 307 -47v29q0 123 -72.5 187.5t-211.5 64.5q-91 0 -164.5 -17t-159.5 -53l-65 192q103 46 200 69.5t221 23.5q246 0 371 -125q119 -116 119 -344v-668h-240v143
q-137 -166 -368 -166zM563 158q132 0 220.5 68.5t88.5 176.5v82q-122 45 -264 45q-129 0 -199.5 -50.5t-70.5 -141.5v-4q0 -83 63.5 -129.5t161.5 -46.5z" />
    <glyph glyph-name="uni0431" unicode="&#x431;" horiz-adv-x="1404" 
d="M705 -25q-125 0 -226.5 41t-171.5 111q-182 176 -182 530v2q0 393 146.5 595t459.5 255l399 68l39 -227l-397 -64q-197 -32 -293 -126t-121 -275q69 80 176.5 126t237.5 46q243 0 382.5 -142t139.5 -372v-2q0 -117 -43 -220.5t-119 -180t-187 -121t-240 -44.5zM709 184
q151 0 245.5 99.5t94.5 253.5v2q0 145 -88.5 238t-237.5 93q-158 0 -254 -96t-96 -242q0 -153 94.5 -250.5t241.5 -97.5z" />
    <glyph glyph-name="uni0432" unicode="&#x432;" horiz-adv-x="1286" 
d="M172 0v1122h571q179 0 282 -76.5t103 -214.5q0 -96 -45.5 -153t-132.5 -96q110 -34 168 -98t58 -171q0 -153 -117.5 -233t-315.5 -80h-571zM887 801q0 64 -48.5 101.5t-138.5 37.5h-286v-287h278q96 0 145.5 40t49.5 108zM934 328q0 73 -54 112t-161 39h-305v-297h317
q98 0 150.5 38.5t52.5 107.5z" />
    <glyph glyph-name="uni0433" unicode="&#x433;" horiz-adv-x="1085" 
d="M172 0v1122h838v-223h-592v-899h-246z" />
    <glyph glyph-name="uni0434" unicode="&#x434;" horiz-adv-x="1437" 
d="M590 1130h258l405 -907h125v-504h-223v283h-872v-283h-224v504h127zM717 881l-283 -666h563z" />
    <glyph glyph-name="uni0435" unicode="&#x435;" horiz-adv-x="1300" 
d="M684 -25q-161 0 -291.5 72.5t-206 206t-75.5 303.5v4q0 120 41 227t112 186t173.5 125t219.5 46q104 0 191.5 -31.5t150 -87t106.5 -131.5t65.5 -165t21.5 -187q0 -45 -2 -70h-832q20 -140 109.5 -217.5t220.5 -77.5q95 0 167.5 33t141.5 102l148 -129
q-177 -209 -461 -209zM354 637h594q-12 134 -90 219.5t-203 85.5q-121 0 -201.5 -84t-99.5 -221z" />
    <glyph glyph-name="uni0436" unicode="&#x436;" horiz-adv-x="1908" 
d="M1075 1122l-2 -450h131l363 450h291l-463 -549l479 -573h-291l-375 461h-135l2 -461h-241l2 461h-138l-372 -461h-291l481 561l-463 561h293l361 -450h129l-2 450h241z" />
    <glyph glyph-name="uni0437" unicode="&#x437;" horiz-adv-x="1206" 
d="M86 135l123 168q180 -125 383 -125q124 0 193 41t69 113v2q0 66 -65 103t-183 36h-244v184h242q108 0 163.5 37.5t55.5 104.5v2q0 66 -59.5 103.5t-169.5 37.5q-194 0 -365 -127l-129 158q213 172 506 172q209 0 334 -87.5t125 -228.5v-2q0 -181 -201 -254
q106 -28 169 -93.5t63 -170.5v-2q0 -142 -134.5 -237t-367.5 -95q-294 0 -508 160z" />
    <glyph glyph-name="uni0438" unicode="&#x438;" horiz-adv-x="1376" 
d="M172 0v1122h246v-737l553 737h233v-1122h-246v750l-563 -750h-223z" />
    <glyph glyph-name="uni0439" unicode="&#x439;" horiz-adv-x="1376" 
d="M172 0v1122h246v-737l553 737h233v-1122h-246v750l-563 -750h-223zM686 1264q-156 0 -252 79.5t-106 223.5h170q41 -131 188 -131t188 131h173q-12 -144 -108.5 -223.5t-252.5 -79.5z" />
    <glyph glyph-name="uni043A" unicode="&#x43a;" horiz-adv-x="1271" 
d="M418 1122v-448h137l365 448h303l-473 -549l489 -573h-299l-379 459h-143v-459h-246v1122h246z" />
    <glyph glyph-name="uni043B" unicode="&#x43b;" horiz-adv-x="1337" 
d="M784 1130l490 -1130h-268l-340 827l-340 -827h-263l490 1130h231z" />
    <glyph glyph-name="uni043C" unicode="&#x43c;" horiz-adv-x="1564" 
d="M172 0v1122h258l354 -534l353 534h256v-1122h-242v758l-367 -545h-8l-364 539v-752h-240z" />
    <glyph glyph-name="uni043D" unicode="&#x43d;" horiz-adv-x="1372" 
d="M172 0v1122h246v-444h536v444h248v-1122h-248v453h-536v-453h-246z" />
    <glyph glyph-name="uni043E" unicode="&#x43e;" horiz-adv-x="1413" 
d="M705 -25q-126 0 -237 46t-189 124t-123 185t-45 225v4q0 157 77 291.5t215 214.5t306 80q126 0 237 -46.5t189 -125t123 -185.5t45 -225v-4q0 -118 -45.5 -225.5t-124 -186.5t-190.5 -125.5t-238 -46.5zM709 190q155 0 251.5 106t96.5 259v4q0 153 -100.5 262t-251.5 109
q-154 0 -251.5 -107.5t-97.5 -259.5v-4q0 -153 100.5 -261t252.5 -108z" />
    <glyph glyph-name="uni043F" unicode="&#x43f;" horiz-adv-x="1372" 
d="M172 0v1122h1028v-1122h-248v899h-534v-899h-246z" />
    <glyph glyph-name="uni0440" unicode="&#x440;" horiz-adv-x="1443" 
d="M172 -340v1462h246v-192q149 215 389 215q100 0 193 -39.5t166.5 -111.5t118 -184t44.5 -247v-4q0 -135 -43.5 -247t-117 -184t-167 -111.5t-194.5 -39.5q-234 0 -389 201v-518h-246zM750 190q139 0 234 101.5t95 267.5v4q0 162 -96 265.5t-233 103.5q-138 0 -237 -104
t-99 -265v-4q0 -161 99 -265t237 -104z" />
    <glyph glyph-name="uni0441" unicode="&#x441;" horiz-adv-x="1232" 
d="M690 -25q-163 0 -296.5 78.5t-208 211.5t-74.5 290v4q0 158 74.5 292t208.5 214t298 80q149 0 256.5 -50.5t192.5 -144.5l-156 -166q-68 71 -136 108.5t-159 37.5q-143 0 -238.5 -106.5t-95.5 -260.5v-4q0 -156 98 -262.5t248 -106.5q87 0 157.5 36.5t139.5 105.5
l150 -146q-94 -102 -201 -156.5t-258 -54.5z" />
    <glyph glyph-name="uni0442" unicode="&#x442;" horiz-adv-x="1212" 
d="M483 0v901h-405v221h1057v-221h-406v-901h-246z" />
    <glyph glyph-name="uni0443" unicode="&#x443;" horiz-adv-x="1286" 
d="M657 276l299 846h258l-448 -1153q-70 -173 -153 -245t-218 -72q-137 0 -262 67l84 187q78 -45 154 -45q58 0 95.5 31t72.5 108l-473 1122h264z" />
    <glyph glyph-name="uni0444" unicode="&#x444;" horiz-adv-x="1806" 
d="M1026 -340h-246v336q-158 4 -286.5 48.5t-212 120t-128 176.5t-44.5 218v2q0 116 44.5 217t128 176.5t212 120.5t286.5 49v430h246v-428q317 -12 494.5 -167t177.5 -396v-2q0 -116 -45 -217t-128.5 -176.5t-212 -120.5t-286.5 -49v-338zM1454 559v2q0 157 -112 255
t-320 102v-713q211 4 321.5 100.5t110.5 253.5zM352 563v-2q0 -157 112 -254.5t320 -101.5v713q-211 -6 -321.5 -102t-110.5 -253z" />
    <glyph glyph-name="uni0445" unicode="&#x445;" horiz-adv-x="1249" 
d="M360 1122l267 -383l268 383h264l-399 -547l416 -575h-271l-284 406l-283 -406h-264l413 571l-397 551h270z" />
    <glyph glyph-name="uni0446" unicode="&#x446;" horiz-adv-x="1415" 
d="M1118 -281v281h-946v1122h246v-899h534v899h248v-899h141v-504h-223z" />
    <glyph glyph-name="uni0447" unicode="&#x447;" horiz-adv-x="1280" 
d="M860 0v365q-160 -39 -270 -39q-457 0 -457 419v377h246v-356q0 -115 59.5 -166t186.5 -51q110 0 235 39v534h248v-1122h-248z" />
    <glyph glyph-name="uni0448" unicode="&#x448;" horiz-adv-x="2011" 
d="M172 0v1122h246v-899h465v899h245v-899h465v899h246v-1122h-1667z" />
    <glyph glyph-name="uni0449" unicode="&#x449;" horiz-adv-x="2054" 
d="M172 0v1122h246v-899h465v899h245v-899h465v899h246v-899h141v-504h-223v281h-1585z" />
    <glyph glyph-name="uni044A" unicode="&#x44a;" horiz-adv-x="1454" 
d="M66 1122h587v-352h273q204 0 325 -101.5t121 -279.5v-2q0 -179 -121.5 -283t-341.5 -104h-499v905h-344v217zM653 569v-364h250q223 0 223 182v2q0 81 -57 131t-164 49h-252z" />
    <glyph glyph-name="uni044B" unicode="&#x44b;" horiz-adv-x="1734" 
d="M418 1122v-352h270q207 0 327 -100t120 -281v-2q0 -179 -121.5 -283t-341.5 -104h-500v1122h246zM416 569v-364h250q223 0 223 182v2q0 81 -57 131t-164 49h-252zM1315 0v1122h248v-1122h-248z" />
    <glyph glyph-name="uni044C" unicode="&#x44c;" horiz-adv-x="1216" 
d="M418 1122v-352h270q207 0 327 -100t120 -281v-2q0 -179 -121.5 -283t-341.5 -104h-500v1122h246zM416 569v-364h250q223 0 223 182v2q0 81 -57 131t-164 49h-252z" />
    <glyph glyph-name="uni044D" unicode="&#x44d;" horiz-adv-x="1239" 
d="M84 154l133 165q77 -71 155.5 -104t180.5 -33q129 0 219 78.5t109 204.5l-523 -2v201l523 -2q-24 126 -111 201t-219 75q-101 0 -175 -33t-155 -100l-127 162q100 86 210.5 132t258.5 46q163 0 292.5 -75.5t201 -209t71.5 -299.5v-2q0 -163 -71.5 -296t-202.5 -210.5
t-297 -77.5q-147 0 -259.5 44.5t-213.5 134.5z" />
    <glyph glyph-name="uni044E" unicode="&#x44e;" horiz-adv-x="1904" 
d="M418 453v-453h-246v1122h246v-442h223q42 201 199 333t374 132q123 0 231.5 -46.5t184.5 -125t120 -185.5t44 -225v-4q0 -118 -44.5 -225.5t-121 -186.5t-186 -125.5t-232.5 -46.5q-219 0 -379.5 136t-193.5 342h-219zM1214 190q149 0 241.5 106t92.5 259v4
q0 153 -96.5 262t-241.5 109q-148 0 -240.5 -107t-92.5 -260v-4q0 -153 96 -261t241 -108z" />
    <glyph glyph-name="uni044F" unicode="&#x44f;" horiz-adv-x="1302" 
d="M887 387h-228l-278 -387h-283l305 414q-125 36 -195.5 122t-70.5 214v2q0 176 123.5 273t333.5 97h536v-1122h-243v387zM887 928h-285q-104 0 -162.5 -46.5t-58.5 -131.5v-2q0 -80 58.5 -129t160.5 -48h287v357z" />
    <glyph glyph-name="uni0450" unicode="&#x450;" horiz-adv-x="1300" 
d="M684 -25q-161 0 -291.5 72.5t-206 206t-75.5 303.5v4q0 120 41 227t112 186t173.5 125t219.5 46q104 0 191.5 -31.5t150 -87t106.5 -131.5t65.5 -165t21.5 -187q0 -45 -2 -70h-832q20 -140 109.5 -217.5t220.5 -77.5q95 0 167.5 33t141.5 102l148 -129
q-177 -209 -461 -209zM354 637h594q-12 134 -90 219.5t-203 85.5q-121 0 -201.5 -84t-99.5 -221zM565 1268l-258 241l225 103l220 -344h-187z" />
    <glyph glyph-name="uni0451" unicode="&#x451;" horiz-adv-x="1300" 
d="M731 1268v245h254v-245h-254zM322 1268v245h253v-245h-253zM684 -25q-161 0 -291.5 72.5t-206 206t-75.5 303.5v4q0 120 41 227t112 186t173.5 125t219.5 46q104 0 191.5 -31.5t150 -87t106.5 -131.5t65.5 -165t21.5 -187q0 -45 -2 -70h-832q20 -140 109.5 -217.5
t220.5 -77.5q95 0 167.5 33t141.5 102l148 -129q-177 -209 -461 -209zM354 637h594q-12 134 -90 219.5t-203 85.5q-121 0 -201.5 -84t-99.5 -221z" />
    <glyph glyph-name="uni0452" unicode="&#x452;" horiz-adv-x="1298" 
d="M782 1194h-360v-285q125 39 270 39q456 0 459 -418v-462q0 -416 -391 -416q-69 0 -144 16v199q50 -12 101 -12q90 0 136 49t50 164v440q0 116 -59.5 166.5t-186.5 50.5q-113 0 -235 -37v-688h-246v1194h-221v197h221v163h246v-163h360v-197z" />
    <glyph glyph-name="uni0453" unicode="&#x453;" horiz-adv-x="1085" 
d="M477 1268l219 344l226 -103l-258 -241h-187zM172 0v1122h838v-223h-592v-899h-246z" />
    <glyph glyph-name="uni0454" unicode="&#x454;" horiz-adv-x="1241" 
d="M1145 973l-133 -170q-73 66 -146 100.5t-166 34.5q-130 0 -224.5 -76.5t-119.5 -199.5l525 2v-201l-527 2q23 -130 118 -206.5t235 -76.5q167 0 317 133l131 -153q-99 -93 -208.5 -140t-256.5 -47q-166 0 -299 77.5t-206.5 210t-73.5 292.5v4q0 160 73 293.5t207.5 213
t302.5 79.5q147 0 253 -44t198 -128z" />
    <glyph glyph-name="uni0455" unicode="&#x455;" 
d="M555 -20q-126 0 -250 41.5t-225 123.5l113 168q190 -139 370 -139q86 0 133 34.5t47 94.5v4q0 17 -6 31.5t-14.5 26t-25.5 22.5t-30.5 18.5t-39 17t-42 15t-48 15.5t-48.5 16q-42 13 -72 22.5t-69.5 26.5t-67 34t-56.5 42t-46.5 53.5t-29 67t-11.5 82.5v4
q0 155 112.5 247.5t282.5 92.5q106 0 215 -33.5t197 -93.5l-98 -176q-175 106 -318 106q-76 0 -119.5 -32.5t-43.5 -84.5v-4q0 -20 8.5 -37.5t28 -32.5t39 -26.5t54 -24.5t59 -21t67.5 -22q58 -17 100.5 -33.5t92.5 -44.5t82 -60t53.5 -80.5t21.5 -106.5v-4
q0 -170 -115.5 -260t-300.5 -90z" />
    <glyph glyph-name="uni0456" unicode="&#x456;" horiz-adv-x="620" 
d="M176 1303v237h268v-237h-268zM186 0v1122h248v-1122h-248z" />
    <glyph glyph-name="uni0457" unicode="&#x457;" horiz-adv-x="620" 
d="M389 1268v245h254v-245h-254zM-20 1268v245h253v-245h-253zM186 0v1122h248v-1122h-248z" />
    <glyph glyph-name="uni0458" unicode="&#x458;" horiz-adv-x="620" 
d="M176 1303v237h268v-237h-268zM115 -348q-61 0 -123 12v197q40 -6 74 -6q120 0 120 139v1128h248v-1142q0 -165 -81.5 -246.5t-237.5 -81.5z" />
    <glyph glyph-name="uni0459" unicode="&#x459;" horiz-adv-x="1812" 
d="M788 0v928h-6l-499 -928h-258l602 1122h407v-352h250q205 0 326 -101.5t121 -279.5v-2q0 -179 -121.5 -283t-341.5 -104h-480zM1032 205h230q223 0 223 182v2q0 81 -57 131t-164 49h-232v-364z" />
    <glyph glyph-name="uni045A" unicode="&#x45a;" horiz-adv-x="1959" 
d="M1182 1122v-352h250q204 0 325 -101.5t121 -279.5v-2q0 -179 -121.5 -283t-341.5 -104h-479v453h-518v-453h-246v1122h246v-442h518v442h246zM1180 569v-364h229q223 0 223 182v2q0 81 -57 131t-164 49h-231z" />
    <glyph glyph-name="uni045B" unicode="&#x45b;" horiz-adv-x="1298" 
d="M422 1554v-163h360v-197h-360v-285q125 39 270 39q221 0 340 -103t119 -315v-530h-248v508q0 116 -59.5 166.5t-186.5 50.5q-113 0 -235 -37v-688h-246v1194h-221v197h221v163h246z" />
    <glyph glyph-name="uni045C" unicode="&#x45c;" horiz-adv-x="1271" 
d="M555 1268l219 344l225 -103l-258 -241h-186zM418 1122v-448h137l365 448h303l-473 -549l489 -573h-299l-379 459h-143v-459h-246v1122h246z" />
    <glyph glyph-name="uni045D" unicode="&#x45d;" horiz-adv-x="1376" 
d="M598 1268l-258 241l225 103l219 -344h-186zM172 0v1122h246v-737l553 737h233v-1122h-246v750l-563 -750h-223z" />
    <glyph glyph-name="uni045E" unicode="&#x45e;" horiz-adv-x="1286" 
d="M657 276l299 846h258l-448 -1153q-70 -173 -153 -245t-218 -72q-137 0 -262 67l84 187q78 -45 154 -45q58 0 95.5 31t72.5 108l-473 1122h264zM645 1264q-156 0 -252 79.5t-106 223.5h170q41 -131 188 -131q148 0 189 131h172q-12 -144 -108.5 -223.5t-252.5 -79.5z" />
    <glyph glyph-name="uni045F" unicode="&#x45f;" horiz-adv-x="1372" 
d="M172 0v1122h246v-899h534v899h248v-1122h-403v-281h-224v281h-401z" />
    <glyph glyph-name="uni0462" unicode="&#x462;" horiz-adv-x="1794" 
d="M801 846h387q239 0 375.5 -106.5t136.5 -307.5v-2q0 -197 -140 -313.5t-384 -116.5h-625v1104h-463v209h463v200h250v-200h512v-207h-512v-260zM1186 627h-387v-404h387q123 0 193.5 54.5t70.5 148.5v2q0 95 -66.5 147t-197.5 52z" />
    <glyph glyph-name="uni0463" unicode="&#x463;" horiz-adv-x="1454" 
d="M655 711h291q199 0 312.5 -91t113.5 -260v-2q0 -166 -116.5 -262t-325.5 -96h-520v911h-344v211h344v432h245v-432h435v-209h-435v-202zM653 520v-325h273q98 0 149 42t51 121v2q0 74 -51 117.5t-147 42.5h-275z" />
    <glyph glyph-name="uni0472" unicode="&#x472;" horiz-adv-x="1818" 
d="M907 -25q-166 0 -310.5 61t-245 164.5t-158.5 244t-58 296.5v4q0 208 98.5 384t277.5 281.5t400 105.5q165 0 310 -61.5t245.5 -165.5t158.5 -244t58 -295v-5q0 -155 -58 -296.5t-159.5 -245.5t-247 -166t-311.5 -62zM911 195q203 0 342.5 124t169.5 320h-1030
q30 -195 173 -319.5t345 -124.5zM907 1296q-200 0 -341 -121.5t-171 -312.5h1026q-33 191 -174 312.5t-340 121.5z" />
    <glyph glyph-name="uni0473" unicode="&#x473;" horiz-adv-x="1404" 
d="M700 -25q-124 0 -233.5 46t-187.5 124t-123 185t-45 225v4q0 117 45.5 225t124 187.5t189.5 126.5t235 47q165 0 300.5 -78.5t212 -212t76.5 -291.5v-4q0 -118 -45.5 -225.5t-124 -186.5t-189.5 -125.5t-235 -46.5zM705 176q138 0 232.5 80t119.5 211h-709
q30 -130 126.5 -210.5t230.5 -80.5zM700 944q-138 0 -232.5 -79t-119.5 -208h707q-29 130 -125.5 208.5t-229.5 78.5z" />
    <glyph glyph-name="uni0474" unicode="&#x474;" horiz-adv-x="1699" 
d="M688 -10l-614 1501h278l453 -1163l303 772q85 219 200.5 307t309.5 88h39v-227h-12q-109 0 -177.5 -51.5t-121.5 -180.5l-437 -1046h-221z" />
    <glyph glyph-name="uni0475" unicode="&#x475;" horiz-adv-x="1316" 
d="M514 -8l-448 1130h266l297 -835l184 485q74 201 165 278.5t259 77.5h35v-206h-4q-81 0 -133.5 -44.5t-98.5 -160.5l-299 -725h-223z" />
    <glyph glyph-name="uni0490" unicode="&#x490;" horiz-adv-x="1331" 
d="M203 1491h803v293h237v-522h-788v-1262h-252v1491z" />
    <glyph glyph-name="uni0491" unicode="&#x491;" horiz-adv-x="1085" 
d="M172 0v1122h606v275h232v-498h-592v-899h-246z" />
    <glyph glyph-name="uni0492" unicode="&#x492;" horiz-adv-x="1394" 
d="M266 0v625h-160v182h160v684h1041v-229h-789v-455h385v-182h-385v-625h-252z" />
    <glyph glyph-name="uni0493" unicode="&#x493;" horiz-adv-x="1126" 
d="M213 0v446h-147v152h147v524h838v-223h-592v-301h282v-152h-282v-446h-246z" />
    <glyph glyph-name="uni0496" unicode="&#x496;" horiz-adv-x="2332" 
d="M2238 1491l-624 -725l465 -537h221v-536h-238v307h-88l-557 647h-139l2 -647h-248l2 647h-147l-555 -647h-297l665 766l-626 725h301l530 -627h129l-2 627h248l-2 -627h129l532 627h299z" />
    <glyph glyph-name="uni0497" unicode="&#x497;" horiz-adv-x="1929" 
d="M1858 1122l-463 -549l293 -350h219v-504h-224v281h-100l-375 461h-135l2 -461h-241l2 461h-138l-372 -461h-291l481 561l-463 561h293l361 -450h129l-2 450h241l-2 -450h131l363 450h291z" />
    <glyph glyph-name="uni0498" unicode="&#x498;" horiz-adv-x="1427" 
d="M268 1108l-153 170q127 113 271.5 175.5t330.5 62.5q252 0 399.5 -109.5t147.5 -290.5v-2q0 -260 -275 -350q314 -79 314 -350v-2q0 -168 -132 -287t-358 -143l8 -289h-243l8 289q-284 31 -496 213l150 180q107 -85 217 -129.5t245 -44.5q152 0 248.5 61.5t96.5 165.5v2
q0 104 -93.5 160.5t-259.5 54.5h-266v213h272q141 0 224.5 59t83.5 164v2q0 95 -80 151.5t-215 55.5q-230 0 -445 -182z" />
    <glyph glyph-name="uni0499" unicode="&#x499;" horiz-adv-x="1206" 
d="M86 135l123 168q180 -125 383 -125q124 0 193 41t69 113v2q0 66 -65 103t-183 36h-244v184h242q108 0 163.5 37.5t55.5 104.5v2q0 66 -59.5 103.5t-169.5 37.5q-194 0 -365 -127l-129 158q213 172 506 172q209 0 334 -87.5t125 -228.5v-2q0 -181 -201 -254
q106 -28 169 -93.5t63 -170.5v-2q0 -125 -106.5 -215t-293.5 -110l11 -263h-234l10 263q-221 22 -397 153z" />
    <glyph glyph-name="uni049A" unicode="&#x49a;" horiz-adv-x="1591" 
d="M203 0v1491h252l-4 -625h174l567 625h317l-682 -721l504 -541h234v-536h-238v307h-106l-590 645h-180l4 -645h-252z" />
    <glyph glyph-name="uni049B" unicode="&#x49b;" horiz-adv-x="1277" 
d="M418 1122v-448h137l365 448h303l-473 -549l299 -350h204v-504h-223v281h-90l-379 459h-143v-459h-246v1122h246z" />
    <glyph glyph-name="uni049C" unicode="&#x49c;" horiz-adv-x="1646" 
d="M1561 1491l-555 -713l581 -778h-301l-467 639h-2l4 -420h-164l2 428h-204v-647h-252v1491h252v-625h204l-2 432h164l-4 -413h2l449 606h293z" />
    <glyph glyph-name="uni049D" unicode="&#x49d;" horiz-adv-x="1372" 
d="M1309 1122l-418 -534l420 -588h-281l-325 481h-21v-323h-133l2 323h-135v-481h-246v1122h246v-448h135l-2 315h133v-315h23l323 448h279z" />
    <glyph glyph-name="uni04A0" unicode="&#x4a0;" horiz-adv-x="1929" 
d="M88 1266v225h721l-4 -625h174l567 625h318l-682 -721l719 -770h-326l-590 645h-180l4 -645h-252v1266h-469z" />
    <glyph glyph-name="uni04A1" unicode="&#x4a1;" horiz-adv-x="1509" 
d="M655 1122v-448h138l364 448h303l-473 -549l490 -573h-299l-379 459h-144v-459h-245v905h-344v217h589z" />
    <glyph glyph-name="uni04A2" unicode="&#x4a2;" horiz-adv-x="1687" 
d="M203 0v1491h252v-625h727v625h252v-1262h174v-536h-238v307h-188v633h-727v-633h-252z" />
    <glyph glyph-name="uni04A3" unicode="&#x4a3;" horiz-adv-x="1417" 
d="M172 0v1122h246v-444h536v444h248v-899h139v-504h-223v281h-164v453h-536v-453h-246z" />
    <glyph glyph-name="uni04A4" unicode="&#x4a4;" horiz-adv-x="2189" 
d="M1128 0v633h-706v-633h-252v1491h252v-625h706v625h973v-229h-721v-1262h-252z" />
    <glyph glyph-name="uni04A5" unicode="&#x4a5;" horiz-adv-x="1826" 
d="M936 0v453h-518v-453h-246v1122h246v-442h518v442h817v-223h-571v-899h-246z" />
    <glyph glyph-name="uni04AA" unicode="&#x4aa;" horiz-adv-x="1591" 
d="M764 -307l8 293q-184 27 -329.5 132t-226.5 268t-81 355v4q0 158 57.5 300t157.5 245.5t244 164.5t309 61q193 0 329.5 -59.5t254.5 -172.5l-164 -186q-97 92 -197.5 139t-224.5 47q-142 0 -257.5 -71.5t-180 -193.5t-64.5 -269v-5q0 -227 143.5 -382.5t358.5 -155.5
q132 0 231 47.5t203 146.5l162 -163q-111 -113 -227 -176.5t-271 -79.5l11 -289h-246z" />
    <glyph glyph-name="uni04AB" unicode="&#x4ab;" horiz-adv-x="1232" 
d="M563 -281l10 269q-203 37 -332.5 197t-129.5 370v4q0 158 74.5 292t208.5 214t298 80q149 0 256.5 -50.5t192.5 -144.5l-156 -166q-68 71 -136 108.5t-159 37.5q-143 0 -238.5 -106.5t-95.5 -260.5v-4q0 -156 98 -262.5t248 -106.5q87 0 157.5 36.5t139.5 105.5l150 -146
q-79 -85 -164 -135.5t-199 -66.5l9 -265h-232z" />
    <glyph glyph-name="uni04AE" unicode="&#x4ae;" horiz-adv-x="1542" 
d="M645 0v588l-596 903h297l426 -670l432 670h289l-596 -897v-594h-252z" />
    <glyph glyph-name="uni04AF" unicode="&#x4af;" horiz-adv-x="1280" 
d="M1214 1122l-450 -1087v-375h-248v381l-450 1081h268l307 -821l313 821h260z" />
    <glyph glyph-name="uni04B0" unicode="&#x4b0;" horiz-adv-x="1542" 
d="M645 0v426h-369v182h355l-582 883h297l426 -670l432 670h289l-588 -883h357v-182h-365v-426h-252z" />
    <glyph glyph-name="uni04B1" unicode="&#x4b1;" horiz-adv-x="1280" 
d="M1092 152v-152h-328v-340h-248v340h-328v152h281l-403 970h268l307 -821l313 821h260l-403 -970h281z" />
    <glyph glyph-name="uni04B2" unicode="&#x4b2;" horiz-adv-x="1607" 
d="M1169 1491h289l-524 -729l381 -533h235v-536h-237v307h-129l-404 578l-403 -578h-287l543 758l-522 733h295l380 -547z" />
    <glyph glyph-name="uni04B3" unicode="&#x4b3;" horiz-adv-x="1269" 
d="M360 1122l267 -383l268 383h264l-399 -547l254 -352h215v-504h-223v281h-101l-284 406l-283 -406h-264l413 571l-397 551h270z" />
    <glyph glyph-name="uni04B6" unicode="&#x4b6;" horiz-adv-x="1585" 
d="M1077 0v530q-167 -45 -352 -45q-267 0 -414 125t-147 383v498h252v-465q0 -164 81 -237.5t253 -73.5q173 0 327 45v731h252v-1262h176v-536h-237v307h-191z" />
    <glyph glyph-name="uni04B7" unicode="&#x4b7;" horiz-adv-x="1323" 
d="M860 0v365q-160 -39 -270 -39q-457 0 -457 419v377h246v-356q0 -115 59.5 -166t186.5 -51q110 0 235 39v534h248v-899h139v-504h-223v281h-164z" />
    <glyph glyph-name="uni04B8" unicode="&#x4b8;" horiz-adv-x="1527" 
d="M1073 0v530q-107 -31 -248 -41l2 -333h-161v329q-242 12 -374 137t-132 371v498h252v-465q0 -145 62 -217t194 -90l-2 432h161l-2 -434q132 10 248 43v731h252v-1491h-252z" />
    <glyph glyph-name="uni04B9" unicode="&#x4b9;" horiz-adv-x="1280" 
d="M860 0v365q-80 -23 -176 -35l2 -226h-133v222q-198 8 -309 108.5t-111 308.5v379h246v-352q0 -102 43 -153.5t131 -63.5v303h133l-2 -305q84 8 176 37v534h248v-1122h-248z" />
    <glyph glyph-name="uni04BA" unicode="&#x4ba;" horiz-adv-x="1527" 
d="M444 1491v-533q175 48 355 48q267 0 414 -125t147 -383v-498h-252v465q0 164 -81 237.5t-253 73.5q-182 0 -330 -47v-729h-251v1491h251z" />
    <glyph glyph-name="uni04BB" unicode="&#x4bb;" horiz-adv-x="1335" 
d="M172 0v1554h246v-608q135 199 356 199q189 0 296.5 -117t107.5 -315v-713h-248v639q0 135 -64.5 208t-183.5 73t-191.5 -76t-72.5 -209v-635h-246z" />
    <glyph glyph-name="uni04C0" unicode="&#x4c0;" horiz-adv-x="686" 
d="M217 0v1491h252v-1491h-252z" />
    <glyph glyph-name="uni04C1" unicode="&#x4c1;" horiz-adv-x="2312" 
d="M1157 1612q-156 0 -253 73.5t-109 206.5h176q42 -106 186 -106t186 106h177q-12 -133 -109.5 -206.5t-253.5 -73.5zM74 1491h301l530 -627h129l-2 627h248l-2 -627h129l532 627h299l-624 -725l663 -766h-303l-557 647h-139l2 -647h-248l2 647h-147l-555 -647h-297
l665 766z" />
    <glyph glyph-name="uni04C2" unicode="&#x4c2;" horiz-adv-x="1908" 
d="M1075 1122l-2 -450h131l363 450h291l-463 -549l479 -573h-291l-375 461h-135l2 -461h-241l2 461h-138l-372 -461h-291l481 561l-463 561h293l361 -450h129l-2 450h241zM954 1264q-156 0 -252 79.5t-106 223.5h170q41 -131 188 -131q148 0 189 131h172
q-12 -144 -108.5 -223.5t-252.5 -79.5z" />
    <glyph glyph-name="uni04CF" unicode="&#x4cf;" horiz-adv-x="620" 
d="M186 0v1554h248v-1554h-248z" />
    <glyph glyph-name="uni04D0" unicode="&#x4d0;" horiz-adv-x="1699" 
d="M74 0l659 1501h234l657 -1501h-264l-156 362h-717l-155 -362h-258zM580 588h532l-266 614zM850 1632q-156 0 -253.5 74t-109.5 207h177q42 -107 186 -107t186 107h176q-12 -133 -109 -207t-253 -74z" />
    <glyph glyph-name="uni04D1" unicode="&#x4d1;" horiz-adv-x="1263" 
d="M498 -23q-109 0 -199 39.5t-146.5 119.5t-56.5 188v4q0 175 126.5 267.5t338.5 92.5q174 0 307 -47v29q0 123 -72.5 187.5t-211.5 64.5q-91 0 -164.5 -17t-159.5 -53l-65 192q103 46 200 69.5t221 23.5q246 0 371 -125q119 -116 119 -344v-668h-240v143
q-137 -166 -368 -166zM563 158q132 0 220.5 68.5t88.5 176.5v82q-122 45 -264 45q-129 0 -199.5 -50.5t-70.5 -141.5v-4q0 -83 63.5 -129.5t161.5 -46.5zM635 1264q-156 0 -252.5 79.5t-106.5 223.5h170q41 -131 189 -131q147 0 188 131h172q-12 -145 -108 -224t-252 -79z
" />
    <glyph glyph-name="uni04D2" unicode="&#x4d2;" horiz-adv-x="1699" 
d="M74 0l659 1501h234l657 -1501h-264l-156 362h-717l-155 -362h-258zM580 588h532l-266 614zM938 1636v232h256v-232h-256zM504 1636v232h258v-232h-258z" />
    <glyph glyph-name="uni04D3" unicode="&#x4d3;" horiz-adv-x="1263" 
d="M498 -23q-109 0 -199 39.5t-146.5 119.5t-56.5 188v4q0 175 126.5 267.5t338.5 92.5q174 0 307 -47v29q0 123 -72.5 187.5t-211.5 64.5q-91 0 -164.5 -17t-159.5 -53l-65 192q103 46 200 69.5t221 23.5q246 0 371 -125q119 -116 119 -344v-668h-240v143
q-137 -166 -368 -166zM563 158q132 0 220.5 68.5t88.5 176.5v82q-122 45 -264 45q-129 0 -199.5 -50.5t-70.5 -141.5v-4q0 -83 63.5 -129.5t161.5 -46.5zM713 1268v245h254v-245h-254zM303 1268v245h254v-245h-254z" />
    <glyph glyph-name="uni04D4" unicode="&#x4d4;" horiz-adv-x="2242" 
d="M35 0l839 1491h1229v-225h-807v-402h711v-225h-711v-414h818v-225h-1067v362h-549l-203 -362h-260zM618 588h429v684h-46z" />
    <glyph glyph-name="uni04D5" unicode="&#x4d5;" horiz-adv-x="2043" 
d="M518 -23q-180 0 -301 93t-121 254v4q0 175 126 267.5t335 92.5q168 0 301 -47v29q0 123 -71.5 187.5t-206.5 64.5q-151 0 -320 -70l-65 192q104 47 198.5 70t218.5 23q294 0 396 -191q69 95 171 147t228 52t228 -48.5t167 -131.5t100 -191t35 -231q0 -20 -4 -70h-831
q20 -140 110 -217.5t220 -77.5q95 0 168 33t143 102l145 -129q-177 -209 -461 -209q-132 0 -244.5 51t-191.5 144q-218 -193 -473 -193zM1098 637h594q-13 135 -89.5 220t-203.5 85q-121 0 -201.5 -84t-99.5 -221zM559 160q183 0 342 149q-34 81 -43 178q-127 43 -252 43
q-128 0 -198 -50.5t-70 -141.5v-4q0 -78 64 -126t157 -48z" />
    <glyph glyph-name="uni04D6" unicode="&#x4d6;" horiz-adv-x="1443" 
d="M758 1612q-156 0 -253.5 73.5t-109.5 206.5h176q42 -106 187 -106q144 0 186 106h176q-12 -133 -109 -206.5t-253 -73.5zM203 0v1491h1102v-225h-852v-402h755v-225h-755v-414h862v-225h-1112z" />
    <glyph glyph-name="uni04D7" unicode="&#x4d7;" horiz-adv-x="1300" 
d="M684 -25q-161 0 -291.5 72.5t-206 206t-75.5 303.5v4q0 120 41 227t112 186t173.5 125t219.5 46q104 0 191.5 -31.5t150 -87t106.5 -131.5t65.5 -165t21.5 -187q0 -45 -2 -70h-832q20 -140 109.5 -217.5t220.5 -77.5q95 0 167.5 33t141.5 102l148 -129
q-177 -209 -461 -209zM354 637h594q-12 134 -90 219.5t-203 85.5q-121 0 -201.5 -84t-99.5 -221zM653 1264q-156 0 -252 79.5t-106 223.5h170q41 -131 188 -131q148 0 189 131h172q-12 -144 -108.5 -223.5t-252.5 -79.5z" />
    <glyph glyph-name="uni04D8" unicode="&#x4d8;" horiz-adv-x="1714" 
d="M362 1073l-161 162q240 281 628 281q160 0 299 -56.5t237.5 -156.5t155 -243t56.5 -310v-7q0 -211 -93 -386.5t-260.5 -278.5t-375.5 -103q-138 0 -254.5 41.5t-200 115t-142.5 173.5t-87.5 217t-28.5 246v2q0 22 4 88h1168q-29 196 -158 311t-320 115
q-139 0 -250.5 -51.5t-216.5 -159.5zM848 203q185 0 310.5 121t150.5 317h-906q18 -194 138 -316t307 -122z" />
    <glyph glyph-name="uni04D9" unicode="&#x4d9;" horiz-adv-x="1300" 
d="M616 1147q246 0 410 -163t164 -419v-4q0 -160 -69.5 -293.5t-195.5 -212t-282 -78.5q-129 0 -232 48.5t-168 132t-99.5 191.5t-34.5 231q0 44 2 69h831q-20 140 -110 217.5t-220 77.5q-95 0 -167.5 -33t-141.5 -102l-147 129q177 209 460 209zM946 485h-594
q12 -134 90 -219.5t203 -85.5q121 0 201.5 84t99.5 221z" />
    <glyph glyph-name="uni04DC" unicode="&#x4dc;" horiz-adv-x="2312" 
d="M1245 1616v231h256v-231h-256zM811 1616v231h258v-231h-258zM74 1491h301l530 -627h129l-2 627h248l-2 -627h129l532 627h299l-624 -725l663 -766h-303l-557 647h-139l2 -647h-248l2 647h-147l-555 -647h-297l665 766z" />
    <glyph glyph-name="uni04DD" unicode="&#x4dd;" horiz-adv-x="1908" 
d="M1032 1268v245h254v-245h-254zM623 1268v245h254v-245h-254zM1075 1122l-2 -450h131l363 450h291l-463 -549l479 -573h-291l-375 461h-135l2 -461h-241l2 461h-138l-372 -461h-291l481 561l-463 561h293l361 -450h129l-2 450h241z" />
    <glyph glyph-name="uni04DE" unicode="&#x4de;" horiz-adv-x="1427" 
d="M791 1624v231h256v-231h-256zM356 1624v231h258v-231h-258zM270 1108l-153 170q127 113 271.5 175.5t330.5 62.5q252 0 399.5 -109.5t147.5 -290.5v-2q0 -260 -275 -350q314 -79 314 -350v-2q0 -193 -164 -315t-443 -122q-347 0 -606 220l150 180q106 -84 217 -129
t246 -45q152 0 248 61.5t96 165.5v2q0 104 -93.5 160.5t-259.5 54.5h-266v213h272q141 0 224.5 59t83.5 164v2q0 95 -80 151.5t-215 55.5q-230 0 -445 -182z" />
    <glyph glyph-name="uni04DF" unicode="&#x4df;" horiz-adv-x="1206" 
d="M678 1268v245h254v-245h-254zM268 1268v245h254v-245h-254zM86 135l123 168q180 -125 383 -125q124 0 193 41t69 113v2q0 66 -65 103t-183 36h-244v184h242q108 0 163.5 37.5t55.5 104.5v2q0 66 -59.5 103.5t-169.5 37.5q-194 0 -365 -127l-129 158q213 172 506 172
q209 0 334 -87.5t125 -228.5v-2q0 -181 -201 -254q106 -28 169 -93.5t63 -170.5v-2q0 -142 -134.5 -237t-367.5 -95q-294 0 -508 160z" />
    <glyph glyph-name="uni04E2" unicode="&#x4e2;" horiz-adv-x="1699" 
d="M471 1640v185h758v-185h-758zM1497 0h-252v1096l-825 -1096h-217v1491h252v-1067l802 1067h240v-1491z" />
    <glyph glyph-name="uni04E3" unicode="&#x4e3;" horiz-adv-x="1376" 
d="M328 1294v181h716v-181h-716zM172 0v1122h246v-737l553 737h233v-1122h-246v750l-563 -750h-223z" />
    <glyph glyph-name="uni04E4" unicode="&#x4e4;" horiz-adv-x="1699" 
d="M938 1614v231h256v-231h-256zM504 1614v231h258v-231h-258zM1497 0h-252v1096l-825 -1096h-217v1491h252v-1067l802 1067h240v-1491z" />
    <glyph glyph-name="uni04E5" unicode="&#x4e5;" horiz-adv-x="1376" 
d="M764 1268v245h254v-245h-254zM354 1268v245h254v-245h-254zM172 0v1122h246v-737l553 737h233v-1122h-246v750l-563 -750h-223z" />
    <glyph glyph-name="uni04E6" unicode="&#x4e6;" horiz-adv-x="1826" 
d="M1001 1636v232h256v-232h-256zM567 1636v232h258v-232h-258zM911 -25q-223 0 -402 104t-276.5 278.5t-97.5 383.5v4q0 155 58 296.5t159 246t248 166.5t315 62q167 0 313.5 -61.5t247 -165.5t158.5 -244t58 -295v-5q0 -155 -58 -296t-159.5 -245.5t-248.5 -166.5
t-315 -62zM915 207q147 0 265 72t182.5 193.5t64.5 268.5v4q0 147 -65 270t-184 196t-267 73q-147 0 -265 -72t-182.5 -193.5t-64.5 -268.5v-5q0 -147 65 -269.5t184 -195.5t267 -73z" />
    <glyph glyph-name="uni04E7" unicode="&#x4e7;" horiz-adv-x="1413" 
d="M784 1268v245h254v-245h-254zM375 1268v245h254v-245h-254zM705 -25q-126 0 -237 46t-189 124t-123 185t-45 225v4q0 157 77 291.5t215 214.5t306 80q126 0 237 -46.5t189 -125t123 -185.5t45 -225v-4q0 -118 -45.5 -225.5t-124 -186.5t-190.5 -125.5t-238 -46.5z
M709 190q155 0 251.5 106t96.5 259v4q0 153 -100.5 262t-251.5 109q-154 0 -251.5 -107.5t-97.5 -259.5v-4q0 -153 100.5 -261t252.5 -108z" />
    <glyph glyph-name="uni04E8" unicode="&#x4e8;" horiz-adv-x="1818" 
d="M907 -25q-166 0 -310.5 61t-245 164.5t-158.5 244t-58 296.5v4q0 208 98.5 384t277.5 281.5t400 105.5q165 0 310 -61.5t245.5 -165.5t158.5 -244t58 -295v-5q0 -155 -58 -296.5t-159.5 -245.5t-247 -166t-311.5 -62zM911 195q203 0 342.5 124t169.5 320h-1030
q30 -195 173 -319.5t345 -124.5zM907 1296q-200 0 -341 -121.5t-171 -312.5h1026q-33 191 -174 312.5t-340 121.5z" />
    <glyph glyph-name="uni04E9" unicode="&#x4e9;" horiz-adv-x="1404" 
d="M700 -25q-124 0 -233.5 46t-187.5 124t-123 185t-45 225v4q0 117 45.5 225t124 187.5t189.5 126.5t235 47q165 0 300.5 -78.5t212 -212t76.5 -291.5v-4q0 -118 -45.5 -225.5t-124 -186.5t-189.5 -125.5t-235 -46.5zM705 176q138 0 232.5 80t119.5 211h-709
q30 -130 126.5 -210.5t230.5 -80.5zM700 944q-138 0 -232.5 -79t-119.5 -208h707q-29 130 -125.5 208.5t-229.5 78.5z" />
    <glyph glyph-name="uni04EE" unicode="&#x4ee;" horiz-adv-x="1544" 
d="M416 1640v185h758v-185h-758zM645 0h-280l301 514l-600 977h284l457 -754l410 754h280z" />
    <glyph glyph-name="uni04EF" unicode="&#x4ef;" horiz-adv-x="1286" 
d="M657 276l299 846h258l-448 -1153q-70 -173 -153 -245t-218 -72q-137 0 -262 67l84 187q78 -45 154 -45q58 0 95.5 31t72.5 108l-473 1122h264zM287 1294v181h717v-181h-717z" />
    <glyph glyph-name="uni04F0" unicode="&#x4f0;" horiz-adv-x="1544" 
d="M883 1614v231h256v-231h-256zM449 1614v231h258v-231h-258zM645 0h-280l301 514l-600 977h284l457 -754l410 754h280z" />
    <glyph glyph-name="uni04F1" unicode="&#x4f1;" horiz-adv-x="1286" 
d="M657 276l299 846h258l-448 -1153q-70 -173 -153 -245t-218 -72q-137 0 -262 67l84 187q78 -45 154 -45q58 0 95.5 31t72.5 108l-473 1122h264zM723 1268v245h254v-245h-254zM313 1268v245h254v-245h-254z" />
    <glyph glyph-name="uni04F2" unicode="&#x4f2;" horiz-adv-x="1544" 
d="M645 0h-280l301 514l-600 977h284l457 -754l410 754h280zM494 1614l235 305l219 -100l-268 -205h-186zM860 1614l238 305l217 -100l-268 -205h-187z" />
    <glyph glyph-name="uni04F3" unicode="&#x4f3;" horiz-adv-x="1286" 
d="M657 276l299 846h258l-448 -1153q-70 -173 -153 -245t-218 -72q-137 0 -262 67l84 187q78 -45 154 -45q58 0 95.5 31t72.5 108l-473 1122h264zM711 1268l219 344l219 -101l-258 -243h-180zM352 1268l217 344l219 -101l-256 -243h-180z" />
    <glyph glyph-name="uni04F4" unicode="&#x4f4;" horiz-adv-x="1531" 
d="M1077 0v530q-167 -45 -352 -45q-267 0 -414 125t-147 383v498h252v-465q0 -164 81 -237.5t253 -73.5q173 0 327 45v731h252v-1491h-252zM836 1614v231h256v-231h-256zM401 1614v231h258v-231h-258z" />
    <glyph glyph-name="uni04F5" unicode="&#x4f5;" horiz-adv-x="1280" 
d="M698 1268v245h254v-245h-254zM289 1268v245h254v-245h-254zM860 0v365q-160 -39 -270 -39q-457 0 -457 419v377h246v-356q0 -115 59.5 -166t186.5 -51q110 0 235 39v534h248v-1122h-248z" />
    <glyph glyph-name="uni04F8" unicode="&#x4f8;" horiz-adv-x="2056" 
d="M203 0v1491h252v-502h321q265 0 420.5 -127t155.5 -360v-2q0 -233 -161 -366.5t-433 -133.5h-555zM455 227h309q155 0 244.5 71.5t89.5 199.5v2q0 128 -86.5 196t-241.5 68h-315v-537zM1602 0v1491h251v-1491h-251zM1116 1614v231h256v-231h-256zM682 1614v231h258v-231
h-258z" />
    <glyph glyph-name="uni04F9" unicode="&#x4f9;" horiz-adv-x="1734" 
d="M944 1268v245h254v-245h-254zM535 1268v245h253v-245h-253zM418 1122v-352h270q207 0 327 -100t120 -281v-2q0 -179 -121.5 -283t-341.5 -104h-500v1122h246zM416 569v-364h250q223 0 223 182v2q0 81 -57 131t-164 49h-252zM1315 0v1122h248v-1122h-248z" />
    <glyph glyph-name="baht" unicode="&#xe3f;" horiz-adv-x="1386" 
d="M702 1661h168l-22 -176q181 -21 287 -118.5t106 -254.5v-2q0 -244 -240 -340q88 -32 147.5 -74t97.5 -113.5t38 -168.5v-2q0 -197 -142.5 -304.5t-385.5 -107.5h-88l-27 -252h-168l29 252h-330v1491h508h2zM752 659h-15l-53 -450h78q138 0 215.5 58t77.5 167v2
q0 106 -78 165t-225 58zM397 844h217l54 438h-2h-269v-438zM1012 1069v2q0 86 -52 139.5t-149 67.5l-53 -434q119 6 186.5 63.5t67.5 161.5zM397 209h142l53 450h-195v-450z" />
    <glyph glyph-name="Wgrave" unicode="&#x1e80;" horiz-adv-x="2392" 
d="M1296 1616h-194l-268 205l225 100zM608 -10l-522 1501h272l365 -1120l371 1124h213l370 -1124l365 1120h262l-520 -1501h-217l-371 1087l-373 -1087h-215z" />
    <glyph glyph-name="wgrave" unicode="&#x1e81;" horiz-adv-x="1849" 
d="M446 -8l-368 1130h254l233 -784l256 788h209l256 -788l238 784h248l-371 -1130h-219l-256 780l-260 -780h-220zM836 1268l-258 241l225 103l219 -344h-186z" />
    <glyph glyph-name="Wacute" unicode="&#x1e82;" horiz-adv-x="2392" 
d="M1096 1616l235 305l225 -100l-268 -205h-192zM608 -10l-522 1501h272l365 -1120l371 1124h213l370 -1124l365 1120h262l-520 -1501h-217l-371 1087l-373 -1087h-215z" />
    <glyph glyph-name="wacute" unicode="&#x1e83;" horiz-adv-x="1849" 
d="M825 1268l219 344l226 -103l-258 -241h-187zM446 -8l-368 1130h254l233 -784l256 788h209l256 -788l238 784h248l-371 -1130h-219l-256 780l-260 -780h-220z" />
    <glyph glyph-name="Wdieresis" unicode="&#x1e84;" horiz-adv-x="2392" 
d="M1284 1616v231h256v-231h-256zM850 1616v231h258v-231h-258zM608 -10l-522 1501h272l365 -1120l371 1124h213l370 -1124l365 1120h262l-520 -1501h-217l-371 1087l-373 -1087h-215z" />
    <glyph glyph-name="wdieresis" unicode="&#x1e85;" horiz-adv-x="1849" 
d="M1001 1268v245h254v-245h-254zM592 1268v245h254v-245h-254zM446 -8l-368 1130h254l233 -784l256 788h209l256 -788l238 784h248l-371 -1130h-219l-256 780l-260 -780h-220z" />
    <glyph glyph-name="Ygrave" unicode="&#x1ef2;" horiz-adv-x="1542" 
d="M645 0v588l-596 903h297l426 -670l432 670h289l-596 -897v-594h-252zM872 1614h-194l-268 205l225 100z" />
    <glyph glyph-name="ygrave" unicode="&#x1ef3;" horiz-adv-x="1286" 
d="M657 276l299 846h258l-448 -1153q-70 -173 -153 -245t-218 -72q-137 0 -262 67l84 187q78 -45 154 -45q58 0 95.5 31t72.5 108l-473 1122h264zM555 1268l-258 241l225 103l219 -344h-186z" />
    <glyph glyph-name="enspace" unicode="&#x2002;" horiz-adv-x="1024" 
 />
    <glyph glyph-name="emspace" unicode="&#x2003;" horiz-adv-x="2048" 
 />
    <glyph glyph-name="threeperemspace" unicode="&#x2004;" horiz-adv-x="681" 
 />
    <glyph glyph-name="fourperemspace" unicode="&#x2005;" horiz-adv-x="512" 
 />
    <glyph glyph-name="figurespace" unicode="&#x2007;" horiz-adv-x="1290" 
 />
    <glyph glyph-name="thinspace" unicode="&#x2009;" horiz-adv-x="272" 
 />
    <glyph glyph-name="hairspace" unicode="&#x200a;" horiz-adv-x="153" 
 />
    <glyph glyph-name="endash" unicode="&#x2013;" horiz-adv-x="1140" 
d="M129 532v236h883v-236h-883z" />
    <glyph glyph-name="emdash" unicode="&#x2014;" horiz-adv-x="1929" 
d="M129 532v236h1671v-236h-1671z" />
    <glyph glyph-name="quoteleft" unicode="&#x2018;" horiz-adv-x="583" 
d="M145 913v242q0 168 77.5 248t240.5 98l26 -104q-190 -40 -178 -199h107v-285h-273z" />
    <glyph glyph-name="quoteright" unicode="&#x2019;" horiz-adv-x="583" 
d="M121 901l-27 107q190 40 178 198h-106v285h272v-242q0 -169 -78 -251.5t-239 -96.5z" />
    <glyph glyph-name="quotesinglbase" unicode="&#x201a;" horiz-adv-x="583" 
d="M111 -303l-27 104q190 40 178 199h-106v285h272v-242q0 -168 -79 -250t-238 -96z" />
    <glyph glyph-name="quotedblleft" unicode="&#x201c;" horiz-adv-x="1069" 
d="M631 913v242q0 168 77 248t240 98l27 -104q-191 -41 -176 -199h104v-285h-272zM145 913v242q0 168 77.5 248t240.5 98l26 -104q-190 -40 -178 -199h107v-285h-273z" />
    <glyph glyph-name="quotedblright" unicode="&#x201d;" horiz-adv-x="1069" 
d="M606 901l-26 107q190 40 178 198h-107v285h275v-242q0 -168 -79 -251t-241 -97zM121 901l-27 107q190 40 178 198h-106v285h272v-242q0 -169 -78 -251.5t-239 -96.5z" />
    <glyph glyph-name="quotedblbase" unicode="&#x201e;" horiz-adv-x="1069" 
d="M596 -303l-27 104q191 41 179 199h-107v285h274v-242q0 -168 -78.5 -250t-240.5 -96zM111 -303l-27 104q190 40 178 199h-106v285h272v-242q0 -168 -79 -250t-238 -96z" />
    <glyph glyph-name="dagger" unicode="&#x2020;" horiz-adv-x="888" 
d="M371 508l16 586l-258 -19v148l256 -19l-23 287h164l-22 -287l258 19v-148l-260 19l18 -586h-149z" />
    <glyph glyph-name="daggerdbl" unicode="&#x2021;" horiz-adv-x="931" 
d="M383 0l25 287l-258 -19v148l258 -19l-17 348l17 349l-258 -19v148l258 -19l-25 287h166l-25 -287l258 19v-148l-258 19l17 -349l-17 -348l258 19v-148l-258 19l25 -287h-166z" />
    <glyph glyph-name="bullet" unicode="&#x2022;" horiz-adv-x="1058" 
d="M530 451q-124 0 -211.5 87t-87.5 210v4q0 123 88 210t211 87q121 0 209 -87.5t88 -209.5v-4q0 -123 -87 -210t-210 -87z" />
    <glyph glyph-name="ellipsis" unicode="&#x2026;" horiz-adv-x="1685" 
d="M1264 0v279h268v-279h-268zM711 0v279h266v-279h-266zM156 0v279h266v-279h-266z" />
    <glyph glyph-name="perthousand" unicode="&#x2030;" horiz-adv-x="2627" 
d="M463 903q76 0 120 62.5t44 156.5v4q0 94 -47.5 159t-120.5 65t-118.5 -63.5t-45.5 -156.5v-4q0 -94 47.5 -158.5t120.5 -64.5zM459 745q-151 0 -249.5 110t-98.5 267v4q0 158 99.5 269.5t252.5 111.5t250.5 -109.5t97.5 -267.5v-4q0 -158 -98.5 -269.5t-253.5 -111.5z
M1559 1491l-588 -793l-504 -698h-205l586 791l506 700h205zM1362 141q76 0 120 62.5t44 156.5v5q0 93 -47.5 158t-120.5 65q-76 0 -120 -62.5t-44 -156.5v-4q0 -95 47.5 -159.5t120.5 -64.5zM1358 -16q-153 0 -250.5 109.5t-97.5 266.5v5q0 158 98.5 269t253.5 111
q153 0 250.5 -109.5t97.5 -266.5v-4q0 -158 -98.5 -269.5t-253.5 -111.5zM2169 141q76 0 120 62.5t44 156.5v5q0 93 -47.5 158t-120.5 65q-76 0 -120 -62.5t-44 -156.5v-4q0 -95 47.5 -159.5t120.5 -64.5zM2165 -16q-153 0 -250.5 109.5t-97.5 266.5v5q0 158 98.5 269
t253.5 111q151 0 249.5 -109.5t98.5 -266.5v-4q0 -158 -99.5 -269.5t-252.5 -111.5z" />
    <glyph glyph-name="guilsinglleft" unicode="&#x2039;" horiz-adv-x="763" 
d="M469 90l-367 463v16l367 463l174 -90l-268 -379l268 -381z" />
    <glyph glyph-name="guilsinglright" unicode="&#x203a;" horiz-adv-x="763" 
d="M297 90l-176 90l268 379l-268 381l176 92l365 -463v-16z" />
    <glyph glyph-name="fraction" unicode="&#x2044;" horiz-adv-x="229" 
d="M-465 0l535 774l477 717h147l-534 -774l-477 -717h-148z" />
    <glyph glyph-name="zero.sup" unicode="&#x2070;" horiz-adv-x="860" 
d="M428 879q-144 0 -237 119t-93 309v8q0 193 94 313.5t238 120.5t239 -119.5t95 -310.5v-8q0 -192 -95.5 -312t-240.5 -120zM428 1608q-79 0 -127.5 -77t-48.5 -212v-12q0 -134 49.5 -211.5t128.5 -77.5t128.5 77.5t49.5 211.5v12q0 134 -50 211.5t-130 77.5z" />
    <glyph glyph-name="four.sup" unicode="&#x2074;" horiz-adv-x="860" 
d="M659 1075v-180h-139v180h-401l-21 139l406 523h155v-541h113v-121h-113zM522 1196v371l-286 -371h286z" />
    <glyph glyph-name="five.sup" unicode="&#x2075;" horiz-adv-x="860" 
d="M422 879q-171 0 -318 127l91 112q114 -102 229 -102q73 0 119.5 38.5t46.5 100.5t-46 98.5t-122 36.5q-92 0 -168 -37l-96 58l32 415h510v-137h-387l-14 -194q67 24 152 24q126 0 208 -67.5t82 -188.5q0 -128 -88.5 -206t-230.5 -78z" />
    <glyph glyph-name="six.sup" unicode="&#x2076;" horiz-adv-x="860" 
d="M432 879q-135 0 -217 82q-52 52 -79 126t-27 199v4q0 209 93.5 334t262.5 125q78 0 133.5 -22t108.5 -68l-76 -117q-80 70 -172 70q-79 0 -135 -69.5t-60 -178.5q84 70 195 70q116 0 195 -71.5t79 -195.5q0 -127 -85.5 -207.5t-215.5 -80.5zM428 1008q70 0 115 42t45 109
q0 72 -43 113t-115 41q-73 0 -118.5 -41.5t-45.5 -112.5v-2q0 -65 47.5 -107t114.5 -42z" />
    <glyph glyph-name="seven.sup" unicode="&#x2077;" horiz-adv-x="860" 
d="M365 895h-168l360 690h-414v141h586v-114z" />
    <glyph glyph-name="eight.sup" unicode="&#x2078;" horiz-adv-x="860" 
d="M430 879q-140 0 -226.5 66.5t-86.5 176.5q0 141 141 207q-119 68 -119 189q0 99 82.5 165t210.5 66q125 0 207 -66t82 -165q0 -121 -119 -189q141 -69 141 -203q0 -115 -87 -181t-226 -66zM430 1626q-66 0 -107.5 -33.5t-41.5 -87.5q0 -57 41.5 -92t107.5 -35t108 35
t42 92q0 54 -42 87.5t-108 33.5zM430 1264q-75 0 -123.5 -37t-48.5 -97t47 -96.5t125 -36.5t124 36.5t46 96.5t-47.5 97t-122.5 37z" />
    <glyph glyph-name="nine.sup" unicode="&#x2079;" horiz-adv-x="860" 
d="M428 1747q135 0 217 -82q52 -52 79.5 -127t27.5 -197v-4q0 -214 -93 -336t-264 -122q-144 0 -256 94l76 117q82 -76 186 -76q79 0 134 66t59 173q-83 -69 -191 -69q-116 0 -196 71.5t-80 198.5q0 128 85.5 210.5t215.5 82.5zM430 1305q73 0 118.5 43t45.5 114v2
q0 66 -48 111t-114 43q-70 0 -115 -42.5t-45 -113.5q0 -72 43 -114.5t115 -42.5z" />
    <glyph glyph-name="zero.inf" unicode="&#x2080;" horiz-adv-x="860" 
d="M428 -299q-144 0 -237 119t-93 309v8q0 193 94 313.5t238 120.5t239 -119.5t95 -310.5v-8q0 -192 -95.5 -312t-240.5 -120zM428 430q-79 0 -127.5 -77t-48.5 -212v-12q0 -134 49.5 -211.5t128.5 -77.5t128.5 77.5t49.5 211.5v12q0 134 -50 211.5t-130 77.5z" />
    <glyph glyph-name="one.inf" unicode="&#x2081;" horiz-adv-x="700" 
d="M475 -279h-149v682l-170 -63l-41 125l245 96h115v-840z" />
    <glyph glyph-name="two.inf" unicode="&#x2082;" horiz-adv-x="860" 
d="M121 -279v129l297 248q83 70 117 116t34 99t-38.5 86t-96.5 33q-107 0 -198 -127l-109 84q65 92 136.5 137t180.5 45q125 0 203 -68t78 -177q0 -84 -42 -150.5t-140 -144.5l-217 -176h405v-134h-610z" />
    <glyph glyph-name="three.inf" unicode="&#x2083;" horiz-adv-x="860" 
d="M424 -299q-190 0 -324 137l93 109q108 -111 233 -111q61 0 104 35.5t43 91.5q0 60 -51 92.5t-133 32.5h-86l-24 94l243 232h-368v135h557v-117l-248 -231q116 -8 189 -67.5t73 -166.5q0 -119 -83 -192.5t-218 -73.5z" />
    <glyph glyph-name="four.inf" unicode="&#x2084;" horiz-adv-x="860" 
d="M659 -102v-181h-139v181h-401l-21 139l406 522h155v-541h113v-120h-113zM522 18v371l-286 -371h286z" />
    <glyph glyph-name="five.inf" unicode="&#x2085;" horiz-adv-x="860" 
d="M422 -299q-171 0 -318 127l91 113q115 -103 229 -103q73 0 119.5 38.5t46.5 100.5t-46 99t-122 37q-92 0 -168 -37l-96 57l32 416h510v-137h-387l-14 -195q70 25 152 25q126 0 208 -67.5t82 -188.5q0 -128 -88.5 -206.5t-230.5 -78.5z" />
    <glyph glyph-name="six.inf" unicode="&#x2086;" horiz-adv-x="860" 
d="M432 -299q-135 0 -217 82q-52 52 -79 126.5t-27 199.5v4q0 209 93.5 333.5t262.5 124.5q78 0 133.5 -22t108.5 -68l-76 -116q-79 69 -172 69q-79 0 -135 -69.5t-60 -178.5q84 70 195 70q116 0 195 -71t79 -195q0 -127 -85.5 -208t-215.5 -81zM428 -170q69 0 114.5 42.5
t45.5 109.5q0 71 -42.5 112t-115.5 41t-118.5 -41t-45.5 -112v-2q0 -65 47.5 -107.5t114.5 -42.5z" />
    <glyph glyph-name="seven.inf" unicode="&#x2087;" horiz-adv-x="860" 
d="M365 -283h-168l360 691h-414v141h586v-115z" />
    <glyph glyph-name="eight.inf" unicode="&#x2088;" horiz-adv-x="860" 
d="M430 -299q-140 0 -226.5 67t-86.5 177q0 141 141 207q-119 68 -119 188q0 99 82.5 165t210.5 66q125 0 207 -66t82 -165q0 -120 -119 -188q141 -69 141 -203q0 -115 -87 -181.5t-226 -66.5zM430 449q-66 0 -107.5 -33.5t-41.5 -87.5q0 -57 41.5 -92t107.5 -35t108 35
t42 92q0 54 -42 87.5t-108 33.5zM430 86q-76 0 -124 -36.5t-48 -96.5t47 -96.5t125 -36.5t124 36.5t46 96.5t-47.5 96.5t-122.5 36.5z" />
    <glyph glyph-name="nine.inf" unicode="&#x2089;" horiz-adv-x="860" 
d="M428 569q135 0 217 -82q52 -52 79.5 -126.5t27.5 -196.5v-4q0 -214 -93 -336.5t-264 -122.5q-144 0 -256 94l76 117q82 -76 186 -76q79 0 134 66.5t59 173.5q-84 -70 -191 -70q-116 0 -196 71.5t-80 198.5q0 128 85.5 210.5t215.5 82.5zM430 127q73 0 118.5 43.5
t45.5 114.5v2q0 66 -47.5 110.5t-114.5 42.5q-70 0 -115 -42t-45 -113q0 -72 43 -115t115 -43z" />
    <glyph glyph-name="colonmonetary" unicode="&#x20a1;" horiz-adv-x="1323" 
d="M983 1661h127l-31 -231q79 -36 150 -95l-96 -209q-54 48 -95 74l-139 -981q99 31 215 137l125 -161q-169 -159 -365 -189l-34 -258h-129l34 252q-77 0 -167 23l-37 -275h-129l45 324q-165 89 -259 259.5t-94 403.5v19q0 295 155 491.5t400 237.5l25 178h127l-25 -168
q89 -3 170 -20zM752 1286l-150 -1048q73 -33 178 -33l152 1052q-82 29 -158 29h-22zM336 748v-17q0 -287 160 -428l137 959q-137 -49 -217 -182t-80 -332z" />
    <glyph glyph-name="naira" unicode="&#x20a6;" horiz-adv-x="1789" 
d="M1708 451h-215v-451h-260l-279 451h-419v-451h-238v451h-215v159h215v279h-215v160h215v442h281l270 -442h407v442h238v-442h215v-160h-215v-279h215v-159zM530 1143v-539h338l-331 539h-7zM1253 377h7v518h-326z" />
    <glyph glyph-name="rupee" unicode="&#x20a8;" horiz-adv-x="2351" 
d="M176 0v1491h535q241 0 381.5 -124.5t140.5 -344.5v-6q0 -165 -84.5 -276.5t-226.5 -161.5l356 -578h-274l-324 530h-268v-530h-236zM412 739h286q136 0 215.5 71.5t79.5 195.5v8q0 128 -78.5 194t-220.5 66h-282v-535zM1843 -20q-251 0 -459 153l105 166
q182 -131 360 -131q80 0 131.5 35t51.5 94v4q0 54 -46.5 87.5t-193.5 82.5q-187 60 -271.5 134t-84.5 200v4q0 149 112 240.5t281 91.5q204 0 389 -119l-90 -174q-162 102 -305 102q-77 0 -124.5 -34.5t-47.5 -86.5v-4q0 -53 49.5 -88t195.5 -84q186 -60 268.5 -133.5
t82.5 -200.5v-4q0 -158 -115 -246.5t-289 -88.5z" />
    <glyph glyph-name="won" unicode="&#x20a9;" horiz-adv-x="2387" 
d="M2214 1491l-125 -457h215v-166h-260l-66 -245h326v-164h-371l-125 -463h-284l-129 463h-404l-127 -463h-286l-127 463h-367v164h324l-68 245h-256v166h211l-123 457h270l109 -457h379l125 461h286l123 -461h381l109 457h260zM723 270h10l160 607h-313zM1188 1210
l-160 -594h328l-158 594h-10zM1661 270h12l139 607h-311z" />
    <glyph glyph-name="sheqel" unicode="&#x20aa;" horiz-adv-x="1351" 
d="M506 297l-62 410h138l51 -322q17 -94 66.5 -137t142.5 -43h174v917h190v-1122h-366q-152 0 -231.5 71.5t-102.5 225.5zM741 424v311q0 183 -188 183h-217v-918h-193v1122h443q142 0 217.5 -72.5t75.5 -213.5v-412h-138z" />
    <glyph glyph-name="Euro" unicode="&#x20ac;" horiz-adv-x="1550" 
d="M1442 1235l-191 -141q-73 104 -147.5 151t-185.5 47q-116 0 -204 -72.5t-136 -199.5h471v-176h-508q-4 -21 -4 -96v-3q0 -55 2 -86h510v-176h-476q45 -135 139 -210t222 -74q103 0 178.5 51.5t153.5 157.5l180 -132q-98 -145 -221 -223t-293 -78q-230 0 -393 138
t-226 370h-192v176h164q-2 27 -2 84v2q0 77 4 99h-166v176h198q65 224 224.5 360t380.5 136q182 0 303 -73t215 -208z" />
    <glyph glyph-name="peso" unicode="&#x20b1;" horiz-adv-x="1601" 
d="M289 0v899h-215v154h215v438h493q235 0 385.5 -120t175.5 -318h205v-154h-205q-19 -141 -103 -243.5t-209.5 -153.5t-278.5 -51h-211v-451h-252zM535 664h221q139 0 228 65.5t108 177.5h-557v-243zM535 1274v-230h557q-23 110 -111 170t-225 60h-221z" />
    <glyph glyph-name="hryvnia" unicode="&#x20b4;" horiz-adv-x="1380" 
d="M119 911l14 117l625 -76q75 59 106 103t31 98q0 67 -49.5 107t-140.5 40q-165 0 -340 -141l-132 170q216 187 492 187q202 0 321 -100.5t119 -248.5q0 -70 -27.5 -128.5t-86.5 -120.5l256 -31l-17 -119l-356 43l-178 -152l510 -61l-15 -117l-618 74q-92 -76 -124 -122
t-32 -97q0 -71 54.5 -108.5t150.5 -37.5q179 0 369 146l131 -172q-236 -189 -518 -189q-216 0 -337.5 100t-121.5 247q0 139 131 270l-258 31l16 118l361 -45l180 152z" />
    <glyph glyph-name="numero" unicode="&#x2116;" horiz-adv-x="2418" 
d="M172 0v1491h219l672 -1014v1014h231v-1491h-200l-691 1047v-1047h-231zM1896 596q-173 0 -283 126.5t-110 317.5v15q0 193 110 318.5t285 125.5q173 0 283.5 -126t110.5 -318v-13q0 -193 -110.5 -319.5t-285.5 -126.5zM1898 758q91 0 150 80t59 200v15q0 120 -59.5 202
t-151.5 82q-91 0 -149.5 -80t-58.5 -200v-15q0 -122 58.5 -203t151.5 -81zM1520 287v145h753v-145h-753z" />
    <glyph glyph-name="published" unicode="&#x2117;" horiz-adv-x="1783" 
d="M891 -25q-213 0 -390.5 103.5t-278.5 279.5t-101 383v4q0 155 60.5 297t163.5 246t247 166t303 62q212 0 389 -103.5t278 -279.5t101 -383v-5q0 -207 -101.5 -384t-279.5 -281.5t-391 -104.5zM891 51q144 0 273 55t220.5 148.5t145 221.5t53.5 269v5q0 141 -52.5 268
t-143.5 220t-219 147.5t-273 54.5q-144 0 -273.5 -55.5t-221.5 -149t-145.5 -221.5t-53.5 -269v-4q0 -142 53 -269t144 -219.5t219.5 -147t273.5 -54.5zM618 358v805h326q143 0 227 -73t84 -197v-4q0 -130 -94.5 -202.5t-232.5 -72.5h-156v-256h-154zM772 748h158
q79 0 124.5 38t45.5 101v4q0 66 -45.5 101.5t-124.5 35.5h-158v-280z" />
    <glyph glyph-name="servicemark" unicode="&#x2120;" horiz-adv-x="1517" 
d="M766 836v655h129l203 -315l200 315h127v-655h-116v471l-207 -320h-12l-207 320v-471h-117zM367 823q-79 0 -156.5 28.5t-138.5 78.5l67 84q111 -90 234 -90q59 0 93 23.5t34 62.5q0 37 -33 58.5t-123 41.5q-121 27 -180.5 70t-59.5 125q0 88 66 143t176 55q151 0 254 -86
l-65 -86q-93 70 -191 70q-58 0 -89.5 -22.5t-31.5 -59.5q0 -38 34 -60t126 -42q116 -27 175.5 -71t59.5 -124q0 -91 -69.5 -145t-181.5 -54z" />
    <glyph glyph-name="trademark" unicode="&#x2122;" horiz-adv-x="1486" 
d="M733 836v655h131l201 -315l203 315h127v-655h-119v471l-207 -320h-10l-207 320v-471h-119zM266 836v544h-203v111h529v-111h-203v-544h-123z" />
    <glyph glyph-name="Omega" unicode="&#x2126;" horiz-adv-x="1867" 
d="M936 1516q172 0 315 -53.5t239 -147t149 -221t53 -275.5v-2q0 -192 -90 -338t-254 -264l385 2v-217h-650v211q80 56 137 108.5t107 122t75 157t25 192.5v2q0 219 -135 355t-360 136q-224 0 -358 -135t-134 -352v-2q0 -131 45 -241t117.5 -189t181.5 -154v-211h-649v217
l383 -2q-163 119 -252.5 265.5t-89.5 338.5v2q0 141 53 267.5t149 221.5t240.5 150.5t317.5 55.5z" />
    <glyph glyph-name="onethird" unicode="&#x2153;" horiz-adv-x="1775" 
d="M1354 -20q-190 0 -324 137l92 108q107 -110 234 -110q61 0 104 35.5t43 91.5q0 60 -51 92.5t-133 32.5h-86l-25 94l244 231h-369v135h557v-116l-247 -232q116 -8 189 -67t73 -166q0 -119 -83 -192.5t-218 -73.5zM475 664h-149v682l-170 -64l-41 125l245 96h115v-839z
M236 0l534 774l477 717h148l-535 -774l-477 -717h-147z" />
    <glyph glyph-name="twothirds" unicode="&#x2154;" horiz-adv-x="1935" 
d="M1513 -20q-189 0 -323 137l92 108q107 -110 234 -110q61 0 104 35.5t43 91.5q0 60 -51 92.5t-133 32.5h-86l-25 94l244 231h-369v135h557v-116l-248 -232q116 -8 189.5 -67t73.5 -166q0 -119 -83.5 -192.5t-218.5 -73.5zM106 664v129l297 247q84 71 118 116.5t34 98.5
t-38.5 86t-96.5 33q-108 0 -199 -127l-108 84q65 92 136.5 136t180.5 44q124 0 202.5 -68.5t78.5 -174.5q0 -83 -42.5 -150t-140.5 -145l-217 -176h406v-133h-611zM387 0l535 774l477 717h147l-534 -774l-477 -717h-148z" />
    <glyph glyph-name="onefifth" unicode="&#x2155;" horiz-adv-x="1775" 
d="M1352 -20q-172 0 -318 126l90 113q114 -102 230 -102q73 0 119.5 38.5t46.5 100.5t-46 98.5t-122 36.5q-92 0 -168 -37l-97 58l33 415h510v-137h-387l-14 -194q67 24 151 24q126 0 208.5 -68t82.5 -188q0 -128 -88.5 -206t-230.5 -78zM475 664h-149v682l-170 -64l-41 125
l245 96h115v-839zM246 0l534 774l477 717h148l-535 -774l-477 -717h-147z" />
    <glyph glyph-name="twofifths" unicode="&#x2156;" horiz-adv-x="1935" 
d="M1511 -20q-171 0 -317 126l90 113q114 -102 229 -102q73 0 119.5 38.5t46.5 100.5t-46 98.5t-122 36.5q-92 0 -168 -37l-96 58l33 415h510v-137h-387l-14 -194q67 24 151 24q126 0 208.5 -68t82.5 -188q0 -128 -89 -206t-231 -78zM408 0l534 774l477 717h148l-535 -774
l-477 -717h-147zM106 664v129l297 247q84 71 118 116.5t34 98.5t-38.5 86t-96.5 33q-108 0 -199 -127l-108 84q65 92 136.5 136t180.5 44q124 0 202.5 -68.5t78.5 -174.5q0 -83 -42.5 -150t-140.5 -145l-217 -176h406v-133h-611z" />
    <glyph glyph-name="threefifths" unicode="&#x2157;" horiz-adv-x="1935" 
d="M1511 -20q-171 0 -317 126l90 113q114 -102 229 -102q73 0 119.5 38.5t46.5 100.5t-46 98.5t-122 36.5q-92 0 -168 -37l-96 58l33 415h510v-137h-387l-14 -194q67 24 151 24q126 0 208.5 -68t82.5 -188q0 -128 -89 -206t-231 -78zM377 0l534 774l478 717h147l-535 -774
l-477 -717h-147zM410 641q-188 0 -324 139l92 109q108 -111 234 -111q62 0 104.5 34.5t42.5 92.5q0 60 -51 92.5t-133 32.5h-86l-25 94l244 232h-369v135h557v-119l-247 -229q115 -8 188.5 -68.5t73.5 -165.5q0 -121 -83 -194.5t-218 -73.5z" />
    <glyph glyph-name="fourfifths" unicode="&#x2158;" horiz-adv-x="1935" 
d="M645 840v-181h-139v181h-402l-20 139l405 522h156v-540h113v-121h-113zM508 961v370l-287 -370h287zM1511 -20q-171 0 -317 126l90 113q114 -102 229 -102q73 0 119.5 38.5t46.5 100.5t-46 98.5t-122 36.5q-92 0 -168 -37l-96 58l33 415h510v-137h-387l-14 -194
q67 24 151 24q126 0 208.5 -68t82.5 -188q0 -128 -89 -206t-231 -78zM408 0l534 774l477 717h148l-535 -774l-477 -717h-147z" />
    <glyph glyph-name="onesixth" unicode="&#x2159;" horiz-adv-x="1775" 
d="M1362 -20q-136 0 -217 81q-52 52 -79.5 126.5t-27.5 199.5v4q0 209 94 334t263 125q78 0 133 -22t108 -68l-75 -117q-80 70 -172 70q-79 0 -135 -69.5t-60 -178.5q84 70 195 70q116 0 195 -71.5t79 -195.5q0 -127 -85.5 -207.5t-215.5 -80.5zM1358 109q70 0 115 42
t45 109q0 72 -43 113t-115 41q-73 0 -118.5 -41.5t-45.5 -112.5v-2q0 -65 47.5 -107t114.5 -42zM475 664h-149v682l-170 -64l-41 125l245 96h115v-839zM260 0l535 774l477 717h147l-534 -774l-477 -717h-148z" />
    <glyph glyph-name="fivesixths" unicode="&#x215a;" horiz-adv-x="1935" 
d="M1522 -20q-136 0 -217 81q-52 52 -79.5 126.5t-27.5 199.5v4q0 209 93.5 334t262.5 125q78 0 133.5 -22t108.5 -68l-76 -117q-80 70 -172 70q-79 0 -134.5 -69.5t-59.5 -178.5q84 70 194 70q116 0 195.5 -71.5t79.5 -195.5q0 -127 -85.5 -207.5t-215.5 -80.5zM1518 109
q69 0 114 42t45 109q0 72 -42.5 113t-114.5 41q-73 0 -118.5 -41.5t-45.5 -112.5v-2q0 -65 47.5 -107t114.5 -42zM387 0l535 774l477 717h147l-534 -774l-477 -717h-148zM408 641q-169 0 -318 129l90 113q115 -103 230 -103q73 0 119 39t46 101t-45.5 98.5t-121.5 36.5
q-92 0 -168 -37l-97 57l33 416h510v-139h-387l-14 -193q64 23 151 23q127 0 209 -67t82 -187q0 -128 -88.5 -207.5t-230.5 -79.5z" />
    <glyph glyph-name="oneeighth" unicode="&#x215b;" horiz-adv-x="1775" 
d="M1360 -20q-140 0 -226.5 66.5t-86.5 176.5q0 141 141 207q-119 68 -119 188q0 99 82.5 165.5t210.5 66.5q125 0 207 -66.5t82 -165.5q0 -120 -119 -188q141 -69 141 -203q0 -115 -87 -181t-226 -66zM1360 727q-66 0 -108 -33.5t-42 -87.5q0 -57 42 -92t108 -35t107.5 35
t41.5 92q0 54 -41.5 87.5t-107.5 33.5zM1360 365q-75 0 -123.5 -37t-48.5 -97t47 -96.5t125 -36.5t124 36.5t46 96.5t-47.5 97t-122.5 37zM475 664h-149v682l-170 -64l-41 125l245 96h115v-839zM252 0l534 774l478 717h147l-534 -774l-478 -717h-147z" />
    <glyph glyph-name="threeeighths" unicode="&#x215c;" horiz-adv-x="1935" 
d="M1520 -20q-140 0 -227 66.5t-87 176.5q0 141 142 207q-119 68 -119 188q0 99 82.5 165.5t210.5 66.5q125 0 206.5 -66.5t81.5 -165.5q0 -67 -31 -111.5t-87 -76.5q141 -69 141 -203q0 -115 -87 -181t-226 -66zM1520 727q-66 0 -108 -33.5t-42 -87.5q0 -57 42 -92t108 -35
t107.5 35t41.5 92q0 54 -41.5 87.5t-107.5 33.5zM1520 365q-75 0 -123.5 -37t-48.5 -97t47 -96.5t125 -36.5t124 36.5t46 96.5t-47.5 97t-122.5 37zM387 0l535 774l477 717h147l-534 -774l-477 -717h-148zM410 641q-188 0 -324 139l92 109q108 -111 234 -111
q62 0 104.5 34.5t42.5 92.5q0 60 -51 92.5t-133 32.5h-86l-25 94l244 232h-369v135h557v-119l-247 -229q115 -8 188.5 -68.5t73.5 -165.5q0 -121 -83 -194.5t-218 -73.5z" />
    <glyph glyph-name="fiveeighths" unicode="&#x215d;" horiz-adv-x="1935" 
d="M1520 -20q-140 0 -227 66.5t-87 176.5q0 141 142 207q-119 68 -119 188q0 99 82.5 165.5t210.5 66.5q125 0 206.5 -66.5t81.5 -165.5q0 -67 -31 -111.5t-87 -76.5q141 -69 141 -203q0 -115 -87 -181t-226 -66zM1520 727q-66 0 -108 -33.5t-42 -87.5q0 -57 42 -92t108 -35
t107.5 35t41.5 92q0 54 -41.5 87.5t-107.5 33.5zM1520 365q-75 0 -123.5 -37t-48.5 -97t47 -96.5t125 -36.5t124 36.5t46 96.5t-47.5 97t-122.5 37zM387 0l535 774l477 717h147l-534 -774l-477 -717h-148zM408 641q-169 0 -318 129l90 113q115 -103 230 -103q73 0 119 39
t46 101t-45.5 98.5t-121.5 36.5q-92 0 -168 -37l-97 57l33 416h510v-139h-387l-14 -193q64 23 151 23q127 0 209 -67t82 -187q0 -128 -88.5 -207.5t-230.5 -79.5z" />
    <glyph glyph-name="seveneighths" unicode="&#x215e;" horiz-adv-x="1935" 
d="M1520 -20q-140 0 -227 66.5t-87 176.5q0 141 142 207q-119 68 -119 188q0 99 82.5 165.5t210.5 66.5q125 0 206.5 -66.5t81.5 -165.5q0 -67 -31 -111.5t-87 -76.5q141 -69 141 -203q0 -115 -87 -181t-226 -66zM1520 727q-66 0 -108 -33.5t-42 -87.5q0 -57 42 -92t108 -35
t107.5 35t41.5 92q0 54 -41.5 87.5t-107.5 33.5zM1520 365q-75 0 -123.5 -37t-48.5 -97t47 -96.5t125 -36.5t124 36.5t46 96.5t-47.5 97t-122.5 37zM369 659h-168l360 691h-414v141h586v-117zM324 0l534 774l477 717h148l-535 -774l-477 -717h-147z" />
    <glyph glyph-name="Delta" unicode="&#x2206;" horiz-adv-x="1693" 
d="M127 0l-21 182l611 1319h260l610 -1319l-20 -182h-1440zM844 1223l-453 -1000h901z" />
    <glyph glyph-name="minus" unicode="&#x2212;" horiz-adv-x="1363" 
d="M1212 635h-1058v231h1058v-231z" />
    <glyph glyph-name="NUL" horiz-adv-x="0" 
 />
    <glyph glyph-name="CR" horiz-adv-x="655" 
 />
    <glyph glyph-name="Q.alt" horiz-adv-x="1826" 
d="M1438 -215l-248 238q-136 -48 -279 -48q-223 0 -402 104t-276.5 278.5t-97.5 383.5v4q0 155 58 296.5t159 246t248 166.5t315 62q167 0 313.5 -61.5t247 -165.5t158.5 -244t58 -295v-5q0 -171 -67 -320.5t-191 -258.5l378 -373v-8h-374zM915 207q147 0 265 72
t182.5 193.5t64.5 268.5v4q0 147 -65 270t-184 196t-267 73q-147 0 -265 -72t-182.5 -193.5t-64.5 -268.5v-5q0 -147 65 -269.5t184 -195.5t267 -73z" />
    <glyph glyph-name="a.alt" horiz-adv-x="1443" 
d="M637 -23q-100 0 -193 39.5t-166.5 111.5t-118 184t-44.5 247v4q0 135 43.5 247t117 184t167 111.5t194.5 39.5q235 0 387 -201v178h248v-1122h-248v193q-146 -216 -387 -216zM694 190q138 0 237 104t99 265v4q0 161 -99 265t-237 104q-139 0 -234 -101.5t-95 -267.5v-4
q0 -162 96 -265.5t233 -103.5z" />
    <glyph glyph-name="three.alt" horiz-adv-x="1312" 
d="M670 -25q-178 0 -324 69.5t-254 191.5l174 161q168 -196 408 -196q125 0 199.5 60.5t74.5 162.5v4q0 104 -89 160.5t-249 56.5h-157v213h165q134 0 211.5 59t77.5 162v4q0 92 -71.5 149.5t-192.5 57.5q-105 0 -186.5 -48t-157.5 -144l-176 143q101 134 225 204.5
t299 70.5q227 0 368.5 -111.5t141.5 -286.5v-4q0 -131 -62.5 -218t-164.5 -130q126 -48 197 -129t71 -211v-4q0 -194 -143.5 -320.5t-384.5 -126.5z" />
    <glyph glyph-name="registered.alt" horiz-adv-x="1783" 
d="M891 -25q-213 0 -390.5 103.5t-278.5 279.5t-101 383v4q0 155 60.5 297t163.5 246t247 166t303 62q212 0 389 -103.5t278 -279.5t101 -383v-5q0 -207 -101.5 -384t-279.5 -281.5t-391 -104.5zM891 51q144 0 273 55t220.5 148.5t145 221.5t53.5 269v5q0 141 -52.5 268
t-143.5 220t-219 147.5t-273 54.5q-144 0 -273.5 -55.5t-221.5 -149t-145.5 -221.5t-53.5 -269v-4q0 -142 53 -269t144 -219.5t219.5 -147t273.5 -54.5zM582 365v804h360q160 0 244 -84q65 -65 65 -167v-5q0 -185 -190 -243l221 -305h-178l-201 280h-172v-280h-149zM731 776
h203q75 0 119.5 34.5t44.5 94.5v4q0 61 -43 94t-119 33h-205v-260z" />
    <glyph glyph-name="aogonek.alt" horiz-adv-x="1443" 
d="M1298 -229v-121q-46 -4 -63 -4q-134 4 -206.5 52.5t-72.5 127.5q0 85 86 174h-18v193q-146 -216 -387 -216q-100 0 -193 39.5t-166.5 111.5t-118 184t-44.5 247v4q0 135 43.5 247t117 184t167 111.5t194.5 39.5q235 0 387 -201v178h248v-1122h-53q-74 -69 -74 -137
q0 -92 153 -92zM694 190q138 0 237 104t99 265v4q0 161 -99 265t-237 104q-139 0 -234 -101.5t-95 -267.5v-4q0 -162 96 -265.5t233 -103.5z" />
    <glyph glyph-name="aringacute.alt" horiz-adv-x="1443" 
d="M733 1264q-102 0 -174 68.5t-72 166.5t72.5 168t173.5 70t173.5 -70t72.5 -168t-72 -166.5t-174 -68.5zM733 1356q60 0 102 41.5t42 101.5t-42 101.5t-102 41.5t-101.5 -41.5t-41.5 -101.5t41.5 -101.5t101.5 -41.5zM637 -23q-100 0 -193 39.5t-166.5 111.5t-118 184
t-44.5 247v4q0 135 43.5 247t117 184t167 111.5t194.5 39.5q235 0 387 -201v178h248v-1122h-248v193q-146 -216 -387 -216zM694 190q138 0 237 104t99 265v4q0 161 -99 265t-237 104q-139 0 -234 -101.5t-95 -267.5v-4q0 -162 96 -265.5t233 -103.5zM633 1804l231 291
l221 -102l-266 -189h-186z" />
    <glyph glyph-name="aring.alt2" horiz-adv-x="1263" 
d="M498 -23q-109 0 -199 39.5t-146.5 119.5t-56.5 188v4q0 175 126.5 267.5t338.5 92.5q174 0 307 -47v29q0 123 -72.5 187.5t-211.5 64.5q-91 0 -164.5 -17t-159.5 -53l-65 192q128 61 262 80q-68 65 -68 158q0 98 72 167t174 69t174 -69t72 -167q0 -99 -82 -168
q116 -30 188 -102q119 -116 119 -344v-668h-240v143q-137 -166 -368 -166zM563 158q132 0 220.5 68.5t88.5 176.5v82q-122 45 -264 45q-129 0 -199.5 -50.5t-70.5 -141.5v-4q0 -83 63.5 -129.5t161.5 -46.5zM492 1282q0 -60 41.5 -101.5t101.5 -41.5t101.5 41.5t41.5 101.5
t-41.5 101.5t-101.5 41.5t-101.5 -41.5t-41.5 -101.5z" />
    <glyph glyph-name="aringacute.alt2" horiz-adv-x="1263" 
d="M498 -23q-109 0 -199 39.5t-146.5 119.5t-56.5 188v4q0 175 126.5 267.5t338.5 92.5q174 0 307 -47v29q0 123 -72.5 187.5t-211.5 64.5q-91 0 -164.5 -17t-159.5 -53l-65 192q128 61 262 80q-68 65 -68 158q0 98 72 167t174 69t174 -69t72 -167q0 -99 -82 -168
q116 -30 188 -102q119 -116 119 -344v-668h-240v143q-137 -166 -368 -166zM563 158q132 0 220.5 68.5t88.5 176.5v82q-122 45 -264 45q-129 0 -199.5 -50.5t-70.5 -141.5v-4q0 -83 63.5 -129.5t161.5 -46.5zM492 1282q0 -60 41.5 -101.5t101.5 -41.5t101.5 41.5t41.5 101.5
t-41.5 101.5t-101.5 41.5t-101.5 -41.5t-41.5 -101.5zM535 1595l231 291l221 -102l-266 -189h-186z" />
    <glyph glyph-name="i.dot" horiz-adv-x="620" 
d="M176 1303v237h268v-237h-268zM186 0v1122h248v-1122h-248z" />
    <glyph glyph-name="aacute.alt" horiz-adv-x="1443" 
d="M635 1268l219 344l225 -103l-258 -241h-186zM637 -23q-100 0 -193 39.5t-166.5 111.5t-118 184t-44.5 247v4q0 135 43.5 247t117 184t167 111.5t194.5 39.5q235 0 387 -201v178h248v-1122h-248v193q-146 -216 -387 -216zM694 190q138 0 237 104t99 265v4q0 161 -99 265
t-237 104q-139 0 -234 -101.5t-95 -267.5v-4q0 -162 96 -265.5t233 -103.5z" />
    <glyph glyph-name="agrave.alt" horiz-adv-x="1443" 
d="M637 -23q-100 0 -193 39.5t-166.5 111.5t-118 184t-44.5 247v4q0 135 43.5 247t117 184t167 111.5t194.5 39.5q235 0 387 -201v178h248v-1122h-248v193q-146 -216 -387 -216zM694 190q138 0 237 104t99 265v4q0 161 -99 265t-237 104q-139 0 -234 -101.5t-95 -267.5v-4
q0 -162 96 -265.5t233 -103.5zM645 1268l-258 241l225 103l219 -344h-186z" />
    <glyph glyph-name="acircumflex.alt" horiz-adv-x="1443" 
d="M375 1268l243 307h230l246 -307h-199l-164 141l-164 -141h-192zM637 -23q-100 0 -193 39.5t-166.5 111.5t-118 184t-44.5 247v4q0 135 43.5 247t117 184t167 111.5t194.5 39.5q235 0 387 -201v178h248v-1122h-248v193q-146 -216 -387 -216zM694 190q138 0 237 104t99 265
v4q0 161 -99 265t-237 104q-139 0 -234 -101.5t-95 -267.5v-4q0 -162 96 -265.5t233 -103.5z" />
    <glyph glyph-name="abreve.alt" horiz-adv-x="1443" 
d="M637 -23q-100 0 -193 39.5t-166.5 111.5t-118 184t-44.5 247v4q0 135 43.5 247t117 184t167 111.5t194.5 39.5q235 0 387 -201v178h248v-1122h-248v193q-146 -216 -387 -216zM694 190q138 0 237 104t99 265v4q0 161 -99 265t-237 104q-139 0 -234 -101.5t-95 -267.5v-4
q0 -162 96 -265.5t233 -103.5zM733 1264q-156 0 -252 79.5t-106 223.5h170q41 -131 188 -131q148 0 189 131h172q-12 -144 -108.5 -223.5t-252.5 -79.5z" />
    <glyph glyph-name="atilde.alt" horiz-adv-x="1443" 
d="M637 -23q-100 0 -193 39.5t-166.5 111.5t-118 184t-44.5 247v4q0 135 43.5 247t117 184t167 111.5t194.5 39.5q235 0 387 -201v178h248v-1122h-248v193q-146 -216 -387 -216zM694 190q138 0 237 104t99 265v4q0 161 -99 265t-237 104q-139 0 -234 -101.5t-95 -267.5v-4
q0 -162 96 -265.5t233 -103.5zM905 1268q-66 0 -174 45q-83 39 -129 39q-45 0 -68.5 -23.5t-48.5 -81.5l-137 41q37 136 89 198t145 62q66 0 174 -45q83 -39 129 -39q45 0 68 23t48 82l138 -41q-37 -136 -89 -198t-145 -62z" />
    <glyph glyph-name="amacron.alt" horiz-adv-x="1443" 
d="M637 -23q-100 0 -193 39.5t-166.5 111.5t-118 184t-44.5 247v4q0 135 43.5 247t117 184t167 111.5t194.5 39.5q235 0 387 -201v178h248v-1122h-248v193q-146 -216 -387 -216zM694 190q138 0 237 104t99 265v4q0 161 -99 265t-237 104q-139 0 -234 -101.5t-95 -267.5v-4
q0 -162 96 -265.5t233 -103.5zM375 1294v181h717v-181h-717z" />
    <glyph glyph-name="adieresis.alt" horiz-adv-x="1443" 
d="M811 1268v245h254v-245h-254zM401 1268v245h254v-245h-254zM637 -23q-100 0 -193 39.5t-166.5 111.5t-118 184t-44.5 247v4q0 135 43.5 247t117 184t167 111.5t194.5 39.5q235 0 387 -201v178h248v-1122h-248v193q-146 -216 -387 -216zM694 190q138 0 237 104t99 265v4
q0 161 -99 265t-237 104q-139 0 -234 -101.5t-95 -267.5v-4q0 -162 96 -265.5t233 -103.5z" />
    <glyph glyph-name="aring.alt" horiz-adv-x="1443" 
d="M733 1264q-102 0 -174 68.5t-72 166.5t72.5 168t173.5 70t173.5 -70t72.5 -168t-72 -166.5t-174 -68.5zM733 1356q60 0 102 41.5t42 101.5t-42 101.5t-102 41.5t-101.5 -41.5t-41.5 -101.5t41.5 -101.5t101.5 -41.5zM637 -23q-100 0 -193 39.5t-166.5 111.5t-118 184
t-44.5 247v4q0 135 43.5 247t117 184t167 111.5t194.5 39.5q235 0 387 -201v178h248v-1122h-248v193q-146 -216 -387 -216zM694 190q138 0 237 104t99 265v4q0 161 -99 265t-237 104q-139 0 -234 -101.5t-95 -267.5v-4q0 -162 96 -265.5t233 -103.5z" />
    <glyph glyph-name="caron.alt" 
d="M440 1253l27 400h197v-8l-119 -392h-105z" />
    <glyph glyph-name="commaaccent.rot" 
d="M682 1702l16 -82q-156 -18 -147 -141h113v-211h-246v180q0 126 66 187t198 67z" />
    <glyph glyph-name="acute.cap" 
d="M348 1616l236 305l225 -100l-268 -205h-193z" />
    <glyph glyph-name="hungarumlaut.cap" 
d="M135 1616l236 305l219 -100l-268 -205h-187zM502 1616l237 305l217 -100l-268 -205h-186z" />
    <glyph glyph-name="uni0384.cap" 
d="M324 1077l28 414h248l-145 -414h-131z" />
    <glyph glyph-name="grave.cap" 
d="M731 1616h-194l-269 205l226 100z" />
    <glyph glyph-name="circumflex.cap" 
d="M170 1616l254 282h233l254 -282h-209l-163 123l-164 -123h-205z" />
    <glyph glyph-name="caron.cap" 
d="M911 1898l-254 -282h-233l-254 282h209l164 -122l164 122h204z" />
    <glyph glyph-name="breve.cap" 
d="M541 1612q-156 0 -253.5 73.5t-109.5 206.5h176q42 -106 187 -106q144 0 186 106h176q-12 -133 -109 -206.5t-253 -73.5z" />
    <glyph glyph-name="tilde.cap" 
d="M707 1616q-66 0 -187 47q-91 35 -123 35q-45 0 -69 -22.5t-49 -80.5l-140 41q38 132 91 195t145 63q70 0 186 -49q91 -35 123 -35q45 0 68.5 22.5t48.5 80.5l139 -41q-37 -130 -90 -193t-143 -63z" />
    <glyph glyph-name="macron.cap" 
d="M162 1642v185h758v-185h-758z" />
    <glyph glyph-name="dieresis.cap" 
d="M629 1616v231h256v-231h-256zM195 1616v231h258v-231h-258z" />
    <glyph glyph-name="dotaccent.cap" 
d="M408 1616v231h266v-231h-266z" />
    <glyph glyph-name="ring.cap" 
d="M541 1612q-103 0 -176.5 63.5t-73.5 159.5t73.5 159.5t176.5 63.5t176.5 -63.5t73.5 -159.5t-73.5 -159.5t-176.5 -63.5zM541 1710q61 0 99 35t38 90q0 54 -38 88.5t-99 34.5t-99.5 -34.5t-38.5 -88.5t38.5 -89.5t99.5 -35.5z" />
    <glyph glyph-name="one.sup_alt" horiz-adv-x="860" 
d="M754 899h-596v131h233v551l-203 -74l-41 125l279 107h115v-709h213v-131z" />
    <glyph glyph-name="one.inf_alt" horiz-adv-x="860" 
d="M754 -279h-596v132h233v550l-203 -73l-41 125l279 106h115v-708h213v-132z" />
    <glyph glyph-name="zero.num" horiz-adv-x="860" 
d="M428 641q-144 0 -237 119t-93 311v8q0 193 94 312.5t238 119.5t239 -119t95 -309v-8q0 -192 -95.5 -313t-240.5 -121zM428 1372q-79 0 -127.5 -77t-48.5 -212v-12q0 -134 49.5 -211.5t128.5 -77.5t128.5 77.5t49.5 211.5v12q0 134 -50 211.5t-130 77.5z" />
    <glyph glyph-name="one.num" horiz-adv-x="700" 
d="M475 664h-149v682l-170 -64l-41 125l245 96h115v-839z" />
    <glyph glyph-name="one.num_alt" horiz-adv-x="860" 
d="M754 664h-596v131h233v551l-203 -76l-41 127l279 106h115v-708h213v-131z" />
    <glyph glyph-name="two.num" horiz-adv-x="860" 
d="M121 664v129l297 247q83 70 117 116t34 99t-38.5 86t-96.5 33q-107 0 -198 -127l-109 84q65 92 136.5 136t180.5 44q124 0 202.5 -68.5t78.5 -174.5q0 -84 -42 -150.5t-140 -144.5l-217 -176h405v-133h-610z" />
    <glyph glyph-name="three.num" horiz-adv-x="860" 
d="M424 641q-188 0 -324 139l93 109q108 -111 233 -111q62 0 104.5 34.5t42.5 92.5q0 60 -51 92.5t-133 32.5h-86l-24 94l243 232h-368v135h557v-119l-248 -229q115 -8 188.5 -68.5t73.5 -165.5q0 -121 -83 -194.5t-218 -73.5z" />
    <glyph glyph-name="four.num" horiz-adv-x="860" 
d="M659 840v-181h-139v181h-401l-21 139l406 522h155v-540h113v-121h-113zM522 961v370l-286 -370h286z" />
    <glyph glyph-name="five.num" horiz-adv-x="860" 
d="M422 641q-169 0 -318 129l91 113q115 -103 229 -103q73 0 119.5 39t46.5 101t-46 98.5t-122 36.5q-92 0 -168 -37l-96 57l32 416h510v-139h-387l-14 -193q64 23 152 23q127 0 208.5 -67t81.5 -187q0 -128 -88.5 -207.5t-230.5 -79.5z" />
    <glyph glyph-name="six.num" horiz-adv-x="860" 
d="M432 643q-135 0 -217 82q-52 52 -79 126.5t-27 197.5v4q0 210 93.5 334t262.5 124q78 0 134 -21.5t108 -66.5l-76 -116q-79 69 -172 69q-79 0 -135 -70t-60 -178q84 70 195 70q116 0 195 -71t79 -195q0 -127 -85.5 -208t-215.5 -81zM428 772q69 0 114.5 42.5t45.5 109.5
q0 71 -42.5 111t-115.5 40q-74 0 -119 -40t-45 -111v-2q0 -65 47.5 -107.5t114.5 -42.5z" />
    <glyph glyph-name="seven.num" horiz-adv-x="860" 
d="M365 659h-168l360 691h-414v141h586v-117z" />
    <glyph glyph-name="eight.num" horiz-adv-x="860" 
d="M430 641q-140 0 -226.5 68t-86.5 178q0 141 141 207q-119 68 -119 188q0 99 82.5 164t210.5 65q126 0 207.5 -65t81.5 -164q0 -120 -119 -188q141 -69 141 -203q0 -115 -87 -182.5t-226 -67.5zM430 1391q-66 0 -107.5 -33.5t-41.5 -87.5q0 -57 41.5 -92t107.5 -35
q67 0 108.5 34t41.5 93q0 54 -42 87.5t-108 33.5zM430 1028q-76 0 -124 -36.5t-48 -96.5t47 -96.5t125 -36.5t124 36.5t46 96.5t-47.5 96.5t-122.5 36.5z" />
    <glyph glyph-name="nine.num" horiz-adv-x="860" 
d="M428 1511q136 0 217 -81q52 -52 79.5 -127t27.5 -197v-6q0 -212 -93.5 -335.5t-263.5 -123.5q-140 0 -256 94l76 119q82 -76 186 -76q79 0 134 66.5t59 173.5q-80 -70 -191 -70q-116 0 -196 72t-80 199q0 128 85.5 210t215.5 82zM430 1069q73 0 118.5 42.5t45.5 115.5v2
q0 66 -47.5 110.5t-114.5 42.5q-70 0 -115 -42t-45 -113q0 -72 43 -115t115 -43z" />
    <glyph glyph-name="zero.den" horiz-adv-x="860" 
d="M428 -20q-144 0 -237 119t-93 309v8q0 193 94 313.5t238 120.5t239 -119.5t95 -310.5v-8q0 -192 -95.5 -312t-240.5 -120zM428 709q-79 0 -127.5 -77t-48.5 -212v-12q0 -134 49.5 -211.5t128.5 -77.5t128.5 77.5t49.5 211.5v12q0 134 -50 211.5t-130 77.5z" />
    <glyph glyph-name="one.den" horiz-adv-x="700" 
d="M475 0h-149v682l-170 -64l-41 125l245 97h115v-840z" />
    <glyph glyph-name="one.den_alt" horiz-adv-x="860" 
d="M754 0h-596v131h233v551l-203 -74l-41 125l279 107h115v-709h213v-131z" />
    <glyph glyph-name="two.den" horiz-adv-x="860" 
d="M121 0v129l297 248q83 70 117 116t34 99t-38.5 86t-96.5 33q-107 0 -198 -127l-109 84q65 92 136.5 137t180.5 45q124 0 202.5 -68.5t78.5 -177.5q0 -84 -42 -150.5t-140 -144.5l-217 -176h405v-133h-610z" />
    <glyph glyph-name="three.den" horiz-adv-x="860" 
d="M424 -20q-190 0 -324 137l93 108q107 -110 233 -110q61 0 104 35.5t43 91.5q0 60 -51 92.5t-133 32.5h-86l-24 94l243 231h-368v135h557v-116l-248 -232q116 -8 189 -67t73 -166q0 -119 -83 -192.5t-218 -73.5z" />
    <glyph glyph-name="four.den" horiz-adv-x="860" 
d="M659 176v-180h-139v180h-401l-21 139l406 523h155v-541h113v-121h-113zM522 297v371l-286 -371h286z" />
    <glyph glyph-name="five.den" horiz-adv-x="860" 
d="M422 -20q-172 0 -318 126l91 113q114 -102 229 -102q73 0 119.5 38.5t46.5 100.5t-46 98.5t-122 36.5q-92 0 -168 -37l-96 58l32 415h510v-137h-387l-14 -194q67 24 152 24q126 0 208 -67.5t82 -188.5q0 -128 -88.5 -206t-230.5 -78z" />
    <glyph glyph-name="six.den" horiz-adv-x="860" 
d="M432 -20q-136 0 -217 81q-52 52 -79 126.5t-27 199.5v4q0 209 93.5 334t262.5 125q78 0 133.5 -22t108.5 -68l-76 -117q-80 70 -172 70q-79 0 -135 -69.5t-60 -178.5q84 70 195 70q116 0 195 -71.5t79 -195.5q0 -127 -85.5 -207.5t-215.5 -80.5zM428 109q70 0 115 42
t45 109q0 72 -43 113t-115 41q-73 0 -118.5 -41.5t-45.5 -112.5v-2q0 -65 47.5 -107t114.5 -42z" />
    <glyph glyph-name="seven.den" horiz-adv-x="860" 
d="M365 -4h-168l360 690h-414v141h586v-114z" />
    <glyph glyph-name="eight.den" horiz-adv-x="860" 
d="M430 -20q-140 0 -226.5 66.5t-86.5 176.5q0 141 141 207q-119 68 -119 188q0 99 82.5 165.5t210.5 66.5q125 0 207 -66.5t82 -165.5q0 -120 -119 -188q141 -69 141 -203q0 -115 -87 -181t-226 -66zM430 727q-66 0 -107.5 -33.5t-41.5 -87.5q0 -57 41.5 -92t107.5 -35
t108 35t42 92q0 54 -42 87.5t-108 33.5zM430 365q-75 0 -123.5 -37t-48.5 -97t47 -96.5t125 -36.5t124 36.5t46 96.5t-47.5 97t-122.5 37z" />
    <glyph glyph-name="nine.den" horiz-adv-x="860" 
d="M428 848q135 0 217 -82q52 -52 79.5 -127t27.5 -197v-4q0 -214 -93 -336t-264 -122q-144 0 -256 94l76 116q81 -75 186 -75q79 0 134 66t59 173q-83 -69 -191 -69q-116 0 -196 71.5t-80 198.5q0 128 85.5 210.5t215.5 82.5zM430 406q73 0 118.5 43t45.5 114v2
q0 66 -48 111t-114 43q-70 0 -115 -42.5t-45 -113.5q0 -72 43 -114.5t115 -42.5z" />
    <glyph glyph-name="onehalf.alt" horiz-adv-x="1935" 
d="M750 664h-596v131h233v551l-203 -76l-41 127l279 106h115v-708h213v-131zM1210 0v129l297 248q84 71 118 116.5t34 98.5t-38.5 86t-96.5 33q-108 0 -199 -127l-108 84q65 92 136.5 137t180.5 45q124 0 202.5 -68.5t78.5 -177.5q0 -83 -42.5 -150t-140.5 -145l-217 -176
h406v-133h-611zM430 0l535 774l477 717h147l-534 -774l-477 -717h-148z" />
    <glyph glyph-name="onethird.alt" horiz-adv-x="1935" 
d="M750 664h-596v131h233v551l-203 -76l-41 127l279 106h115v-708h213v-131zM1513 -20q-189 0 -323 137l92 108q107 -110 234 -110q61 0 104 35.5t43 91.5q0 60 -51 92.5t-133 32.5h-86l-25 94l244 231h-369v135h557v-116l-248 -232q116 -8 189.5 -67t73.5 -166
q0 -119 -83.5 -192.5t-218.5 -73.5zM408 0l534 774l477 717h148l-535 -774l-477 -717h-147z" />
    <glyph glyph-name="onequarter.alt" horiz-adv-x="1935" 
d="M750 664h-596v131h233v551l-203 -76l-41 127l279 106h115v-708h213v-131zM440 0l535 774l477 717h147l-534 -774l-477 -717h-148zM1729 176v-180h-140v180h-401l-21 139l406 523h156v-541h112v-121h-112zM1591 297v371l-286 -371h286z" />
    <glyph glyph-name="onefifth.alt" horiz-adv-x="1935" 
d="M750 664h-596v131h233v551l-203 -76l-41 127l279 106h115v-708h213v-131zM1511 -20q-171 0 -317 126l90 113q114 -102 229 -102q73 0 119.5 38.5t46.5 100.5t-46 98.5t-122 36.5q-92 0 -168 -37l-96 58l33 415h510v-137h-387l-14 -194q67 24 151 24q126 0 208.5 -68
t82.5 -188q0 -128 -89 -206t-231 -78zM420 0l534 774l478 717h147l-535 -774l-477 -717h-147z" />
    <glyph glyph-name="onesixth.alt" horiz-adv-x="1935" 
d="M750 664h-596v131h233v551l-203 -76l-41 127l279 106h115v-708h213v-131zM1522 -20q-136 0 -217 81q-52 52 -79.5 126.5t-27.5 199.5v4q0 209 93.5 334t262.5 125q78 0 133.5 -22t108.5 -68l-76 -117q-80 70 -172 70q-79 0 -134.5 -69.5t-59.5 -178.5q84 70 194 70
q116 0 195.5 -71.5t79.5 -195.5q0 -127 -85.5 -207.5t-215.5 -80.5zM1518 109q69 0 114 42t45 109q0 72 -42.5 113t-114.5 41q-73 0 -118.5 -41.5t-45.5 -112.5v-2q0 -65 47.5 -107t114.5 -42zM420 0l534 774l478 717h147l-535 -774l-477 -717h-147z" />
    </font>
</defs>
</svg>
