<?xml version="1.0" standalone="no"?>
<!DOCTYPE svg PUBLIC "-//W3C//DTD SVG 1.1//EN" "http://www.w3.org/Graphics/SVG/1.1/DTD/svg11.dtd" >
<svg xmlns="http://www.w3.org/2000/svg" xmlns:xlink="http://www.w3.org/1999/xlink" version="1.1">
<metadata>
Created by FontForge 20201107 at Mon Apr  7 19:28:50 2025
 By 
Copyright (C) 2001, 2010 Hoefler &#38; Co. http://www.typography.com |DCNT
</metadata>
<defs>
<font id="GothamSSm-MediumItalic" horiz-adv-x="860" >
  <font-face 
    font-family="GothamSSm Medium"
    font-weight="500"
    font-style="italic"
    font-stretch="normal"
    units-per-em="2048"
    panose-1="0 0 0 0 0 0 0 0 0 0"
    ascent="1638"
    descent="-410"
    x-height="1122"
    cap-height="1491"
    bbox="-668 -575 2603 2142"
    underline-thickness="102"
    underline-position="-204"
    slope="-15"
    unicode-range="U+0020-FB04"
  />
<missing-glyph horiz-adv-x="1024" 
d="M0 -410v2048h1024v-2048h-1024zM102 -156l353 770l-353 770v-1540zM145 -307h734l-367 799zM512 737l367 799h-734zM922 -156v1540l-353 -770z" />
    <glyph glyph-name="f_f" unicode="ff" horiz-adv-x="1697" 
d="M84 0l244 909h-144l58 213h143l21 84q44 165 129 250q109 109 296 109q135 0 220 -39l-54 -207q-84 35 -161 35q-142 0 -189 -164l-18 -68h315l-57 -213h-314l-243 -909h-246zM924 0l243 909h-143l57 213h144l20 84q44 165 129 250q109 109 297 109q134 0 219 -39
l-53 -207q-84 35 -162 35q-141 0 -188 -164l-19 -68h316l-58 -213h-313l-244 -909h-245z" />
    <glyph glyph-name="fi" unicode="fi" horiz-adv-x="1464" 
d="M879 0l301 1122h245l-301 -1122h-245zM1219 1303l63 237h268l-65 -237h-266zM84 0l244 909h-144l58 213h143l21 84q44 165 129 250q109 109 296 109q135 0 220 -39l-54 -207q-84 35 -161 35q-142 0 -189 -164l-18 -68h315l-57 -213h-314l-243 -909h-246z" />
    <glyph glyph-name="fl" unicode="fl" horiz-adv-x="1464" 
d="M879 0l417 1554h246l-418 -1554h-245zM84 0l244 909h-144l58 213h143l21 84q44 165 129 250q109 109 296 109q135 0 220 -39l-54 -207q-84 35 -161 35q-142 0 -189 -164l-18 -68h315l-57 -213h-314l-243 -909h-246z" />
    <glyph glyph-name="f_f_i" unicode="ffi" horiz-adv-x="2301" 
d="M1716 0l301 1122h246l-301 -1122h-246zM2056 1303l64 237h268l-66 -237h-266zM84 0l244 909h-144l58 213h143l21 84q44 165 129 250q109 109 296 109q135 0 220 -39l-54 -207q-84 35 -161 35q-142 0 -189 -164l-18 -68h315l-57 -213h-314l-243 -909h-246zM924 0l243 909
h-143l57 213h144l20 84q44 165 129 250q109 109 297 109q134 0 219 -39l-53 -207q-84 35 -162 35q-141 0 -188 -164l-19 -68h316l-58 -213h-313l-244 -909h-245z" />
    <glyph glyph-name="f_f_l" unicode="ffl" horiz-adv-x="2301" 
d="M1716 0l418 1554h246l-418 -1554h-246zM84 0l244 909h-144l58 213h143l21 84q44 165 129 250q109 109 296 109q135 0 220 -39l-54 -207q-84 35 -161 35q-142 0 -189 -164l-18 -68h315l-57 -213h-314l-243 -909h-246zM924 0l243 909h-143l57 213h144l20 84q44 165 129 250
q109 109 297 109q134 0 219 -39l-53 -207q-84 35 -162 35q-141 0 -188 -164l-19 -68h316l-58 -213h-313l-244 -909h-245z" />
    <glyph glyph-name=".notdef" horiz-adv-x="1024" 
d="M0 -410v2048h1024v-2048h-1024zM102 -156l353 770l-353 770v-1540zM145 -307h734l-367 799zM512 737l367 799h-734zM922 -156v1540l-353 -770z" />
    <glyph glyph-name=".null" horiz-adv-x="0" 
 />
    <glyph glyph-name="nonmarkingreturn" horiz-adv-x="682" 
 />
    <glyph glyph-name="space" unicode=" " horiz-adv-x="651" 
 />
    <glyph glyph-name="exclam" unicode="!" horiz-adv-x="657" 
d="M233 467l177 944l22 80h291l-23 -80l-329 -944h-138zM41 0l76 285h274l-78 -285h-272z" />
    <glyph glyph-name="quotedbl" unicode="&#x22;" horiz-adv-x="1056" 
d="M223 860l185 631h282l-2 -10l-334 -621h-131zM692 860l185 631h282l-2 -10l-334 -621h-131z" />
    <glyph glyph-name="numbersign" unicode="#" horiz-adv-x="1482" 
d="M133 0l121 346h-203l58 213h219l133 381h-228l56 213h246l118 338h219l-118 -338h354l119 338h219l-119 -338h203l-55 -213h-222l-133 -381h230l-56 -213h-247l-121 -346h-219l120 346h-354l-121 -346h-219zM547 559h354l133 381h-354z" />
    <glyph glyph-name="dollar" unicode="$" horiz-adv-x="1361" 
d="M909 1614h181l-43 -148q200 -50 342 -192l-172 -168q-104 104 -240 145l-119 -409q179 -66 265.5 -154.5t86.5 -234.5q0 -132 -75 -235.5t-207 -160.5t-297 -57h-15l-61 -209h-180l67 225q-279 53 -440 254l184 154q134 -152 326 -195l125 430q-90 33 -152 66t-113 78.5
t-75.5 106t-24.5 137.5q0 125 73.5 227t200.5 159.5t281 57.5q31 0 45 -2zM530 1073q0 -57 39 -96t138 -80l108 377h-4q-134 0 -207.5 -57.5t-73.5 -143.5zM952 426q0 57 -38 97t-130 81l-110 -387h2q128 5 202.5 61t73.5 148z" />
    <glyph glyph-name="percent" unicode="%" horiz-adv-x="1851" 
d="M512 737q-141 0 -228 89.5t-87 230.5q0 94 35.5 181t101.5 153q116 116 272 116q141 0 228.5 -89t87.5 -230q0 -94 -36 -181t-102 -153q-117 -117 -272 -117zM522 889q74 0 135 61q43 43 68 105t25 125q0 80 -41.5 128t-112.5 48q-73 0 -135 -62q-42 -41 -67 -103
t-25 -124q0 -82 40.5 -130t112.5 -48zM141 0l719 743l721 748h225l-719 -743l-720 -748h-226zM1341 -16q-140 0 -227.5 89.5t-87.5 229.5q0 94 35.5 181t101.5 153q117 117 275 117q140 0 227.5 -90t87.5 -230q0 -93 -36.5 -180.5t-102.5 -153.5q-116 -116 -273 -116z
M1354 135q73 0 135 62q42 41 67 103t25 124q0 82 -42 130t-114 48q-74 0 -135 -61q-43 -43 -67.5 -105t-24.5 -125q0 -80 41.5 -128t114.5 -48z" />
    <glyph glyph-name="ampersand" unicode="&#x26;" horiz-adv-x="1499" 
d="M1260 748l157 -107q-137 -214 -246 -328l164 -223l-186 -121l-139 193q-229 -182 -488 -182q-202 0 -329 104t-127 285q0 158 113.5 285.5t342.5 193.5q-86 138 -86 268q0 167 126 283.5t319 116.5q174 0 282.5 -95.5t108.5 -244.5q0 -277 -432 -412l215 -295
q115 128 205 279zM549 188q168 0 346 134l-270 378q-161 -52 -240.5 -134t-79.5 -179q0 -92 64 -145.5t180 -53.5zM662 1114q0 -94 73 -205q171 54 239 114.5t68 137.5q0 66 -45.5 111t-126.5 45q-90 0 -149 -59.5t-59 -143.5z" />
    <glyph glyph-name="quotesingle" unicode="'" horiz-adv-x="587" 
d="M223 860l185 631h282l-2 -10l-334 -621h-131z" />
    <glyph glyph-name="parenleft" unicode="(" horiz-adv-x="956" 
d="M700 -147l-153 -156q-180 150 -281.5 340t-101.5 416q0 414 315 735q204 204 527 336l90 -185q-247 -109 -414 -276q-266 -266 -266 -604q0 -311 284 -606z" />
    <glyph glyph-name="parenright" unicode=")" horiz-adv-x="956" 
d="M285 1374l151 156q180 -150 281.5 -340t101.5 -414q0 -422 -315 -737q-201 -204 -527 -336l-90 184q256 119 414 277q266 266 266 604q0 313 -282 606z" />
    <glyph glyph-name="asterisk" unicode="*" horiz-adv-x="935" 
d="M596 811l-139 37l94 244l-246 -95l-39 142l262 41l-206 166l104 104l166 -207l39 258l141 -35l-96 -245l248 94l39 -141l-265 -39l209 -168l-106 -103l-164 205z" />
    <glyph glyph-name="plus" unicode="+" horiz-adv-x="1368" 
d="M477 227l111 410h-412l60 225h413l109 410h235l-110 -410h411l-59 -225h-414l-108 -410h-236z" />
    <glyph glyph-name="comma" unicode="," horiz-adv-x="634" 
d="M-84 -303l-18 104q108 17 164.5 66.5t74.5 132.5h-106l75 285h275l-66 -242q-49 -173 -142.5 -253.5t-256.5 -92.5z" />
    <glyph glyph-name="hyphen" unicode="-" horiz-adv-x="894" 
d="M127 528l66 244h624l-65 -244h-625z" />
    <glyph glyph-name="period" unicode="." horiz-adv-x="634" 
d="M31 0l75 285h275l-78 -285h-272z" />
    <glyph glyph-name="slash" unicode="/" horiz-adv-x="1126" 
d="M-266 -272l1476 1972h238l-1477 -1972h-237z" />
    <glyph glyph-name="zero" unicode="0" horiz-adv-x="1560" 
d="M944 1516q255 0 404 -164t149 -434q0 -202 -76.5 -398t-214.5 -334q-211 -211 -495 -211q-255 0 -404 164t-149 434q0 202 76.5 398t214.5 334q211 211 495 211zM729 203q154 0 283 129q104 104 165.5 265t61.5 323q0 172 -82.5 270t-230.5 98q-152 0 -281 -129
q-105 -105 -167 -266t-62 -322q0 -171 83 -269.5t230 -98.5z" />
    <glyph glyph-name="one" unicode="1" horiz-adv-x="870" 
d="M211 0l330 1231l-285 -74l-4 215l434 129h176l-401 -1501h-250z" />
    <glyph glyph-name="two" unicode="2" horiz-adv-x="1308" 
d="M-45 0l53 203l797 581q123 91 177 161t54 151q0 88 -61.5 139t-171.5 51q-104 0 -194.5 -50t-184.5 -144l-158 159q232 260 549 260q216 0 348.5 -108.5t132.5 -282.5q0 -131 -78.5 -241.5t-259.5 -243.5l-561 -414h707l-60 -221h-1089z" />
    <glyph glyph-name="three" unicode="3" horiz-adv-x="1308" 
d="M532 -25q-197 0 -331.5 75t-206.5 210l190 135q63 -97 148 -145.5t211 -48.5q145 0 244.5 77.5t99.5 188.5q0 104 -89.5 159.5t-246.5 55.5h-82l-16 152l518 438h-647l61 219h989l-51 -188l-541 -445q164 -26 262.5 -118t98.5 -251q0 -191 -142 -333q-87 -87 -208 -134
t-261 -47z" />
    <glyph glyph-name="four" unicode="4" horiz-adv-x="1413" 
d="M721 0l90 336h-731l-27 188l1067 977h242l-256 -958h215l-55 -207h-215l-90 -336h-240zM377 543h489l166 612z" />
    <glyph glyph-name="five" unicode="5" horiz-adv-x="1312" 
d="M545 -25q-166 0 -312 75.5t-223 191.5l180 147q148 -186 375 -186q158 0 261.5 88t103.5 209q0 107 -80 171t-225 64q-121 0 -250 -63l-133 106l233 713h868l-61 -223h-641l-121 -357q107 35 201 35q210 0 338.5 -115.5t128.5 -306.5q0 -208 -152 -360
q-189 -189 -491 -189z" />
    <glyph glyph-name="six" unicode="6" horiz-adv-x="1388" 
d="M680 -25q-239 0 -375 136q-151 151 -151 417q0 225 77.5 426.5t217.5 341.5q217 220 518 220q274 0 450 -181l-151 -178q-133 133 -320 133q-186 0 -323 -137q-67 -67 -119 -166t-72 -203q58 71 163 120.5t222 49.5q203 0 333 -117t130 -305q0 -104 -43 -203t-119 -175
q-179 -179 -438 -179zM682 188q151 0 252 101q90 90 90 215q0 104 -72.5 174t-201.5 70q-160 0 -263 -103q-88 -88 -88 -203q0 -104 72 -176q78 -78 211 -78z" />
    <glyph glyph-name="seven" unicode="7" horiz-adv-x="1294" 
d="M82 0l954 1270h-747l61 221h1043l-52 -188l-964 -1303h-295z" />
    <glyph glyph-name="eight" unicode="8" horiz-adv-x="1415" 
d="M645 -20q-154 0 -282.5 52t-203.5 146t-75 211q0 114 55.5 200.5t144 136t208.5 75.5q-91 42 -144 121t-53 178q0 78 38 151.5t106 131.5t174 93t231 35q226 0 371 -111t145 -282q0 -144 -94 -242.5t-252 -134.5q106 -41 172.5 -124.5t66.5 -200.5q0 -182 -168.5 -309
t-439.5 -127zM659 186q153 0 249.5 67t97.5 177q0 96 -90 160.5t-236 64.5q-153 0 -250.5 -70t-97.5 -173q0 -99 89.5 -162.5t237.5 -63.5zM813 860q137 0 222 67.5t85 162.5q2 94 -75.5 153.5t-210.5 59.5q-129 0 -216.5 -66t-87.5 -164q0 -93 78 -153t205 -60z" />
    <glyph glyph-name="nine" unicode="9" horiz-adv-x="1388" 
d="M528 -25q-275 0 -475 197l152 178q79 -74 158 -111.5t178 -37.5q184 0 323 139q68 68 117.5 160.5t69.5 191.5q-62 -71 -163.5 -121.5t-221.5 -50.5q-204 0 -332.5 117.5t-128.5 312.5q0 225 164 389q177 177 438 177q111 0 210.5 -34.5t164.5 -99.5q76 -76 113.5 -180
t37.5 -258q0 -218 -79 -414t-220 -337q-218 -218 -506 -218zM739 729q156 0 256 100q90 93 90 218q0 113 -69 176q-77 80 -211 80q-151 0 -250 -99q-93 -93 -96 -225q0 -112 74 -181t206 -69z" />
    <glyph glyph-name="colon" unicode=":" horiz-adv-x="641" 
d="M35 0l76 285h274l-78 -285h-272zM258 838l78 284h272l-76 -284h-274z" />
    <glyph glyph-name="semicolon" unicode=";" horiz-adv-x="641" 
d="M-80 -303l-20 104q112 17 168.5 66.5t70.5 132.5h-104l76 285h274l-66 -242q-49 -173 -142.5 -253.5t-256.5 -92.5zM258 838l78 284h272l-76 -284h-274z" />
    <glyph glyph-name="less" unicode="&#x3c;" horiz-adv-x="1368" 
d="M1061 166l-889 473l59 221l1143 473l-67 -248l-863 -346l676 -348z" />
    <glyph glyph-name="equal" unicode="=" horiz-adv-x="1368" 
d="M137 371l62 229h995l-61 -229h-996zM281 899l61 229h993l-59 -229h-995z" />
    <glyph glyph-name="greater" unicode="&#x3e;" horiz-adv-x="1368" 
d="M90 166l70 250l860 346l-676 346l62 225l888 -473l-59 -221z" />
    <glyph glyph-name="question" unicode="?" horiz-adv-x="1171" 
d="M399 467l52 344l12 10q221 18 343 89t122 190q0 86 -61.5 134t-168.5 48q-176 0 -344 -147l-135 163q100 100 231.5 155.5t280.5 55.5q208 0 333.5 -110.5t125.5 -270.5q0 -191 -147 -313t-406 -160l-72 -188h-166zM225 0l76 285h274l-77 -285h-273z" />
    <glyph glyph-name="at" unicode="@" horiz-adv-x="2107" 
d="M1024 -334q-196 0 -362 61t-281.5 169.5t-180.5 263t-65 336.5q0 203 82 391.5t220.5 328t332 223t406.5 83.5q194 0 356.5 -59.5t270 -161t166.5 -236t59 -285.5q0 -125 -28 -231.5t-75.5 -179.5t-110 -124.5t-130.5 -75.5t-138 -24q-108 0 -180 47.5t-102 133.5
q-163 -185 -361 -185q-146 0 -243 96.5t-97 262.5q0 121 46 230t120 184.5t169.5 120t193.5 44.5q206 0 297 -178l49 160l188 -53l-160 -508q-22 -67 -22 -119q0 -67 40 -105t109 -38q57 0 117 35t113 100t87 171.5t34 235.5q0 135 -53 254.5t-149.5 210.5t-243 144
t-322.5 53q-195 0 -373 -77.5t-305.5 -206t-203 -302.5t-75.5 -360q0 -222 100.5 -393t283.5 -265t421 -94q222 0 438 94l33 -69q-223 -103 -471 -103zM981 315q84 0 163.5 51.5t130 139t50.5 184.5q0 94 -59.5 153.5t-157.5 59.5q-129 0 -228.5 -112t-99.5 -265
q0 -98 54 -154.5t147 -56.5z" />
    <glyph glyph-name="A" unicode="A" horiz-adv-x="1644" 
d="M-94 0l1061 1501h241l256 -1501h-258l-57 362h-717l-254 -362h-272zM584 588h532l-100 620z" />
    <glyph glyph-name="B" unicode="B" horiz-adv-x="1548" 
d="M53 0l402 1491h569q234 0 359.5 -98t125.5 -258q0 -151 -94 -249.5t-252 -131.5q236 -88 236 -305q0 -201 -169 -325t-466 -124h-711zM360 223h439q162 0 255 64t93 176q0 87 -72 134.5t-198 47.5h-404zM530 858h375q165 0 257.5 62t92.5 174q0 83 -64 128.5t-190 45.5
h-362z" />
    <glyph glyph-name="C" unicode="C" horiz-adv-x="1574" 
d="M842 -27q-142 0 -265 44.5t-213 125.5t-141 201t-51 264q0 182 71 348.5t201 294.5q126 126 286.5 195.5t342.5 69.5q391 0 580 -318l-209 -141q-75 112 -167.5 169.5t-232.5 57.5q-229 0 -405 -176q-95 -95 -150 -224t-55 -268q0 -184 115 -296.5t297 -112.5
q120 0 212 42.5t193 129.5l164 -166q-118 -113 -255.5 -176.5t-317.5 -63.5z" />
    <glyph glyph-name="D" unicode="D" horiz-adv-x="1671" 
d="M53 0l402 1491h399q387 0 582 -195q161 -161 161 -432q0 -343 -239 -585q-279 -279 -774 -279h-531zM1231 1133q-131 131 -395 131h-191l-278 -1037h247q168 0 310.5 53.5t244.5 155.5q80 80 124 187t44 229q0 178 -106 281z" />
    <glyph glyph-name="E" unicode="E" horiz-adv-x="1425" 
d="M53 0l402 1491h1091l-61 -225h-842l-106 -404h745l-61 -223h-746l-110 -414h852l-62 -225h-1102z" />
    <glyph glyph-name="F" unicode="F" horiz-adv-x="1427" 
d="M53 0l402 1491h1104l-62 -229h-854l-113 -420h758l-61 -230h-756l-166 -612h-252z" />
    <glyph glyph-name="G" unicode="G" horiz-adv-x="1685" 
d="M852 -27q-106 0 -205 25.5t-185.5 78.5t-151 128t-101.5 180t-37 229q0 176 70 339.5t198 291.5q127 127 295.5 199t360.5 72q392 0 585 -265l-188 -159q-48 60 -99.5 100t-133.5 67t-185 27q-256 0 -442 -186q-93 -93 -146 -218t-53 -259q0 -196 121 -307t313 -111
q188 0 324 80l94 323h-389l59 221h633l-200 -708q-253 -148 -537 -148z" />
    <glyph glyph-name="H" unicode="H" horiz-adv-x="1630" 
d="M53 0l402 1491h252l-168 -625h718l166 625h252l-399 -1491h-252l170 633h-717l-172 -633h-252z" />
    <glyph glyph-name="I" unicode="I" horiz-adv-x="690" 
d="M68 0l401 1491h252l-399 -1491h-254z" />
    <glyph glyph-name="J" unicode="J" horiz-adv-x="1224" 
d="M416 -20q-156 0 -276 74t-187 206l184 143q56 -99 124.5 -145.5t164.5 -46.5q131 0 225 94q44 44 76 112t68 199l233 875h258l-250 -932q-42 -161 -88.5 -256.5t-122.5 -171.5q-151 -151 -409 -151z" />
    <glyph glyph-name="K" unicode="K" horiz-adv-x="1558" 
d="M53 0l402 1491h252l-207 -768l897 768h346l-762 -639l385 -852h-279l-309 702l-366 -307l-107 -395h-252z" />
    <glyph glyph-name="L" unicode="L" horiz-adv-x="1335" 
d="M53 0l402 1491h252l-338 -1262h788l-61 -229h-1043z" />
    <glyph glyph-name="M" unicode="M" horiz-adv-x="1861" 
d="M53 0l402 1491h250l266 -719l653 719h283l-400 -1491h-252l291 1085l-665 -714h-9l-282 710l-291 -1081h-246z" />
    <glyph glyph-name="N" unicode="N" horiz-adv-x="1693" 
d="M53 0l402 1491h231l518 -1073l289 1073h248l-402 -1491h-209l-534 1102l-295 -1102h-248z" />
    <glyph glyph-name="O" unicode="O" horiz-adv-x="1802" 
d="M1059 1516q147 0 272 -50t211.5 -137.5t135 -208t48.5 -258.5q0 -176 -70 -340.5t-196 -290.5q-122 -122 -279.5 -190t-338.5 -68q-147 0 -272.5 50.5t-212 138t-135 208t-48.5 257.5q0 176 70.5 342t195.5 291q122 121 280 188.5t339 67.5zM868 205q226 0 398 172
q93 92 145.5 217.5t52.5 255.5q0 191 -116.5 312.5t-315.5 121.5q-227 0 -397 -170q-94 -94 -146.5 -219t-52.5 -254q0 -193 116.5 -314.5t315.5 -121.5z" />
    <glyph glyph-name="P" unicode="P" horiz-adv-x="1454" 
d="M53 0l402 1491h469q155 0 263 -34t185 -111q111 -111 111 -293q0 -222 -146 -365q-199 -199 -583 -199h-316l-133 -489h-252zM1163 1184q-77 80 -248 80h-272l-147 -553h270q257 0 375 118q80 80 80 205q0 95 -58 150z" />
    <glyph glyph-name="Q" unicode="Q" horiz-adv-x="1802" 
d="M1059 1516q147 0 272 -50t211.5 -137.5t135 -208t48.5 -258.5q0 -176 -71.5 -342t-202.5 -295l133 -164l-203 -139l-114 162q-193 -111 -426 -111q-147 0 -272.5 50.5t-212 138t-135 208t-48.5 257.5q0 176 70.5 342t195.5 291q122 121 280 188.5t339 67.5zM868 205
q145 0 262 69l-210 269l204 143l183 -266q75 93 116 204t41 226q0 191 -116.5 312.5t-315.5 121.5q-227 0 -397 -170q-94 -94 -146.5 -219t-52.5 -254q0 -193 116.5 -314.5t315.5 -121.5z" />
    <glyph glyph-name="R" unicode="R" horiz-adv-x="1558" 
d="M1030 0l-262 526h-2h-320l-141 -526h-252l402 1491h538q306 0 449 -143q108 -108 108 -281q0 -203 -135 -338q-131 -131 -379 -178l281 -551h-287zM508 750h346q241 0 358 114q76 79 76 183q0 86 -53 139q-78 78 -254 78h-336z" />
    <glyph glyph-name="S" unicode="S" horiz-adv-x="1376" 
d="M641 -20q-210 0 -369.5 71t-259.5 207l189 156q96 -108 203.5 -160.5t250.5 -52.5q130 0 214.5 60t84.5 155q0 69 -59 118t-219 115q-96 37 -161.5 73t-120 83t-81 107.5t-26.5 136.5q0 174 125 299q78 78 193.5 120.5t254.5 42.5q340 0 543 -223l-176 -170
q-87 87 -179.5 129.5t-207.5 42.5q-129 0 -207 -61t-78 -144q0 -71 61.5 -117.5t233.5 -115.5q93 -37 156 -72.5t114.5 -82.5t76 -107t24.5 -137q0 -179 -129 -308q-81 -81 -197.5 -123t-253.5 -42z" />
    <glyph glyph-name="T" unicode="T" horiz-adv-x="1337" 
d="M387 0l338 1260h-477l61 231h1207l-64 -231h-475l-338 -1260h-252z" />
    <glyph glyph-name="U" unicode="U" horiz-adv-x="1642" 
d="M745 -23q-261 0 -405.5 131t-144.5 359q0 124 32 235l211 789h252l-221 -825q-20 -70 -20 -164q0 -134 82 -213.5t239 -79.5q164 0 285 115q110 107 168 317l227 850h252l-238 -889q-77 -284 -233 -440q-182 -185 -486 -185z" />
    <glyph glyph-name="V" unicode="V" horiz-adv-x="1554" 
d="M502 -10l-213 1501h268l141 -1155l762 1155h283l-1018 -1501h-223z" />
    <glyph glyph-name="W" unicode="W" horiz-adv-x="2355" 
d="M420 -10l-119 1501h262l66 -1120l667 1124h213l72 -1124l666 1120h284l-923 -1501h-230l-78 1075l-653 -1075h-227z" />
    <glyph glyph-name="X" unicode="X" horiz-adv-x="1505" 
d="M-78 0l742 772l-347 719h281l246 -541l504 541h321l-717 -750l357 -741h-281l-258 565l-524 -565h-324z" />
    <glyph glyph-name="Y" unicode="Y" horiz-adv-x="1419" 
d="M418 0l160 594l-338 897h280l234 -682l604 682h309l-844 -926l-153 -565h-252z" />
    <glyph glyph-name="Z" unicode="Z" horiz-adv-x="1468" 
d="M-31 0l49 184l1156 1086h-836l61 221h1184l-51 -184l-1155 -1086h872l-59 -221h-1221z" />
    <glyph glyph-name="bracketleft" unicode="[" horiz-adv-x="985" 
d="M8 -276l475 1767h652l-54 -193h-413l-371 -1382h414l-52 -192h-651z" />
    <glyph glyph-name="backslash" unicode="\" horiz-adv-x="1126" 
d="M735 -272l-452 1972h206l455 -1972h-209z" />
    <glyph glyph-name="bracketright" unicode="]" horiz-adv-x="985" 
d="M999 1491l-475 -1767h-649l51 192h416l371 1382h-416l53 193h649z" />
    <glyph glyph-name="asciicircum" unicode="^" horiz-adv-x="1085" 
d="M223 1051l443 442h176l202 -442h-172l-145 286l-297 -286h-207z" />
    <glyph glyph-name="underscore" unicode="_" horiz-adv-x="1298" 
d="M-233 -340l51 193h1288l-53 -193h-1286z" />
    <glyph glyph-name="grave" unicode="`" horiz-adv-x="1085" 
d="M764 1268l-191 241l232 103l129 -344h-170z" />
    <glyph glyph-name="a" unicode="a" horiz-adv-x="1259" 
d="M377 -23q-144 0 -242 84.5t-98 221.5q0 161 106 270q138 135 385 135q178 0 355 -55l6 20q14 54 14 95q0 176 -256 176q-153 0 -307 -60l-41 199q181 74 397 74q218 0 332.5 -90t114.5 -256q0 -74 -23 -164l-168 -627h-239l39 152q-158 -175 -375 -175zM475 156
q118 0 221 78.5t135 195.5l15 53q-137 45 -283 45q-144 0 -221 -77q-57 -57 -57 -140q0 -70 51.5 -112.5t138.5 -42.5z" />
    <glyph glyph-name="b" unicode="b" horiz-adv-x="1441" 
d="M709 -23q-265 0 -383 228l-56 -205h-247l417 1554h248l-160 -587q85 86 173 132t194 46q191 0 314.5 -131t123.5 -348q0 -150 -54.5 -280.5t-150.5 -225.5q-87 -88 -195 -135.5t-224 -47.5zM680 188q147 0 258 111q139 139 139 348q0 133 -74 210t-198 77
q-150 0 -273 -123q-143 -143 -143 -332q0 -127 81.5 -209t209.5 -82z" />
    <glyph glyph-name="c" unicode="c" horiz-adv-x="1214" 
d="M616 -25q-143 0 -258.5 60t-183.5 174.5t-68 263.5q0 137 51.5 259t145.5 216t213 145.5t250 51.5q312 0 455 -254l-193 -133q-50 83 -114 127.5t-166 44.5q-141 0 -254 -113q-67 -67 -104.5 -156t-37.5 -186q0 -131 80 -210t195 -79q82 0 150 32.5t141 96.5l131 -161
q-94 -87 -197 -133t-236 -46z" />
    <glyph glyph-name="d" unicode="d" horiz-adv-x="1441" 
d="M870 0l41 154q-82 -85 -169.5 -131t-196.5 -46q-191 0 -315 130.5t-124 347.5q0 151 55 282t150 226q87 87 195.5 134.5t224.5 47.5q267 0 385 -227l170 636h248l-418 -1554h-246zM637 188q151 0 272 121q142 142 142 334q0 128 -81 209.5t-208 81.5q-147 0 -260 -113
q-64 -64 -100.5 -154.5t-36.5 -193.5q0 -130 74.5 -207.5t197.5 -77.5z" />
    <glyph glyph-name="e" unicode="e" horiz-adv-x="1296" 
d="M1163 475h-823v-4q0 -135 75.5 -215t217.5 -80q83 0 152.5 27t146.5 84l119 -156q-189 -156 -443 -156q-229 0 -366.5 133.5t-137.5 354.5q0 134 55 263t154 228q90 90 205 140.5t246 50.5q210 0 329 -122t119 -312q0 -116 -49 -236zM481 829q-80 -80 -114 -190h600
q10 38 10 80q0 99 -57 161t-172 62q-154 0 -267 -113z" />
    <glyph glyph-name="f" unicode="f" 
d="M84 0l244 909h-144l58 213h143l21 84q44 165 129 250q109 109 296 109q135 0 220 -39l-54 -207q-84 35 -161 35q-142 0 -189 -164l-18 -68h315l-57 -213h-314l-243 -909h-246z" />
    <glyph glyph-name="g" unicode="g" horiz-adv-x="1437" 
d="M532 -344q-166 0 -314.5 45t-256.5 129l137 170q199 -145 422 -145q175 0 277 102q71 71 121 233l20 72q-92 -87 -182.5 -129.5t-206.5 -42.5q-84 0 -161.5 27t-138.5 77t-97.5 128.5t-36.5 173.5q0 137 51 256t141 209q88 88 199.5 136t228.5 48q77 0 139.5 -18.5
t106.5 -53.5t74 -72t55 -86l55 207h246l-248 -929q-40 -148 -81 -229t-107 -152q-156 -156 -443 -156zM639 291q78 0 152.5 32.5t132.5 90.5q114 114 114 264q0 110 -76 183t-202 73q-155 0 -268 -113q-121 -121 -121 -282q0 -118 76 -183t192 -65z" />
    <glyph glyph-name="h" unicode="h" horiz-adv-x="1333" 
d="M23 0l417 1554h248l-156 -579q166 170 345 170q158 0 250 -90.5t92 -245.5q0 -79 -33 -195l-162 -614h-248l168 625q14 61 14 112q0 88 -52 136.5t-146 48.5q-111 0 -197.5 -80t-122.5 -211l-170 -631h-247z" />
    <glyph glyph-name="i" unicode="i" horiz-adv-x="624" 
d="M39 0l301 1122h246l-301 -1122h-246zM379 1303l63 237h269l-66 -237h-266z" />
    <glyph glyph-name="j" unicode="j" horiz-adv-x="622" 
d="M-92 -348q-95 0 -162 20l53 197q54 -12 86 -12q54 0 95 39t61 112l299 1114h246l-305 -1142q-87 -328 -373 -328zM379 1303l63 237h267l-64 -237h-266z" />
    <glyph glyph-name="k" unicode="k" horiz-adv-x="1255" 
d="M23 0l417 1554h248l-250 -925l596 493h328l-571 -458l276 -664h-279l-206 502l-226 -180l-86 -322h-247z" />
    <glyph glyph-name="l" unicode="l" horiz-adv-x="624" 
d="M39 0l418 1554h245l-417 -1554h-246z" />
    <glyph glyph-name="m" unicode="m" horiz-adv-x="2041" 
d="M23 0l301 1122h247l-39 -147q77 81 154.5 125.5t177.5 44.5q121 0 198.5 -62t108.5 -165q76 107 184 167t240 60q154 0 244 -91t90 -245q0 -57 -35 -195l-163 -614h-246l168 625q14 61 14 112q0 89 -48.5 137t-139.5 48q-107 0 -190.5 -80t-119.5 -211l-168 -631h-247
l168 625q16 56 16 112q0 88 -49 136.5t-139 48.5q-108 0 -191 -80t-119 -211l-170 -631h-247z" />
    <glyph glyph-name="n" unicode="n" horiz-adv-x="1335" 
d="M23 0l301 1122h247l-39 -147q166 170 345 170q158 0 250 -90.5t92 -245.5q0 -79 -33 -195l-162 -614h-248l168 625q14 61 14 112q0 88 -52 136.5t-146 48.5q-111 0 -197.5 -80t-122.5 -211l-170 -631h-247z" />
    <glyph glyph-name="o" unicode="o" horiz-adv-x="1394" 
d="M762 1145q237 0 381.5 -143.5t144.5 -368.5q0 -128 -52.5 -249t-145.5 -214q-195 -195 -457 -195q-238 0 -382.5 143t-144.5 367q0 129 52.5 250t146.5 215q195 195 457 195zM647 188q143 0 256 113q65 65 102 152.5t37 173.5q0 145 -80 224t-214 79q-142 0 -256 -111
q-66 -66 -103 -153t-37 -172q0 -146 79.5 -226t215.5 -80z" />
    <glyph glyph-name="p" unicode="p" horiz-adv-x="1441" 
d="M709 -23q-265 0 -383 228l-148 -545h-246l392 1462h247l-43 -155q85 86 173 132t194 46q191 0 314.5 -131t123.5 -348q0 -150 -54.5 -280.5t-150.5 -225.5q-87 -88 -195 -135.5t-224 -47.5zM680 188q147 0 258 111q139 139 139 348q0 133 -74 210t-198 77
q-150 0 -273 -123q-143 -143 -143 -332q0 -127 81.5 -209t209.5 -82z" />
    <glyph glyph-name="q" unicode="q" horiz-adv-x="1441" 
d="M545 -23q-191 0 -315 130.5t-124 347.5q0 151 55 282t150 226q87 87 195.5 134.5t224.5 47.5q267 0 385 -227l55 204h246l-391 -1462h-248l133 494q-82 -85 -169.5 -131t-196.5 -46zM637 188q151 0 272 121q142 142 142 334q0 128 -81 209.5t-208 81.5q-147 0 -260 -113
q-64 -64 -100.5 -154.5t-36.5 -193.5q0 -130 74.5 -207.5t197.5 -77.5z" />
    <glyph glyph-name="r" unicode="r" horiz-adv-x="894" 
d="M23 0l301 1122h247l-69 -258q100 144 216 216.5t263 62.5l-70 -260h-14q-178 0 -314.5 -118t-197.5 -345l-115 -420h-247z" />
    <glyph glyph-name="s" unicode="s" horiz-adv-x="1081" 
d="M473 -25q-134 0 -267.5 51.5t-228.5 147.5l148 154q161 -158 367 -158q81 0 134.5 37.5t53.5 101.5q0 43 -39.5 77t-130.5 69q-80 32 -131.5 59t-98.5 65t-69.5 86t-22.5 109q0 159 120.5 265t318.5 106q122 0 238 -46t192 -112l-139 -160q-153 123 -310 123
q-85 0 -132.5 -37.5t-47.5 -95.5q0 -42 41.5 -75.5t142.5 -75.5q62 -28 98.5 -47t82 -49t69.5 -58.5t41 -70t17 -89.5q0 -169 -126.5 -273t-320.5 -104z" />
    <glyph glyph-name="t" unicode="t" horiz-adv-x="890" 
d="M430 -18q-133 0 -206.5 59t-73.5 160q0 54 18 131l154 577h-144l58 213h143l84 312h248l-84 -312h305l-58 -213h-305l-147 -555q-10 -38 -10 -65q0 -88 118 -88q84 0 164 35l-59 -216q-83 -38 -205 -38z" />
    <glyph glyph-name="u" unicode="u" horiz-adv-x="1333" 
d="M459 -23q-158 0 -251 90.5t-93 245.5q0 69 32 195l164 614h246l-166 -624q-16 -56 -16 -113q0 -87 53 -135.5t147 -48.5q111 0 197 80t123 211l168 630h248l-301 -1122h-246l39 147q-166 -170 -344 -170z" />
    <glyph glyph-name="v" unicode="v" horiz-adv-x="1255" 
d="M352 -8l-157 1130h256l86 -833l526 833h270l-760 -1130h-221z" />
    <glyph glyph-name="w" unicode="w" horiz-adv-x="1837" 
d="M272 -8l-65 1130h252l24 -780l465 784h211l45 -786l449 782h250l-676 -1130h-221l-48 780l-469 -780h-217z" />
    <glyph glyph-name="x" unicode="x" horiz-adv-x="1236" 
d="M498 1122l166 -368l342 368h299l-547 -561l268 -561h-266l-174 391l-367 -391h-299l574 584l-263 538h267z" />
    <glyph glyph-name="y" unicode="y" horiz-adv-x="1263" 
d="M371 -4l-168 1126h254l100 -843l506 843h272l-731 -1153q-116 -173 -220.5 -245t-240.5 -72q-139 0 -254 78l134 180q62 -49 145 -49q56 0 102 29.5t101 105.5z" />
    <glyph glyph-name="z" unicode="z" horiz-adv-x="1198" 
d="M-39 0l45 170l840 750h-617l56 202h944l-45 -170l-842 -749h647l-55 -203h-973z" />
    <glyph glyph-name="braceleft" unicode="{" horiz-adv-x="1056" 
d="M750 -147l-80 -154q-198 40 -286.5 125.5t-88.5 212.5q0 74 43 207q31 95 31 139q0 68 -38.5 100.5t-146.5 32.5h-65l51 191h63q80 0 131.5 14.5t88.5 50.5q23 23 40.5 55t30 77.5t17.5 68.5t14 74q16 79 26 120t40 102.5t75 106.5q72 72 181.5 107.5t271.5 40.5l12 -170
q-201 -14 -291 -101q-43 -43 -62 -100t-34 -149q-10 -65 -20.5 -110.5t-36 -106.5t-60.5 -99q-82 -79 -223 -94q84 -17 126 -65t42 -121q0 -59 -31 -150q-41 -125 -41 -182q0 -81 48 -132t172 -91z" />
    <glyph glyph-name="bar" unicode="|" horiz-adv-x="718" 
d="M37 -272l528 1972h199l-531 -1972h-196z" />
    <glyph glyph-name="braceright" unicode="}" horiz-adv-x="1056" 
d="M334 1370l80 154q197 -40 285.5 -125t88.5 -213q0 -76 -45 -207q-28 -96 -28 -139q0 -68 38 -100.5t146 -32.5h66l-52 -191h-63q-80 0 -131 -14.5t-88 -50.5q-23 -23 -41 -55.5t-30 -76.5t-17.5 -69.5t-14.5 -73.5q-16 -80 -26 -121t-40 -102.5t-75 -106.5
q-72 -72 -181.5 -107t-271.5 -40l-12 170q202 14 291 100q43 43 62 100.5t34 149.5q10 65 20.5 110.5t36 106.5t60.5 99q82 79 223 94q-84 17 -126 65t-42 121q0 57 31 148q41 130 41 184q0 81 -47.5 132t-171.5 91z" />
    <glyph glyph-name="asciitilde" unicode="~" horiz-adv-x="1069" 
d="M291 487l-139 66q117 256 288 256q49 0 83 -15.5t77 -50.5q35 -27 47 -36t28.5 -16t33.5 -7q41 0 73 31.5t68 95.5l139 -66q-117 -256 -289 -256q-49 0 -82 15.5t-77 50.5q-35 27 -47 36t-28.5 16t-33.5 7q-41 0 -73 -31.5t-68 -95.5z" />
    <glyph glyph-name="uni00A0" unicode="&#xa0;" horiz-adv-x="0" 
 />
    <glyph glyph-name="exclamdown" unicode="&#xa1;" horiz-adv-x="657" 
d="M520 1026l-176 -946l-22 -80h-289l22 80l330 946h135zM715 1491l-78 -285h-272l75 285h275z" />
    <glyph glyph-name="cent" unicode="&#xa2;" horiz-adv-x="1247" 
d="M944 1503h180l-77 -198q171 -64 256 -224l-191 -127q-32 52 -68.5 88t-87.5 58l-280 -715h22q92 0 166.5 30.5t147.5 90.5l135 -166q-188 -170 -442 -170q-51 0 -101 6l-74 -188h-180l90 233q-134 60 -208 179t-74 278q0 277 192 469q194 194 473 194q33 0 56 -2z
M403 680q0 -171 129 -250l273 696h-2q-163 -9 -266 -118q-62 -62 -98 -148.5t-36 -179.5z" />
    <glyph glyph-name="sterling" unicode="&#xa3;" horiz-adv-x="1376" 
d="M-10 0l43 158l184 51l105 389h-170l57 211h168l61 227q55 208 170 326q150 147 381 147q298 0 434 -247l-200 -136q-47 77 -105 114.5t-147 37.5q-106 0 -185 -76q-68 -68 -108 -209l-51 -184h542l-57 -211h-541l-100 -379h703l-60 -219h-1124z" />
    <glyph glyph-name="yen" unicode="&#xa5;" horiz-adv-x="1525" 
d="M487 0l60 221h-412l49 182h412l41 160h-412l49 182h340l-301 746h275l235 -639l584 639h305l-706 -746h337l-49 -182h-413l-41 -160h413l-49 -182h-413l-60 -221h-244z" />
    <glyph glyph-name="section" unicode="&#xa7;" horiz-adv-x="1366" 
d="M1288 754q0 -54 -20.5 -99t-53.5 -76t-77.5 -53.5t-89 -35t-91.5 -17.5q105 -71 105 -182q0 -138 -126.5 -224.5t-318.5 -86.5q-156 0 -285 51t-204 139l156 143q63 -63 155.5 -102t194.5 -39q85 0 136.5 30t51.5 81q0 46 -53 77t-193 74q-78 23 -132 43t-108 47.5
t-86.5 57t-52.5 70t-20 89.5q0 65 30.5 117.5t80 85t105 51.5t114.5 25q-103 74 -103 184q0 138 127 225t318 87q156 0 285 -51.5t204 -139.5l-155 -143q-63 63 -156 102t-195 39q-85 0 -136.5 -30t-51.5 -81q0 -46 53 -77t193 -74q78 -23 132 -43t108 -47.5t86.5 -57
t52.5 -70t20 -89.5zM412 780q0 -49 50 -82.5t167 -70.5q134 -45 225 -45q84 0 141.5 38.5t57.5 94.5q0 49 -50 82.5t-167 70.5q-134 45 -226 45q-84 0 -141 -38.5t-57 -94.5z" />
    <glyph glyph-name="dieresis" unicode="&#xa8;" horiz-adv-x="1085" 
d="M387 1268l68 245h252l-68 -245h-252zM805 1268l67 245h252l-67 -245h-252z" />
    <glyph glyph-name="copyright" unicode="&#xa9;" horiz-adv-x="1787" 
d="M891 340q-158 0 -258.5 92.5t-100.5 249.5q0 98 38.5 188.5t107.5 159.5q144 144 338 144q109 0 189 -46t126 -127l-125 -86q-81 117 -202 117t-211 -90q-48 -48 -75.5 -115t-27.5 -139q0 -99 57 -153t148 -54q63 0 111 22t100 68l98 -102q-133 -129 -313 -129zM1708 840
q0 -174 -66 -335.5t-188 -283.5q-246 -246 -594 -246q-154 0 -283 52t-216.5 143t-136 215t-48.5 266q0 174 66 335.5t188 283.5q246 246 594 246q154 0 283 -52t216.5 -143t136 -215t48.5 -266zM258 655q0 -170 70 -305.5t209 -217t325 -81.5q313 0 527 217
q115 112 176 259t61 313q0 124 -41.5 233t-117.5 190.5t-191.5 129t-255.5 47.5q-309 0 -526 -217q-115 -112 -175.5 -257.5t-60.5 -310.5z" />
    <glyph glyph-name="ordfeminine" unicode="&#xaa;" horiz-adv-x="851" 
d="M414 860q-80 0 -131.5 46t-51.5 118q0 106 76.5 166.5t196.5 60.5q85 0 188 -30l4 14q9 21 9 45q0 94 -138 94q-96 0 -168 -35l-24 119q103 41 223 41q122 0 184 -49t62 -141q0 -43 -13 -90l-92 -347h-143l25 84q-93 -96 -207 -96zM471 963q63 0 119.5 44t73.5 107l6 21
q-67 24 -144 24q-67 0 -108 -32t-41 -85q0 -35 25.5 -57t68.5 -22zM125 602l31 121h551l-33 -121h-549z" />
    <glyph glyph-name="guillemotleft" unicode="&#xab;" horiz-adv-x="1294" 
d="M348 78l-242 463l7 16l501 475l134 -125l-373 -383l160 -362zM874 78l-241 463l4 16l504 475l133 -125l-373 -383l160 -362z" />
    <glyph glyph-name="registered" unicode="&#xae;" horiz-adv-x="839" 
d="M614 1511q148 0 239 -93.5t91 -231.5q0 -176 -121 -297q-117 -123 -286 -123q-149 0 -240.5 94t-91.5 234q0 174 123 297q117 120 286 120zM541 807q143 0 247 104q115 115 115 271q0 125 -79 208t-214 83q-145 0 -250 -105q-112 -115 -112 -270q0 -125 79 -208t214 -83z
M496 1077l-31 -123h-94l104 385h148q82 0 115.5 -34t33.5 -82q0 -109 -117 -136l58 -133h-95l-53 123h-69zM516 1151h72q51 0 76 25q16 16 16 36q0 48 -68 48h-67z" />
    <glyph glyph-name="macron" unicode="&#xaf;" horiz-adv-x="1085" 
d="M377 1294l47 181h727l-49 -181h-725z" />
    <glyph glyph-name="degree" unicode="&#xb0;" horiz-adv-x="909" 
d="M586 1503q140 0 225.5 -85.5t85.5 -217.5q0 -155 -117 -272q-107 -113 -266 -113q-139 0 -225 85.5t-86 217.5q0 157 116 273q112 112 267 112zM524 950q86 0 152 66q76 73 76 176q0 81 -47.5 128.5t-126.5 47.5q-91 0 -154 -63q-76 -76 -76 -179q0 -79 49 -127.5
t127 -48.5z" />
    <glyph glyph-name="plusminus" unicode="&#xb1;" horiz-adv-x="1368" 
d="M528 403l107 390h-404l60 217h403l103 389h225l-107 -389h404l-57 -217h-404l-102 -390h-228zM20 0l56 211h1030l-57 -211h-1029z" />
    <glyph glyph-name="two.sup" unicode="&#xb2;" 
d="M215 899l35 129l438 315q65 46 94 82.5t29 81.5q0 48 -33.5 75.5t-93.5 27.5q-104 0 -215 -111l-92 96q137 154 315 154q126 0 200.5 -63t74.5 -164q0 -76 -44 -141.5t-159 -139.5l-303 -209h399l-37 -133h-608z" />
    <glyph glyph-name="three.sup" unicode="&#xb3;" 
d="M549 879q-210 0 -307 141l100 96q89 -102 207 -102q81 0 134.5 40.5t53.5 100.5q0 56 -47.5 85.5t-134.5 29.5h-49l-17 90l299 231h-360l37 135h559l-31 -114l-317 -240q99 -13 157 -64t58 -141q0 -126 -98.5 -207t-243.5 -81z" />
    <glyph glyph-name="acute" unicode="&#xb4;" horiz-adv-x="1085" 
d="M485 1268l316 344l223 -103l-324 -241h-215z" />
    <glyph glyph-name="mu" unicode="&#xb5;" horiz-adv-x="1441" 
d="M176 -340h-244l392 1462h247l-157 -587q-21 -86 -21 -138q0 -96 55.5 -149t155.5 -53q111 0 188.5 66.5t112.5 195.5l180 665h246l-205 -766q-14 -54 -14 -86q0 -77 107 -77q39 0 73 6l-53 -195q-61 -18 -131 -18q-96 0 -153.5 41.5t-75.5 115.5q-116 -159 -301 -159
q-106 0 -183 53t-108 156h-4q-9 -174 -47 -314z" />
    <glyph glyph-name="paragraph" unicode="&#xb6;" horiz-adv-x="1212" 
d="M606 0l129 489q-287 9 -422 144q-106 106 -106 287q0 235 149 378q193 193 582 193h319l-401 -1491h-250z" />
    <glyph glyph-name="periodcentered" unicode="&#xb7;" horiz-adv-x="634" 
d="M160 508l78 285h272l-76 -285h-274z" />
    <glyph glyph-name="cedilla" unicode="&#xb8;" horiz-adv-x="1085" 
d="M315 -350l-192 92l266 278h186z" />
    <glyph glyph-name="one.sup" unicode="&#xb9;" horiz-adv-x="700" 
d="M416 899l180 676l-184 -66l-13 131l275 99h114l-225 -840h-147z" />
    <glyph glyph-name="ordmasculine" unicode="&#xba;" horiz-adv-x="868" 
d="M125 602l33 121h585l-32 -121h-586zM385 1147q0 -73 43.5 -119.5t112.5 -46.5q78 0 139 61q31 31 49.5 77t18.5 93q0 72 -42.5 118t-111.5 46q-81 0 -139 -61q-70 -67 -70 -168zM893 1217q0 -141 -109 -256q-105 -105 -252 -105q-133 0 -212.5 79.5t-79.5 205.5
q0 146 110 256q104 104 250 104q133 0 213 -79t80 -205z" />
    <glyph glyph-name="guillemotright" unicode="&#xbb;" horiz-adv-x="1294" 
d="M942 1032l242 -463l-4 -18l-504 -475l-133 127l372 383l-157 360zM418 1032l239 -463l-4 -18l-503 -475l-134 127l373 383l-158 360z" />
    <glyph glyph-name="onequarter" unicode="&#xbc;" horiz-adv-x="1775" 
d="M307 664l180 673l-186 -63l-10 131l274 98h113l-223 -839h-148zM78 0l739 774l670 717h160l-740 -774l-667 -717h-162zM1231 -2l49 182h-401l18 142l537 518h161l-143 -539h113l-33 -121h-115l-47 -182h-139zM1036 299h277l98 367h-2z" />
    <glyph glyph-name="onehalf" unicode="&#xbd;" horiz-adv-x="1775" 
d="M856 0l35 129l438 315q65 46 94 82.5t29 81.5q0 48 -33.5 75.5t-93.5 27.5q-104 0 -215 -111l-92 96q137 154 315 154q126 0 200.5 -63t74.5 -164q0 -76 -44 -141.5t-159 -139.5l-303 -209h399l-37 -133h-608zM57 0l740 774l669 717h160l-739 -774l-668 -717h-162z
M307 664l180 673l-186 -63l-10 131l274 98h113l-223 -839h-148z" />
    <glyph glyph-name="threequarters" unicode="&#xbe;" horiz-adv-x="1935" 
d="M1391 -2l49 182h-402l19 142l536 518h162l-143 -539h112l-32 -121h-115l-47 -182h-139zM1196 299h277l98 367h-2zM227 0l740 774l669 717h160l-739 -774l-668 -717h-162zM440 641q-209 0 -307 143l100 95q88 -101 207 -101q82 0 135.5 40t53.5 100q0 116 -183 116h-49
l-16 90l299 232h-361l37 135h559l-30 -115l-318 -239q98 -13 156.5 -64.5t58.5 -140.5q0 -126 -99 -208.5t-243 -82.5z" />
    <glyph glyph-name="questiondown" unicode="&#xbf;" horiz-adv-x="1171" 
d="M870 1026l-49 -346l-14 -10q-221 -18 -342 -88.5t-121 -190.5q0 -86 60.5 -134t166.5 -48q92 0 181.5 40t162.5 107l136 -163q-100 -100 -231.5 -155.5t-278.5 -55.5q-210 0 -334.5 110t-124.5 270q0 191 147 313.5t404 160.5l74 190h163zM1047 1491l-78 -285h-273
l76 285h275z" />
    <glyph glyph-name="Agrave" unicode="&#xc0;" horiz-adv-x="1644" 
d="M-94 0l1061 1501h241l256 -1501h-258l-57 362h-717l-254 -362h-272zM584 588h532l-100 620zM1018 1636l-213 205l229 101l154 -306h-170z" />
    <glyph glyph-name="Aacute" unicode="&#xc1;" horiz-adv-x="1644" 
d="M-94 0l1061 1501h241l256 -1501h-258l-57 362h-717l-254 -362h-272zM584 588h532l-100 620zM1012 1636l319 306l221 -101l-323 -205h-217z" />
    <glyph glyph-name="Acircumflex" unicode="&#xc2;" horiz-adv-x="1644" 
d="M-94 0l1061 1501h241l256 -1501h-258l-57 362h-717l-254 -362h-272zM584 588h532l-100 620zM735 1630l330 283h233l179 -283h-191l-131 123l-197 -123h-223z" />
    <glyph glyph-name="Atilde" unicode="&#xc3;" horiz-adv-x="1644" 
d="M-94 0l1061 1501h241l256 -1501h-258l-57 362h-717l-254 -362h-272zM584 588h532l-100 620zM877 1616l-140 45q59 131 120.5 192.5t150.5 61.5q64 0 172 -45q9 -4 33 -13.5t35 -13.5t27 -8t28 -4q45 0 74 22.5t63 79.5l139 -45q-59 -130 -120.5 -191t-151.5 -61
q-64 0 -172 45q-7 3 -26.5 10.5t-28 10.5t-22.5 7.5t-25 6.5t-21 2q-45 0 -73 -22.5t-62 -79.5z" />
    <glyph glyph-name="Adieresis" unicode="&#xc4;" horiz-adv-x="1644" 
d="M-94 0l1061 1501h241l256 -1501h-258l-57 362h-717l-254 -362h-272zM584 588h532l-100 620zM782 1636l64 232h256l-64 -232h-256zM1214 1636l64 232h258l-66 -232h-256z" />
    <glyph glyph-name="Aring" unicode="&#xc5;" horiz-adv-x="1644" 
d="M-94 0l1009 1427q-57 51 -57 134q0 105 78 178t203 73q96 0 160.5 -57t64.5 -139q0 -73 -35.5 -131t-101.5 -90l237 -1395h-258l-57 362h-717l-254 -362h-272zM584 588h532l-100 620zM1094 1462q67 0 112 43t45 101q0 48 -33 78t-88 30q-67 0 -112 -43t-45 -100
q0 -49 33.5 -79t87.5 -30z" />
    <glyph glyph-name="AE" unicode="&#xc6;" horiz-adv-x="2269" 
d="M-98 0l1237 1491h1251l-61 -225h-805l-109 -404h711l-62 -223h-708l-113 -414h819l-61 -225h-1067l96 362h-551l-299 -362h-278zM662 588h430l182 684h-45z" />
    <glyph glyph-name="Ccedilla" unicode="&#xc7;" horiz-adv-x="1574" 
d="M600 -350l-192 92l241 254q-218 50 -347.5 212t-129.5 400q0 182 71 348.5t201 294.5q126 126 286.5 195.5t342.5 69.5q391 0 580 -318l-209 -141q-75 112 -167.5 169.5t-232.5 57.5q-229 0 -405 -176q-95 -95 -150 -224t-55 -268q0 -184 115 -296.5t297 -112.5
q120 0 212 42.5t193 129.5l164 -166q-118 -113 -255.5 -176.5t-317.5 -63.5h-15z" />
    <glyph glyph-name="Egrave" unicode="&#xc8;" horiz-adv-x="1425" 
d="M920 1616l-213 205l229 100l154 -305h-170zM53 0l402 1491h1091l-61 -225h-842l-106 -404h745l-61 -223h-746l-110 -414h852l-62 -225h-1102z" />
    <glyph glyph-name="Eacute" unicode="&#xc9;" horiz-adv-x="1425" 
d="M913 1616l320 305l221 -100l-324 -205h-217zM53 0l402 1491h1091l-61 -225h-842l-106 -404h745l-61 -223h-746l-110 -414h852l-62 -225h-1102z" />
    <glyph glyph-name="Ecircumflex" unicode="&#xca;" horiz-adv-x="1425" 
d="M53 0l402 1491h1091l-61 -225h-842l-106 -404h745l-61 -223h-746l-110 -414h852l-62 -225h-1102zM639 1616l330 282h233l178 -282h-190l-131 123l-197 -123h-223z" />
    <glyph glyph-name="Edieresis" unicode="&#xcb;" horiz-adv-x="1425" 
d="M682 1616l63 231h256l-63 -231h-256zM1114 1616l64 231h258l-66 -231h-256zM53 0l402 1491h1091l-61 -225h-842l-106 -404h745l-61 -223h-746l-110 -414h852l-62 -225h-1102z" />
    <glyph glyph-name="Igrave" unicode="&#xcc;" horiz-adv-x="690" 
d="M68 0l401 1491h252l-399 -1491h-254zM520 1616l-213 205l230 100l153 -305h-170z" />
    <glyph glyph-name="Iacute" unicode="&#xcd;" horiz-adv-x="690" 
d="M68 0l401 1491h252l-399 -1491h-254zM514 1616l320 305l221 -100l-324 -205h-217z" />
    <glyph glyph-name="Icircumflex" unicode="&#xce;" horiz-adv-x="690" 
d="M68 0l401 1491h252l-399 -1491h-254zM242 1616l329 282h234l178 -282h-190l-131 123l-197 -123h-223z" />
    <glyph glyph-name="Idieresis" unicode="&#xcf;" horiz-adv-x="690" 
d="M68 0l401 1491h252l-399 -1491h-254zM285 1616l63 231h256l-63 -231h-256zM717 1616l63 231h258l-65 -231h-256z" />
    <glyph glyph-name="Eth" unicode="&#xd0;" horiz-adv-x="1720" 
d="M104 0l177 659h-172l51 183h170l174 649h399q390 0 582 -195q164 -164 164 -432q0 -343 -242 -585q-279 -279 -772 -279h-531zM901 659h-369l-116 -432h248q168 0 311.5 53.5t245.5 155.5q165 165 165 416q0 180 -104 281q-131 131 -397 131h-189l-114 -422h370z" />
    <glyph glyph-name="Ntilde" unicode="&#xd1;" horiz-adv-x="1693" 
d="M881 1593l-140 45q59 131 120.5 192.5t150.5 61.5q64 0 172 -45q9 -4 33 -13.5t35 -13.5t27 -8t28 -4q45 0 74 23t63 80l139 -45q-59 -130 -120.5 -191t-151.5 -61q-64 0 -172 45q-7 3 -26.5 10.5t-28 10.5t-22.5 7.5t-25 6.5t-21 2q-45 0 -73 -22.5t-62 -80.5zM53 0
l402 1491h231l518 -1073l289 1073h248l-402 -1491h-209l-534 1102l-295 -1102h-248z" />
    <glyph glyph-name="Ograve" unicode="&#xd2;" horiz-adv-x="1802" 
d="M1061 1636l-213 205l229 101l154 -306h-170zM1059 1516q147 0 272 -50t211.5 -137.5t135 -208t48.5 -258.5q0 -176 -70 -340.5t-196 -290.5q-122 -122 -279.5 -190t-338.5 -68q-147 0 -272.5 50.5t-212 138t-135 208t-48.5 257.5q0 176 70.5 342t195.5 291
q122 121 280 188.5t339 67.5zM868 205q226 0 398 172q93 92 145.5 217.5t52.5 255.5q0 191 -116.5 312.5t-315.5 121.5q-227 0 -397 -170q-94 -94 -146.5 -219t-52.5 -254q0 -193 116.5 -314.5t315.5 -121.5z" />
    <glyph glyph-name="Oacute" unicode="&#xd3;" horiz-adv-x="1802" 
d="M1042 1636l320 306l221 -101l-323 -205h-218zM1059 1516q147 0 272 -50t211.5 -137.5t135 -208t48.5 -258.5q0 -176 -70 -340.5t-196 -290.5q-122 -122 -279.5 -190t-338.5 -68q-147 0 -272.5 50.5t-212 138t-135 208t-48.5 257.5q0 176 70.5 342t195.5 291
q122 121 280 188.5t339 67.5zM868 205q226 0 398 172q93 92 145.5 217.5t52.5 255.5q0 191 -116.5 312.5t-315.5 121.5q-227 0 -397 -170q-94 -94 -146.5 -219t-52.5 -254q0 -193 116.5 -314.5t315.5 -121.5z" />
    <glyph glyph-name="Ocircumflex" unicode="&#xd4;" horiz-adv-x="1802" 
d="M1059 1516q147 0 272 -50t211.5 -137.5t135 -208t48.5 -258.5q0 -176 -70 -340.5t-196 -290.5q-122 -122 -279.5 -190t-338.5 -68q-147 0 -272.5 50.5t-212 138t-135 208t-48.5 257.5q0 176 70.5 342t195.5 291q122 121 280 188.5t339 67.5zM868 205q226 0 398 172
q93 92 145.5 217.5t52.5 255.5q0 191 -116.5 312.5t-315.5 121.5q-227 0 -397 -170q-94 -94 -146.5 -219t-52.5 -254q0 -193 116.5 -314.5t315.5 -121.5zM780 1636l330 283h233l179 -283h-191l-131 123l-196 -123h-224z" />
    <glyph glyph-name="Otilde" unicode="&#xd5;" horiz-adv-x="1802" 
d="M920 1616l-140 45q59 131 120.5 192.5t150.5 61.5q64 0 172 -45q9 -4 33 -13.5t35 -13.5t27 -8t28 -4q45 0 74 22.5t63 79.5l139 -45q-59 -130 -120.5 -191t-151.5 -61q-64 0 -172 45q-7 3 -26.5 10.5t-28 10.5t-22.5 7.5t-25 6.5t-21 2q-45 0 -73 -22.5t-62 -79.5z
M1059 1516q147 0 272 -50t211.5 -137.5t135 -208t48.5 -258.5q0 -176 -70 -340.5t-196 -290.5q-122 -122 -279.5 -190t-338.5 -68q-147 0 -272.5 50.5t-212 138t-135 208t-48.5 257.5q0 176 70.5 342t195.5 291q122 121 280 188.5t339 67.5zM868 205q226 0 398 172
q93 92 145.5 217.5t52.5 255.5q0 191 -116.5 312.5t-315.5 121.5q-227 0 -397 -170q-94 -94 -146.5 -219t-52.5 -254q0 -193 116.5 -314.5t315.5 -121.5z" />
    <glyph glyph-name="Odieresis" unicode="&#xd6;" horiz-adv-x="1802" 
d="M823 1636l64 232h256l-64 -232h-256zM1255 1636l64 232h258l-66 -232h-256zM1059 1516q147 0 272 -50t211.5 -137.5t135 -208t48.5 -258.5q0 -176 -70 -340.5t-196 -290.5q-122 -122 -279.5 -190t-338.5 -68q-147 0 -272.5 50.5t-212 138t-135 208t-48.5 257.5
q0 176 70.5 342t195.5 291q122 121 280 188.5t339 67.5zM868 205q226 0 398 172q93 92 145.5 217.5t52.5 255.5q0 191 -116.5 312.5t-315.5 121.5q-227 0 -397 -170q-94 -94 -146.5 -219t-52.5 -254q0 -193 116.5 -314.5t315.5 -121.5z" />
    <glyph glyph-name="multiply" unicode="&#xd7;" horiz-adv-x="1368" 
d="M266 242l-127 172l447 348l-258 346l192 147l248 -350l444 355l129 -175l-446 -346l258 -344l-192 -149l-248 350z" />
    <glyph glyph-name="Oslash" unicode="&#xd8;" horiz-adv-x="1802" 
d="M1059 1516q275 0 459 -166l172 151h254l-316 -282q98 -156 98 -357q0 -176 -70 -340.5t-196 -290.5q-122 -122 -279.5 -190t-338.5 -68q-274 0 -461 166l-170 -151h-254l315 282q-98 156 -98 357q0 176 70.5 342t195.5 291q122 121 280 188.5t339 67.5zM428 639
q0 -111 41 -207l860 762q-117 100 -295 100q-229 0 -403 -174q-96 -96 -149.5 -223t-53.5 -258zM866 197q230 0 404 174q96 93 149.5 221t53.5 260q0 109 -41 205l-861 -762q113 -98 295 -98z" />
    <glyph glyph-name="Ugrave" unicode="&#xd9;" horiz-adv-x="1642" 
d="M977 1614l-213 205l229 100l154 -305h-170zM745 -23q-261 0 -405.5 131t-144.5 359q0 124 32 235l211 789h252l-221 -825q-20 -70 -20 -164q0 -134 82 -213.5t239 -79.5q164 0 285 115q110 107 168 317l227 850h252l-238 -889q-77 -284 -233 -440q-182 -185 -486 -185z
" />
    <glyph glyph-name="Uacute" unicode="&#xda;" horiz-adv-x="1642" 
d="M971 1614l319 305l221 -100l-323 -205h-217zM745 -23q-261 0 -405.5 131t-144.5 359q0 124 32 235l211 789h252l-221 -825q-20 -70 -20 -164q0 -134 82 -213.5t239 -79.5q164 0 285 115q110 107 168 317l227 850h252l-238 -889q-77 -284 -233 -440q-182 -185 -486 -185z
" />
    <glyph glyph-name="Ucircumflex" unicode="&#xdb;" horiz-adv-x="1642" 
d="M745 -23q-261 0 -405.5 131t-144.5 359q0 124 32 235l211 789h252l-221 -825q-20 -70 -20 -164q0 -134 82 -213.5t239 -79.5q164 0 285 115q110 107 168 317l227 850h252l-238 -889q-77 -284 -233 -440q-182 -185 -486 -185zM698 1614l330 282h234l178 -282h-191
l-131 123l-196 -123h-224z" />
    <glyph glyph-name="Udieresis" unicode="&#xdc;" horiz-adv-x="1642" 
d="M741 1614l64 231h256l-64 -231h-256zM1174 1614l63 231h258l-65 -231h-256zM745 -23q-261 0 -405.5 131t-144.5 359q0 124 32 235l211 789h252l-221 -825q-20 -70 -20 -164q0 -134 82 -213.5t239 -79.5q164 0 285 115q110 107 168 317l227 850h252l-238 -889
q-77 -284 -233 -440q-182 -185 -486 -185z" />
    <glyph glyph-name="Yacute" unicode="&#xdd;" horiz-adv-x="1419" 
d="M418 0l160 594l-338 897h280l234 -682l604 682h309l-844 -926l-153 -565h-252zM846 1614l319 305l221 -100l-323 -205h-217z" />
    <glyph glyph-name="Thorn" unicode="&#xde;" horiz-adv-x="1472" 
d="M53 0l402 1491h250l-62 -236h219q155 0 263.5 -34t185.5 -111q108 -114 108 -293q0 -221 -143 -364q-98 -98 -247.5 -148.5t-336.5 -50.5h-317l-70 -254h-252zM434 475h271q253 0 372 119q82 82 82 205q0 92 -57 149q-78 78 -250 78h-270z" />
    <glyph glyph-name="germandbls" unicode="&#xdf;" horiz-adv-x="1357" 
d="M489 -4l54 197q215 -4 318.5 72.5t103.5 193.5q0 180 -295 219l47 172q185 43 270.5 122t85.5 193q0 90 -58 141.5t-153 51.5q-115 0 -193.5 -80.5t-117.5 -230.5l-281 -1047h-245l286 1069q61 229 187 352q142 148 372 148q201 0 321 -107t120 -274q0 -159 -99.5 -264
t-271.5 -158q262 -90 262 -313q0 -210 -183.5 -337t-529.5 -120z" />
    <glyph glyph-name="agrave" unicode="&#xe0;" horiz-adv-x="1259" 
d="M377 -23q-144 0 -242 84.5t-98 221.5q0 161 106 270q138 135 385 135q178 0 355 -55l6 20q14 54 14 95q0 176 -256 176q-153 0 -307 -60l-41 199q181 74 397 74q218 0 332.5 -90t114.5 -256q0 -74 -23 -164l-168 -627h-239l39 152q-158 -175 -375 -175zM475 156
q118 0 221 78.5t135 195.5l15 53q-137 45 -283 45q-144 0 -221 -77q-57 -57 -57 -140q0 -70 51.5 -112.5t138.5 -42.5zM692 1268l-190 241l231 103l129 -344h-170z" />
    <glyph glyph-name="aacute" unicode="&#xe1;" horiz-adv-x="1259" 
d="M377 -23q-144 0 -242 84.5t-98 221.5q0 161 106 270q138 135 385 135q178 0 355 -55l6 20q14 54 14 95q0 176 -256 176q-153 0 -307 -60l-41 199q181 74 397 74q218 0 332.5 -90t114.5 -256q0 -74 -23 -164l-168 -627h-239l39 152q-158 -175 -375 -175zM475 156
q118 0 221 78.5t135 195.5l15 53q-137 45 -283 45q-144 0 -221 -77q-57 -57 -57 -140q0 -70 51.5 -112.5t138.5 -42.5zM686 1268l315 344l224 -103l-324 -241h-215z" />
    <glyph glyph-name="acircumflex" unicode="&#xe2;" horiz-adv-x="1259" 
d="M377 -23q-144 0 -242 84.5t-98 221.5q0 161 106 270q138 135 385 135q178 0 355 -55l6 20q14 54 14 95q0 176 -256 176q-153 0 -307 -60l-41 199q181 74 397 74q218 0 332.5 -90t114.5 -256q0 -74 -23 -164l-168 -627h-239l39 152q-158 -175 -375 -175zM475 156
q118 0 221 78.5t135 195.5l15 53q-137 45 -283 45q-144 0 -221 -77q-57 -57 -57 -140q0 -70 51.5 -112.5t138.5 -42.5zM422 1268l328 307h229l162 -307h-185l-122 141l-207 -141h-205z" />
    <glyph glyph-name="atilde" unicode="&#xe3;" horiz-adv-x="1259" 
d="M377 -23q-144 0 -242 84.5t-98 221.5q0 161 106 270q138 135 385 135q178 0 355 -55l6 20q14 54 14 95q0 176 -256 176q-153 0 -307 -60l-41 199q181 74 397 74q218 0 332.5 -90t114.5 -256q0 -74 -23 -164l-168 -627h-239l39 152q-158 -175 -375 -175zM475 156
q118 0 221 78.5t135 195.5l15 53q-137 45 -283 45q-144 0 -221 -77q-57 -57 -57 -140q0 -70 51.5 -112.5t138.5 -42.5zM1104 1569l139 -43q-61 -137 -120.5 -197.5t-151.5 -60.5q-29 0 -61.5 7.5t-50 14.5t-56.5 23q-80 39 -119 39q-44 0 -71 -22.5t-66 -82.5l-137 43
q61 137 120.5 197.5t151.5 60.5q29 0 61.5 -8t48 -14t56.5 -23q80 -39 121 -39q45 0 72.5 23.5t62.5 81.5z" />
    <glyph glyph-name="adieresis" unicode="&#xe4;" horiz-adv-x="1259" 
d="M377 -23q-144 0 -242 84.5t-98 221.5q0 161 106 270q138 135 385 135q178 0 355 -55l6 20q14 54 14 95q0 176 -256 176q-153 0 -307 -60l-41 199q181 74 397 74q218 0 332.5 -90t114.5 -256q0 -74 -23 -164l-168 -627h-239l39 152q-158 -175 -375 -175zM475 156
q118 0 221 78.5t135 195.5l15 53q-137 45 -283 45q-144 0 -221 -77q-57 -57 -57 -140q0 -70 51.5 -112.5t138.5 -42.5zM459 1268l67 245h252l-67 -245h-252zM877 1268l67 245h252l-68 -245h-251z" />
    <glyph glyph-name="aring" unicode="&#xe5;" horiz-adv-x="1259" 
d="M377 -23q-144 0 -242 84.5t-98 221.5q0 161 106 270q138 135 385 135q178 0 355 -55l6 20q14 54 14 95q0 176 -256 176q-153 0 -307 -60l-41 199q181 74 397 74q218 0 332.5 -90t114.5 -256q0 -74 -23 -164l-168 -627h-239l39 152q-158 -175 -375 -175zM475 156
q118 0 221 78.5t135 195.5l15 53q-137 45 -283 45q-144 0 -221 -77q-57 -57 -57 -140q0 -70 51.5 -112.5t138.5 -42.5zM1104 1526q0 -105 -77.5 -183.5t-188.5 -78.5q-102 0 -165 59.5t-63 149.5q0 106 78 185t189 79q103 0 165 -59.5t62 -151.5zM717 1481q0 -55 34.5 -89
t88.5 -34q66 0 111.5 48.5t45.5 113.5q0 55 -34.5 88.5t-90.5 33.5q-64 0 -109.5 -49t-45.5 -112z" />
    <glyph glyph-name="ae" unicode="&#xe6;" horiz-adv-x="2041" 
d="M1362 -25q-311 0 -434 236q-224 -234 -527 -234q-164 0 -264 83t-100 223q0 161 106 270q138 135 385 135q178 0 355 -55l6 20q14 54 14 95q0 176 -256 176q-153 0 -307 -60l-41 199q181 74 397 74q303 0 387 -201q86 97 197.5 153t239.5 56q205 0 321.5 -122.5
t116.5 -311.5q0 -118 -47 -236h-824v-4q0 -137 76 -216t221 -79q82 0 149.5 27t145.5 84l117 -156q-177 -156 -434 -156zM489 156q101 0 205 48.5t189 137.5q-11 56 -11 131q-145 55 -309 55q-144 0 -221 -77q-57 -57 -57 -140q0 -70 54 -112.5t150 -42.5zM1229 829
q-81 -81 -115 -190h600q10 38 10 80q0 99 -57 161t-172 62q-153 0 -266 -113z" />
    <glyph glyph-name="ccedilla" unicode="&#xe7;" horiz-adv-x="1214" 
d="M393 -350l-192 92l245 258q-154 46 -247 170.5t-93 302.5q0 137 51.5 259t145.5 216t213 145.5t250 51.5q312 0 455 -254l-193 -133q-50 83 -114 127.5t-166 44.5q-141 0 -254 -113q-67 -67 -104.5 -156t-37.5 -186q0 -131 80 -210t195 -79q82 0 150 32.5t141 96.5
l131 -161q-94 -87 -193.5 -132.5t-232.5 -46.5h-2z" />
    <glyph glyph-name="egrave" unicode="&#xe8;" horiz-adv-x="1296" 
d="M1163 475h-823v-4q0 -135 75.5 -215t217.5 -80q83 0 152.5 27t146.5 84l119 -156q-189 -156 -443 -156q-229 0 -366.5 133.5t-137.5 354.5q0 134 55 263t154 228q90 90 205 140.5t246 50.5q210 0 329 -122t119 -312q0 -116 -49 -236zM481 829q-80 -80 -114 -190h600
q10 38 10 80q0 99 -57 161t-172 62q-154 0 -267 -113zM745 1268l-190 241l231 103l129 -344h-170z" />
    <glyph glyph-name="eacute" unicode="&#xe9;" horiz-adv-x="1296" 
d="M1163 475h-823v-4q0 -135 75.5 -215t217.5 -80q83 0 152.5 27t146.5 84l119 -156q-189 -156 -443 -156q-229 0 -366.5 133.5t-137.5 354.5q0 134 55 263t154 228q90 90 205 140.5t246 50.5q210 0 329 -122t119 -312q0 -116 -49 -236zM481 829q-80 -80 -114 -190h600
q10 38 10 80q0 99 -57 161t-172 62q-154 0 -267 -113zM737 1268l316 344l223 -103l-324 -241h-215z" />
    <glyph glyph-name="ecircumflex" unicode="&#xea;" horiz-adv-x="1296" 
d="M475 1268l328 307h229l162 -307h-184l-123 141l-207 -141h-205zM1163 475h-823v-4q0 -135 75.5 -215t217.5 -80q83 0 152.5 27t146.5 84l119 -156q-189 -156 -443 -156q-229 0 -366.5 133.5t-137.5 354.5q0 134 55 263t154 228q90 90 205 140.5t246 50.5q210 0 329 -122
t119 -312q0 -116 -49 -236zM481 829q-80 -80 -114 -190h600q10 38 10 80q0 99 -57 161t-172 62q-154 0 -267 -113z" />
    <glyph glyph-name="edieresis" unicode="&#xeb;" horiz-adv-x="1296" 
d="M512 1268l68 245h251l-67 -245h-252zM930 1268l67 245h252l-67 -245h-252zM1163 475h-823v-4q0 -135 75.5 -215t217.5 -80q83 0 152.5 27t146.5 84l119 -156q-189 -156 -443 -156q-229 0 -366.5 133.5t-137.5 354.5q0 134 55 263t154 228q90 90 205 140.5t246 50.5
q210 0 329 -122t119 -312q0 -116 -49 -236zM481 829q-80 -80 -114 -190h600q10 38 10 80q0 99 -57 161t-172 62q-154 0 -267 -113z" />
    <glyph glyph-name="igrave" unicode="&#xec;" horiz-adv-x="624" 
d="M39 0l301 1122h246l-301 -1122h-246zM401 1268l-190 241l231 103l129 -344h-170z" />
    <glyph glyph-name="iacute" unicode="&#xed;" horiz-adv-x="624" 
d="M39 0l301 1122h246l-301 -1122h-246zM395 1268l316 344l223 -103l-324 -241h-215z" />
    <glyph glyph-name="icircumflex" unicode="&#xee;" horiz-adv-x="624" 
d="M131 1268l328 307h229l162 -307h-184l-123 141l-207 -141h-205zM39 0l301 1122h246l-301 -1122h-246z" />
    <glyph glyph-name="idieresis" unicode="&#xef;" horiz-adv-x="624" 
d="M170 1268l68 245h251l-67 -245h-252zM588 1268l67 245h252l-67 -245h-252zM39 0l301 1122h246l-301 -1122h-246z" />
    <glyph glyph-name="eth" unicode="&#xf0;" horiz-adv-x="1390" 
d="M555 1206l-47 137l233 74q-23 28 -123 137h308l49 -61l248 80l49 -135l-207 -68q221 -337 221 -647q0 -344 -217 -561q-187 -187 -457 -187q-228 0 -367 139t-139 367q0 133 50 254.5t139 210.5q82 82 185.5 128t217.5 46q108 0 188 -42t150 -124q-60 153 -198 342z
M633 186q153 0 268 115q63 63 98 146t35 174q0 135 -81.5 219t-215.5 84q-147 0 -258 -111q-62 -60 -96.5 -144.5t-34.5 -176.5q0 -141 75.5 -223.5t209.5 -82.5z" />
    <glyph glyph-name="ntilde" unicode="&#xf1;" horiz-adv-x="1335" 
d="M23 0l301 1122h247l-39 -147q166 170 345 170q158 0 250 -90.5t92 -245.5q0 -79 -33 -195l-162 -614h-248l168 625q14 61 14 112q0 88 -52 136.5t-146 48.5q-111 0 -197.5 -80t-122.5 -211l-170 -631h-247zM1153 1569l139 -43q-61 -137 -120.5 -197.5t-151.5 -60.5
q-29 0 -61.5 7.5t-50 14.5t-56.5 23q-80 39 -119 39q-44 0 -71 -22.5t-66 -82.5l-137 43q61 137 120.5 197.5t151.5 60.5q29 0 61.5 -8t48 -14t56.5 -23q80 -39 121 -39q45 0 72.5 23.5t62.5 81.5z" />
    <glyph glyph-name="ograve" unicode="&#xf2;" horiz-adv-x="1394" 
d="M762 1145q237 0 381.5 -143.5t144.5 -368.5q0 -128 -52.5 -249t-145.5 -214q-195 -195 -457 -195q-238 0 -382.5 143t-144.5 367q0 129 52.5 250t146.5 215q195 195 457 195zM647 188q143 0 256 113q65 65 102 152.5t37 173.5q0 145 -80 224t-214 79q-142 0 -256 -111
q-66 -66 -103 -153t-37 -172q0 -146 79.5 -226t215.5 -80zM774 1268l-190 241l231 103l129 -344h-170z" />
    <glyph glyph-name="oacute" unicode="&#xf3;" horiz-adv-x="1394" 
d="M762 1145q237 0 381.5 -143.5t144.5 -368.5q0 -128 -52.5 -249t-145.5 -214q-195 -195 -457 -195q-238 0 -382.5 143t-144.5 367q0 129 52.5 250t146.5 215q195 195 457 195zM647 188q143 0 256 113q65 65 102 152.5t37 173.5q0 145 -80 224t-214 79q-142 0 -256 -111
q-66 -66 -103 -153t-37 -172q0 -146 79.5 -226t215.5 -80zM758 1268l315 344l223 -103l-323 -241h-215z" />
    <glyph glyph-name="ocircumflex" unicode="&#xf4;" horiz-adv-x="1394" 
d="M504 1268l327 307h230l162 -307h-185l-123 141l-206 -141h-205zM762 1145q237 0 381.5 -143.5t144.5 -368.5q0 -128 -52.5 -249t-145.5 -214q-195 -195 -457 -195q-238 0 -382.5 143t-144.5 367q0 129 52.5 250t146.5 215q195 195 457 195zM647 188q143 0 256 113
q65 65 102 152.5t37 173.5q0 145 -80 224t-214 79q-142 0 -256 -111q-66 -66 -103 -153t-37 -172q0 -146 79.5 -226t215.5 -80z" />
    <glyph glyph-name="otilde" unicode="&#xf5;" horiz-adv-x="1394" 
d="M762 1145q237 0 381.5 -143.5t144.5 -368.5q0 -128 -52.5 -249t-145.5 -214q-195 -195 -457 -195q-238 0 -382.5 143t-144.5 367q0 129 52.5 250t146.5 215q195 195 457 195zM647 188q143 0 256 113q65 65 102 152.5t37 173.5q0 145 -80 224t-214 79q-142 0 -256 -111
q-66 -66 -103 -153t-37 -172q0 -146 79.5 -226t215.5 -80zM1188 1569l139 -43q-61 -137 -120.5 -197.5t-151.5 -60.5q-29 0 -61.5 7.5t-50 14.5t-56.5 23q-80 39 -119 39q-44 0 -71 -22.5t-66 -82.5l-137 43q61 137 120.5 197.5t151.5 60.5q29 0 61.5 -8t48 -14t56.5 -23
q80 -39 121 -39q45 0 72.5 23.5t62.5 81.5z" />
    <glyph glyph-name="odieresis" unicode="&#xf6;" horiz-adv-x="1394" 
d="M543 1268l67 245h252l-67 -245h-252zM961 1268l67 245h252l-68 -245h-251zM762 1145q237 0 381.5 -143.5t144.5 -368.5q0 -128 -52.5 -249t-145.5 -214q-195 -195 -457 -195q-238 0 -382.5 143t-144.5 367q0 129 52.5 250t146.5 215q195 195 457 195zM647 188
q143 0 256 113q65 65 102 152.5t37 173.5q0 145 -80 224t-214 79q-142 0 -256 -111q-66 -66 -103 -153t-37 -172q0 -146 79.5 -226t215.5 -80z" />
    <glyph glyph-name="divide" unicode="&#xf7;" horiz-adv-x="1368" 
d="M444 176l70 266h277l-72 -266h-275zM176 643l60 213h1058l-59 -213h-1059zM680 1059l72 264h274l-70 -264h-276z" />
    <glyph glyph-name="oslash" unicode="&#xf8;" horiz-adv-x="1394" 
d="M762 1145q220 0 358 -123l125 111h234l-260 -230q69 -115 69 -270q0 -128 -52.5 -249t-145.5 -214q-195 -195 -457 -195q-218 0 -361 121l-122 -108h-234l258 227q-68 127 -68 270q0 129 52.5 250t146.5 215q195 195 457 195zM754 938q-152 0 -269 -117
q-65 -65 -102 -152.5t-37 -174.5q0 -65 16 -127l584 512q-77 59 -192 59zM1049 627q0 66 -19 125l-581 -512q70 -58 192 -58q151 0 268 117q66 66 103 153t37 175z" />
    <glyph glyph-name="ugrave" unicode="&#xf9;" horiz-adv-x="1333" 
d="M459 -23q-158 0 -251 90.5t-93 245.5q0 69 32 195l164 614h246l-166 -624q-16 -56 -16 -113q0 -87 53 -135.5t147 -48.5q111 0 197 80t123 211l168 630h248l-301 -1122h-246l39 147q-166 -170 -344 -170zM743 1268l-190 241l231 103l129 -344h-170z" />
    <glyph glyph-name="uacute" unicode="&#xfa;" horiz-adv-x="1333" 
d="M459 -23q-158 0 -251 90.5t-93 245.5q0 69 32 195l164 614h246l-166 -624q-16 -56 -16 -113q0 -87 53 -135.5t147 -48.5q111 0 197 80t123 211l168 630h248l-301 -1122h-246l39 147q-166 -170 -344 -170zM735 1268l316 344l223 -103l-324 -241h-215z" />
    <glyph glyph-name="ucircumflex" unicode="&#xfb;" horiz-adv-x="1333" 
d="M471 1268l328 307h229l162 -307h-184l-123 141l-207 -141h-205zM459 -23q-158 0 -251 90.5t-93 245.5q0 69 32 195l164 614h246l-166 -624q-16 -56 -16 -113q0 -87 53 -135.5t147 -48.5q111 0 197 80t123 211l168 630h248l-301 -1122h-246l39 147q-166 -170 -344 -170z
" />
    <glyph glyph-name="udieresis" unicode="&#xfc;" horiz-adv-x="1333" 
d="M508 1268l67 245h252l-67 -245h-252zM926 1268l67 245h252l-67 -245h-252zM459 -23q-158 0 -251 90.5t-93 245.5q0 69 32 195l164 614h246l-166 -624q-16 -56 -16 -113q0 -87 53 -135.5t147 -48.5q111 0 197 80t123 211l168 630h248l-301 -1122h-246l39 147
q-166 -170 -344 -170z" />
    <glyph glyph-name="yacute" unicode="&#xfd;" horiz-adv-x="1263" 
d="M371 -4l-168 1126h254l100 -843l506 843h272l-731 -1153q-116 -173 -220.5 -245t-240.5 -72q-139 0 -254 78l134 180q62 -49 145 -49q56 0 102 29.5t101 105.5zM678 1268l315 344l224 -103l-324 -241h-215z" />
    <glyph glyph-name="thorn" unicode="&#xfe;" horiz-adv-x="1441" 
d="M688 1554l-160 -587q85 86 173 132t194 46q191 0 314.5 -131t123.5 -348q0 -150 -54.5 -280.5t-150.5 -225.5q-87 -88 -195 -135.5t-224 -47.5q-265 0 -383 228l-146 -545h-248l508 1894h248zM680 188q147 0 258 111q139 139 139 348q0 133 -74 210t-198 77
q-150 0 -273 -123q-143 -143 -143 -332q0 -127 81.5 -209t209.5 -82z" />
    <glyph glyph-name="ydieresis" unicode="&#xff;" horiz-adv-x="1263" 
d="M371 -4l-168 1126h254l100 -843l506 843h272l-731 -1153q-116 -173 -220.5 -245t-240.5 -72q-139 0 -254 78l134 180q62 -49 145 -49q56 0 102 29.5t101 105.5zM453 1268l67 245h252l-67 -245h-252zM870 1268l68 245h252l-68 -245h-252z" />
    <glyph glyph-name="Amacron" unicode="&#x100;" horiz-adv-x="1644" 
d="M-94 0l1061 1501h241l256 -1501h-258l-57 362h-717l-254 -362h-272zM584 588h532l-100 620zM756 1663l49 184h758l-50 -184h-757z" />
    <glyph glyph-name="amacron" unicode="&#x101;" horiz-adv-x="1259" 
d="M377 -23q-144 0 -242 84.5t-98 221.5q0 161 106 270q138 135 385 135q178 0 355 -55l6 20q14 54 14 95q0 176 -256 176q-153 0 -307 -60l-41 199q181 74 397 74q218 0 332.5 -90t114.5 -256q0 -74 -23 -164l-168 -627h-239l39 152q-158 -175 -375 -175zM475 156
q118 0 221 78.5t135 195.5l15 53q-137 45 -283 45q-144 0 -221 -77q-57 -57 -57 -140q0 -70 51.5 -112.5t138.5 -42.5zM438 1294l47 181h727l-49 -181h-725z" />
    <glyph glyph-name="Abreve" unicode="&#x102;" horiz-adv-x="1644" 
d="M-94 0l1061 1501h241l256 -1501h-258l-57 362h-717l-254 -362h-272zM584 588h532l-100 620zM1126 1632q-156 0 -233.5 74t-54.5 207h166q5 -54 41.5 -80.5t117.5 -26.5q143 0 211 107h189q-49 -133 -166 -207t-271 -74z" />
    <glyph glyph-name="abreve" unicode="&#x103;" horiz-adv-x="1259" 
d="M377 -23q-144 0 -242 84.5t-98 221.5q0 161 106 270q138 135 385 135q178 0 355 -55l6 20q14 54 14 95q0 176 -256 176q-153 0 -307 -60l-41 199q181 74 397 74q218 0 332.5 -90t114.5 -256q0 -74 -23 -164l-168 -627h-239l39 152q-158 -175 -375 -175zM475 156
q118 0 221 78.5t135 195.5l15 53q-137 45 -283 45q-144 0 -221 -77q-57 -57 -57 -140q0 -70 51.5 -112.5t138.5 -42.5zM815 1264q-161 0 -239.5 84.5t-65.5 218.5h172q2 -59 38.5 -95t110.5 -36q80 0 132 34.5t92 96.5h178q-45 -137 -155.5 -220t-262.5 -83z" />
    <glyph glyph-name="Aogonek" unicode="&#x104;" horiz-adv-x="1644" 
d="M1436 -229l-31 -121q-18 -4 -74 -4q-227 9 -227 141q0 101 145 213h-43l-57 362h-717l-254 -362h-272l1061 1501h241l256 -1501h-41q-62 -53 -90 -90.5t-28 -71.5t30 -48t101 -19zM584 588h532l-100 620z" />
    <glyph glyph-name="aogonek" unicode="&#x105;" horiz-adv-x="1259" 
d="M932 -229l-31 -121q-18 -4 -74 -4q-227 9 -227 141q0 101 145 213h-32l39 152q-158 -175 -375 -175q-144 0 -242 84.5t-98 221.5q0 161 106 270q138 135 385 135q178 0 355 -55l6 20q14 54 14 95q0 176 -256 176q-153 0 -307 -60l-41 199q181 74 397 74q218 0 332.5 -90
t114.5 -256q0 -74 -23 -164l-168 -627h-32q-62 -53 -90.5 -90.5t-28.5 -71.5t30 -48t101 -19zM475 156q118 0 221 78.5t135 195.5l15 53q-137 45 -283 45q-144 0 -221 -77q-57 -57 -57 -140q0 -70 51.5 -112.5t138.5 -42.5z" />
    <glyph glyph-name="Cacute" unicode="&#x106;" horiz-adv-x="1574" 
d="M842 -27q-142 0 -265 44.5t-213 125.5t-141 201t-51 264q0 182 71 348.5t201 294.5q126 126 286.5 195.5t342.5 69.5q391 0 580 -318l-209 -141q-75 112 -167.5 169.5t-232.5 57.5q-229 0 -405 -176q-95 -95 -150 -224t-55 -268q0 -184 115 -296.5t297 -112.5
q120 0 212 42.5t193 129.5l164 -166q-118 -113 -255.5 -176.5t-317.5 -63.5zM1016 1636l319 306l221 -101l-323 -205h-217z" />
    <glyph glyph-name="cacute" unicode="&#x107;" horiz-adv-x="1214" 
d="M616 -25q-143 0 -258.5 60t-183.5 174.5t-68 263.5q0 137 51.5 259t145.5 216t213 145.5t250 51.5q312 0 455 -254l-193 -133q-50 83 -114 127.5t-166 44.5q-141 0 -254 -113q-67 -67 -104.5 -156t-37.5 -186q0 -131 80 -210t195 -79q82 0 150 32.5t141 96.5l131 -161
q-94 -87 -197 -133t-236 -46zM709 1268l315 344l223 -103l-323 -241h-215z" />
    <glyph glyph-name="Cdotaccent" unicode="&#x10a;" horiz-adv-x="1574" 
d="M999 1636l64 232h264l-63 -232h-265zM842 -27q-142 0 -265 44.5t-213 125.5t-141 201t-51 264q0 182 71 348.5t201 294.5q126 126 286.5 195.5t342.5 69.5q391 0 580 -318l-209 -141q-75 112 -167.5 169.5t-232.5 57.5q-229 0 -405 -176q-95 -95 -150 -224t-55 -268
q0 -184 115 -296.5t297 -112.5q120 0 212 42.5t193 129.5l164 -166q-118 -113 -255.5 -176.5t-317.5 -63.5z" />
    <glyph glyph-name="cdotaccent" unicode="&#x10b;" horiz-adv-x="1214" 
d="M616 -25q-143 0 -258.5 60t-183.5 174.5t-68 263.5q0 137 51.5 259t145.5 216t213 145.5t250 51.5q312 0 455 -254l-193 -133q-50 83 -114 127.5t-166 44.5q-141 0 -254 -113q-67 -67 -104.5 -156t-37.5 -186q0 -131 80 -210t195 -79q82 0 150 32.5t141 96.5l131 -161
q-94 -87 -197 -133t-236 -46zM688 1266l70 250h256l-68 -250h-258z" />
    <glyph glyph-name="Ccaron" unicode="&#x10c;" horiz-adv-x="1574" 
d="M842 -27q-142 0 -265 44.5t-213 125.5t-141 201t-51 264q0 182 71 348.5t201 294.5q126 126 286.5 195.5t342.5 69.5q391 0 580 -318l-209 -141q-75 112 -167.5 169.5t-232.5 57.5q-229 0 -405 -176q-95 -95 -150 -224t-55 -268q0 -184 115 -296.5t297 -112.5
q120 0 212 42.5t193 129.5l164 -166q-118 -113 -255.5 -176.5t-317.5 -63.5zM1593 1919l-329 -283h-234l-178 283h192l132 -123l196 123h221z" />
    <glyph glyph-name="ccaron" unicode="&#x10d;" horiz-adv-x="1214" 
d="M662 1268l-162 307h184l123 -141l207 141h205l-328 -307h-229zM616 -25q-143 0 -258.5 60t-183.5 174.5t-68 263.5q0 137 51.5 259t145.5 216t213 145.5t250 51.5q312 0 455 -254l-193 -133q-50 83 -114 127.5t-166 44.5q-141 0 -254 -113q-67 -67 -104.5 -156
t-37.5 -186q0 -131 80 -210t195 -79q82 0 150 32.5t141 96.5l131 -161q-94 -87 -197 -133t-236 -46z" />
    <glyph glyph-name="Dcaron" unicode="&#x10e;" horiz-adv-x="1671" 
d="M1503 1898l-329 -282h-234l-178 282h192l131 -122l197 122h221zM53 0l402 1491h399q387 0 582 -195q161 -161 161 -432q0 -343 -239 -585q-279 -279 -774 -279h-531zM1231 1133q-131 131 -395 131h-191l-278 -1037h247q168 0 310.5 53.5t244.5 155.5q80 80 124 187
t44 229q0 178 -106 281z" />
    <glyph glyph-name="dcaron" unicode="&#x10f;" horiz-adv-x="1441" 
d="M1583 1253l117 400h211v-8l-223 -392h-105zM870 0l41 154q-82 -85 -169.5 -131t-196.5 -46q-191 0 -315 130.5t-124 347.5q0 151 55 282t150 226q87 87 195.5 134.5t224.5 47.5q267 0 385 -227l170 636h248l-418 -1554h-246zM637 188q151 0 272 121q142 142 142 334
q0 128 -81 209.5t-208 81.5q-147 0 -260 -113q-64 -64 -100.5 -154.5t-36.5 -193.5q0 -130 74.5 -207.5t197.5 -77.5z" />
    <glyph glyph-name="Dcroat" unicode="&#x110;" horiz-adv-x="1720" 
d="M104 0l177 659h-172l51 183h170l174 649h399q390 0 582 -195q164 -164 164 -432q0 -343 -242 -585q-279 -279 -772 -279h-531zM901 659h-369l-116 -432h248q168 0 311.5 53.5t245.5 155.5q165 165 165 416q0 180 -104 281q-131 131 -397 131h-189l-114 -422h370z" />
    <glyph glyph-name="dcroat" unicode="&#x111;" horiz-adv-x="1441" 
d="M860 1282l41 152h352l33 120h248l-33 -120h146l-41 -152h-146l-344 -1282h-246l41 154q-82 -85 -169.5 -131t-196.5 -46q-191 0 -315 130.5t-124 347.5q0 151 55 282t150 226q87 87 195.5 134.5t224.5 47.5q267 0 385 -227l96 364h-352zM637 188q151 0 272 121
q142 142 142 334q0 128 -81 209.5t-208 81.5q-147 0 -260 -113q-64 -64 -100.5 -154.5t-36.5 -193.5q0 -130 74.5 -207.5t197.5 -77.5z" />
    <glyph glyph-name="Emacron" unicode="&#x112;" horiz-adv-x="1425" 
d="M657 1642l50 185h757l-49 -185h-758zM53 0l402 1491h1091l-61 -225h-842l-106 -404h745l-61 -223h-746l-110 -414h852l-62 -225h-1102z" />
    <glyph glyph-name="emacron" unicode="&#x113;" horiz-adv-x="1296" 
d="M1163 475h-823v-4q0 -135 75.5 -215t217.5 -80q83 0 152.5 27t146.5 84l119 -156q-189 -156 -443 -156q-229 0 -366.5 133.5t-137.5 354.5q0 134 55 263t154 228q90 90 205 140.5t246 50.5q210 0 329 -122t119 -312q0 -116 -49 -236zM481 829q-80 -80 -114 -190h600
q10 38 10 80q0 99 -57 161t-172 62q-154 0 -267 -113zM492 1294l47 181h727l-49 -181h-725z" />
    <glyph glyph-name="Ebreve" unicode="&#x114;" horiz-adv-x="1425" 
d="M1028 1612q-156 0 -234 73.5t-55 206.5h166q5 -53 41.5 -79.5t118.5 -26.5q144 0 211 106h188q-49 -133 -165.5 -206.5t-270.5 -73.5zM53 0l402 1491h1091l-61 -225h-842l-106 -404h745l-61 -223h-746l-110 -414h852l-62 -225h-1102z" />
    <glyph glyph-name="ebreve" unicode="&#x115;" horiz-adv-x="1296" 
d="M1163 475h-823v-4q0 -135 75.5 -215t217.5 -80q83 0 152.5 27t146.5 84l119 -156q-189 -156 -443 -156q-229 0 -366.5 133.5t-137.5 354.5q0 134 55 263t154 228q90 90 205 140.5t246 50.5q210 0 329 -122t119 -312q0 -116 -49 -236zM481 829q-80 -80 -114 -190h600
q10 38 10 80q0 99 -57 161t-172 62q-154 0 -267 -113zM866 1264q-161 0 -239.5 84.5t-65.5 218.5h172q2 -59 39 -95t111 -36q80 0 131.5 34t91.5 97h178q-45 -137 -155.5 -220t-262.5 -83z" />
    <glyph glyph-name="Edotaccent" unicode="&#x116;" horiz-adv-x="1425" 
d="M895 1616l63 231h265l-64 -231h-264zM53 0l402 1491h1091l-61 -225h-842l-106 -404h745l-61 -223h-746l-110 -414h852l-62 -225h-1102z" />
    <glyph glyph-name="edotaccent" unicode="&#x117;" horiz-adv-x="1296" 
d="M1163 475h-823v-4q0 -135 75.5 -215t217.5 -80q83 0 152.5 27t146.5 84l119 -156q-189 -156 -443 -156q-229 0 -366.5 133.5t-137.5 354.5q0 134 55 263t154 228q90 90 205 140.5t246 50.5q210 0 329 -122t119 -312q0 -116 -49 -236zM481 829q-80 -80 -114 -190h600
q10 38 10 80q0 99 -57 161t-172 62q-154 0 -267 -113zM719 1266l69 250h256l-67 -250h-258z" />
    <glyph glyph-name="Eogonek" unicode="&#x118;" horiz-adv-x="1425" 
d="M53 0l402 1491h1091l-61 -225h-842l-106 -404h745l-61 -223h-746l-110 -414h852l-62 -225h-41q-62 -53 -90.5 -90.5t-28.5 -71.5t30 -48t101 -19l-30 -121q-18 -4 -74 -4q-227 9 -227 141q0 101 145 213h-887z" />
    <glyph glyph-name="eogonek" unicode="&#x119;" horiz-adv-x="1296" 
d="M932 287l117 -154q-87 -67 -215 -172q-70 -70 -70 -123q0 -34 30 -48t101 -19l-31 -121q-18 -4 -73 -4q-228 9 -228 141q0 90 115 193q-45 -5 -70 -5q-229 0 -366.5 133.5t-137.5 354.5q0 134 55 263t154 228q90 90 205 140.5t246 50.5q210 0 329 -122t119 -312
q0 -116 -49 -236h-823v-4q0 -135 75.5 -215t217.5 -80q83 0 152.5 27t146.5 84zM481 829q-80 -80 -114 -190h600q10 38 10 80q0 99 -57 161t-172 62q-154 0 -267 -113z" />
    <glyph glyph-name="Ecaron" unicode="&#x11a;" horiz-adv-x="1425" 
d="M1489 1898l-330 -282h-233l-178 282h192l131 -122l197 122h221zM53 0l402 1491h1091l-61 -225h-842l-106 -404h745l-61 -223h-746l-110 -414h852l-62 -225h-1102z" />
    <glyph glyph-name="ecaron" unicode="&#x11b;" horiz-adv-x="1296" 
d="M690 1268l-162 307h185l123 -141l206 141h205l-327 -307h-230zM1163 475h-823v-4q0 -135 75.5 -215t217.5 -80q83 0 152.5 27t146.5 84l119 -156q-189 -156 -443 -156q-229 0 -366.5 133.5t-137.5 354.5q0 134 55 263t154 228q90 90 205 140.5t246 50.5q210 0 329 -122
t119 -312q0 -116 -49 -236zM481 829q-80 -80 -114 -190h600q10 38 10 80q0 99 -57 161t-172 62q-154 0 -267 -113z" />
    <glyph glyph-name="Gbreve" unicode="&#x11e;" horiz-adv-x="1685" 
d="M1153 1632q-156 0 -234 74t-55 207h166q5 -53 41.5 -80t118.5 -27q143 0 211 107h188q-49 -133 -165.5 -207t-270.5 -74zM852 -27q-106 0 -205 25.5t-185.5 78.5t-151 128t-101.5 180t-37 229q0 176 70 339.5t198 291.5q127 127 295.5 199t360.5 72q392 0 585 -265
l-188 -159q-48 60 -99.5 100t-133.5 67t-185 27q-256 0 -442 -186q-93 -93 -146 -218t-53 -259q0 -196 121 -307t313 -111q188 0 324 80l94 323h-389l59 221h633l-200 -708q-253 -148 -537 -148z" />
    <glyph glyph-name="gbreve" unicode="&#x11f;" horiz-adv-x="1437" 
d="M532 -344q-166 0 -314.5 45t-256.5 129l137 170q199 -145 422 -145q175 0 277 102q71 71 121 233l20 72q-92 -87 -182.5 -129.5t-206.5 -42.5q-84 0 -161.5 27t-138.5 77t-97.5 128.5t-36.5 173.5q0 137 51 256t141 209q88 88 199.5 136t228.5 48q77 0 139.5 -18.5
t106.5 -53.5t74 -72t55 -86l55 207h246l-248 -929q-40 -148 -81 -229t-107 -152q-156 -156 -443 -156zM639 291q78 0 152.5 32.5t132.5 90.5q114 114 114 264q0 110 -76 183t-202 73q-155 0 -268 -113q-121 -121 -121 -282q0 -118 76 -183t192 -65zM924 1264q-161 0 -240 85
t-66 218h173q2 -59 38.5 -95t110.5 -36q80 0 131.5 34t91.5 97h178q-45 -137 -155 -220t-262 -83z" />
    <glyph glyph-name="Gdotaccent" unicode="&#x120;" horiz-adv-x="1685" 
d="M1022 1636l63 232h265l-64 -232h-264zM852 -27q-106 0 -205 25.5t-185.5 78.5t-151 128t-101.5 180t-37 229q0 176 70 339.5t198 291.5q127 127 295.5 199t360.5 72q392 0 585 -265l-188 -159q-48 60 -99.5 100t-133.5 67t-185 27q-256 0 -442 -186q-93 -93 -146 -218
t-53 -259q0 -196 121 -307t313 -111q188 0 324 80l94 323h-389l59 221h633l-200 -708q-253 -148 -537 -148z" />
    <glyph glyph-name="gdotaccent" unicode="&#x121;" horiz-adv-x="1437" 
d="M532 -344q-166 0 -314.5 45t-256.5 129l137 170q199 -145 422 -145q175 0 277 102q71 71 121 233l20 72q-92 -87 -182.5 -129.5t-206.5 -42.5q-84 0 -161.5 27t-138.5 77t-97.5 128.5t-36.5 173.5q0 137 51 256t141 209q88 88 199.5 136t228.5 48q77 0 139.5 -18.5
t106.5 -53.5t74 -72t55 -86l55 207h246l-248 -929q-40 -148 -81 -229t-107 -152q-156 -156 -443 -156zM639 291q78 0 152.5 32.5t132.5 90.5q114 114 114 264q0 110 -76 183t-202 73q-155 0 -268 -113q-121 -121 -121 -282q0 -118 76 -183t192 -65zM774 1266l70 250h256
l-68 -250h-258z" />
    <glyph glyph-name="Gcommaaccent" unicode="&#x122;" horiz-adv-x="1685" 
d="M852 -27q-106 0 -205 25.5t-185.5 78.5t-151 128t-101.5 180t-37 229q0 176 70 339.5t198 291.5q127 127 295.5 199t360.5 72q392 0 585 -265l-188 -159q-48 60 -99.5 100t-133.5 67t-185 27q-256 0 -442 -186q-93 -93 -146 -218t-53 -259q0 -196 121 -307t313 -111
q188 0 324 80l94 323h-389l59 221h633l-200 -708q-253 -148 -537 -148zM485 -575l7 81q160 18 184 142h-111l56 211h245l-49 -181q-34 -131 -114 -189t-218 -64z" />
    <glyph glyph-name="gcommaaccent" unicode="&#x123;" horiz-adv-x="1437" 
d="M532 -344q-166 0 -314.5 45t-256.5 129l137 170q199 -145 422 -145q175 0 277 102q71 71 121 233l20 72q-92 -87 -182.5 -129.5t-206.5 -42.5q-84 0 -161.5 27t-138.5 77t-97.5 128.5t-36.5 173.5q0 137 51 256t141 209q88 88 199.5 136t228.5 48q77 0 139.5 -18.5
t106.5 -53.5t74 -72t55 -86l55 207h246l-248 -929q-40 -148 -81 -229t-107 -152q-156 -156 -443 -156zM639 291q78 0 152.5 32.5t132.5 90.5q114 114 114 264q0 110 -76 183t-202 73q-155 0 -268 -113q-121 -121 -121 -282q0 -118 76 -183t192 -65zM1151 1702l-6 -82
q-157 -21 -184 -141h112l-57 -213h-246l49 180q36 132 115.5 191t216.5 65z" />
    <glyph glyph-name="Hbar" unicode="&#x126;" horiz-adv-x="1630" 
d="M195 1087l47 181h151l62 223h252l-60 -223h717l59 223h252l-61 -223h155l-49 -181h-153l-291 -1087h-252l170 631h-719l-170 -631h-252l293 1087h-151zM539 862h716l62 230h-717z" />
    <glyph glyph-name="hbar" unicode="&#x127;" horiz-adv-x="1335" 
d="M221 1282l39 152h150l32 120h248l-33 -120h349l-39 -152h-351l-81 -307q166 170 344 170q158 0 250 -90.5t92 -245.5q0 -79 -33 -195l-162 -614h-248l168 625q15 66 15 112q0 88 -52.5 136.5t-146.5 48.5q-111 0 -197.5 -80t-122.5 -211l-170 -631h-247l344 1282h-148z
" />
    <glyph glyph-name="Imacron" unicode="&#x12a;" horiz-adv-x="690" 
d="M68 0l401 1491h252l-399 -1491h-254zM260 1642l49 185h758l-49 -185h-758z" />
    <glyph glyph-name="imacron" unicode="&#x12b;" horiz-adv-x="624" 
d="M39 0l301 1122h246l-301 -1122h-246zM150 1294l47 181h727l-50 -181h-724z" />
    <glyph glyph-name="Ibreve" unicode="&#x12c;" horiz-adv-x="690" 
d="M68 0l401 1491h252l-399 -1491h-254zM631 1612q-156 0 -234 73.5t-55 206.5h166q5 -53 41.5 -79.5t118.5 -26.5q144 0 211 106h188q-49 -133 -165.5 -206.5t-270.5 -73.5z" />
    <glyph glyph-name="ibreve" unicode="&#x12d;" horiz-adv-x="624" 
d="M39 0l301 1122h246l-301 -1122h-246zM522 1264q-161 0 -239.5 84.5t-65.5 218.5h172q2 -59 39 -95t111 -36q80 0 131.5 34t91.5 97h178q-45 -137 -155.5 -220t-262.5 -83z" />
    <glyph glyph-name="Iogonek" unicode="&#x12e;" horiz-adv-x="690" 
d="M68 0l401 1491h252l-399 -1491h-35q-62 -53 -90.5 -90.5t-28.5 -71.5t30 -48t101 -19l-31 -121q-18 -4 -73 -4q-228 9 -228 141q0 100 146 213h-45z" />
    <glyph glyph-name="iogonek" unicode="&#x12f;" horiz-adv-x="624" 
d="M-70 -213q0 95 146 213h-37l301 1122h246l-301 -1122h-35q-62 -53 -90.5 -90.5t-28.5 -71.5t30 -48t101 -19l-31 -121q-18 -4 -73 -4q-228 9 -228 141zM379 1303l63 237h269l-66 -237h-266z" />
    <glyph glyph-name="Idotaccent" unicode="&#x130;" horiz-adv-x="690" 
d="M68 0l401 1491h252l-399 -1491h-254zM498 1616l63 231h264l-63 -231h-264z" />
    <glyph glyph-name="dotlessi" unicode="&#x131;" horiz-adv-x="624" 
d="M39 0l301 1122h246l-301 -1122h-246z" />
    <glyph glyph-name="Kcommaaccent" unicode="&#x136;" horiz-adv-x="1558" 
d="M53 0l402 1491h252l-207 -768l897 768h346l-762 -639l385 -852h-279l-309 702l-366 -307l-107 -395h-252zM389 -561l6 82q161 18 185 141h-111l55 211h246l-49 -180q-34 -131 -114 -189.5t-218 -64.5z" />
    <glyph glyph-name="kcommaaccent" unicode="&#x137;" horiz-adv-x="1255" 
d="M205 -571l6 82q160 18 184 141h-110l55 211h246l-49 -180q-34 -131 -114 -189.5t-218 -64.5zM23 0l417 1554h248l-250 -925l596 493h328l-571 -458l276 -664h-279l-206 502l-226 -180l-86 -322h-247z" />
    <glyph glyph-name="Lacute" unicode="&#x139;" horiz-adv-x="1335" 
d="M537 1616l319 305l221 -100l-323 -205h-217zM53 0l402 1491h252l-338 -1262h788l-61 -229h-1043z" />
    <glyph glyph-name="lacute" unicode="&#x13a;" horiz-adv-x="624" 
d="M508 1655l319 305l222 -100l-324 -205h-217zM39 0l418 1554h245l-417 -1554h-246z" />
    <glyph glyph-name="Lcommaaccent" unicode="&#x13b;" horiz-adv-x="1335" 
d="M53 0l402 1491h252l-338 -1262h788l-61 -229h-1043zM266 -571l6 82q161 18 185 141h-111l55 211h246l-49 -180q-34 -131 -114 -189.5t-218 -64.5z" />
    <glyph glyph-name="lcommaaccent" unicode="&#x13c;" horiz-adv-x="624" 
d="M-119 -571l6 82q161 18 185 141h-111l55 211h246l-49 -180q-34 -131 -114 -189.5t-218 -64.5zM39 0l418 1554h245l-417 -1554h-246z" />
    <glyph glyph-name="Lcaron" unicode="&#x13d;" horiz-adv-x="1335" 
d="M53 0l402 1491h252l-338 -1262h788l-61 -229h-1043zM758 1094l116 399h211v-8l-223 -391h-104z" />
    <glyph glyph-name="lcaron" unicode="&#x13e;" horiz-adv-x="624" 
d="M754 1253l116 400h211v-8l-223 -392h-104zM39 0l418 1554h245l-417 -1554h-246z" />
    <glyph glyph-name="Ldot" unicode="&#x13f;" horiz-adv-x="1347" 
d="M926 676l67 248h252l-67 -248h-252zM53 0l402 1491h252l-338 -1262h788l-61 -229h-1043z" />
    <glyph glyph-name="ldot" unicode="&#x140;" horiz-adv-x="794" 
d="M623 680l61 233h219l-61 -233h-219zM39 0l418 1554h245l-417 -1554h-246z" />
    <glyph glyph-name="Lslash" unicode="&#x141;" horiz-adv-x="1415" 
d="M123 551l61 233l172 47l179 660h251l-155 -582l463 129l-62 -233l-465 -129l-118 -447h788l-61 -229h-1043l160 598z" />
    <glyph glyph-name="lslash" unicode="&#x142;" horiz-adv-x="747" 
d="M102 588l62 235l174 49l184 682h246l-164 -608l174 49l-63 -235l-174 -49l-191 -711h-246l170 635z" />
    <glyph glyph-name="Nacute" unicode="&#x143;" horiz-adv-x="1693" 
d="M1014 1614l319 305l221 -100l-323 -205h-217zM53 0l402 1491h231l518 -1073l289 1073h248l-402 -1491h-209l-534 1102l-295 -1102h-248z" />
    <glyph glyph-name="nacute" unicode="&#x144;" horiz-adv-x="1335" 
d="M23 0l301 1122h247l-39 -147q166 170 345 170q158 0 250 -90.5t92 -245.5q0 -79 -33 -195l-162 -614h-248l168 625q14 61 14 112q0 88 -52 136.5t-146 48.5q-111 0 -197.5 -80t-122.5 -211l-170 -631h-247zM735 1268l316 344l223 -103l-324 -241h-215z" />
    <glyph glyph-name="Ncommaaccent" unicode="&#x145;" horiz-adv-x="1693" 
d="M418 -561l6 82q160 18 184 141h-110l55 211h246l-49 -180q-34 -131 -114 -189.5t-218 -64.5zM53 0l402 1491h231l518 -1073l289 1073h248l-402 -1491h-209l-534 1102l-295 -1102h-248z" />
    <glyph glyph-name="ncommaaccent" unicode="&#x146;" horiz-adv-x="1335" 
d="M221 -571l6 82q161 18 185 141h-111l55 211h246l-49 -180q-34 -131 -114 -189.5t-218 -64.5zM23 0l301 1122h247l-39 -147q166 170 345 170q158 0 250 -90.5t92 -245.5q0 -79 -33 -195l-162 -614h-248l168 625q14 61 14 112q0 88 -52 136.5t-146 48.5q-111 0 -197.5 -80
t-122.5 -211l-170 -631h-247z" />
    <glyph glyph-name="Ncaron" unicode="&#x147;" horiz-adv-x="1693" 
d="M1591 1896l-329 -282h-234l-178 282h192l132 -122l196 122h221zM53 0l402 1491h231l518 -1073l289 1073h248l-402 -1491h-209l-534 1102l-295 -1102h-248z" />
    <glyph glyph-name="ncaron" unicode="&#x148;" horiz-adv-x="1335" 
d="M686 1268l-162 307h185l122 -141l207 141h205l-328 -307h-229zM23 0l301 1122h247l-39 -147q166 170 345 170q158 0 250 -90.5t92 -245.5q0 -79 -33 -195l-162 -614h-248l168 625q14 61 14 112q0 88 -52 136.5t-146 48.5q-111 0 -197.5 -80t-122.5 -211l-170 -631h-247z
" />
    <glyph glyph-name="Omacron" unicode="&#x14c;" horiz-adv-x="1802" 
d="M799 1663l49 184h758l-50 -184h-757zM1059 1516q147 0 272 -50t211.5 -137.5t135 -208t48.5 -258.5q0 -176 -70 -340.5t-196 -290.5q-122 -122 -279.5 -190t-338.5 -68q-147 0 -272.5 50.5t-212 138t-135 208t-48.5 257.5q0 176 70.5 342t195.5 291q122 121 280 188.5
t339 67.5zM868 205q226 0 398 172q93 92 145.5 217.5t52.5 255.5q0 191 -116.5 312.5t-315.5 121.5q-227 0 -397 -170q-94 -94 -146.5 -219t-52.5 -254q0 -193 116.5 -314.5t315.5 -121.5z" />
    <glyph glyph-name="omacron" unicode="&#x14d;" horiz-adv-x="1394" 
d="M522 1294l47 181h727l-49 -181h-725zM762 1145q237 0 381.5 -143.5t144.5 -368.5q0 -128 -52.5 -249t-145.5 -214q-195 -195 -457 -195q-238 0 -382.5 143t-144.5 367q0 129 52.5 250t146.5 215q195 195 457 195zM647 188q143 0 256 113q65 65 102 152.5t37 173.5
q0 145 -80 224t-214 79q-142 0 -256 -111q-66 -66 -103 -153t-37 -172q0 -146 79.5 -226t215.5 -80z" />
    <glyph glyph-name="Obreve" unicode="&#x14e;" horiz-adv-x="1802" 
d="M1169 1632q-156 0 -233.5 74t-54.5 207h166q5 -54 41.5 -80.5t117.5 -26.5q143 0 211 107h189q-49 -133 -166 -207t-271 -74zM1059 1516q147 0 272 -50t211.5 -137.5t135 -208t48.5 -258.5q0 -176 -70 -340.5t-196 -290.5q-122 -122 -279.5 -190t-338.5 -68
q-147 0 -272.5 50.5t-212 138t-135 208t-48.5 257.5q0 176 70.5 342t195.5 291q122 121 280 188.5t339 67.5zM868 205q226 0 398 172q93 92 145.5 217.5t52.5 255.5q0 191 -116.5 312.5t-315.5 121.5q-227 0 -397 -170q-94 -94 -146.5 -219t-52.5 -254q0 -193 116.5 -314.5
t315.5 -121.5z" />
    <glyph glyph-name="obreve" unicode="&#x14f;" horiz-adv-x="1394" 
d="M762 1145q237 0 381.5 -143.5t144.5 -368.5q0 -128 -52.5 -249t-145.5 -214q-195 -195 -457 -195q-238 0 -382.5 143t-144.5 367q0 129 52.5 250t146.5 215q195 195 457 195zM647 188q143 0 256 113q65 65 102 152.5t37 173.5q0 145 -80 224t-214 79q-142 0 -256 -111
q-66 -66 -103 -153t-37 -172q0 -146 79.5 -226t215.5 -80zM897 1264q-161 0 -239.5 84.5t-65.5 218.5h172q2 -59 38.5 -95t110.5 -36q80 0 132 34.5t92 96.5h178q-45 -137 -155.5 -220t-262.5 -83z" />
    <glyph glyph-name="Ohungarumlaut" unicode="&#x150;" horiz-adv-x="1802" 
d="M1059 1516q147 0 272 -50t211.5 -137.5t135 -208t48.5 -258.5q0 -176 -70 -340.5t-196 -290.5q-122 -122 -279.5 -190t-338.5 -68q-147 0 -272.5 50.5t-212 138t-135 208t-48.5 257.5q0 176 70.5 342t195.5 291q122 121 280 188.5t339 67.5zM868 205q226 0 398 172
q93 92 145.5 217.5t52.5 255.5q0 191 -116.5 312.5t-315.5 121.5q-227 0 -397 -170q-94 -94 -146.5 -219t-52.5 -254q0 -193 116.5 -314.5t315.5 -121.5zM827 1636l320 306l215 -101l-324 -205h-211zM1204 1636l320 306l213 -101l-324 -205h-209z" />
    <glyph glyph-name="ohungarumlaut" unicode="&#x151;" horiz-adv-x="1394" 
d="M502 1268l313 344l193 -101l-320 -243h-186zM885 1268l317 344l191 -101l-322 -243h-186zM762 1145q237 0 381.5 -143.5t144.5 -368.5q0 -128 -52.5 -249t-145.5 -214q-195 -195 -457 -195q-238 0 -382.5 143t-144.5 367q0 129 52.5 250t146.5 215q195 195 457 195z
M647 188q143 0 256 113q65 65 102 152.5t37 173.5q0 145 -80 224t-214 79q-142 0 -256 -111q-66 -66 -103 -153t-37 -172q0 -146 79.5 -226t215.5 -80z" />
    <glyph glyph-name="OE" unicode="&#x152;" horiz-adv-x="2351" 
d="M2083 0h-1168q-386 0 -587 201q-156 159 -156 426q0 342 240 585q279 279 774 279h1286l-62 -225h-804l-107 -404h709l-62 -223h-708l-111 -414h817zM539 358q131 -131 397 -131h139l279 1037h-199q-168 0 -310.5 -53.5t-244.5 -155.5q-166 -166 -166 -416
q0 -179 105 -281z" />
    <glyph glyph-name="oe" unicode="&#x153;" horiz-adv-x="2224" 
d="M2093 475h-823v-4q0 -137 76 -216t221 -79q82 0 149.5 27t145.5 84l116 -156q-177 -156 -434 -156q-158 0 -270 66t-162 184q-84 -115 -206.5 -182.5t-274.5 -67.5q-237 0 -381 143t-144 367q0 129 52.5 250t146.5 215q195 195 457 195q164 0 277 -72.5t165 -195.5
q83 123 207 195.5t283 72.5q210 0 328 -122t118 -312q0 -118 -47 -236zM647 188q143 0 256 113q65 65 102 152.5t37 173.5q0 145 -80 224t-214 79q-142 0 -256 -111q-66 -66 -103 -153t-37 -172q0 -146 79.5 -226t215.5 -80zM1411 829q-81 -81 -115 -190h600q11 42 11 80
q0 99 -57.5 161t-172.5 62q-153 0 -266 -113z" />
    <glyph glyph-name="Racute" unicode="&#x154;" horiz-adv-x="1558" 
d="M1030 0l-262 526h-2h-320l-141 -526h-252l402 1491h538q306 0 449 -143q108 -108 108 -281q0 -203 -135 -338q-131 -131 -379 -178l281 -551h-287zM508 750h346q241 0 358 114q76 79 76 183q0 86 -53 139q-78 78 -254 78h-336zM879 1616l319 305l221 -100l-323 -205h-217
z" />
    <glyph glyph-name="racute" unicode="&#x155;" horiz-adv-x="894" 
d="M23 0l301 1122h247l-69 -258q100 144 216 216.5t263 62.5l-70 -260h-14q-178 0 -314.5 -118t-197.5 -345l-115 -420h-247zM530 1268l316 344l223 -103l-324 -241h-215z" />
    <glyph glyph-name="Rcommaaccent" unicode="&#x156;" horiz-adv-x="1558" 
d="M1030 0l-262 526h-2h-320l-141 -526h-252l402 1491h538q306 0 449 -143q108 -108 108 -281q0 -203 -135 -338q-131 -131 -379 -178l281 -551h-287zM508 750h346q241 0 358 114q76 79 76 183q0 86 -53 139q-78 78 -254 78h-336zM348 -561l6 82q161 18 185 141h-111l55 211
h246l-49 -180q-34 -131 -114 -189.5t-218 -64.5z" />
    <glyph glyph-name="rcommaaccent" unicode="&#x157;" horiz-adv-x="894" 
d="M-119 -571l6 82q161 18 185 141h-111l55 211h246l-49 -180q-34 -131 -114 -189.5t-218 -64.5zM23 0l301 1122h247l-69 -258q100 144 216 216.5t263 62.5l-70 -260h-14q-178 0 -314.5 -118t-197.5 -345l-115 -420h-247z" />
    <glyph glyph-name="Rcaron" unicode="&#x158;" horiz-adv-x="1558" 
d="M1456 1898l-330 -282h-233l-178 282h192l131 -122l197 122h221zM1030 0l-262 526h-2h-320l-141 -526h-252l402 1491h538q306 0 449 -143q108 -108 108 -281q0 -203 -135 -338q-131 -131 -379 -178l281 -551h-287zM508 750h346q241 0 358 114q76 79 76 183q0 86 -53 139
q-78 78 -254 78h-336z" />
    <glyph glyph-name="rcaron" unicode="&#x159;" horiz-adv-x="894" 
d="M483 1268l-161 307h184l123 -141l207 141h204l-327 -307h-230zM23 0l301 1122h247l-69 -258q100 144 216 216.5t263 62.5l-70 -260h-14q-178 0 -314.5 -118t-197.5 -345l-115 -420h-247z" />
    <glyph glyph-name="Sacute" unicode="&#x15a;" horiz-adv-x="1376" 
d="M641 -20q-210 0 -369.5 71t-259.5 207l189 156q96 -108 203.5 -160.5t250.5 -52.5q130 0 214.5 60t84.5 155q0 69 -59 118t-219 115q-96 37 -161.5 73t-120 83t-81 107.5t-26.5 136.5q0 174 125 299q78 78 193.5 120.5t254.5 42.5q340 0 543 -223l-176 -170
q-87 87 -179.5 129.5t-207.5 42.5q-129 0 -207 -61t-78 -144q0 -71 61.5 -117.5t233.5 -115.5q93 -37 156 -72.5t114.5 -82.5t76 -107t24.5 -137q0 -179 -129 -308q-81 -81 -197.5 -123t-253.5 -42zM827 1636l320 306l221 -101l-324 -205h-217z" />
    <glyph glyph-name="sacute" unicode="&#x15b;" horiz-adv-x="1081" 
d="M473 -25q-134 0 -267.5 51.5t-228.5 147.5l148 154q161 -158 367 -158q81 0 134.5 37.5t53.5 101.5q0 43 -39.5 77t-130.5 69q-80 32 -131.5 59t-98.5 65t-69.5 86t-22.5 109q0 159 120.5 265t318.5 106q122 0 238 -46t192 -112l-139 -160q-153 123 -310 123
q-85 0 -132.5 -37.5t-47.5 -95.5q0 -42 41.5 -75.5t142.5 -75.5q62 -28 98.5 -47t82 -49t69.5 -58.5t41 -70t17 -89.5q0 -169 -126.5 -273t-320.5 -104zM596 1268l315 344l224 -103l-324 -241h-215z" />
    <glyph glyph-name="Scedilla" unicode="&#x15e;" horiz-adv-x="1376" 
d="M408 -350l-193 92l242 254q-289 50 -445 262l189 156q96 -108 203.5 -160.5t250.5 -52.5q130 0 214.5 60t84.5 155q0 69 -59 118t-219 115q-96 37 -161.5 73t-120 83t-81 107.5t-26.5 136.5q0 174 125 299q78 78 193.5 120.5t254.5 42.5q340 0 543 -223l-176 -170
q-87 87 -179.5 129.5t-207.5 42.5q-129 0 -207 -61t-78 -144q0 -71 61.5 -117.5t233.5 -115.5q93 -37 156 -72.5t114.5 -82.5t76 -107t24.5 -137q0 -179 -129 -308q-81 -81 -197.5 -123t-253.5 -42h-2z" />
    <glyph glyph-name="scedilla" unicode="&#x15f;" horiz-adv-x="1081" 
d="M256 -350l-193 92l242 254q-200 44 -328 178l148 154q161 -158 367 -158q81 0 134.5 37.5t53.5 101.5q0 43 -39.5 77t-130.5 69q-80 32 -131.5 59t-98.5 65t-69.5 86t-22.5 109q0 159 120.5 265t318.5 106q122 0 238 -46t192 -112l-139 -160q-153 123 -310 123
q-85 0 -132.5 -37.5t-47.5 -95.5q0 -42 41.5 -75.5t142.5 -75.5q62 -28 98.5 -47t82 -49t69.5 -58.5t41 -70t17 -89.5q0 -168 -122.5 -270t-312.5 -107h-2z" />
    <glyph glyph-name="Scaron" unicode="&#x160;" horiz-adv-x="1376" 
d="M641 -20q-210 0 -369.5 71t-259.5 207l189 156q96 -108 203.5 -160.5t250.5 -52.5q130 0 214.5 60t84.5 155q0 69 -59 118t-219 115q-96 37 -161.5 73t-120 83t-81 107.5t-26.5 136.5q0 174 125 299q78 78 193.5 120.5t254.5 42.5q340 0 543 -223l-176 -170
q-87 87 -179.5 129.5t-207.5 42.5q-129 0 -207 -61t-78 -144q0 -71 61.5 -117.5t233.5 -115.5q93 -37 156 -72.5t114.5 -82.5t76 -107t24.5 -137q0 -179 -129 -308q-81 -81 -197.5 -123t-253.5 -42zM1405 1919l-330 -283h-233l-178 283h192l131 -123l197 123h221z" />
    <glyph glyph-name="scaron" unicode="&#x161;" horiz-adv-x="1081" 
d="M551 1268l-162 307h184l123 -141l207 141h205l-328 -307h-229zM473 -25q-134 0 -267.5 51.5t-228.5 147.5l148 154q161 -158 367 -158q81 0 134.5 37.5t53.5 101.5q0 43 -39.5 77t-130.5 69q-80 32 -131.5 59t-98.5 65t-69.5 86t-22.5 109q0 159 120.5 265t318.5 106
q122 0 238 -46t192 -112l-139 -160q-153 123 -310 123q-85 0 -132.5 -37.5t-47.5 -95.5q0 -42 41.5 -75.5t142.5 -75.5q62 -28 98.5 -47t82 -49t69.5 -58.5t41 -70t17 -89.5q0 -169 -126.5 -273t-320.5 -104z" />
    <glyph glyph-name="Tcommaaccent" unicode="&#x162;" horiz-adv-x="1337" 
d="M387 0l338 1260h-477l61 231h1207l-64 -231h-475l-338 -1260h-252zM229 -571l7 82q160 18 184 141h-111l56 211h245l-49 -180q-34 -131 -114 -189.5t-218 -64.5z" />
    <glyph glyph-name="Tcommaaccent" unicode="&#x21a;" horiz-adv-x="1337" 
d="M387 0l338 1260h-477l61 231h1207l-64 -231h-475l-338 -1260h-252zM229 -571l7 82q160 18 184 141h-111l56 211h245l-49 -180q-34 -131 -114 -189.5t-218 -64.5z" />
    <glyph glyph-name="tcommaaccent" unicode="&#x163;" horiz-adv-x="890" 
d="M72 -571l6 82q160 18 184 141h-110l55 211h246l-50 -180q-34 -131 -113.5 -189.5t-217.5 -64.5zM430 -18q-133 0 -206.5 59t-73.5 160q0 54 18 131l154 577h-144l58 213h143l84 312h248l-84 -312h305l-58 -213h-305l-147 -555q-10 -38 -10 -65q0 -88 118 -88q84 0 164 35
l-59 -216q-83 -38 -205 -38z" />
    <glyph glyph-name="tcommaaccent" unicode="&#x21b;" horiz-adv-x="890" 
d="M72 -571l6 82q160 18 184 141h-110l55 211h246l-50 -180q-34 -131 -113.5 -189.5t-217.5 -64.5zM430 -18q-133 0 -206.5 59t-73.5 160q0 54 18 131l154 577h-144l58 213h143l84 312h248l-84 -312h305l-58 -213h-305l-147 -555q-10 -38 -10 -65q0 -88 118 -88q84 0 164 35
l-59 -216q-83 -38 -205 -38z" />
    <glyph glyph-name="Tcaron" unicode="&#x164;" horiz-adv-x="1337" 
d="M1407 1898l-330 -282h-233l-178 282h192l131 -122l197 122h221zM387 0l338 1260h-477l61 231h1207l-64 -231h-475l-338 -1260h-252z" />
    <glyph glyph-name="tcaron" unicode="&#x165;" horiz-adv-x="890" 
d="M805 1253l117 400h211v-8l-224 -392h-104zM430 -18q-133 0 -206.5 59t-73.5 160q0 54 18 131l154 577h-144l58 213h143l84 312h248l-84 -312h305l-58 -213h-305l-147 -555q-10 -38 -10 -65q0 -88 118 -88q84 0 164 35l-59 -216q-83 -38 -205 -38z" />
    <glyph glyph-name="Umacron" unicode="&#x16a;" horiz-adv-x="1642" 
d="M717 1640l49 185h758l-49 -185h-758zM745 -23q-261 0 -405.5 131t-144.5 359q0 124 32 235l211 789h252l-221 -825q-20 -70 -20 -164q0 -134 82 -213.5t239 -79.5q164 0 285 115q110 107 168 317l227 850h252l-238 -889q-77 -284 -233 -440q-182 -185 -486 -185z" />
    <glyph glyph-name="umacron" unicode="&#x16b;" horiz-adv-x="1333" 
d="M459 -23q-158 0 -251 90.5t-93 245.5q0 69 32 195l164 614h246l-166 -624q-16 -56 -16 -113q0 -87 53 -135.5t147 -48.5q111 0 197 80t123 211l168 630h248l-301 -1122h-246l39 147q-166 -170 -344 -170zM487 1294l48 181h727l-50 -181h-725z" />
    <glyph glyph-name="Ubreve" unicode="&#x16c;" horiz-adv-x="1642" 
d="M1083 1595q-156 0 -233.5 74t-54.5 207h166q5 -54 41.5 -80.5t117.5 -26.5q143 0 211 107h189q-49 -133 -166 -207t-271 -74zM745 -23q-261 0 -405.5 131t-144.5 359q0 124 32 235l211 789h252l-221 -825q-20 -70 -20 -164q0 -134 82 -213.5t239 -79.5q164 0 285 115
q110 107 168 317l227 850h252l-238 -889q-77 -284 -233 -440q-182 -185 -486 -185z" />
    <glyph glyph-name="ubreve" unicode="&#x16d;" horiz-adv-x="1333" 
d="M459 -23q-158 0 -251 90.5t-93 245.5q0 69 32 195l164 614h246l-166 -624q-16 -56 -16 -113q0 -87 53 -135.5t147 -48.5q111 0 197 80t123 211l168 630h248l-301 -1122h-246l39 147q-166 -170 -344 -170zM864 1264q-161 0 -239.5 84.5t-65.5 218.5h172q2 -59 39 -95
t111 -36q80 0 131.5 34t91.5 97h178q-45 -137 -155.5 -220t-262.5 -83z" />
    <glyph glyph-name="Uring" unicode="&#x16e;" horiz-adv-x="1642" 
d="M745 -23q-261 0 -405.5 131t-144.5 359q0 124 32 235l211 789h252l-221 -825q-20 -70 -20 -164q0 -134 82 -213.5t239 -79.5q164 0 285 115q110 107 168 317l227 850h252l-238 -889q-77 -284 -233 -440q-182 -185 -486 -185zM1155 2015q97 0 162 -57t65 -139
q0 -106 -77 -179t-203 -73q-96 0 -160.5 57t-64.5 139q0 105 77 178.5t201 73.5zM1112 1665q68 0 113 42.5t45 100.5q0 48 -34 78.5t-89 30.5q-67 0 -112.5 -43t-45.5 -100q0 -49 34.5 -79t88.5 -30z" />
    <glyph glyph-name="uring" unicode="&#x16f;" horiz-adv-x="1335" 
d="M1141 1503q0 -105 -78 -183.5t-189 -78.5q-102 0 -164.5 59.5t-62.5 149.5q0 106 77.5 185t188.5 79q103 0 165.5 -59.5t62.5 -151.5zM754 1458q0 -55 34.5 -89t88.5 -34q66 0 111.5 48.5t45.5 113.5q0 55 -34.5 89t-90.5 34q-64 0 -109.5 -49.5t-45.5 -112.5zM459 -23
q-158 0 -251 90.5t-93 245.5q0 69 32 195l164 614h246l-166 -624q-16 -56 -16 -113q0 -87 53 -135.5t147 -48.5q111 0 197 80t123 211l168 630h248l-301 -1122h-246l39 147q-166 -170 -344 -170z" />
    <glyph glyph-name="Uhungarumlaut" unicode="&#x170;" horiz-adv-x="1642" 
d="M745 -23q-261 0 -405.5 131t-144.5 359q0 124 32 235l211 789h252l-221 -825q-20 -70 -20 -164q0 -134 82 -213.5t239 -79.5q164 0 285 115q110 107 168 317l227 850h252l-238 -889q-77 -284 -233 -440q-182 -185 -486 -185zM745 1614l320 305l215 -100l-324 -205h-211z
M1122 1614l320 305l213 -100l-324 -205h-209z" />
    <glyph glyph-name="uhungarumlaut" unicode="&#x171;" horiz-adv-x="1333" 
d="M459 -23q-158 0 -251 90.5t-93 245.5q0 69 32 195l164 614h246l-166 -624q-16 -56 -16 -113q0 -87 53 -135.5t147 -48.5q111 0 197 80t123 211l168 630h248l-301 -1122h-246l39 147q-166 -170 -344 -170zM469 1268l313 344l193 -101l-320 -243h-186zM852 1268l317 344
l191 -101l-322 -243h-186z" />
    <glyph glyph-name="Uogonek" unicode="&#x172;" horiz-adv-x="1642" 
d="M797 -229l-31 -121q-18 -4 -74 -4q-227 9 -227 141q0 98 133 203q-195 35 -299 159.5t-104 317.5q0 124 32 235l211 789h252l-221 -825q-20 -70 -20 -164q0 -134 82 -213.5t239 -79.5q164 0 285 115q110 107 168 317l227 850h252l-238 -889q-77 -284 -233 -440
q-176 -179 -471 -185h-2q-48 -46 -70.5 -78.5t-21.5 -60.5q0 -34 30 -48t101 -19z" />
    <glyph glyph-name="uogonek" unicode="&#x173;" horiz-adv-x="1335" 
d="M459 -23q-158 0 -251 90.5t-93 245.5q0 69 32 195l164 614h246l-166 -624q-16 -56 -16 -113q0 -87 53 -135.5t147 -48.5q111 0 197 80t123 211l168 630h248l-301 -1122h-31q-62 -53 -90.5 -90.5t-28.5 -71.5t30 -48t101 -19l-30 -121q-18 -4 -74 -4q-228 9 -228 141
q0 100 146 213h-41l39 147q-166 -170 -344 -170z" />
    <glyph glyph-name="Wcircumflex" unicode="&#x174;" horiz-adv-x="2355" 
d="M420 -10l-119 1501h262l66 -1120l667 1124h213l72 -1124l666 1120h284l-923 -1501h-230l-78 1075l-653 -1075h-227zM1047 1616l329 282h234l178 -282h-191l-131 123l-196 -123h-223z" />
    <glyph glyph-name="wcircumflex" unicode="&#x175;" horiz-adv-x="1837" 
d="M719 1268l328 307h229l162 -307h-185l-123 141l-206 -141h-205zM272 -8l-65 1130h252l24 -780l465 784h211l45 -786l449 782h250l-676 -1130h-221l-48 780l-469 -780h-217z" />
    <glyph glyph-name="Ycircumflex" unicode="&#x176;" horiz-adv-x="1419" 
d="M418 0l160 594l-338 897h280l234 -682l604 682h309l-844 -926l-153 -565h-252zM571 1614l330 282h234l178 -282h-191l-131 123l-196 -123h-224z" />
    <glyph glyph-name="ycircumflex" unicode="&#x177;" horiz-adv-x="1263" 
d="M371 -4l-168 1126h254l100 -843l506 843h272l-731 -1153q-116 -173 -220.5 -245t-240.5 -72q-139 0 -254 78l134 180q62 -49 145 -49q56 0 102 29.5t101 105.5zM414 1268l327 307h230l162 -307h-185l-123 141l-207 -141h-204z" />
    <glyph glyph-name="Ydieresis" unicode="&#x178;" horiz-adv-x="1419" 
d="M418 0l160 594l-338 897h280l234 -682l604 682h309l-844 -926l-153 -565h-252zM616 1614l64 231h256l-64 -231h-256zM1049 1614l63 231h258l-65 -231h-256z" />
    <glyph glyph-name="Zacute" unicode="&#x179;" horiz-adv-x="1468" 
d="M-31 0l49 184l1156 1086h-836l61 221h1184l-51 -184l-1155 -1086h872l-59 -221h-1221zM866 1616l320 305l221 -100l-324 -205h-217z" />
    <glyph glyph-name="zacute" unicode="&#x17a;" horiz-adv-x="1198" 
d="M-39 0l45 170l840 750h-617l56 202h944l-45 -170l-842 -749h647l-55 -203h-973zM643 1268l315 344l224 -103l-324 -241h-215z" />
    <glyph glyph-name="Zdotaccent" unicode="&#x17b;" horiz-adv-x="1468" 
d="M850 1616l63 231h265l-64 -231h-264zM-31 0l49 184l1156 1086h-836l61 221h1184l-51 -184l-1155 -1086h872l-59 -221h-1221z" />
    <glyph glyph-name="zdotaccent" unicode="&#x17c;" horiz-adv-x="1198" 
d="M-39 0l45 170l840 750h-617l56 202h944l-45 -170l-842 -749h647l-55 -203h-973zM625 1266l69 250h256l-67 -250h-258z" />
    <glyph glyph-name="Zcaron" unicode="&#x17d;" horiz-adv-x="1468" 
d="M1444 1898l-330 -282h-233l-179 282h193l131 -122l197 122h221zM-31 0l49 184l1156 1086h-836l61 221h1184l-51 -184l-1155 -1086h872l-59 -221h-1221z" />
    <glyph glyph-name="zcaron" unicode="&#x17e;" horiz-adv-x="1198" 
d="M598 1268l-162 307h185l122 -141l207 141h205l-328 -307h-229zM-39 0l45 170l840 750h-617l56 202h944l-45 -170l-842 -749h647l-55 -203h-973z" />
    <glyph glyph-name="uni018F" unicode="&#x18f;" horiz-adv-x="1722" 
d="M174 549q0 158 59 309h1164v21q0 180 -111.5 291.5t-310.5 111.5q-228 0 -461 -164l-125 195q288 200 598 200q300 0 480 -174t180 -467q0 -180 -69.5 -349t-197.5 -292q-256 -256 -610 -256q-281 0 -438.5 159.5t-157.5 414.5zM1192 371q121 118 170 272h-928
q-12 -47 -12 -104q0 -67 20.5 -125.5t62.5 -106.5t115.5 -76t170.5 -28q120 0 222.5 48t178.5 120z" />
    <glyph glyph-name="florin" unicode="&#x192;" horiz-adv-x="1165" 
d="M119 -20q-92 0 -166 18l55 201q67 -13 101 -13q116 0 186 166l182 410h-180l57 207h215l97 219q140 323 415 323q136 0 230 -38l-56 -203q-78 30 -161 30q-71 0 -122 -44t-93 -138l-68 -149h287l-56 -207h-323l-213 -483q-71 -159 -167 -229t-220 -70z" />
    <glyph glyph-name="Aringacute" unicode="&#x1fa;" horiz-adv-x="1644" 
d="M-94 0l1009 1427q-57 51 -57 134q0 105 78 178t203 73q96 0 160.5 -57t64.5 -139q0 -73 -35.5 -131t-101.5 -90l237 -1395h-258l-57 362h-717l-254 -362h-272zM584 588h532l-100 620zM1094 1462q67 0 112 43t45 101q0 48 -33 78t-88 30q-67 0 -112 -43t-45 -100
q0 -49 33.5 -79t87.5 -30zM1063 1872l317 270l219 -98l-319 -172h-217z" />
    <glyph glyph-name="aringacute" unicode="&#x1fb;" horiz-adv-x="1259" 
d="M377 -23q-144 0 -242 84.5t-98 221.5q0 161 106 270q138 135 385 135q178 0 355 -55l6 20q14 54 14 95q0 176 -256 176q-153 0 -307 -60l-41 199q181 74 397 74q218 0 332.5 -90t114.5 -256q0 -74 -23 -164l-168 -627h-239l39 152q-158 -175 -375 -175zM475 156
q118 0 221 78.5t135 195.5l15 53q-137 45 -283 45q-144 0 -221 -77q-57 -57 -57 -140q0 -70 51.5 -112.5t138.5 -42.5zM1106 1526q0 -105 -77.5 -183.5t-188.5 -78.5q-102 0 -165 59.5t-63 149.5q0 106 78 185t189 79q103 0 165 -59.5t62 -151.5zM719 1481q0 -55 34.5 -89
t88.5 -34q66 0 111.5 48.5t45.5 113.5q0 55 -34.5 88.5t-90.5 33.5q-64 0 -109.5 -49t-45.5 -112zM838 1804l309 291l215 -102l-318 -189h-206z" />
    <glyph glyph-name="AEacute" unicode="&#x1fc;" horiz-adv-x="2269" 
d="M1462 1616l320 305l221 -100l-324 -205h-217zM-98 0l1237 1491h1251l-61 -225h-805l-109 -404h711l-62 -223h-708l-113 -414h819l-61 -225h-1067l96 362h-551l-299 -362h-278zM662 588h430l182 684h-45z" />
    <glyph glyph-name="aeacute" unicode="&#x1fd;" horiz-adv-x="2041" 
d="M1362 -25q-311 0 -434 236q-224 -234 -527 -234q-164 0 -264 83t-100 223q0 161 106 270q138 135 385 135q178 0 355 -55l6 20q14 54 14 95q0 176 -256 176q-153 0 -307 -60l-41 199q181 74 397 74q303 0 387 -201q86 97 197.5 153t239.5 56q205 0 321.5 -122.5
t116.5 -311.5q0 -118 -47 -236h-824v-4q0 -137 76 -216t221 -79q82 0 149.5 27t145.5 84l117 -156q-177 -156 -434 -156zM489 156q101 0 205 48.5t189 137.5q-11 56 -11 131q-145 55 -309 55q-144 0 -221 -77q-57 -57 -57 -140q0 -70 54 -112.5t150 -42.5zM1229 829
q-81 -81 -115 -190h600q10 38 10 80q0 99 -57 161t-172 62q-153 0 -266 -113zM1055 1268l315 344l223 -103l-323 -241h-215z" />
    <glyph glyph-name="Oslashacute" unicode="&#x1fe;" horiz-adv-x="1802" 
d="M1059 1516q275 0 459 -166l172 151h254l-316 -282q98 -156 98 -357q0 -176 -70 -340.5t-196 -290.5q-122 -122 -279.5 -190t-338.5 -68q-274 0 -461 166l-170 -151h-254l315 282q-98 156 -98 357q0 176 70.5 342t195.5 291q122 121 280 188.5t339 67.5zM428 639
q0 -111 41 -207l860 762q-117 100 -295 100q-229 0 -403 -174q-96 -96 -149.5 -223t-53.5 -258zM866 197q230 0 404 174q96 93 149.5 221t53.5 260q0 109 -41 205l-861 -762q113 -98 295 -98zM1042 1636l320 306l221 -101l-323 -205h-218z" />
    <glyph glyph-name="oslashacute" unicode="&#x1ff;" horiz-adv-x="1394" 
d="M762 1145q220 0 358 -123l125 111h234l-260 -230q69 -115 69 -270q0 -128 -52.5 -249t-145.5 -214q-195 -195 -457 -195q-218 0 -361 121l-122 -108h-234l258 227q-68 127 -68 270q0 129 52.5 250t146.5 215q195 195 457 195zM754 938q-152 0 -269 -117
q-65 -65 -102 -152.5t-37 -174.5q0 -65 16 -127l584 512q-77 59 -192 59zM1049 627q0 66 -19 125l-581 -512q70 -58 192 -58q151 0 268 117q66 66 103 153t37 175zM758 1268l315 344l223 -103l-323 -241h-215z" />
    <glyph glyph-name="Scommaaccent" unicode="&#x218;" horiz-adv-x="1376" 
d="M641 -20q-210 0 -369.5 71t-259.5 207l189 156q96 -108 203.5 -160.5t250.5 -52.5q130 0 214.5 60t84.5 155q0 69 -59 118t-219 115q-96 37 -161.5 73t-120 83t-81 107.5t-26.5 136.5q0 174 125 299q78 78 193.5 120.5t254.5 42.5q340 0 543 -223l-176 -170
q-87 87 -179.5 129.5t-207.5 42.5q-129 0 -207 -61t-78 -144q0 -71 61.5 -117.5t233.5 -115.5q93 -37 156 -72.5t114.5 -82.5t76 -107t24.5 -137q0 -179 -129 -308q-81 -81 -197.5 -123t-253.5 -42zM248 -575l6 81q160 18 184 142h-110l55 211h246l-49 -181
q-34 -131 -114 -189t-218 -64z" />
    <glyph glyph-name="scommaaccent" unicode="&#x219;" horiz-adv-x="1081" 
d="M98 -571l6 82q161 18 185 141h-111l55 211h246l-49 -180q-34 -131 -114 -189.5t-218 -64.5zM473 -25q-134 0 -267.5 51.5t-228.5 147.5l148 154q161 -158 367 -158q81 0 134.5 37.5t53.5 101.5q0 43 -39.5 77t-130.5 69q-80 32 -131.5 59t-98.5 65t-69.5 86t-22.5 109
q0 159 120.5 265t318.5 106q122 0 238 -46t192 -112l-139 -160q-153 123 -310 123q-85 0 -132.5 -37.5t-47.5 -95.5q0 -42 41.5 -75.5t142.5 -75.5q62 -28 98.5 -47t82 -49t69.5 -58.5t41 -70t17 -89.5q0 -169 -126.5 -273t-320.5 -104z" />
    <glyph glyph-name="schwa" unicode="&#x259;" horiz-adv-x="1296" 
d="M84 412q0 120 47 235h823v4q0 134 -75.5 214.5t-214.5 80.5q-83 0 -153.5 -27t-145.5 -83l-119 155q184 156 440 156q231 0 368.5 -133t137.5 -355q0 -134 -55 -263t-154 -228q-191 -191 -453 -191q-209 0 -327.5 122.5t-118.5 312.5zM813 293q74 74 115 190h-598
q-11 -42 -11 -80q0 -99 57.5 -161t172.5 -62q151 0 264 113z" />
    <glyph glyph-name="circumflex" unicode="&#x2c6;" horiz-adv-x="1085" 
d="M373 1268l327 307h230l162 -307h-185l-123 141l-206 -141h-205z" />
    <glyph glyph-name="caron" unicode="&#x2c7;" horiz-adv-x="1085" 
d="M612 1268l-161 307h184l123 -141l207 141h204l-327 -307h-230z" />
    <glyph glyph-name="breve" unicode="&#x2d8;" horiz-adv-x="1085" 
d="M754 1264q-161 0 -239.5 84.5t-65.5 218.5h172q2 -59 38.5 -95t110.5 -36q80 0 131.5 34t91.5 97h178q-45 -137 -155 -220t-262 -83z" />
    <glyph glyph-name="dotaccent" unicode="&#x2d9;" horiz-adv-x="1085" 
d="M604 1266l70 250h256l-68 -250h-258z" />
    <glyph glyph-name="ring" unicode="&#x2da;" horiz-adv-x="1085" 
d="M1042 1526q0 -105 -77.5 -183.5t-188.5 -78.5q-102 0 -164.5 59.5t-62.5 149.5q0 106 77.5 185t188.5 79q103 0 165 -59.5t62 -151.5zM655 1481q0 -55 34.5 -89t88.5 -34q66 0 112 49t46 113q0 55 -34.5 88.5t-90.5 33.5q-65 0 -110.5 -49t-45.5 -112z" />
    <glyph glyph-name="ogonek" unicode="&#x2db;" horiz-adv-x="1085" 
d="M535 -229l-31 -121q-18 -4 -74 -4q-227 9 -227 141q0 62 46.5 119.5t133.5 120.5l158 -13q-72 -59 -105 -100.5t-33 -75.5t30.5 -48t101.5 -19z" />
    <glyph glyph-name="tilde" unicode="&#x2dc;" horiz-adv-x="1085" 
d="M1042 1569l140 -43q-60 -137 -120.5 -197.5t-152.5 -60.5q-29 0 -61.5 7.5t-50 14.5t-56.5 23q-80 39 -118 39q-44 0 -71.5 -23t-66.5 -82l-137 43q60 137 120.5 197.5t152.5 60.5q10 0 20 -0.5t20.5 -2.5t17.5 -3t19.5 -5t16.5 -5.5t18.5 -7t16.5 -6.5t18.5 -8t17.5 -7
q80 -39 121 -39q45 0 72.5 23.5t62.5 81.5z" />
    <glyph glyph-name="hungarumlaut" unicode="&#x2dd;" horiz-adv-x="1085" 
d="M324 1268l313 344l192 -101l-319 -243h-186zM707 1268l317 344l190 -101l-321 -243h-186z" />
    <glyph glyph-name="commaaccent" unicode="&#x326;" horiz-adv-x="1085" 
d="M102 -571l7 82q160 18 184 141h-111l56 211h245l-49 -180q-34 -131 -114 -189.5t-218 -64.5z" />
    <glyph glyph-name="uni0384" unicode="&#x384;" horiz-adv-x="1085" 
d="M575 1268l248 358l219 -96l-272 -262h-195z" />
    <glyph glyph-name="uni0385" unicode="&#x385;" horiz-adv-x="1085" 
d="M926 1268l65 243h230l-66 -243h-229zM311 1268l66 243h229l-67 -243h-228zM594 1268l194 405l226 -49l-258 -356h-162z" />
    <glyph glyph-name="uni0386" unicode="&#x386;" horiz-adv-x="1644" 
d="M-94 0l1061 1501h241l256 -1501h-258l-57 362h-717l-254 -362h-272zM584 588h532l-100 620zM231 1083l136 414h274l-256 -414h-154z" />
    <glyph glyph-name="uni0387" unicode="&#x387;" horiz-adv-x="608" 
d="M242 838l75 284h275l-76 -284h-274z" />
    <glyph glyph-name="uni0388" unicode="&#x388;" horiz-adv-x="1439" 
d="M-53 1077l135 414h274l-256 -414h-153zM53 0l402 1491h1091l-61 -225h-842l-106 -404h745l-61 -223h-746l-110 -414h852l-62 -225h-1102z" />
    <glyph glyph-name="uni0389" unicode="&#x389;" horiz-adv-x="1634" 
d="M68 0l401 1491h252l-168 -625h719l166 625h252l-400 -1491h-252l170 633h-716l-173 -633h-251zM-53 1077l135 414h274l-256 -414h-153z" />
    <glyph glyph-name="uni038A" unicode="&#x38a;" horiz-adv-x="690" 
d="M68 0l401 1491h252l-399 -1491h-254zM-53 1077l135 414h274l-256 -414h-153z" />
    <glyph glyph-name="uni038C" unicode="&#x38c;" horiz-adv-x="1806" 
d="M-47 1094l135 413h274l-256 -413h-153zM1059 1516q147 0 272 -50t211.5 -137.5t135 -208t48.5 -258.5q0 -176 -70 -340.5t-196 -290.5q-122 -122 -279.5 -190t-338.5 -68q-147 0 -272.5 50.5t-212 138t-135 208t-48.5 257.5q0 176 70.5 342t195.5 291q122 121 280 188.5
t339 67.5zM868 205q226 0 398 172q93 92 145.5 217.5t52.5 255.5q0 191 -116.5 312.5t-315.5 121.5q-227 0 -397 -170q-94 -94 -146.5 -219t-52.5 -254q0 -193 116.5 -314.5t315.5 -121.5z" />
    <glyph glyph-name="uni038E" unicode="&#x38e;" horiz-adv-x="1419" 
d="M418 0l160 594l-338 897h280l234 -682l604 682h309l-844 -926l-153 -565h-252zM-207 1077l135 414h275l-256 -414h-154z" />
    <glyph glyph-name="uni038F" unicode="&#x38f;" horiz-adv-x="1863" 
d="M500 690q0 -269 207 -479l-58 -211h-631l60 217l391 -2q-227 241 -227 524q0 162 63 305.5t173.5 247.5t269.5 164t342 60q313 0 494 -163.5t181 -428.5q0 -211 -120 -383t-351 -326l375 2l-57 -217h-670l57 211q504 301 504 674q0 181 -114.5 290t-315.5 109
q-252 0 -412.5 -165t-160.5 -429zM-45 1094l135 413h275l-256 -413h-154z" />
    <glyph glyph-name="uni0390" unicode="&#x390;" horiz-adv-x="679" 
d="M698 1268l66 243h229l-65 -243h-230zM84 1268l66 243h229l-68 -243h-227zM367 1268l194 405l225 -49l-258 -356h-161zM528 199l-53 -195q-59 -18 -131 -18q-122 0 -184 59t-62 166q0 65 31 192l193 719h245l-205 -766q-12 -62 -12 -86q0 -77 107 -77q48 0 71 6z" />
    <glyph glyph-name="uni0391" unicode="&#x391;" horiz-adv-x="1644" 
d="M-94 0l1061 1501h241l256 -1501h-258l-57 362h-717l-254 -362h-272zM584 588h532l-100 620z" />
    <glyph glyph-name="uni0392" unicode="&#x392;" horiz-adv-x="1548" 
d="M53 0l402 1491h569q234 0 359.5 -98t125.5 -258q0 -151 -94 -249.5t-252 -131.5q236 -88 236 -305q0 -201 -169 -325t-466 -124h-711zM360 223h439q162 0 255 64t93 176q0 87 -72 134.5t-198 47.5h-404zM530 858h375q165 0 257.5 62t92.5 174q0 83 -64 128.5t-190 45.5
h-362z" />
    <glyph glyph-name="uni0393" unicode="&#x393;" horiz-adv-x="1337" 
d="M53 0l402 1491h1040l-61 -229h-791l-338 -1262h-252z" />
    <glyph glyph-name="uni0394" unicode="&#x394;" horiz-adv-x="1667" 
d="M1221 1501l254 -1319l-70 -182h-1432l29 182l959 1319h260zM1024 1210l-700 -987h876z" />
    <glyph glyph-name="uni0395" unicode="&#x395;" horiz-adv-x="1425" 
d="M53 0l402 1491h1091l-61 -225h-842l-106 -404h745l-61 -223h-746l-110 -414h852l-62 -225h-1102z" />
    <glyph glyph-name="uni0396" unicode="&#x396;" horiz-adv-x="1468" 
d="M-31 0l49 184l1156 1086h-836l61 221h1184l-51 -184l-1155 -1086h872l-59 -221h-1221z" />
    <glyph glyph-name="uni0397" unicode="&#x397;" horiz-adv-x="1630" 
d="M53 0l402 1491h252l-168 -625h718l166 625h252l-399 -1491h-252l170 633h-717l-172 -633h-252z" />
    <glyph glyph-name="uni0398" unicode="&#x398;" horiz-adv-x="1806" 
d="M1315 866l-62 -231h-663l59 231h666zM430 641q0 -194 118 -316t320 -122q233 0 404 174q93 92 145.5 217.5t52.5 255.5q0 194 -118 316t-320 122q-229 0 -403 -174q-94 -94 -146.5 -219t-52.5 -254zM174 627q0 176 70.5 342t195.5 291q122 121 280 188.5t339 67.5
q147 0 272 -50t211.5 -137.5t135 -208t48.5 -258.5q0 -176 -70 -340.5t-196 -290.5q-122 -122 -279.5 -190t-338.5 -68q-147 0 -272.5 50.5t-212 138t-135 208t-48.5 257.5z" />
    <glyph glyph-name="uni0399" unicode="&#x399;" horiz-adv-x="690" 
d="M68 0l401 1491h252l-399 -1491h-254z" />
    <glyph glyph-name="uni039A" unicode="&#x39a;" horiz-adv-x="1558" 
d="M53 0l402 1491h252l-207 -768l897 768h346l-762 -639l385 -852h-279l-309 702l-366 -307l-107 -395h-252z" />
    <glyph glyph-name="uni039B" unicode="&#x39b;" horiz-adv-x="1603" 
d="M1176 1501l235 -1501h-268l-164 1147l-782 -1147h-283l1038 1501h224z" />
    <glyph glyph-name="uni039C" unicode="&#x39c;" horiz-adv-x="1861" 
d="M53 0l402 1491h250l266 -719l653 719h283l-400 -1491h-252l291 1085l-665 -714h-9l-282 710l-291 -1081h-246z" />
    <glyph glyph-name="uni039D" unicode="&#x39d;" horiz-adv-x="1693" 
d="M53 0l402 1491h231l518 -1073l289 1073h248l-402 -1491h-209l-534 1102l-295 -1102h-248z" />
    <glyph glyph-name="uni039E" unicode="&#x39e;" horiz-adv-x="1396" 
d="M1190 229l-62 -229h-1159l62 229h1159zM317 1262l64 229h1139l-64 -229h-1139zM1294 864l-59 -227h-1028l61 227h1026z" />
    <glyph glyph-name="uni039F" unicode="&#x39f;" horiz-adv-x="1806" 
d="M1059 1516q147 0 272 -50t211.5 -137.5t135 -208t48.5 -258.5q0 -176 -70 -340.5t-196 -290.5q-122 -122 -279.5 -190t-338.5 -68q-147 0 -272.5 50.5t-212 138t-135 208t-48.5 257.5q0 176 70.5 342t195.5 291q122 121 280 188.5t339 67.5zM868 205q226 0 398 172
q93 92 145.5 217.5t52.5 255.5q0 191 -116.5 312.5t-315.5 121.5q-227 0 -397 -170q-94 -94 -146.5 -219t-52.5 -254q0 -193 116.5 -314.5t315.5 -121.5z" />
    <glyph glyph-name="uni03A0" unicode="&#x3a0;" horiz-adv-x="1624" 
d="M53 0l402 1491h1214l-399 -1491h-252l338 1262h-713l-338 -1262h-252z" />
    <glyph glyph-name="uni03A1" unicode="&#x3a1;" horiz-adv-x="1454" 
d="M53 0l402 1491h469q155 0 263 -34t185 -111q111 -111 111 -293q0 -222 -146 -365q-199 -199 -583 -199h-316l-133 -489h-252zM1163 1184q-77 80 -248 80h-272l-147 -553h270q257 0 375 118q80 80 80 205q0 95 -58 150z" />
    <glyph glyph-name="uni03A3" unicode="&#x3a3;" horiz-adv-x="1443" 
d="M1051 733l-625 -510h821l-59 -223h-1204l51 186l706 576l-403 543l51 186h1165l-59 -223h-831z" />
    <glyph glyph-name="uni03A4" unicode="&#x3a4;" horiz-adv-x="1337" 
d="M387 0l338 1260h-477l61 231h1207l-64 -231h-475l-338 -1260h-252z" />
    <glyph glyph-name="uni03A5" unicode="&#x3a5;" horiz-adv-x="1419" 
d="M418 0l160 594l-338 897h280l234 -682l604 682h309l-844 -926l-153 -565h-252z" />
    <glyph glyph-name="uni03A6" unicode="&#x3a6;" horiz-adv-x="2027" 
d="M1145 1513h252l-45 -161q277 -25 441.5 -168.5t164.5 -364.5q0 -198 -116.5 -351.5t-328.5 -238.5t-487 -88l-43 -164h-252l45 168q-276 25 -441 168.5t-165 366.5q0 200 116.5 352.5t327.5 236.5t488 89zM430 694q0 -147 107 -234.5t303 -99.5l209 781
q-284 -4 -451.5 -128t-167.5 -319zM1698 805q0 142 -107.5 231.5t-300.5 102.5l-211 -781q285 4 452 127t167 320z" />
    <glyph glyph-name="uni03A7" unicode="&#x3a7;" horiz-adv-x="1505" 
d="M-78 0l742 772l-347 719h281l246 -541l504 541h321l-717 -750l357 -741h-281l-258 565l-524 -565h-324z" />
    <glyph glyph-name="uni03A8" unicode="&#x3a8;" horiz-adv-x="1837" 
d="M1931 1491l-159 -594q-75 -251 -195 -369q-106 -106 -250.5 -150t-341.5 -44h-2l-88 -334h-250l90 340q-230 24 -358.5 135t-128.5 307q0 114 47 281l115 428h249l-122 -451q-39 -153 -39 -225q0 -124 73 -180.5t230 -67.5l248 924h243l-250 -926h2q251 3 357 115
q80 80 133 258l147 553h250z" />
    <glyph glyph-name="uni03A9" unicode="&#x3a9;" horiz-adv-x="1863" 
d="M500 690q0 -269 207 -479l-58 -211h-631l60 217l391 -2q-227 241 -227 524q0 162 63 305.5t173.5 247.5t269.5 164t342 60q313 0 494 -163.5t181 -428.5q0 -211 -120 -383t-351 -326l375 2l-57 -217h-670l57 211q504 301 504 674q0 181 -114.5 290t-315.5 109
q-252 0 -412.5 -165t-160.5 -429z" />
    <glyph glyph-name="uni03AA" unicode="&#x3aa;" horiz-adv-x="690" 
d="M68 0l401 1491h252l-399 -1491h-254zM285 1616l63 231h256l-63 -231h-256zM717 1616l63 231h258l-65 -231h-256z" />
    <glyph glyph-name="uni03AB" unicode="&#x3ab;" horiz-adv-x="1419" 
d="M418 0l160 594l-338 897h280l234 -682l604 682h309l-844 -926l-153 -565h-252zM616 1614l64 231h256l-64 -231h-256zM1049 1614l63 231h258l-65 -231h-256z" />
    <glyph glyph-name="uni03AC" unicode="&#x3ac;" horiz-adv-x="1525" 
d="M778 1268l248 358l219 -96l-272 -262h-195zM1415 1122l-205 -766q-14 -54 -14 -86q0 -77 109 -77q37 0 71 6l-53 -195q-50 -18 -131 -18q-100 0 -158.5 45t-72.5 125q-179 -179 -408 -179q-196 0 -321.5 130t-125.5 348q0 152 54.5 282.5t150.5 225.5q87 87 195.5 134.5
t224.5 47.5q265 0 383 -227l53 204h248zM635 188q151 0 272 121q144 144 144 334q0 127 -81.5 209t-209.5 82q-151 0 -258 -113q-67 -63 -103.5 -154t-36.5 -194q0 -130 75 -207.5t198 -77.5z" />
    <glyph glyph-name="uni03AD" unicode="&#x3ad;" horiz-adv-x="1245" 
d="M664 1268l247 358l219 -96l-272 -262h-194zM367 582q-148 76 -148 221q0 140 136.5 241t363.5 101q301 0 506 -180l-144 -162q-159 141 -368 141q-121 0 -186.5 -43t-65.5 -113q0 -64 47.5 -97.5t157.5 -33.5h231l-49 -184h-258q-132 0 -199 -40t-67 -114
q0 -68 61.5 -105.5t185.5 -37.5q212 0 408 100l76 -184q-99 -54 -232.5 -85.5t-267.5 -31.5q-230 0 -356.5 86t-126.5 222q0 118 79 192t216 107z" />
    <glyph glyph-name="uni03AE" unicode="&#x3ae;" horiz-adv-x="1333" 
d="M770 1268l248 358l219 -96l-272 -262h-195zM23 0l301 1122h247l-39 -147q166 170 347 170q156 0 249 -90.5t93 -245.5q0 -65 -33 -195l-254 -954h-248l258 965q17 59 17 112q0 88 -52.5 136.5t-148.5 48.5q-111 0 -197.5 -80t-122.5 -211l-170 -631h-247z" />
    <glyph glyph-name="uni03AF" unicode="&#x3af;" horiz-adv-x="679" 
d="M371 1268l247 358l220 -96l-273 -262h-194zM528 199l-53 -195q-59 -18 -131 -18q-122 0 -184 59t-62 166q0 65 31 192l193 719h245l-205 -766q-12 -62 -12 -86q0 -77 107 -77q48 0 71 6z" />
    <glyph glyph-name="uni03B0" unicode="&#x3b0;" horiz-adv-x="1337" 
d="M1055 1268l65 243h230l-66 -243h-229zM440 1268l66 243h229l-67 -243h-228zM723 1268l195 405l225 -49l-258 -356h-162zM154 545l155 577h246l-160 -600q-24 -87 -24 -151q0 -88 54 -135.5t161 -47.5q131 0 215 84q69 69 110 215l170 635h246l-178 -669
q-55 -206 -170 -324q-154 -154 -412 -154q-207 0 -324.5 96.5t-117.5 274.5q0 93 29 199z" />
    <glyph glyph-name="uni03B1" unicode="&#x3b1;" horiz-adv-x="1525" 
d="M1415 1122l-205 -766q-14 -54 -14 -86q0 -77 109 -77q37 0 71 6l-53 -195q-50 -18 -131 -18q-100 0 -158.5 45t-72.5 125q-179 -179 -408 -179q-196 0 -321.5 130t-125.5 348q0 152 54.5 282.5t150.5 225.5q87 87 195.5 134.5t224.5 47.5q265 0 383 -227l53 204h248z
M635 188q151 0 272 121q144 144 144 334q0 127 -81.5 209t-209.5 82q-151 0 -258 -113q-67 -63 -103.5 -154t-36.5 -194q0 -130 75 -207.5t198 -77.5z" />
    <glyph glyph-name="uni03B2" unicode="&#x3b2;" horiz-adv-x="1435" 
d="M-66 -340l367 1374q67 249 197 379q156 156 422 156q218 0 347.5 -113t129.5 -287q0 -161 -102 -269t-291 -146q270 -100 270 -340q0 -185 -144.5 -311t-363.5 -126q-309 0 -438 228l-146 -545h-248zM631 680h-178l-29 -105q-14 -68 -14 -106q0 -129 90.5 -206t238.5 -77
q132 0 210.5 72.5t78.5 179.5q0 109 -98 175.5t-299 66.5zM543 1014l-41 -152h223q199 0 311.5 76.5t112.5 212.5q0 95 -62 153t-176 58q-143 0 -237 -94q-88 -88 -131 -254z" />
    <glyph glyph-name="uni03B3" unicode="&#x3b3;" horiz-adv-x="1261" 
d="M498 -340h-246l100 375l-155 1087h256l86 -827l526 827h270l-737 -1091z" />
    <glyph glyph-name="uni03B4" unicode="&#x3b4;" horiz-adv-x="1382" 
d="M788 1356l203 -226q144 -162 210.5 -287t66.5 -284q0 -157 -75.5 -290t-215.5 -213.5t-315 -80.5q-134 0 -241.5 42.5t-174 114.5t-102 161t-35.5 186q0 233 148.5 388.5t447.5 244.5l-232 258l49 184h858l-55 -204zM1022 549q0 105 -42.5 202t-135.5 203
q-263 -76 -377.5 -190t-114.5 -277q0 -128 84 -215.5t228 -87.5q157 0 257.5 104t100.5 261z" />
    <glyph glyph-name="uni03B5" unicode="&#x3b5;" horiz-adv-x="1245" 
d="M367 582q-148 76 -148 221q0 140 136.5 241t363.5 101q301 0 506 -180l-144 -162q-159 141 -368 141q-121 0 -186.5 -43t-65.5 -113q0 -64 47.5 -97.5t157.5 -33.5h231l-49 -184h-258q-132 0 -199 -40t-67 -114q0 -68 61.5 -105.5t185.5 -37.5q212 0 408 100l76 -184
q-99 -54 -232.5 -85.5t-267.5 -31.5q-230 0 -356.5 86t-126.5 222q0 118 79 192t216 107z" />
    <glyph glyph-name="uni03B6" unicode="&#x3b6;" horiz-adv-x="1200" 
d="M1333 1364l-715 -571q-151 -119 -210.5 -194t-59.5 -148q0 -79 60 -128.5t208 -76.5l390 -80l-117 -438h-234l74 274l-219 43q-223 46 -322.5 140t-99.5 239q0 94 42 178t122.5 165t226.5 196l494 385h-545l55 206h899z" />
    <glyph glyph-name="uni03B7" unicode="&#x3b7;" horiz-adv-x="1333" 
d="M23 0l301 1122h247l-39 -147q166 170 347 170q156 0 249 -90.5t93 -245.5q0 -65 -33 -195l-254 -954h-248l258 965q17 59 17 112q0 88 -52.5 136.5t-148.5 48.5q-111 0 -197.5 -80t-122.5 -211l-170 -631h-247z" />
    <glyph glyph-name="uni03B8" unicode="&#x3b8;" horiz-adv-x="1429" 
d="M1376 1008q0 -219 -82 -454t-237 -390q-191 -191 -441 -191q-221 0 -337.5 152t-116.5 410q0 218 81.5 454.5t237.5 388.5q189 189 439 189q223 0 339.5 -150t116.5 -409zM395 524q0 -75 13.5 -135t41 -107t74 -72.5t109.5 -25.5q138 0 252 111q131 136 202 377h-681
q-11 -101 -11 -148zM653 1245q-130 -130 -202 -373h679q11 93 11 144q0 75 -13.5 135t-41 107t-74 72.5t-109.5 25.5q-139 0 -250 -111z" />
    <glyph glyph-name="uni03B9" unicode="&#x3b9;" horiz-adv-x="679" 
d="M528 199l-53 -195q-59 -18 -131 -18q-122 0 -184 59t-62 166q0 65 31 192l193 719h245l-205 -766q-12 -62 -12 -86q0 -77 107 -77q48 0 71 6z" />
    <glyph glyph-name="uni03BA" unicode="&#x3ba;" horiz-adv-x="1275" 
d="M571 1122l-139 -522l612 522h334l-587 -485l272 -637h-266l-207 485l-242 -200l-76 -285h-247l299 1122h247z" />
    <glyph glyph-name="uni03BB" unicode="&#x3bb;" horiz-adv-x="1292" 
d="M836 0l-95 846l-548 -846h-273l776 1139l-4 37q-12 104 -49 141t-113 37q-66 0 -131 -19l41 207q86 25 164 25q135 0 215 -80q44 -44 71.5 -118t45.5 -202l154 -1167h-254z" />
    <glyph glyph-name="uni03BC" unicode="&#x3bc;" horiz-adv-x="1441" 
d="M176 -340h-244l392 1462h247l-157 -587q-21 -86 -21 -138q0 -96 55.5 -149t155.5 -53q111 0 188.5 66.5t112.5 195.5l180 665h246l-205 -766q-14 -54 -14 -86q0 -77 107 -77q39 0 73 6l-53 -195q-61 -18 -131 -18q-96 0 -153.5 41.5t-75.5 115.5q-116 -159 -301 -159
q-106 0 -183 53t-108 156h-4q-9 -174 -47 -314z" />
    <glyph glyph-name="uni03BD" unicode="&#x3bd;" horiz-adv-x="1255" 
d="M352 -8l-157 1130h256l86 -833l526 833h270l-760 -1130h-221z" />
    <glyph glyph-name="uni03BE" unicode="&#x3be;" horiz-adv-x="1191" 
d="M616 238l373 -74l-117 -436h-231l74 274l-172 33q-222 43 -338.5 137t-116.5 254q0 155 105.5 257t310.5 140q-166 109 -166 297t149.5 318.5t386.5 130.5q289 0 496 -211l-158 -170q-154 166 -342 166q-133 0 -208.5 -73t-75.5 -179q0 -228 315 -228h135l-55 -204h-268
q-177 0 -271 -58.5t-94 -165.5q0 -84 64 -131t204 -77z" />
    <glyph glyph-name="uni03BF" unicode="&#x3bf;" horiz-adv-x="1394" 
d="M762 1145q237 0 381.5 -143.5t144.5 -368.5q0 -128 -52.5 -249t-145.5 -214q-195 -195 -457 -195q-238 0 -382.5 143t-144.5 367q0 129 52.5 250t146.5 215q195 195 457 195zM647 188q143 0 256 113q65 65 102 152.5t37 173.5q0 145 -80 224t-214 79q-142 0 -256 -111
q-66 -66 -103 -153t-37 -172q0 -146 79.5 -226t215.5 -80z" />
    <glyph glyph-name="uni03C0" unicode="&#x3c0;" horiz-adv-x="1527" 
d="M1331 199l-53 -195q-58 -18 -131 -18q-122 0 -184 59t-62 166q0 65 31 192l133 498h-451l-239 -901h-248l244 901h-201l59 221h1338l-58 -221h-198l-146 -545q-12 -62 -12 -86q0 -77 107 -77q48 0 71 6z" />
    <glyph glyph-name="uni03C1" unicode="&#x3c1;" horiz-adv-x="1415" 
d="M-88 -340l252 944q66 248 190 369q172 172 430 172q231 0 378 -138.5t147 -363.5q0 -139 -54 -264.5t-149 -220.5q-87 -87 -194.5 -134t-223.5 -47q-265 0 -385 228l-145 -545h-246zM664 188q154 0 258 109q66 65 102.5 155t36.5 183q0 140 -75.5 219.5t-205.5 79.5
q-145 0 -254 -109q-67 -66 -106 -161t-39 -185q0 -132 78.5 -211.5t204.5 -79.5z" />
    <glyph glyph-name="uni03C2" unicode="&#x3c2;" horiz-adv-x="1216" 
d="M680 227l301 -59l-117 -440h-233l74 276l-154 31q-222 46 -332 168.5t-110 308.5q0 264 182 446q187 187 448 187q163 0 282 -69t193 -183l-190 -135q-114 172 -291 172q-149 0 -256 -107q-123 -129 -123 -295q0 -124 77.5 -195t248.5 -106z" />
    <glyph glyph-name="uni03C3" unicode="&#x3c3;" horiz-adv-x="1474" 
d="M1270 575q0 -117 -45.5 -224t-128.5 -187q-88 -91 -208.5 -140t-256.5 -49q-239 0 -382 140t-143 364q0 266 183 449q194 194 502 194h722l-57 -213l-336 4q72 -57 111 -145.5t39 -192.5zM643 188q158 0 268 113q121 121 121 301q0 145 -76 225t-206 80q-159 0 -273 -114
q-58 -58 -91.5 -138.5t-33.5 -169.5q0 -145 77 -221t214 -76z" />
    <glyph glyph-name="uni03C4" unicode="&#x3c4;" horiz-adv-x="1228" 
d="M1290 1122l-59 -221h-418l-131 -493q-20 -78 -20 -115q0 -57 36.5 -82t106.5 -25q59 0 145 19l-53 -199q-84 -20 -174 -20q-154 0 -234.5 64t-80.5 190q0 60 30 184l127 477h-403l59 221h1069z" />
    <glyph glyph-name="uni03C5" unicode="&#x3c5;" horiz-adv-x="1337" 
d="M154 545l155 577h246l-160 -600q-24 -87 -24 -151q0 -88 54 -135.5t161 -47.5q131 0 215 84q69 69 110 215l170 635h246l-178 -669q-55 -206 -170 -324q-154 -154 -412 -154q-207 0 -324.5 96.5t-117.5 274.5q0 93 29 199z" />
    <glyph glyph-name="uni03C6" unicode="&#x3c6;" horiz-adv-x="1798" 
d="M1690 606q0 -223 -162 -385q-107 -107 -273 -166t-372 -59h-13l-90 -336h-243l94 348q-243 36 -382.5 173.5t-139.5 334.5q0 224 161 385q107 107 273.5 166t374.5 59h12l114 428h244l-119 -440q240 -37 380.5 -175t140.5 -333zM352 522q0 -125 87.5 -209t248.5 -104
l189 709h-3q-273 0 -417 -144q-105 -108 -105 -252zM1446 600q0 123 -87 205.5t-247 105.5l-190 -706h2q273 0 419 143q103 103 103 252z" />
    <glyph glyph-name="uni03C7" unicode="&#x3c7;" horiz-adv-x="1292" 
d="M481 1122l172 -512l412 512h301l-621 -725l283 -737h-266l-199 573l-477 -573h-303l688 782l-256 680h266z" />
    <glyph glyph-name="uni03C8" unicode="&#x3c8;" horiz-adv-x="1761" 
d="M1751 1122l-162 -612q-63 -215 -176 -328q-189 -186 -563 -186h-2l-90 -336h-244l90 340q-205 21 -332 132t-127 296q0 97 31 215l129 479h244l-137 -516q-21 -80 -21 -149q0 -220 273 -244l360 1341h242l-363 -1345h2q215 0 330 115q83 83 123 241l147 557h246z" />
    <glyph glyph-name="uni03C9" unicode="&#x3c9;" horiz-adv-x="1910" 
d="M836 571l88 334h239l-82 -319q-26 -104 -26 -172q0 -99 46.5 -159t147.5 -60q128 0 208.5 122t80.5 322q0 244 -127 483h254q51 -99 84 -229t33 -258q0 -152 -41.5 -278t-114 -208.5t-169 -128t-206.5 -45.5q-157 0 -245.5 78t-110.5 209q-67 -136 -172.5 -211.5
t-233.5 -75.5q-183 0 -284 117.5t-101 302.5q0 191 97.5 380t267.5 347h293q-410 -362 -410 -700q0 -106 46.5 -166.5t133.5 -60.5q101 0 176 90t128 286z" />
    <glyph glyph-name="uni03CA" unicode="&#x3ca;" horiz-adv-x="679" 
d="M154 1268l67 245h252l-67 -245h-252zM571 1268l68 245h252l-68 -245h-252zM528 199l-53 -195q-59 -18 -131 -18q-122 0 -184 59t-62 166q0 65 31 192l193 719h245l-205 -766q-12 -62 -12 -86q0 -77 107 -77q48 0 71 6z" />
    <glyph glyph-name="uni03CB" unicode="&#x3cb;" horiz-adv-x="1337" 
d="M510 1268l68 245h251l-67 -245h-252zM928 1268l67 245h252l-67 -245h-252zM154 545l155 577h246l-160 -600q-24 -87 -24 -151q0 -88 54 -135.5t161 -47.5q131 0 215 84q69 69 110 215l170 635h246l-178 -669q-55 -206 -170 -324q-154 -154 -412 -154q-207 0 -324.5 96.5
t-117.5 274.5q0 93 29 199z" />
    <glyph glyph-name="uni03CC" unicode="&#x3cc;" horiz-adv-x="1394" 
d="M756 1268l248 358l219 -96l-273 -262h-194zM762 1145q237 0 381.5 -143.5t144.5 -368.5q0 -128 -52.5 -249t-145.5 -214q-195 -195 -457 -195q-238 0 -382.5 143t-144.5 367q0 129 52.5 250t146.5 215q195 195 457 195zM647 188q143 0 256 113q65 65 102 152.5t37 173.5
q0 145 -80 224t-214 79q-142 0 -256 -111q-66 -66 -103 -153t-37 -172q0 -146 79.5 -226t215.5 -80z" />
    <glyph glyph-name="uni03CD" unicode="&#x3cd;" horiz-adv-x="1337" 
d="M727 1268l248 358l219 -96l-272 -262h-195zM154 545l155 577h246l-160 -600q-24 -87 -24 -151q0 -88 54 -135.5t161 -47.5q131 0 215 84q69 69 110 215l170 635h246l-178 -669q-55 -206 -170 -324q-154 -154 -412 -154q-207 0 -324.5 96.5t-117.5 274.5q0 93 29 199z" />
    <glyph glyph-name="uni03CE" unicode="&#x3ce;" horiz-adv-x="1910" 
d="M1020 1268l248 358l219 -96l-273 -262h-194zM836 571l88 334h239l-82 -319q-26 -104 -26 -172q0 -99 46.5 -159t147.5 -60q128 0 208.5 122t80.5 322q0 244 -127 483h254q51 -99 84 -229t33 -258q0 -152 -41.5 -278t-114 -208.5t-169 -128t-206.5 -45.5q-157 0 -245.5 78
t-110.5 209q-67 -136 -172.5 -211.5t-233.5 -75.5q-183 0 -284 117.5t-101 302.5q0 191 97.5 380t267.5 347h293q-410 -362 -410 -700q0 -106 46.5 -166.5t133.5 -60.5q101 0 176 90t128 286z" />
    <glyph glyph-name="uni0400" unicode="&#x400;" horiz-adv-x="1425" 
d="M920 1616l-213 205l229 100l154 -305h-170zM53 0l402 1491h1091l-61 -225h-842l-106 -404h745l-61 -223h-746l-110 -414h852l-62 -225h-1102z" />
    <glyph glyph-name="uni0401" unicode="&#x401;" horiz-adv-x="1425" 
d="M682 1616l63 231h256l-63 -231h-256zM1114 1616l64 231h258l-66 -231h-256zM53 0l402 1491h1091l-61 -225h-842l-106 -404h745l-61 -223h-746l-110 -414h852l-62 -225h-1102z" />
    <glyph glyph-name="uni0402" unicode="&#x402;" horiz-adv-x="1771" 
d="M1444 1260h-488l-94 -351q120 21 244 21q268 0 406.5 -107t138.5 -305q0 -241 -178 -381.5t-498 -140.5h-64l58 219h22q190 0 296 79t106 204q0 211 -332 211q-117 0 -260 -25l-183 -684h-251l338 1260h-457l63 231h1194z" />
    <glyph glyph-name="uni0403" unicode="&#x403;" horiz-adv-x="1337" 
d="M850 1616l319 305l222 -100l-324 -205h-217zM53 0l402 1491h1040l-61 -229h-791l-338 -1262h-252z" />
    <glyph glyph-name="uni0404" unicode="&#x404;" horiz-adv-x="1583" 
d="M1061 1516q385 0 590 -312l-209 -143q-76 112 -171.5 169.5t-230.5 57.5q-237 0 -411 -174q-107 -107 -160 -256h723l-57 -215h-705v-27q0 -192 117.5 -302.5t300.5 -110.5q118 0 213.5 43.5t189.5 128.5l160 -168q-121 -111 -257.5 -172.5t-313.5 -61.5
q-144 0 -265.5 43.5t-211 125t-139.5 205t-50 276.5q0 177 69 340t195 292q120 122 282 191.5t341 69.5z" />
    <glyph glyph-name="uni0405" unicode="&#x405;" horiz-adv-x="1376" 
d="M641 -20q-210 0 -369.5 71t-259.5 207l189 156q96 -108 203.5 -160.5t250.5 -52.5q130 0 214.5 60t84.5 155q0 69 -59 118t-219 115q-96 37 -161.5 73t-120 83t-81 107.5t-26.5 136.5q0 174 125 299q78 78 193.5 120.5t254.5 42.5q340 0 543 -223l-176 -170
q-87 87 -179.5 129.5t-207.5 42.5q-129 0 -207 -61t-78 -144q0 -71 61.5 -117.5t233.5 -115.5q93 -37 156 -72.5t114.5 -82.5t76 -107t24.5 -137q0 -179 -129 -308q-81 -81 -197.5 -123t-253.5 -42z" />
    <glyph glyph-name="uni0406" unicode="&#x406;" horiz-adv-x="690" 
d="M68 0l401 1491h252l-399 -1491h-254z" />
    <glyph glyph-name="uni0407" unicode="&#x407;" horiz-adv-x="690" 
d="M68 0l401 1491h252l-399 -1491h-254zM285 1616l63 231h256l-63 -231h-256zM717 1616l63 231h258l-65 -231h-256z" />
    <glyph glyph-name="uni0408" unicode="&#x408;" horiz-adv-x="1224" 
d="M416 -20q-156 0 -276 74t-187 206l184 143q56 -99 124.5 -145.5t164.5 -46.5q131 0 225 94q44 44 76 112t68 199l233 875h258l-250 -932q-42 -161 -88.5 -256.5t-122.5 -171.5q-151 -151 -409 -151z" />
    <glyph glyph-name="uni0409" unicode="&#x409;" horiz-adv-x="2308" 
d="M926 0l342 1272h-23l-1048 -1272h-295l1237 1491h438l-133 -502h213q265 0 404 -114t139 -318q0 -213 -144 -360q-200 -197 -604 -197h-526zM1939 541q0 110 -77.5 166.5t-225.5 56.5h-254l-143 -537h254q246 0 367 115q79 79 79 199z" />
    <glyph glyph-name="uni040A" unicode="&#x40a;" horiz-adv-x="2381" 
d="M1001 0l170 633h-696l-170 -633h-252l402 1491h252l-170 -625h696l168 625h252l-135 -502h213q265 0 404.5 -114t139.5 -318q0 -212 -145 -360q-200 -197 -602 -197h-527zM2013 541q0 110 -77.5 166.5t-225.5 56.5h-254l-143 -537h254q251 0 366 115q80 80 80 199z" />
    <glyph glyph-name="uni040B" unicode="&#x40b;" horiz-adv-x="1814" 
d="M1444 1260h-488l-94 -353q143 25 273 25q102 0 188.5 -22t156.5 -68t110 -126t40 -188q0 -109 -31 -217l-83 -311h-252l88 332q26 102 26 170q0 105 -80.5 155t-218.5 50q-118 0 -278 -29l-183 -678h-251l338 1260h-457l63 231h1194z" />
    <glyph glyph-name="uni040C" unicode="&#x40c;" horiz-adv-x="1566" 
d="M932 1614l319 305l222 -100l-324 -205h-217zM53 0l402 1491h252l-172 -631h163l711 631h342l-874 -748l528 -743h-285l-454 651h-189l-172 -651h-252z" />
    <glyph glyph-name="uni040D" unicode="&#x40d;" horiz-adv-x="1701" 
d="M1010 1614l-213 205l229 100l154 -305h-170zM1499 1491h248l-401 -1491h-252l288 1073l-1101 -1073h-228l402 1491h252l-283 -1045z" />
    <glyph glyph-name="uni040E" unicode="&#x40e;" horiz-adv-x="1523" 
d="M995 1610q-156 0 -233.5 73.5t-54.5 206.5h165q5 -53 41.5 -79.5t118.5 -26.5q144 0 211 106h189q-49 -133 -166 -206.5t-271 -73.5zM1724 1491l-1228 -1491h-293l428 522l-342 969h266l258 -764l619 764h292z" />
    <glyph glyph-name="uni040F" unicode="&#x40f;" horiz-adv-x="1624" 
d="M1669 1491l-399 -1491h-490l-82 -307h-237l84 307h-492l402 1491h252l-338 -1262h710l338 1262h252z" />
    <glyph glyph-name="uni0410" unicode="&#x410;" horiz-adv-x="1644" 
d="M-94 0l1061 1501h241l256 -1501h-258l-57 362h-717l-254 -362h-272zM584 588h532l-100 620z" />
    <glyph glyph-name="uni0411" unicode="&#x411;" horiz-adv-x="1540" 
d="M539 885h309q165 0 271.5 -31.5t172.5 -97.5q99 -99 99 -260q0 -191 -125 -316q-98 -98 -244.5 -139t-341.5 -41h-627l402 1491h1077l-59 -223h-832zM477 666l-117 -443h365q237 0 340 103q63 63 63 157q0 72 -43 115q-68 68 -274 68h-334z" />
    <glyph glyph-name="uni0412" unicode="&#x412;" horiz-adv-x="1548" 
d="M53 0l402 1491h569q234 0 359.5 -98t125.5 -258q0 -151 -94 -249.5t-252 -131.5q236 -88 236 -305q0 -201 -169 -325t-466 -124h-711zM360 223h439q162 0 255 64t93 176q0 87 -72 134.5t-198 47.5h-404zM530 858h375q165 0 257.5 62t92.5 174q0 83 -64 128.5t-190 45.5
h-362z" />
    <glyph glyph-name="uni0413" unicode="&#x413;" horiz-adv-x="1337" 
d="M53 0l402 1491h1040l-61 -229h-791l-338 -1262h-252z" />
    <glyph glyph-name="uni0414" unicode="&#x414;" horiz-adv-x="1814" 
d="M-8 229h151l885 1272h264l201 -1272h156l-146 -536h-237l84 307h-1182l-82 -307h-238zM1092 1212l-676 -991h819z" />
    <glyph glyph-name="uni0415" unicode="&#x415;" horiz-adv-x="1425" 
d="M53 0l402 1491h1091l-61 -225h-842l-106 -404h745l-61 -223h-746l-110 -414h852l-62 -225h-1102z" />
    <glyph glyph-name="uni0416" unicode="&#x416;" horiz-adv-x="2326" 
d="M1550 1491l-174 -631h129l678 631h328l-838 -758l475 -733h-278l-404 651h-145l-172 -651h-252l178 651h-133l-713 -651h-329l886 786l-438 705h281l372 -631h129l168 631h252z" />
    <glyph glyph-name="uni0417" unicode="&#x417;" horiz-adv-x="1443" 
d="M410 1145l-117 192q125 82 276 130.5t310 48.5q246 0 390 -109t144 -279q0 -154 -101.5 -253.5t-262.5 -139.5q103 -39 168 -118.5t65 -188.5q0 -104 -50 -191t-134.5 -143.5t-193 -87.5t-228.5 -31q-399 0 -653 261l163 165q108 -102 227.5 -152t268.5 -50q148 0 246 66
t98 173q0 207 -319 207h-256l59 213h246q189 0 290 61.5t101 174.5q0 86 -73.5 142t-207.5 56q-224 0 -456 -147z" />
    <glyph glyph-name="uni0418" unicode="&#x418;" horiz-adv-x="1701" 
d="M1499 1491h248l-401 -1491h-252l288 1073l-1101 -1073h-228l402 1491h252l-283 -1045z" />
    <glyph glyph-name="uni0419" unicode="&#x419;" horiz-adv-x="1701" 
d="M1120 1610q-156 0 -234 73.5t-55 206.5h166q5 -53 41.5 -79.5t118.5 -26.5q144 0 211 106h188q-49 -133 -165.5 -206.5t-270.5 -73.5zM1499 1491h248l-401 -1491h-252l288 1073l-1101 -1073h-228l402 1491h252l-283 -1045z" />
    <glyph glyph-name="uni041A" unicode="&#x41a;" horiz-adv-x="1566" 
d="M53 0l402 1491h252l-172 -631h163l711 631h342l-874 -748l528 -743h-285l-454 651h-189l-172 -651h-252z" />
    <glyph glyph-name="uni041B" unicode="&#x41b;" horiz-adv-x="1599" 
d="M1174 1501l235 -1501h-268l-164 1147l-782 -1147h-283l1038 1501h224z" />
    <glyph glyph-name="uni041C" unicode="&#x41c;" horiz-adv-x="1861" 
d="M53 0l402 1491h250l266 -719l653 719h283l-400 -1491h-252l291 1085l-665 -714h-9l-282 710l-291 -1081h-246z" />
    <glyph glyph-name="uni041D" unicode="&#x41d;" horiz-adv-x="1630" 
d="M68 0l401 1491h252l-168 -625h719l166 625h252l-400 -1491h-252l170 633h-716l-173 -633h-251z" />
    <glyph glyph-name="uni041E" unicode="&#x41e;" horiz-adv-x="1802" 
d="M1059 1516q147 0 272 -50t211.5 -137.5t135 -208t48.5 -258.5q0 -176 -70 -340.5t-196 -290.5q-122 -122 -279.5 -190t-338.5 -68q-147 0 -272.5 50.5t-212 138t-135 208t-48.5 257.5q0 176 70.5 342t195.5 291q122 121 280 188.5t339 67.5zM868 205q226 0 398 172
q93 92 145.5 217.5t52.5 255.5q0 191 -116.5 312.5t-315.5 121.5q-227 0 -397 -170q-94 -94 -146.5 -219t-52.5 -254q0 -193 116.5 -314.5t315.5 -121.5z" />
    <glyph glyph-name="uni041F" unicode="&#x41f;" horiz-adv-x="1624" 
d="M53 0l402 1491h1214l-399 -1491h-252l338 1262h-713l-338 -1262h-252z" />
    <glyph glyph-name="uni0420" unicode="&#x420;" horiz-adv-x="1454" 
d="M53 0l402 1491h469q155 0 263 -34t185 -111q111 -111 111 -293q0 -222 -146 -365q-199 -199 -583 -199h-316l-133 -489h-252zM1163 1184q-77 80 -248 80h-272l-147 -553h270q257 0 375 118q80 80 80 205q0 95 -58 150z" />
    <glyph glyph-name="uni0421" unicode="&#x421;" horiz-adv-x="1574" 
d="M842 -27q-142 0 -265 44.5t-213 125.5t-141 201t-51 264q0 182 71 348.5t201 294.5q126 126 286.5 195.5t342.5 69.5q391 0 580 -318l-209 -141q-75 112 -167.5 169.5t-232.5 57.5q-229 0 -405 -176q-95 -95 -150 -224t-55 -268q0 -184 115 -296.5t297 -112.5
q120 0 212 42.5t193 129.5l164 -166q-118 -113 -255.5 -176.5t-317.5 -63.5z" />
    <glyph glyph-name="uni0422" unicode="&#x422;" horiz-adv-x="1337" 
d="M387 0l338 1260h-477l61 231h1207l-64 -231h-475l-338 -1260h-252z" />
    <glyph glyph-name="uni0423" unicode="&#x423;" horiz-adv-x="1523" 
d="M1724 1491l-1228 -1491h-293l428 522l-342 969h266l258 -764l619 764h292z" />
    <glyph glyph-name="uni0424" unicode="&#x424;" horiz-adv-x="2027" 
d="M1145 1513h252l-45 -161q277 -25 441.5 -168.5t164.5 -364.5q0 -198 -116.5 -351.5t-328.5 -238.5t-487 -88l-43 -164h-252l45 168q-276 25 -441 168.5t-165 366.5q0 200 116.5 352.5t327.5 236.5t488 89zM430 694q0 -147 107 -234.5t303 -99.5l209 781
q-284 -4 -451.5 -128t-167.5 -319zM1698 805q0 142 -107.5 231.5t-300.5 102.5l-211 -781q285 4 452 127t167 320z" />
    <glyph glyph-name="uni0425" unicode="&#x425;" horiz-adv-x="1505" 
d="M-78 0l742 772l-347 719h281l246 -541l504 541h321l-717 -750l357 -741h-281l-258 565l-524 -565h-324z" />
    <glyph glyph-name="uni0426" unicode="&#x426;" horiz-adv-x="1675" 
d="M1669 1491l-338 -1262h182l-145 -536h-238l84 307h-1161l402 1491h252l-338 -1262h710l338 1262h252z" />
    <glyph glyph-name="uni0427" unicode="&#x427;" horiz-adv-x="1509" 
d="M901 0l137 512q-148 -27 -280 -27q-83 0 -155.5 13t-137.5 43t-111 76t-73 116t-27 158q0 115 31 217l104 383h252l-109 -404q-26 -88 -26 -163q0 -211 297 -211q153 0 299 35l201 743h251l-401 -1491h-252z" />
    <glyph glyph-name="uni0428" unicode="&#x428;" horiz-adv-x="2414" 
d="M2460 1491l-402 -1491h-2005l402 1491h252l-338 -1262h624l338 1262h252l-338 -1262h625l338 1262h252z" />
    <glyph glyph-name="uni0429" unicode="&#x429;" horiz-adv-x="2465" 
d="M2460 1491l-340 -1262h182l-145 -536h-238l84 307h-1950l402 1491h252l-338 -1262h624l338 1262h252l-338 -1262h625l338 1262h252z" />
    <glyph glyph-name="uni042A" unicode="&#x42a;" horiz-adv-x="1777" 
d="M375 0l340 1266h-471l61 225h723l-135 -502h235q265 0 404 -114t139 -318q0 -215 -145 -360q-197 -197 -602 -197h-549zM1411 541q0 110 -77.5 166.5t-225.5 56.5h-277l-143 -537h277q249 0 364 115q82 76 82 199z" />
    <glyph glyph-name="uni042B" unicode="&#x42b;" horiz-adv-x="2045" 
d="M1460 0l402 1491h252l-402 -1491h-252zM53 0l402 1491h252l-136 -502h236q265 0 404 -114t139 -318q0 -214 -146 -360q-197 -197 -602 -197h-549zM1090 541q0 110 -78 166.5t-226 56.5h-276l-143 -537h276q250 0 365 115q82 76 82 199z" />
    <glyph glyph-name="uni042C" unicode="&#x42c;" horiz-adv-x="1456" 
d="M53 0l402 1491h252l-136 -502h236q265 0 404 -114t139 -318q0 -214 -146 -360q-197 -197 -602 -197h-549zM1090 541q0 110 -78 166.5t-226 56.5h-276l-143 -537h276q250 0 365 115q82 76 82 199z" />
    <glyph glyph-name="uni042D" unicode="&#x42d;" horiz-adv-x="1583" 
d="M643 -27q-196 0 -351.5 81.5t-256.5 226.5l190 149q170 -227 426 -227q242 0 412 170q111 111 156 270h-730l58 215h702v14q-2 192 -109.5 303t-293.5 111q-223 0 -424 -166l-143 178q125 105 266 161.5t315 56.5q187 0 334 -79t230 -224t83 -332q0 -194 -67.5 -363.5
t-192.5 -294.5q-247 -250 -604 -250z" />
    <glyph glyph-name="uni042E" unicode="&#x42e;" horiz-adv-x="2353" 
d="M53 0l402 1491h252l-168 -625h274q64 234 234 404q246 246 587 246q189 0 336 -86t226 -234.5t79 -333.5q0 -175 -69 -344t-197 -297q-248 -248 -588 -248q-143 0 -264 50t-203 137.5t-128 208t-46 258.5v6h-305l-170 -633h-252zM1446 205q209 0 371 162q90 90 143 217.5
t53 265.5q0 192 -107.5 313t-295.5 121q-211 0 -371 -160q-92 -89 -145.5 -216.5t-53.5 -266.5q0 -193 109.5 -314.5t296.5 -121.5z" />
    <glyph glyph-name="uni042F" unicode="&#x42f;" horiz-adv-x="1570" 
d="M1618 1491l-401 -1491h-252l141 526h-342h-2l-488 -526h-313l547 584q-113 51 -181.5 146t-68.5 233q0 205 139 344q184 184 566 184h655zM1305 1264h-383q-227 0 -328 -101q-76 -79 -76 -188q0 -107 81 -166t237 -59h331z" />
    <glyph glyph-name="uni0430" unicode="&#x430;" horiz-adv-x="1259" 
d="M377 -23q-144 0 -242 84.5t-98 221.5q0 161 106 270q138 135 385 135q178 0 355 -55l6 20q14 54 14 95q0 176 -256 176q-153 0 -307 -60l-41 199q181 74 397 74q218 0 332.5 -90t114.5 -256q0 -74 -23 -164l-168 -627h-239l39 152q-158 -175 -375 -175zM475 156
q118 0 221 78.5t135 195.5l15 53q-137 45 -283 45q-144 0 -221 -77q-57 -57 -57 -140q0 -70 51.5 -112.5t138.5 -42.5z" />
    <glyph glyph-name="uni0431" unicode="&#x431;" horiz-adv-x="1429" 
d="M1313 608q0 -125 -49.5 -240.5t-134 -202t-205.5 -138.5t-256 -52q-237 0 -373 136q-145 145 -145 405q0 208 74.5 419.5t221.5 358.5q107 107 243.5 165.5t334.5 78.5l367 37l10 -227l-367 -37q-167 -18 -274.5 -60t-177.5 -112q-96 -96 -148 -240q164 158 410 158
q223 0 346 -125t123 -324zM385 483q0 -133 78 -216t217 -83q164 0 274.5 117.5t110.5 284.5q0 131 -75.5 205.5t-213.5 74.5q-164 0 -277.5 -108t-113.5 -275z" />
    <glyph glyph-name="uni0432" unicode="&#x432;" horiz-adv-x="1286" 
d="M23 0l301 1122h481q194 0 288.5 -74t94.5 -198q0 -109 -69.5 -185.5t-182.5 -103.5q75 -27 123.5 -83.5t48.5 -139.5q0 -159 -134.5 -248.5t-365.5 -89.5h-585zM440 653h252q258 0 258 170q0 55 -44.5 86t-133.5 31h-256zM313 182h293q119 0 187.5 43t68.5 127
q0 63 -47 95t-153 32h-269z" />
    <glyph glyph-name="uni0433" unicode="&#x433;" horiz-adv-x="1089" 
d="M23 0l301 1122h841l-61 -223h-594l-240 -899h-247z" />
    <glyph glyph-name="uni0434" unicode="&#x434;" horiz-adv-x="1437" 
d="M-29 223h121l653 907h259l157 -907h125l-135 -504h-223l73 283h-866l-76 -283h-223zM811 870l-455 -655h557z" />
    <glyph glyph-name="uni0435" unicode="&#x435;" horiz-adv-x="1296" 
d="M1163 475h-823v-4q0 -135 75.5 -215t217.5 -80q83 0 152.5 27t146.5 84l119 -156q-189 -156 -443 -156q-229 0 -366.5 133.5t-137.5 354.5q0 134 55 263t154 228q90 90 205 140.5t246 50.5q210 0 329 -122t119 -312q0 -116 -49 -236zM481 829q-80 -80 -114 -190h600
q10 38 10 80q0 99 -57 161t-172 62q-154 0 -267 -113z" />
    <glyph glyph-name="uni0436" unicode="&#x436;" horiz-adv-x="1886" 
d="M1217 1122l-125 -454h118l467 454h308l-609 -569l336 -553h-266l-270 465h-138l-120 -465h-248l129 465h-125l-486 -465h-307l639 590l-317 532h264l260 -454h125l117 454h248z" />
    <glyph glyph-name="uni0437" unicode="&#x437;" horiz-adv-x="1224" 
d="M1036 311q0 -142 -135 -239t-360 -97q-316 0 -541 183l131 159q178 -139 406 -139q119 0 188.5 44.5t69.5 115.5q0 135 -226 135h-237l49 184h229q132 0 200.5 40.5t68.5 113.5q0 62 -54.5 96.5t-152.5 34.5q-189 0 -377 -98l-94 174q112 62 227 94.5t260 32.5
q212 0 328.5 -86t116.5 -219q0 -113 -78 -187t-197 -104q90 -37 134 -93t44 -145z" />
    <glyph glyph-name="uni0438" unicode="&#x438;" horiz-adv-x="1380" 
d="M1114 1122h242l-301 -1122h-244l199 745l-754 -745h-233l301 1122h245l-194 -731z" />
    <glyph glyph-name="uni0439" unicode="&#x439;" horiz-adv-x="1380" 
d="M1114 1122h242l-301 -1122h-244l199 745l-754 -745h-233l301 1122h245l-194 -731zM889 1264q-161 0 -239.5 84.5t-65.5 218.5h172q2 -59 38.5 -95t110.5 -36q80 0 131.5 34t91.5 97h179q-45 -137 -155.5 -220t-262.5 -83z" />
    <glyph glyph-name="uni043A" unicode="&#x43a;" horiz-adv-x="1273" 
d="M23 0l301 1122h247l-125 -454h134l473 454h325l-630 -579l346 -543h-271l-286 465h-146l-121 -465h-247z" />
    <glyph glyph-name="uni043B" unicode="&#x43b;" horiz-adv-x="1318" 
d="M936 1130l184 -1130h-258l-110 825l-559 -825h-275l787 1130h231z" />
    <glyph glyph-name="uni043C" unicode="&#x43c;" horiz-adv-x="1562" 
d="M682 215l-213 541l-203 -756h-243l301 1122h235l211 -534l487 534h283l-301 -1122h-246l205 764l-508 -549h-8z" />
    <glyph glyph-name="uni043D" unicode="&#x43d;" horiz-adv-x="1368" 
d="M1343 1122l-301 -1122h-245l121 453h-527l-121 -453h-247l301 1122h247l-118 -444h526l119 444h245z" />
    <glyph glyph-name="uni043E" unicode="&#x43e;" horiz-adv-x="1394" 
d="M762 1145q237 0 381.5 -143.5t144.5 -368.5q0 -128 -52.5 -249t-145.5 -214q-195 -195 -457 -195q-238 0 -382.5 143t-144.5 367q0 129 52.5 250t146.5 215q195 195 457 195zM647 188q143 0 256 113q65 65 102 152.5t37 173.5q0 145 -80 224t-214 79q-142 0 -256 -111
q-66 -66 -103 -153t-37 -172q0 -146 79.5 -226t215.5 -80z" />
    <glyph glyph-name="uni043F" unicode="&#x43f;" horiz-adv-x="1368" 
d="M1346 1122l-302 -1122h-247l241 899h-528l-240 -899h-247l301 1122h1022z" />
    <glyph glyph-name="uni0440" unicode="&#x440;" horiz-adv-x="1441" 
d="M709 -23q-265 0 -383 228l-148 -545h-246l392 1462h247l-43 -155q85 86 173 132t194 46q191 0 314.5 -131t123.5 -348q0 -150 -54.5 -280.5t-150.5 -225.5q-87 -88 -195 -135.5t-224 -47.5zM680 188q147 0 258 111q139 139 139 348q0 133 -74 210t-198 77
q-150 0 -273 -123q-143 -143 -143 -332q0 -127 81.5 -209t209.5 -82z" />
    <glyph glyph-name="uni0441" unicode="&#x441;" horiz-adv-x="1214" 
d="M616 -25q-143 0 -258.5 60t-183.5 174.5t-68 263.5q0 137 51.5 259t145.5 216t213 145.5t250 51.5q312 0 455 -254l-193 -133q-50 83 -114 127.5t-166 44.5q-141 0 -254 -113q-67 -67 -104.5 -156t-37.5 -186q0 -131 80 -210t195 -79q82 0 150 32.5t141 96.5l131 -161
q-94 -87 -197 -133t-236 -46z" />
    <glyph glyph-name="uni0442" unicode="&#x442;" horiz-adv-x="1216" 
d="M231 1122h1057l-57 -221h-408l-241 -901h-246l242 901h-404z" />
    <glyph glyph-name="uni0443" unicode="&#x443;" horiz-adv-x="1263" 
d="M371 -4l-168 1126h254l100 -843l506 843h272l-731 -1153q-116 -173 -220.5 -245t-240.5 -72q-139 0 -254 78l134 180q62 -49 145 -49q56 0 102 29.5t101 105.5z" />
    <glyph glyph-name="uni0444" unicode="&#x444;" horiz-adv-x="1798" 
d="M1690 606q0 -223 -162 -385q-107 -107 -273 -166t-372 -59h-13l-90 -336h-243l94 348q-243 36 -382.5 173.5t-139.5 334.5q0 224 161 385q107 107 273.5 166t374.5 59h12l114 428h244l-119 -440q240 -37 380.5 -175t140.5 -333zM352 522q0 -125 87.5 -209t248.5 -104
l189 709h-3q-273 0 -417 -144q-105 -108 -105 -252zM1446 600q0 123 -87 205.5t-247 105.5l-190 -706h2q273 0 419 143q103 103 103 252z" />
    <glyph glyph-name="uni0445" unicode="&#x445;" horiz-adv-x="1236" 
d="M498 1122l166 -368l342 368h299l-547 -561l268 -561h-266l-174 391l-367 -391h-299l574 584l-263 538h267z" />
    <glyph glyph-name="uni0446" unicode="&#x446;" horiz-adv-x="1423" 
d="M23 0l301 1122h247l-241 -899h528l240 899h248l-242 -899h143l-135 -504h-223l76 281h-942z" />
    <glyph glyph-name="uni0447" unicode="&#x447;" horiz-adv-x="1263" 
d="M1239 1122l-301 -1122h-246l90 344q-78 -16 -198 -16q-204 0 -315 79.5t-111 241.5q0 83 35 205l73 268h246l-84 -311q-18 -67 -18 -117q0 -147 233 -147q114 0 199 18l151 557h246z" />
    <glyph glyph-name="uni0448" unicode="&#x448;" horiz-adv-x="2029" 
d="M23 0l301 1122h247l-241 -899h471l239 899h248l-239 -899h469l241 899h246l-301 -1122h-1681z" />
    <glyph glyph-name="uni0449" unicode="&#x449;" horiz-adv-x="2084" 
d="M23 0l301 1122h247l-241 -899h471l239 899h248l-239 -899h469l241 899h246l-242 -899h148l-135 -504h-224l76 281h-1605z" />
    <glyph glyph-name="uni044A" unicode="&#x44a;" horiz-adv-x="1458" 
d="M717 770h162q228 0 341 -89t113 -247q0 -200 -157.5 -317t-427.5 -117h-486l242 905h-338l57 217h588zM868 571h-206l-99 -368h219q146 0 227 57.5t81 155.5q0 155 -222 155z" />
    <glyph glyph-name="uni044B" unicode="&#x44b;" horiz-adv-x="1753" 
d="M1180 0l301 1122h248l-302 -1122h-247zM633 571h-211l-98 -368h227q146 0 226.5 58.5t80.5 158.5q0 151 -225 151zM477 770h176q223 0 336 -89.5t113 -246.5q0 -200 -154.5 -317t-419.5 -117h-505l301 1122h247z" />
    <glyph glyph-name="uni044C" unicode="&#x44c;" horiz-adv-x="1218" 
d="M629 571h-207l-98 -368h219q146 0 226.5 57.5t80.5 155.5q0 155 -221 155zM477 770h162q228 0 341.5 -89t113.5 -247q0 -200 -158 -317t-428 -117h-485l301 1122h247z" />
    <glyph glyph-name="uni044D" unicode="&#x44d;" horiz-adv-x="1234" 
d="M16 205l160 143q68 -84 139.5 -125t171.5 -41q165 0 277 115q72 72 102 170l-538 -2l53 199l510 -5v3q-4 132 -82 206t-203 72q-158 0 -309 -115l-113 168q207 152 439 152q228 0 369 -138t141 -366q0 -135 -52 -260.5t-145 -220.5q-185 -185 -451 -185
q-156 0 -268.5 59.5t-200.5 170.5z" />
    <glyph glyph-name="uni044E" unicode="&#x44e;" horiz-adv-x="1890" 
d="M23 0l301 1122h247l-118 -442h206q49 155 170 276q89 89 203 139t240 50q232 0 372 -143t140 -369q0 -131 -53.5 -253t-147.5 -218q-88 -88 -202 -137.5t-240 -49.5q-223 0 -361.5 132t-150.5 344v2h-238l-121 -453h-247zM1151 188q143 0 250 113q63 63 100 150t37 174
q0 145 -73.5 225t-202.5 80q-139 0 -250 -111q-64 -64 -101 -150t-37 -175q0 -145 74 -225.5t203 -80.5z" />
    <glyph glyph-name="uni044F" unicode="&#x44f;" horiz-adv-x="1316" 
d="M1294 1122l-301 -1122h-243l102 387h-238h-2l-352 -387h-295l412 436q-88 40 -137.5 113t-49.5 174q0 183 146 291t379 108h579zM995 928h-290q-123 0 -197 -51t-74 -148q0 -158 217 -158h250z" />
    <glyph glyph-name="uni0450" unicode="&#x450;" horiz-adv-x="1296" 
d="M1163 475h-823v-4q0 -135 75.5 -215t217.5 -80q83 0 152.5 27t146.5 84l119 -156q-189 -156 -443 -156q-229 0 -366.5 133.5t-137.5 354.5q0 134 55 263t154 228q90 90 205 140.5t246 50.5q210 0 329 -122t119 -312q0 -116 -49 -236zM481 829q-80 -80 -114 -190h600
q10 38 10 80q0 99 -57 161t-172 62q-154 0 -267 -113zM745 1268l-190 241l231 103l129 -344h-170z" />
    <glyph glyph-name="uni0451" unicode="&#x451;" horiz-adv-x="1296" 
d="M512 1268l68 245h251l-67 -245h-252zM930 1268l67 245h252l-67 -245h-252zM1163 475h-823v-4q0 -135 75.5 -215t217.5 -80q83 0 152.5 27t146.5 84l119 -156q-189 -156 -443 -156q-229 0 -366.5 133.5t-137.5 354.5q0 134 55 263t154 228q90 90 205 140.5t246 50.5
q210 0 329 -122t119 -312q0 -116 -49 -236zM481 829q-80 -80 -114 -190h600q10 38 10 80q0 99 -57 161t-172 62q-154 0 -267 -113z" />
    <glyph glyph-name="uni0452" unicode="&#x452;" horiz-adv-x="1288" 
d="M770 49l111 418q18 67 18 115q0 77 -56.5 112t-174.5 35q-113 0 -203 -20l-191 -709h-247l319 1194h-221l53 197h221l45 163h248l-45 -163h361l-54 -197h-360l-70 -264q105 18 203 18q204 0 315 -79.5t111 -241.5q0 -81 -35 -203l-106 -393q-56 -209 -159 -294t-282 -85
q-103 0 -184 24l53 197q70 -18 125 -18q80 0 128.5 43.5t76.5 150.5z" />
    <glyph glyph-name="uni0453" unicode="&#x453;" horiz-adv-x="1089" 
d="M23 0l301 1122h841l-61 -223h-594l-240 -899h-247zM633 1268l315 344l223 -103l-323 -241h-215z" />
    <glyph glyph-name="uni0454" unicode="&#x454;" horiz-adv-x="1232" 
d="M106 475q0 136 52.5 262.5t146.5 220.5q187 187 457 187q158 0 267.5 -59.5t193.5 -161.5l-168 -148q-62 78 -132 120t-173 42q-162 0 -277 -115q-65 -68 -100 -164l538 5l-53 -199l-510 2v-2q1 -135 80.5 -211t202.5 -74q167 0 313 117l115 -168q-203 -154 -436 -154
q-227 0 -372 136t-145 364z" />
    <glyph glyph-name="uni0455" unicode="&#x455;" horiz-adv-x="1085" 
d="M473 -25q-134 0 -267.5 51.5t-228.5 147.5l148 154q161 -158 367 -158q81 0 134.5 37.5t53.5 101.5q0 43 -39.5 77t-130.5 69q-80 32 -131.5 59t-98.5 65t-69.5 86t-22.5 109q0 159 120.5 265t318.5 106q122 0 238 -46t192 -112l-139 -160q-153 123 -310 123
q-85 0 -132.5 -37.5t-47.5 -95.5q0 -42 41.5 -75.5t142.5 -75.5q62 -28 98.5 -47t82 -49t69.5 -58.5t41 -70t17 -89.5q0 -169 -126.5 -273t-320.5 -104z" />
    <glyph glyph-name="uni0456" unicode="&#x456;" horiz-adv-x="624" 
d="M39 0l301 1122h246l-301 -1122h-246zM379 1303l63 237h269l-66 -237h-266z" />
    <glyph glyph-name="uni0457" unicode="&#x457;" horiz-adv-x="624" 
d="M170 1268l68 245h251l-67 -245h-252zM588 1268l67 245h252l-67 -245h-252zM39 0l301 1122h246l-301 -1122h-246z" />
    <glyph glyph-name="uni0458" unicode="&#x458;" horiz-adv-x="622" 
d="M-92 -348q-95 0 -162 20l53 197q54 -12 86 -12q54 0 95 39t61 112l299 1114h246l-305 -1142q-87 -328 -373 -328zM379 1303l63 237h267l-64 -237h-266z" />
    <glyph glyph-name="uni0459" unicode="&#x459;" horiz-adv-x="1818" 
d="M-121 0l901 1122h416l-92 -352h137q226 0 339.5 -90t113.5 -246q0 -200 -158 -317t-428 -117h-459l248 928h-4l-748 -928h-266zM1229 571h-182l-97 -368h193q146 0 226.5 57.5t80.5 155.5q0 155 -221 155z" />
    <glyph glyph-name="uni045A" unicode="&#x45a;" horiz-adv-x="1949" 
d="M1233 770h137q226 0 339.5 -90t113.5 -246q0 -200 -158 -317t-428 -117h-459l121 453h-508l-121 -453h-247l301 1122h247l-118 -442h508l118 442h248zM1360 571h-182l-99 -368h193q146 0 226.5 57.5t80.5 155.5q0 155 -219 155z" />
    <glyph glyph-name="uni045B" unicode="&#x45b;" horiz-adv-x="1288" 
d="M954 1194h-360l-70 -264q105 18 203 18q204 0 315 -79.5t111 -241.5q0 -81 -35 -203l-114 -424h-246l123 467q18 67 18 115q0 77 -56.5 112t-174.5 35q-113 0 -203 -20l-191 -709h-247l319 1194h-221l53 197h221l45 163h248l-45 -163h361z" />
    <glyph glyph-name="uni045C" unicode="&#x45c;" horiz-adv-x="1273" 
d="M23 0l301 1122h247l-125 -454h134l473 454h325l-630 -579l346 -543h-271l-286 465h-146l-121 -465h-247zM702 1268l316 344l223 -103l-323 -241h-216z" />
    <glyph glyph-name="uni045D" unicode="&#x45d;" horiz-adv-x="1380" 
d="M766 1268l-191 241l232 103l129 -344h-170zM1114 1122h242l-301 -1122h-244l199 745l-754 -745h-233l301 1122h245l-194 -731z" />
    <glyph glyph-name="uni045E" unicode="&#x45e;" horiz-adv-x="1263" 
d="M371 -4l-168 1126h254l100 -843l506 843h272l-731 -1153q-116 -173 -220.5 -245t-240.5 -72q-139 0 -254 78l134 180q62 -49 145 -49q56 0 102 29.5t101 105.5zM807 1264q-161 0 -239.5 84.5t-65.5 218.5h172q2 -59 38.5 -95t110.5 -36q80 0 132 34.5t92 96.5h178
q-45 -137 -155.5 -220t-262.5 -83z" />
    <glyph glyph-name="uni045F" unicode="&#x45f;" horiz-adv-x="1368" 
d="M23 0l301 1122h247l-241 -899h528l240 899h248l-302 -1122h-401l-76 -281h-223l76 281h-397z" />
    <glyph glyph-name="uni0462" unicode="&#x462;" horiz-adv-x="1777" 
d="M1432 1106h-512l-70 -260h336q223 0 345 -95t122 -274q0 -184 -125 -309q-174 -168 -516 -168h-637l293 1104h-467l57 209h467l53 200h250l-53 -200h512zM1391 459q0 168 -234 168h-366l-107 -404h371q186 0 276 84q60 66 60 152z" />
    <glyph glyph-name="uni0463" unicode="&#x463;" horiz-adv-x="1466" 
d="M700 711h215q210 0 315 -82.5t105 -227.5q0 -186 -145.5 -293.5t-394.5 -107.5h-531l244 911h-342l55 211h342l117 432h246l-117 -432h434l-55 -209h-434zM893 520h-248l-86 -325h260q128 0 199.5 50.5t71.5 137.5q0 137 -197 137z" />
    <glyph glyph-name="uni0472" unicode="&#x472;" horiz-adv-x="1794" 
d="M1053 1516q195 0 347.5 -86t235 -234.5t82.5 -333.5q0 -176 -70 -340.5t-196 -290.5q-121 -122 -277 -190t-337 -68q-145 0 -270 50.5t-211 138t-134.5 208t-48.5 257.5q0 176 70.5 342t195.5 291q121 121 276.5 188.5t336.5 67.5zM1268 369q115 112 166 272h-1010v-2
q0 -196 118.5 -320t321.5 -124q230 0 404 174zM1468 860v2q0 190 -120 312t-320 122q-229 0 -403 -174q-114 -114 -164 -262h1007z" />
    <glyph glyph-name="uni0473" unicode="&#x473;" horiz-adv-x="1386" 
d="M758 1145q235 0 378.5 -143.5t143.5 -368.5q0 -128 -52 -249t-145 -214q-92 -93 -208.5 -144t-245.5 -51q-235 0 -379 143t-144 367q0 130 51 251t144 214q94 93 211.5 144t245.5 51zM643 174q154 0 275 121q74 74 108 172h-694v-2q7 -136 92 -214.5t219 -76.5zM471 827
q-70 -70 -113 -170h693v2q-10 134 -93.5 210.5t-214.5 74.5q-155 0 -272 -117z" />
    <glyph glyph-name="uni0474" unicode="&#x474;" horiz-adv-x="1656" 
d="M1372 965l-649 -975h-221l-213 1501h268l141 -1155l482 754q109 169 189 251.5t173.5 118t237.5 35.5h80l-60 -227h-24q-58 0 -99.5 -9t-76 -26t-71.5 -57t-70 -84.5t-87 -126.5z" />
    <glyph glyph-name="uni0475" unicode="&#x475;" horiz-adv-x="1304" 
d="M563 -8h-223l-145 1130h256l77 -833l316 506q118 196 223 264.5t285 68.5h59l-55 -206h-23q-90 0 -145.5 -39.5t-134.5 -157.5z" />
    <glyph glyph-name="uni0490" unicode="&#x490;" horiz-adv-x="1337" 
d="M1434 1262h-791l-338 -1262h-252l402 1491h802l78 293h238z" />
    <glyph glyph-name="uni0491" unicode="&#x491;" horiz-adv-x="1089" 
d="M1104 899h-594l-240 -899h-247l301 1122h610l72 275h231z" />
    <glyph glyph-name="uni0492" unicode="&#x492;" horiz-adv-x="1382" 
d="M98 0l168 625h-160l50 182h159l185 684h1040l-61 -229h-791l-123 -455h396l-50 -182h-395l-166 -625h-252z" />
    <glyph glyph-name="uni0493" unicode="&#x493;" horiz-adv-x="1130" 
d="M63 0l119 446h-143l41 152h143l142 524h841l-61 -223h-594l-80 -301h285l-41 -152h-285l-119 -446h-248z" />
    <glyph glyph-name="uni0496" unicode="&#x496;" horiz-adv-x="2324" 
d="M2511 1491l-838 -758l326 -504h252l-146 -536h-237l84 307h-82l-404 651h-145l-172 -651h-252l178 651h-133l-713 -651h-329l886 786l-438 705h281l372 -631h129l168 631h252l-174 -631h129l678 631h328z" />
    <glyph glyph-name="uni0497" unicode="&#x497;" horiz-adv-x="1916" 
d="M1985 1122l-609 -569l201 -330h211l-135 -504h-223l75 281h-59l-270 465h-138l-120 -465h-248l129 465h-125l-486 -465h-307l639 590l-317 532h264l260 -454h125l117 454h248l-125 -454h118l467 454h308z" />
    <glyph glyph-name="uni0498" unicode="&#x498;" horiz-adv-x="1443" 
d="M410 1145l-117 192q125 82 276 130.5t310 48.5q246 0 390 -109t144 -279q0 -154 -101.5 -253.5t-262.5 -139.5q103 -39 168 -118.5t65 -188.5q0 -101 -46.5 -185.5t-125.5 -141t-182 -89.5t-217 -37h-2l-70 -282h-246l94 299q-270 43 -464 244l163 165
q108 -102 227.5 -152t268.5 -50q148 0 246 66t98 173q0 207 -319 207h-256l59 213h246q189 0 290 61.5t101 174.5q0 86 -73.5 142t-207.5 56q-224 0 -456 -147z" />
    <glyph glyph-name="uni0499" unicode="&#x499;" horiz-adv-x="1224" 
d="M1036 311q0 -134 -124.5 -230.5t-331.5 -103.5l-62 -258h-233l86 271q-211 36 -371 168l131 159q178 -139 406 -139q119 0 188.5 44.5t69.5 115.5q0 135 -226 135h-237l49 184h229q132 0 200.5 40.5t68.5 113.5q0 62 -54.5 96.5t-152.5 34.5q-189 0 -377 -98l-94 174
q112 62 227 94.5t260 32.5q212 0 328.5 -86t116.5 -219q0 -113 -78 -187t-197 -104q90 -37 134 -93t44 -145z" />
    <glyph glyph-name="uni049A" unicode="&#x49a;" horiz-adv-x="1587" 
d="M1751 1491l-874 -748l364 -514h242l-146 -536h-237l84 307h-64l-454 651h-189l-172 -651h-252l402 1491h252l-172 -631h163l711 631h342z" />
    <glyph glyph-name="uni049B" unicode="&#x49b;" horiz-adv-x="1294" 
d="M1378 1122l-630 -579l202 -320h226l-136 -504h-223l76 281h-70l-286 465h-146l-121 -465h-247l301 1122h247l-125 -454h134l473 454h325z" />
    <glyph glyph-name="uni049C" unicode="&#x49c;" horiz-adv-x="1624" 
d="M1434 0h-275l-311 653h-2l-113 -434h-164l117 428h-207l-174 -647h-252l402 1491h252l-172 -637h206l117 444h162l-121 -438h2l592 631h305l-735 -760z" />
    <glyph glyph-name="uni049D" unicode="&#x49d;" horiz-adv-x="1376" 
d="M1151 0h-258l-197 471h-34l-84 -326h-134l88 326h-137l-125 -471h-247l303 1122h245l-122 -458h135l84 315h133l-88 -315h20l436 458h301l-575 -569z" />
    <glyph glyph-name="uni04A0" unicode="&#x4a0;" horiz-adv-x="1886" 
d="M375 0l340 1266h-471l61 225h723l-172 -631h164l711 631h342l-875 -748l528 -743h-284l-455 651h-188l-172 -651h-252z" />
    <glyph glyph-name="uni04A1" unicode="&#x4a1;" horiz-adv-x="1513" 
d="M248 0l241 905h-337l57 217h588l-125 -454h133l473 454h326l-631 -579l346 -543h-270l-287 465h-146l-120 -465h-248z" />
    <glyph glyph-name="uni04A2" unicode="&#x4a2;" horiz-adv-x="1689" 
d="M68 0l401 1491h252l-168 -625h719l166 625h252l-338 -1262h180l-146 -536h-237l84 307h-195l170 633h-716l-173 -633h-251z" />
    <glyph glyph-name="uni04A3" unicode="&#x4a3;" horiz-adv-x="1421" 
d="M1343 1122l-241 -899h145l-135 -504h-223l76 281h-168l121 453h-527l-121 -453h-247l301 1122h247l-118 -444h526l119 444h245z" />
    <glyph glyph-name="uni04A4" unicode="&#x4a4;" horiz-adv-x="2213" 
d="M1001 0l170 633h-696l-170 -633h-252l402 1491h252l-170 -625h698l168 625h971l-64 -229h-717l-340 -1262h-252z" />
    <glyph glyph-name="uni04A5" unicode="&#x4a5;" horiz-adv-x="1822" 
d="M778 0l121 453h-508l-121 -453h-247l301 1122h247l-118 -442h508l118 442h819l-59 -223h-573l-240 -899h-248z" />
    <glyph glyph-name="uni04AA" unicode="&#x4aa;" horiz-adv-x="1574" 
d="M547 -307l94 305q-213 54 -341 214t-128 396q0 182 71 348.5t201 294.5q126 126 286.5 195.5t342.5 69.5q391 0 580 -318l-209 -141q-75 112 -167.5 169.5t-232.5 57.5q-229 0 -405 -176q-95 -95 -150 -224t-55 -268q0 -184 115 -296.5t297 -112.5q120 0 212 42.5
t193 129.5l164 -166q-114 -109 -247.5 -172.5t-305.5 -67.5l-69 -280h-246z" />
    <glyph glyph-name="uni04AB" unicode="&#x4ab;" horiz-adv-x="1214" 
d="M342 -281l90 285q-150 51 -238 173t-88 296q0 137 51.5 259t145.5 216t213 145.5t250 51.5q312 0 455 -254l-193 -133q-50 83 -114 127.5t-166 44.5q-141 0 -254 -113q-67 -67 -104.5 -156t-37.5 -186q0 -131 80 -210t195 -79q82 0 150 32.5t141 96.5l131 -161
q-92 -85 -188.5 -130t-223.5 -49l-62 -256h-233z" />
    <glyph glyph-name="uni04AE" unicode="&#x4ae;" horiz-adv-x="1419" 
d="M418 0l160 594l-338 897h280l234 -682l604 682h309l-844 -926l-153 -565h-252z" />
    <glyph glyph-name="uni04AF" unicode="&#x4af;" horiz-adv-x="1253" 
d="M496 -340h-246l100 375l-155 1087h256l86 -827l526 827h270l-737 -1091z" />
    <glyph glyph-name="uni04B0" unicode="&#x4b0;" horiz-adv-x="1419" 
d="M418 0l114 426h-358l47 182h350l-331 883h280l234 -682l604 682h309l-805 -883h352l-47 -182h-383l-114 -426h-252z" />
    <glyph glyph-name="uni04B1" unicode="&#x4b1;" horiz-adv-x="1265" 
d="M975 152l-39 -152h-336l-92 -340h-246l90 340h-319l41 152h272l-139 970h256l86 -827l526 827h271l-658 -970h287z" />
    <glyph glyph-name="uni04B2" unicode="&#x4b2;" horiz-adv-x="1585" 
d="M-78 0l742 772l-347 719h281l246 -541l504 541h321l-717 -750l246 -512h236l-146 -536h-237l84 307h-107l-258 565l-524 -565h-324z" />
    <glyph glyph-name="uni04B3" unicode="&#x4b3;" horiz-adv-x="1269" 
d="M498 1122l166 -368l342 368h299l-547 -561l162 -338h217l-136 -504h-223l76 281h-94l-174 391l-367 -391h-299l574 584l-263 538h267z" />
    <glyph glyph-name="uni04B6" unicode="&#x4b6;" horiz-adv-x="1558" 
d="M901 0l137 512q-148 -27 -280 -27q-83 0 -155.5 13t-137.5 43t-111 76t-73 116t-27 158q0 115 31 217l104 383h252l-109 -404q-26 -88 -26 -163q0 -211 297 -211q153 0 299 35l201 743h251l-340 -1262h183l-146 -536h-237l84 307h-197z" />
    <glyph glyph-name="uni04B7" unicode="&#x4b7;" horiz-adv-x="1316" 
d="M1239 1122l-242 -899h148l-135 -504h-224l76 281h-170l90 344q-78 -16 -198 -16q-204 0 -315 79.5t-111 241.5q0 83 35 205l73 268h246l-84 -311q-18 -67 -18 -117q0 -147 233 -147q114 0 199 18l151 557h246z" />
    <glyph glyph-name="uni04B8" unicode="&#x4b8;" horiz-adv-x="1507" 
d="M1303 1491h251l-401 -1491h-252l137 512q-141 -25 -252 -27h-2l-84 -329h-163l92 338q-375 59 -375 397q0 115 31 217l104 383h252l-109 -404q-26 -88 -26 -163q0 -88 47 -135.5t137 -65.5l113 428h162l-121 -438h2q125 6 256 35z" />
    <glyph glyph-name="uni04B9" unicode="&#x4b9;" horiz-adv-x="1263" 
d="M1239 1122l-301 -1122h-246l90 344q-101 -16 -180 -16l-57 -224h-133l61 230q-315 40 -315 315q0 76 35 201l73 272h246l-86 -315q-16 -75 -16 -113q0 -110 125 -137l77 299h133l-83 -307q98 0 182 20l149 553h246z" />
    <glyph glyph-name="uni04BA" unicode="&#x4ba;" horiz-adv-x="1509" 
d="M705 1491l-138 -514q152 29 281 29q106 0 194 -21.5t159.5 -67.5t112 -126.5t40.5 -190.5q0 -108 -33 -217l-102 -383h-252l106 403q29 106 29 164q0 211 -299 211q-162 0 -299 -35l-199 -743h-252l400 1491h252z" />
    <glyph glyph-name="uni04BB" unicode="&#x4bb;" horiz-adv-x="1335" 
d="M25 0l417 1554h248l-155 -579q166 170 344 170q158 0 250 -90.5t92 -245.5q0 -79 -33 -195l-162 -614h-248l168 625q15 66 15 112q0 88 -52.5 136.5t-146.5 48.5q-111 0 -197.5 -80t-122.5 -211l-170 -631h-247z" />
    <glyph glyph-name="uni04C0" unicode="&#x4c0;" horiz-adv-x="690" 
d="M68 0l401 1491h252l-399 -1491h-254z" />
    <glyph glyph-name="uni04C1" unicode="&#x4c1;" horiz-adv-x="2326" 
d="M1462 1612q-156 0 -233.5 73.5t-54.5 206.5h165q5 -53 41.5 -79.5t118.5 -26.5q144 0 211 106h188q-49 -133 -165.5 -206.5t-270.5 -73.5zM1550 1491l-174 -631h129l678 631h328l-838 -758l475 -733h-278l-404 651h-145l-172 -651h-252l178 651h-133l-713 -651h-329
l886 786l-438 705h281l372 -631h129l168 631h252z" />
    <glyph glyph-name="uni04C2" unicode="&#x4c2;" horiz-adv-x="1886" 
d="M1217 1122l-125 -454h118l467 454h308l-609 -569l336 -553h-266l-270 465h-138l-120 -465h-248l129 465h-125l-486 -465h-307l639 590l-317 532h264l260 -454h125l117 454h248zM1147 1264q-161 0 -239.5 84.5t-65.5 218.5h172q2 -59 38.5 -95t110.5 -36q80 0 131.5 34
t91.5 97h179q-45 -137 -155.5 -220t-262.5 -83z" />
    <glyph glyph-name="uni04CF" unicode="&#x4cf;" horiz-adv-x="624" 
d="M39 0l418 1554h245l-417 -1554h-246z" />
    <glyph glyph-name="uni04D0" unicode="&#x4d0;" horiz-adv-x="1644" 
d="M-94 0l1061 1501h241l256 -1501h-258l-57 362h-717l-254 -362h-272zM584 588h532l-100 620zM1126 1632q-156 0 -233.5 74t-54.5 207h166q5 -54 41.5 -80.5t117.5 -26.5q143 0 211 107h189q-49 -133 -166 -207t-271 -74z" />
    <glyph glyph-name="uni04D1" unicode="&#x4d1;" horiz-adv-x="1259" 
d="M377 -23q-144 0 -242 84.5t-98 221.5q0 161 106 270q138 135 385 135q178 0 355 -55l6 20q14 54 14 95q0 176 -256 176q-153 0 -307 -60l-41 199q181 74 397 74q218 0 332.5 -90t114.5 -256q0 -74 -23 -164l-168 -627h-239l39 152q-158 -175 -375 -175zM475 156
q118 0 221 78.5t135 195.5l15 53q-137 45 -283 45q-144 0 -221 -77q-57 -57 -57 -140q0 -70 51.5 -112.5t138.5 -42.5zM815 1264q-161 0 -239.5 84.5t-65.5 218.5h172q2 -59 38.5 -95t110.5 -36q80 0 132 34.5t92 96.5h178q-45 -137 -155.5 -220t-262.5 -83z" />
    <glyph glyph-name="uni04D2" unicode="&#x4d2;" horiz-adv-x="1644" 
d="M-94 0l1061 1501h241l256 -1501h-258l-57 362h-717l-254 -362h-272zM584 588h532l-100 620zM782 1636l64 232h256l-64 -232h-256zM1214 1636l64 232h258l-66 -232h-256z" />
    <glyph glyph-name="uni04D3" unicode="&#x4d3;" horiz-adv-x="1259" 
d="M377 -23q-144 0 -242 84.5t-98 221.5q0 161 106 270q138 135 385 135q178 0 355 -55l6 20q14 54 14 95q0 176 -256 176q-153 0 -307 -60l-41 199q181 74 397 74q218 0 332.5 -90t114.5 -256q0 -74 -23 -164l-168 -627h-239l39 152q-158 -175 -375 -175zM475 156
q118 0 221 78.5t135 195.5l15 53q-137 45 -283 45q-144 0 -221 -77q-57 -57 -57 -140q0 -70 51.5 -112.5t138.5 -42.5zM459 1268l67 245h252l-67 -245h-252zM877 1268l67 245h252l-68 -245h-251z" />
    <glyph glyph-name="uni04D4" unicode="&#x4d4;" horiz-adv-x="2269" 
d="M-98 0l1237 1491h1251l-61 -225h-805l-109 -404h711l-62 -223h-708l-113 -414h819l-61 -225h-1067l96 362h-551l-299 -362h-278zM662 588h430l182 684h-45z" />
    <glyph glyph-name="uni04D5" unicode="&#x4d5;" horiz-adv-x="2041" 
d="M1362 -25q-311 0 -434 236q-224 -234 -527 -234q-164 0 -264 83t-100 223q0 161 106 270q138 135 385 135q178 0 355 -55l6 20q14 54 14 95q0 176 -256 176q-153 0 -307 -60l-41 199q181 74 397 74q303 0 387 -201q86 97 197.5 153t239.5 56q205 0 321.5 -122.5
t116.5 -311.5q0 -118 -47 -236h-824v-4q0 -137 76 -216t221 -79q82 0 149.5 27t145.5 84l117 -156q-177 -156 -434 -156zM489 156q101 0 205 48.5t189 137.5q-11 56 -11 131q-145 55 -309 55q-144 0 -221 -77q-57 -57 -57 -140q0 -70 54 -112.5t150 -42.5zM1229 829
q-81 -81 -115 -190h600q10 38 10 80q0 99 -57 161t-172 62q-153 0 -266 -113z" />
    <glyph glyph-name="uni04D6" unicode="&#x4d6;" horiz-adv-x="1425" 
d="M1028 1612q-156 0 -234 73.5t-55 206.5h166q5 -53 41.5 -79.5t118.5 -26.5q144 0 211 106h188q-49 -133 -165.5 -206.5t-270.5 -73.5zM53 0l402 1491h1091l-61 -225h-842l-106 -404h745l-61 -223h-746l-110 -414h852l-62 -225h-1102z" />
    <glyph glyph-name="uni04D7" unicode="&#x4d7;" horiz-adv-x="1296" 
d="M1163 475h-823v-4q0 -135 75.5 -215t217.5 -80q83 0 152.5 27t146.5 84l119 -156q-189 -156 -443 -156q-229 0 -366.5 133.5t-137.5 354.5q0 134 55 263t154 228q90 90 205 140.5t246 50.5q210 0 329 -122t119 -312q0 -116 -49 -236zM481 829q-80 -80 -114 -190h600
q10 38 10 80q0 99 -57 161t-172 62q-154 0 -267 -113zM866 1264q-161 0 -239.5 84.5t-65.5 218.5h172q2 -59 39 -95t111 -36q80 0 131.5 34t91.5 97h178q-45 -137 -155.5 -220t-262.5 -83z" />
    <glyph glyph-name="uni04D8" unicode="&#x4d8;" horiz-adv-x="1722" 
d="M174 549q0 158 59 309h1164v21q0 180 -111.5 291.5t-310.5 111.5q-228 0 -461 -164l-125 195q288 200 598 200q300 0 480 -174t180 -467q0 -180 -69.5 -349t-197.5 -292q-256 -256 -610 -256q-281 0 -438.5 159.5t-157.5 414.5zM1192 371q121 118 170 272h-928
q-12 -47 -12 -104q0 -67 20.5 -125.5t62.5 -106.5t115.5 -76t170.5 -28q120 0 222.5 48t178.5 120z" />
    <glyph glyph-name="uni04D9" unicode="&#x4d9;" horiz-adv-x="1296" 
d="M84 412q0 120 47 235h823v4q0 134 -75.5 214.5t-214.5 80.5q-83 0 -153.5 -27t-145.5 -83l-119 155q184 156 440 156q231 0 368.5 -133t137.5 -355q0 -134 -55 -263t-154 -228q-191 -191 -453 -191q-209 0 -327.5 122.5t-118.5 312.5zM813 293q74 74 115 190h-598
q-11 -42 -11 -80q0 -99 57.5 -161t172.5 -62q151 0 264 113z" />
    <glyph glyph-name="uni04DC" unicode="&#x4dc;" horiz-adv-x="2326" 
d="M1116 1616l64 231h256l-64 -231h-256zM1548 1616l64 231h258l-66 -231h-256zM1550 1491l-174 -631h129l678 631h328l-838 -758l475 -733h-278l-404 651h-145l-172 -651h-252l178 651h-133l-713 -651h-329l886 786l-438 705h281l372 -631h129l168 631h252z" />
    <glyph glyph-name="uni04DD" unicode="&#x4dd;" horiz-adv-x="1886" 
d="M793 1268l67 245h252l-68 -245h-251zM1210 1268l68 245h252l-68 -245h-252zM1217 1122l-125 -454h118l467 454h308l-609 -569l336 -553h-266l-270 465h-138l-120 -465h-248l129 465h-125l-486 -465h-307l639 590l-317 532h264l260 -454h125l117 454h248z" />
    <glyph glyph-name="uni04DE" unicode="&#x4de;" horiz-adv-x="1443" 
d="M612 1636l64 232h256l-64 -232h-256zM1044 1636l64 232h258l-66 -232h-256zM410 1145l-117 192q125 82 276 130.5t310 48.5q246 0 390 -109t144 -279q0 -154 -101.5 -253.5t-262.5 -139.5q103 -39 168 -118.5t65 -188.5q0 -104 -50 -191t-134.5 -143.5t-193 -87.5
t-228.5 -31q-399 0 -653 261l163 165q108 -102 227.5 -152t268.5 -50q148 0 246 66t98 173q0 207 -319 207h-256l59 213h246q189 0 290 61.5t101 174.5q0 86 -73.5 142t-207.5 56q-224 0 -456 -147z" />
    <glyph glyph-name="uni04DF" unicode="&#x4df;" horiz-adv-x="1224" 
d="M410 1268l67 245h252l-67 -245h-252zM827 1268l68 245h252l-68 -245h-252zM1036 311q0 -142 -135 -239t-360 -97q-316 0 -541 183l131 159q178 -139 406 -139q119 0 188.5 44.5t69.5 115.5q0 135 -226 135h-237l49 184h229q132 0 200.5 40.5t68.5 113.5q0 62 -54.5 96.5
t-152.5 34.5q-189 0 -377 -98l-94 174q112 62 227 94.5t260 32.5q212 0 328.5 -86t116.5 -219q0 -113 -78 -187t-197 -104q90 -37 134 -93t44 -145z" />
    <glyph glyph-name="uni04E2" unicode="&#x4e2;" horiz-adv-x="1701" 
d="M748 1640l49 185h757l-49 -185h-757zM1499 1491h248l-401 -1491h-252l288 1073l-1101 -1073h-228l402 1491h252l-283 -1045z" />
    <glyph glyph-name="uni04E3" unicode="&#x4e3;" horiz-adv-x="1380" 
d="M514 1294l47 181h727l-49 -181h-725zM1114 1122h242l-301 -1122h-244l199 745l-754 -745h-233l301 1122h245l-194 -731z" />
    <glyph glyph-name="uni04E4" unicode="&#x4e4;" horiz-adv-x="1701" 
d="M774 1614l64 231h256l-64 -231h-256zM1206 1614l64 231h258l-66 -231h-256zM1499 1491h248l-401 -1491h-252l288 1073l-1101 -1073h-228l402 1491h252l-283 -1045z" />
    <glyph glyph-name="uni04E5" unicode="&#x4e5;" horiz-adv-x="1380" 
d="M535 1268l67 245h252l-68 -245h-251zM952 1268l68 245h252l-68 -245h-252zM1114 1122h242l-301 -1122h-244l199 745l-754 -745h-233l301 1122h245l-194 -731z" />
    <glyph glyph-name="uni04E6" unicode="&#x4e6;" horiz-adv-x="1802" 
d="M823 1636l64 232h256l-64 -232h-256zM1255 1636l64 232h258l-66 -232h-256zM1059 1516q147 0 272 -50t211.5 -137.5t135 -208t48.5 -258.5q0 -176 -70 -340.5t-196 -290.5q-122 -122 -279.5 -190t-338.5 -68q-147 0 -272.5 50.5t-212 138t-135 208t-48.5 257.5
q0 176 70.5 342t195.5 291q122 121 280 188.5t339 67.5zM868 205q226 0 398 172q93 92 145.5 217.5t52.5 255.5q0 191 -116.5 312.5t-315.5 121.5q-227 0 -397 -170q-94 -94 -146.5 -219t-52.5 -254q0 -193 116.5 -314.5t315.5 -121.5z" />
    <glyph glyph-name="uni04E7" unicode="&#x4e7;" horiz-adv-x="1394" 
d="M543 1268l67 245h252l-67 -245h-252zM961 1268l67 245h252l-68 -245h-251zM762 1145q237 0 381.5 -143.5t144.5 -368.5q0 -128 -52.5 -249t-145.5 -214q-195 -195 -457 -195q-238 0 -382.5 143t-144.5 367q0 129 52.5 250t146.5 215q195 195 457 195zM647 188
q143 0 256 113q65 65 102 152.5t37 173.5q0 145 -80 224t-214 79q-142 0 -256 -111q-66 -66 -103 -153t-37 -172q0 -146 79.5 -226t215.5 -80z" />
    <glyph glyph-name="uni04E8" unicode="&#x4e8;" horiz-adv-x="1794" 
d="M1053 1516q195 0 347.5 -86t235 -234.5t82.5 -333.5q0 -176 -70 -340.5t-196 -290.5q-121 -122 -277 -190t-337 -68q-145 0 -270 50.5t-211 138t-134.5 208t-48.5 257.5q0 176 70.5 342t195.5 291q121 121 276.5 188.5t336.5 67.5zM1268 369q115 112 166 272h-1010v-2
q0 -196 118.5 -320t321.5 -124q230 0 404 174zM1468 860v2q0 190 -120 312t-320 122q-229 0 -403 -174q-114 -114 -164 -262h1007z" />
    <glyph glyph-name="uni04E9" unicode="&#x4e9;" horiz-adv-x="1386" 
d="M758 1145q235 0 378.5 -143.5t143.5 -368.5q0 -128 -52 -249t-145 -214q-92 -93 -208.5 -144t-245.5 -51q-235 0 -379 143t-144 367q0 130 51 251t144 214q94 93 211.5 144t245.5 51zM643 174q154 0 275 121q74 74 108 172h-694v-2q7 -136 92 -214.5t219 -76.5zM471 827
q-70 -70 -113 -170h693v2q-10 134 -93.5 210.5t-214.5 74.5q-155 0 -272 -117z" />
    <glyph glyph-name="uni04EE" unicode="&#x4ee;" horiz-adv-x="1523" 
d="M625 1640l49 185h758l-50 -185h-757zM1724 1491l-1228 -1491h-293l428 522l-342 969h266l258 -764l619 764h292z" />
    <glyph glyph-name="uni04EF" unicode="&#x4ef;" horiz-adv-x="1263" 
d="M371 -4l-168 1126h254l100 -843l506 843h272l-731 -1153q-116 -173 -220.5 -245t-240.5 -72q-139 0 -254 78l134 180q62 -49 145 -49q56 0 102 29.5t101 105.5zM432 1294l47 181h727l-49 -181h-725z" />
    <glyph glyph-name="uni04F0" unicode="&#x4f0;" horiz-adv-x="1523" 
d="M649 1614l64 231h256l-64 -231h-256zM1081 1614l64 231h258l-66 -231h-256zM1724 1491l-1228 -1491h-293l428 522l-342 969h266l258 -764l619 764h292z" />
    <glyph glyph-name="uni04F1" unicode="&#x4f1;" horiz-adv-x="1263" 
d="M371 -4l-168 1126h254l100 -843l506 843h272l-731 -1153q-116 -173 -220.5 -245t-240.5 -72q-139 0 -254 78l134 180q62 -49 145 -49q56 0 102 29.5t101 105.5zM453 1268l67 245h252l-67 -245h-252zM870 1268l68 245h252l-68 -245h-252z" />
    <glyph glyph-name="uni04F2" unicode="&#x4f2;" horiz-adv-x="1523" 
d="M1724 1491l-1228 -1491h-293l428 522l-342 969h266l258 -764l619 764h292zM653 1614l320 305l215 -100l-324 -205h-211zM1030 1614l320 305l213 -100l-324 -205h-209z" />
    <glyph glyph-name="uni04F3" unicode="&#x4f3;" horiz-adv-x="1263" 
d="M371 -4l-168 1126h254l100 -843l506 843h272l-731 -1153q-116 -173 -220.5 -245t-240.5 -72q-139 0 -254 78l134 180q62 -49 145 -49q56 0 102 29.5t101 105.5zM412 1268l313 344l193 -101l-320 -243h-186zM795 1268l317 344l191 -101l-322 -243h-186z" />
    <glyph glyph-name="uni04F4" unicode="&#x4f4;" horiz-adv-x="1509" 
d="M901 0l137 512q-148 -27 -280 -27q-83 0 -155.5 13t-137.5 43t-111 76t-73 116t-27 158q0 115 31 217l104 383h252l-109 -404q-26 -88 -26 -163q0 -211 297 -211q153 0 299 35l201 743h251l-401 -1491h-252zM637 1614l63 231h256l-63 -231h-256zM1069 1614l64 231h258
l-66 -231h-256z" />
    <glyph glyph-name="uni04F5" unicode="&#x4f5;" horiz-adv-x="1263" 
d="M432 1268l68 245h252l-68 -245h-252zM850 1268l68 245h251l-67 -245h-252zM1239 1122l-301 -1122h-246l90 344q-78 -16 -198 -16q-204 0 -315 79.5t-111 241.5q0 83 35 205l73 268h246l-84 -311q-18 -67 -18 -117q0 -147 233 -147q114 0 199 18l151 557h246z" />
    <glyph glyph-name="uni04F8" unicode="&#x4f8;" horiz-adv-x="2045" 
d="M1460 0l402 1491h252l-402 -1491h-252zM53 0l402 1491h252l-136 -502h236q265 0 404 -114t139 -318q0 -214 -146 -360q-197 -197 -602 -197h-549zM1090 541q0 110 -78 166.5t-226 56.5h-276l-143 -537h276q250 0 365 115q82 76 82 199zM948 1614l64 231h256l-64 -231
h-256zM1380 1614l64 231h258l-66 -231h-256z" />
    <glyph glyph-name="uni04F9" unicode="&#x4f9;" horiz-adv-x="1753" 
d="M719 1268l67 245h252l-67 -245h-252zM1137 1268l67 245h252l-67 -245h-252zM1180 0l301 1122h248l-302 -1122h-247zM633 571h-211l-98 -368h227q146 0 226.5 58.5t80.5 158.5q0 151 -225 151zM477 770h176q223 0 336 -89.5t113 -246.5q0 -200 -154.5 -317t-419.5 -117
h-505l301 1122h247z" />
    <glyph glyph-name="baht" unicode="&#xe3f;" horiz-adv-x="1382" 
d="M25 0l399 1491h494h18l65 170h168l-73 -188q148 -34 222.5 -122.5t74.5 -215.5q0 -153 -96 -253t-271 -137q219 -82 219 -296q0 -201 -168.5 -325t-464.5 -124h-90l-96 -252h-168l96 252h-329zM1016 463q0 92 -63.5 141.5t-186.5 54.5l-174 -450h70q167 0 260.5 66.5
t93.5 187.5zM477 844h215l172 438h-2h-268zM1163 1094q0 150 -157 180l-168 -430q155 6 240 70.5t85 179.5zM307 209h139l175 450h-195z" />
    <glyph glyph-name="Wgrave" unicode="&#x1e80;" horiz-adv-x="2355" 
d="M1327 1616l-213 205l229 100l154 -305h-170zM420 -10l-119 1501h262l66 -1120l667 1124h213l72 -1124l666 1120h284l-923 -1501h-230l-78 1075l-653 -1075h-227z" />
    <glyph glyph-name="wgrave" unicode="&#x1e81;" horiz-adv-x="1837" 
d="M272 -8l-65 1130h252l24 -780l465 784h211l45 -786l449 782h250l-676 -1130h-221l-48 780l-469 -780h-217zM987 1268l-190 241l231 103l129 -344h-170z" />
    <glyph glyph-name="Wacute" unicode="&#x1e82;" horiz-adv-x="2355" 
d="M1321 1616l319 305l222 -100l-324 -205h-217zM420 -10l-119 1501h262l66 -1120l667 1124h213l72 -1124l666 1120h284l-923 -1501h-230l-78 1075l-653 -1075h-227z" />
    <glyph glyph-name="wacute" unicode="&#x1e83;" horiz-adv-x="1837" 
d="M272 -8l-65 1130h252l24 -780l465 784h211l45 -786l449 782h250l-676 -1130h-221l-48 780l-469 -780h-217zM981 1268l315 344l224 -103l-324 -241h-215z" />
    <glyph glyph-name="Wdieresis" unicode="&#x1e84;" horiz-adv-x="2355" 
d="M1092 1616l63 231h256l-63 -231h-256zM1524 1616l63 231h258l-65 -231h-256zM420 -10l-119 1501h262l66 -1120l667 1124h213l72 -1124l666 1120h284l-923 -1501h-230l-78 1075l-653 -1075h-227z" />
    <glyph glyph-name="wdieresis" unicode="&#x1e85;" horiz-adv-x="1837" 
d="M756 1268l67 245h252l-67 -245h-252zM1174 1268l67 245h252l-68 -245h-251zM272 -8l-65 1130h252l24 -780l465 784h211l45 -786l449 782h250l-676 -1130h-221l-48 780l-469 -780h-217z" />
    <glyph glyph-name="Ygrave" unicode="&#x1ef2;" horiz-adv-x="1419" 
d="M418 0l160 594l-338 897h280l234 -682l604 682h309l-844 -926l-153 -565h-252zM852 1614l-213 205l229 100l154 -305h-170z" />
    <glyph glyph-name="ygrave" unicode="&#x1ef3;" horiz-adv-x="1263" 
d="M371 -4l-168 1126h254l100 -843l506 843h272l-731 -1153q-116 -173 -220.5 -245t-240.5 -72q-139 0 -254 78l134 180q62 -49 145 -49q56 0 102 29.5t101 105.5zM686 1268l-190 241l231 103l129 -344h-170z" />
    <glyph glyph-name="enspace" unicode="&#x2002;" horiz-adv-x="1024" 
 />
    <glyph glyph-name="emspace" unicode="&#x2003;" horiz-adv-x="2048" 
 />
    <glyph glyph-name="threeperemspace" unicode="&#x2004;" horiz-adv-x="681" 
 />
    <glyph glyph-name="fourperemspace" unicode="&#x2005;" horiz-adv-x="512" 
 />
    <glyph glyph-name="figurespace" unicode="&#x2007;" horiz-adv-x="1290" 
 />
    <glyph glyph-name="thinspace" unicode="&#x2009;" horiz-adv-x="272" 
 />
    <glyph glyph-name="hairspace" unicode="&#x200a;" horiz-adv-x="153" 
 />
    <glyph glyph-name="endash" unicode="&#x2013;" horiz-adv-x="1148" 
d="M127 532l61 236h883l-63 -236h-881z" />
    <glyph glyph-name="emdash" unicode="&#x2014;" horiz-adv-x="1937" 
d="M127 532l61 236h1672l-64 -236h-1669z" />
    <glyph glyph-name="quoteleft" unicode="&#x2018;" horiz-adv-x="634" 
d="M248 913l65 244q46 173 141 252.5t259 93.5l20 -106q-112 -17 -168.5 -66t-70.5 -133h104l-76 -285h-274z" />
    <glyph glyph-name="quoteright" unicode="&#x2019;" horiz-adv-x="634" 
d="M225 903l-18 105q211 32 239 198h-106l78 285h272l-63 -242q-49 -173 -143.5 -253.5t-258.5 -92.5z" />
    <glyph glyph-name="quotesinglbase" unicode="&#x201a;" horiz-adv-x="634" 
d="M-84 -303l-18 104q108 17 164.5 66.5t74.5 132.5h-106l75 285h275l-66 -242q-49 -173 -142.5 -253.5t-256.5 -92.5z" />
    <glyph glyph-name="quotedblleft" unicode="&#x201c;" horiz-adv-x="1120" 
d="M250 913l63 242q49 173 143.5 253.5t258.5 92.5l18 -104q-211 -32 -239 -199h106l-78 -285h-272zM735 913l66 242q44 172 139.5 253t259.5 93l19 -104q-212 -32 -240 -199h106l-77 -285h-273z" />
    <glyph glyph-name="quotedblright" unicode="&#x201d;" horiz-adv-x="1120" 
d="M227 903l-20 105q112 17 168.5 66t70.5 132h-104l76 285h274l-65 -242q-49 -173 -143 -253.5t-257 -92.5zM713 903l-19 105q109 17 165.5 66t74.5 132h-107l76 285h275l-66 -242q-49 -173 -142.5 -253.5t-256.5 -92.5z" />
    <glyph glyph-name="quotedblbase" unicode="&#x201e;" horiz-adv-x="1120" 
d="M-84 -303l-18 104q108 17 164.5 66.5t74.5 132.5h-106l75 285h275l-66 -242q-49 -173 -142.5 -253.5t-256.5 -92.5zM401 -303l-18 104q212 32 240 199h-107l78 285h272l-63 -242q-49 -173 -143.5 -253.5t-258.5 -92.5z" />
    <glyph glyph-name="dagger" unicode="&#x2020;" horiz-adv-x="897" 
d="M346 508l174 586l-264 -19l41 148l250 -19l55 287h164l-100 -287l262 19l-41 -148l-254 19l-139 -586h-148z" />
    <glyph glyph-name="daggerdbl" unicode="&#x2021;" horiz-adv-x="911" 
d="M209 0l100 287l-262 -19l39 148l252 -19l80 348l108 349l-264 -19l41 148l252 -19l55 287h164l-100 -287l262 19l-41 -148l-252 19l-78 -349l-110 -348l264 19l-39 -148l-252 19l-55 -287h-164z" />
    <glyph glyph-name="bullet" unicode="&#x2022;" horiz-adv-x="1062" 
d="M625 1061q109 0 173 -66.5t64 -177.5q0 -78 -30 -151t-84 -127q-97 -97 -224 -97q-110 0 -174.5 65.5t-64.5 176.5q0 78 30 151.5t84 127.5q98 98 226 98z" />
    <glyph glyph-name="ellipsis" unicode="&#x2026;" horiz-adv-x="1736" 
d="M31 0l75 279h267l-74 -279h-268zM586 0l73 279h269l-74 -279h-268zM1141 0l73 279h269l-76 -279h-266z" />
    <glyph glyph-name="perthousand" unicode="&#x2030;" horiz-adv-x="2701" 
d="M512 737q-141 0 -228 89.5t-87 230.5q0 94 35.5 181t101.5 153q116 116 272 116q141 0 228.5 -89t87.5 -230q0 -94 -36 -181t-102 -153q-117 -117 -272 -117zM522 889q74 0 135 61q43 43 68 105t25 125q0 80 -41.5 128t-112.5 48q-73 0 -135 -62q-42 -41 -67 -103
t-25 -124q0 -82 40.5 -130t112.5 -48zM141 0l719 743l721 748h225l-719 -743l-720 -748h-226zM1341 -16q-140 0 -227.5 89.5t-87.5 229.5q0 94 35.5 181t101.5 153q117 117 275 117q140 0 227.5 -90t87.5 -230q0 -93 -36.5 -180.5t-102.5 -153.5q-116 -116 -273 -116z
M1354 135q73 0 135 62q42 41 67 103t25 124q0 82 -42 130t-114 48q-74 0 -135 -61q-43 -43 -67.5 -105t-24.5 -125q0 -80 41.5 -128t114.5 -48zM2191 -16q-140 0 -227.5 89.5t-87.5 229.5q0 94 35.5 181t101.5 153q117 117 275 117q140 0 227.5 -90t87.5 -230
q0 -93 -36.5 -180.5t-102.5 -153.5q-116 -116 -273 -116zM2202 135q79 0 135 62q42 41 67 103t25 124q0 82 -41 130t-113 48q-74 0 -135 -61q-43 -43 -67.5 -105t-24.5 -125q0 -80 41.5 -128t112.5 -48z" />
    <glyph glyph-name="guilsinglleft" unicode="&#x2039;" horiz-adv-x="768" 
d="M348 78l-242 463l7 16l501 475l134 -125l-373 -383l160 -362z" />
    <glyph glyph-name="guilsinglright" unicode="&#x203a;" horiz-adv-x="768" 
d="M418 1032l239 -463l-4 -16l-503 -475l-134 125l373 383l-158 360z" />
    <glyph glyph-name="fraction" unicode="&#x2044;" horiz-adv-x="233" 
d="M-668 0l740 774l669 717h160l-739 -774l-668 -717h-162z" />
    <glyph glyph-name="zero.sup" unicode="&#x2070;" 
d="M985 1458q0 -128 -48.5 -255t-133.5 -212q-112 -112 -252 -112q-124 0 -199.5 77t-75.5 211q0 128 49 256t134 213q120 113 252 113q124 0 199 -78.5t75 -212.5zM434 1176q0 -77 34 -117.5t95 -40.5t125 57q63 63 101 175t38 200q0 77 -34 117.5t-95 40.5q-71 0 -123 -58
q-64 -64 -102.5 -174t-38.5 -200z" />
    <glyph glyph-name="four.sup" unicode="&#x2074;" 
d="M610 897l49 182h-401l18 142l537 518h162l-144 -539h113l-33 -121h-114l-47 -182h-140zM416 1198h276l99 367h-3z" />
    <glyph glyph-name="five.sup" unicode="&#x2075;" 
d="M553 879q-97 0 -182.5 40t-134.5 103l104 94q90 -100 217 -100q87 0 142 43.5t55 111.5q0 55 -44 89t-118 34q-75 0 -141 -37l-91 68l138 401h497l-34 -137h-371l-70 -196q44 20 125 20q124 0 196 -62.5t72 -170.5q0 -126 -99 -213.5t-261 -87.5z" />
    <glyph glyph-name="six.sup" unicode="&#x2076;" 
d="M561 879q-135 0 -208.5 79.5t-73.5 221.5q0 117 48 237.5t132 204.5q127 127 293 127q144 0 233 -96l-84 -109q-65 68 -162 68q-109 0 -188 -82q-74 -80 -105 -182q86 86 213 86q97 0 164.5 -61t67.5 -169q0 -129 -95.5 -227t-234.5 -98zM567 1004q76 0 127 53t51 127
q0 61 -36 97t-101 36q-79 0 -131 -55q-51 -45 -51 -121q0 -62 38 -99.5t103 -37.5z" />
    <glyph glyph-name="seven.sup" unicode="&#x2077;" 
d="M281 895l526 690h-408l37 141h578l-31 -116l-537 -715h-165z" />
    <glyph glyph-name="eight.sup" unicode="&#x2078;" 
d="M575 879q-133 0 -223 64.5t-90 166.5q0 95 60.5 154t162.5 79q-108 53 -108 170q0 97 84 166.5t227 69.5q129 0 210 -63t81 -162q0 -83 -52.5 -139t-140.5 -74q127 -62 127 -183q0 -104 -93.5 -176.5t-244.5 -72.5zM582 997q80 0 133 38t53 98q2 57 -46.5 93t-127.5 36
q-84 0 -136.5 -38.5t-54.5 -99.5q0 -54 50.5 -90.5t128.5 -36.5zM672 1380q75 0 121.5 35.5t46.5 91.5q0 51 -43 86t-113 35q-73 0 -121.5 -36t-48.5 -91t42.5 -88t115.5 -33z" />
    <glyph glyph-name="nine.sup" unicode="&#x2079;" 
d="M514 879q-158 0 -250 106l84 107q78 -78 178 -78q109 0 187 78q74 74 102 184q-29 -36 -85.5 -64t-127.5 -28q-96 0 -163.5 62t-67.5 171q0 128 93 229t232 101q138 0 213.5 -80.5t75.5 -222.5q0 -121 -45 -238.5t-129 -201.5q-125 -125 -297 -125zM655 1300q74 0 131 54
q52 55 52 127q0 66 -39 103.5t-105 37.5q-75 0 -125.5 -57.5t-50.5 -128.5q0 -62 36 -99t101 -37z" />
    <glyph glyph-name="zero.inf" unicode="&#x2080;" 
d="M672 281q0 -128 -49 -255t-134 -212q-113 -113 -251 -113q-124 0 -199.5 77.5t-75.5 211.5q0 128 48.5 256t133.5 213q119 112 252 112q124 0 199.5 -78t75.5 -212zM121 -2q0 -77 34 -117.5t95 -40.5q60 0 125 58q63 63 101 174.5t38 199.5q0 77 -34 117.5t-95 40.5
q-72 0 -123 -57q-64 -64 -102.5 -174.5t-38.5 -200.5z" />
    <glyph glyph-name="one.inf" unicode="&#x2081;" horiz-adv-x="700" 
d="M102 -279l181 676l-185 -65l-12 131l274 98h115l-225 -840h-148z" />
    <glyph glyph-name="two.inf" unicode="&#x2082;" 
d="M-100 -279l34 129l439 316q65 46 94 82.5t29 81.5q0 47 -33.5 74.5t-93.5 27.5q-105 0 -215 -110l-93 96q136 153 316 153q126 0 200 -63t74 -164q0 -77 -44 -142t-158 -139l-304 -208h400l-37 -134h-608z" />
    <glyph glyph-name="three.inf" unicode="&#x2083;" 
d="M233 -299q-210 0 -307 141l101 97q90 -103 206 -103q81 0 135 40.5t54 100.5q0 56 -47.5 85.5t-134.5 29.5h-50l-16 90l299 232h-360l37 135h559l-31 -115l-318 -239q99 -13 157 -64t58 -141q0 -126 -99 -207.5t-243 -81.5z" />
    <glyph glyph-name="four.inf" unicode="&#x2084;" 
d="M297 -281l49 183h-401l18 141l537 518h162l-144 -538h113l-33 -121h-115l-47 -183h-139zM102 20h277l98 367h-2z" />
    <glyph glyph-name="five.inf" unicode="&#x2085;" 
d="M240 -299q-97 0 -183 40t-135 103l105 95q91 -101 217 -101q87 0 141.5 44t54.5 112q0 55 -43.5 89t-117.5 34q-76 0 -142 -37l-90 67l137 402h498l-35 -137h-371l-69 -197q47 21 125 21q123 0 195.5 -63t72.5 -171q0 -126 -99 -213.5t-261 -87.5z" />
    <glyph glyph-name="six.inf" unicode="&#x2086;" 
d="M248 -299q-136 0 -209.5 79.5t-73.5 221.5q0 117 48 237.5t132 204.5q127 127 293 127q145 0 234 -96l-84 -108q-64 67 -162 67q-109 0 -188 -82q-74 -80 -105 -182q86 86 213 86q98 0 165 -60.5t67 -168.5q0 -129 -95.5 -227.5t-234.5 -98.5zM254 -174q76 0 127 53
t51 127q0 61 -36 97t-101 36q-79 0 -131 -55q-51 -45 -51 -121q0 -62 38 -99.5t103 -37.5z" />
    <glyph glyph-name="seven.inf" unicode="&#x2087;" 
d="M-10 -283l526 691h-407l36 141h578l-31 -117l-536 -715h-166z" />
    <glyph glyph-name="eight.inf" unicode="&#x2088;" 
d="M262 -299q-133 0 -223 64.5t-90 166.5q0 95 61 154.5t162 79.5q-109 53 -109 170q0 97 84.5 166t227.5 69q129 0 210 -63t81 -162q0 -83 -52.5 -139t-140.5 -74q127 -62 127 -182q0 -105 -93.5 -177.5t-244.5 -72.5zM268 -180q80 0 133.5 38t53.5 97q2 57 -46.5 93
t-127.5 36q-84 0 -136.5 -38.5t-54.5 -98.5q0 -54 50.5 -90.5t127.5 -36.5zM358 203q75 0 121.5 35.5t46.5 91.5q0 51 -42.5 86t-112.5 35q-73 0 -121.5 -36t-48.5 -91t42 -88t115 -33z" />
    <glyph glyph-name="nine.inf" unicode="&#x2089;" 
d="M201 -299q-158 0 -250 106l84 107q78 -78 178 -78q108 0 186 78q75 75 103 184q-29 -36 -85.5 -64t-127.5 -28q-96 0 -164 62.5t-68 171.5q0 127 93.5 228t232.5 101q138 0 213.5 -80.5t75.5 -222.5q0 -121 -45 -238.5t-129 -201.5q-125 -125 -297 -125zM342 123
q75 0 131 53q51 54 51 127q0 66 -38.5 103.5t-104.5 37.5q-75 0 -125.5 -57.5t-50.5 -128.5q0 -62 36 -98.5t101 -36.5z" />
    <glyph glyph-name="colonmonetary" unicode="&#x20a1;" horiz-adv-x="1327" 
d="M1272 1661h129l-115 -281q70 -45 127 -112l-137 -185q-34 42 -82 84l-389 -956q53 8 104 31t76.5 41t71.5 53l106 -174q-193 -156 -438 -164l-98 -250h-131l102 258q-91 13 -154 45l-122 -303h-132l148 367q-104 79 -160.5 203t-56.5 282q0 197 69.5 375t194.5 301
q208 208 512 217l70 168h131l-72 -178q83 -12 156 -43zM358 592q0 -154 76 -256l383 942q-143 -20 -252 -129q-101 -101 -154 -255t-53 -302zM936 1280l-416 -1022q69 -43 166 -49l416 1022q-69 40 -166 49z" />
    <glyph glyph-name="naira" unicode="&#x20a6;" horiz-adv-x="1794" 
d="M1681 451h-221l-121 -451h-256l-149 451h-426l-121 -451h-235l120 451h-219l45 159h217l74 279h-217l43 160h217l119 442h276l146 -442h411l119 442h238l-119 -442h221l-43 -160h-221l-76 -279h221zM694 1159l-149 -555h344l-189 555h-6zM1196 356h8l142 539h-328z" />
    <glyph glyph-name="rupee" unicode="&#x20a8;" horiz-adv-x="2355" 
d="M1970 307q0 48 -37.5 82.5t-134.5 75.5q-60 25 -100.5 44.5t-83 48t-67 58.5t-40.5 72t-16 92q0 156 119 259.5t307 103.5q230 0 414 -142l-125 -163q-153 118 -305 118q-84 0 -133.5 -39t-49.5 -98q0 -47 39.5 -81t138.5 -76q74 -32 122 -59t92.5 -65t66 -86t21.5 -108
q0 -162 -126 -265.5t-309 -103.5q-130 0 -254.5 47t-222.5 138l135 151q157 -147 353 -147q86 0 141 39t55 104zM870 0l-198 530h-266l-144 -530h-235l399 1491h428q114 0 205 -26.5t148 -68.5t95 -99t53 -114.5t15 -117.5q0 -105 -36 -194.5t-99 -154t-146 -107.5t-180 -62
l219 -547h-258zM463 739h252q184 0 295.5 80.5t111.5 231.5q0 100 -68.5 161.5t-207.5 61.5h-242z" />
    <glyph glyph-name="won" unicode="&#x20a9;" horiz-adv-x="2392" 
d="M2277 459h-362l-250 -463h-297v463h-405l-248 -463h-295l-2 463h-359l43 164h316l-2 245h-248l45 166h203v457h260l-17 -457h377l250 461h287l4 -461h383l225 457h287l-248 -457h209l-45 -166h-252l-133 -245h319zM627 270h10l321 607h-311zM1356 1194l-314 -578h330
l-6 578h-10zM1579 270h10l297 607h-311z" />
    <glyph glyph-name="sheqel" unicode="&#x20aa;" horiz-adv-x="1355" 
d="M-4 0l299 1122h354q149 0 226 -59.5t77 -175.5q0 -55 -18 -123l-92 -340h-135l61 231q18 60 18 119q0 77 -47 110.5t-141 33.5h-166l-246 -918h-190zM1059 0h-256q-201 0 -286 91.5t-66 279.5l32 336h133l-20 -265q-12 -135 37.5 -186t175.5 -51h113l245 917h191z" />
    <glyph glyph-name="Euro" unicode="&#x20ac;" horiz-adv-x="1527" 
d="M166 844l47 176h154q70 165 190 285q211 211 508 211q390 0 512 -345l-213 -102q-50 111 -123 165t-197 54q-167 0 -292 -125q-72 -72 -107 -143h496l-47 -176h-512q-31 -102 -39 -185h501l-47 -176h-458q17 -134 97 -207t204 -73q107 0 186 40.5t160 129.5l170 -148
q-215 -250 -520 -250q-234 0 -385.5 136t-171.5 372h-207l47 176h162q7 72 32 185h-147z" />
    <glyph glyph-name="peso" unicode="&#x20b1;" horiz-adv-x="1605" 
d="M1647 899h-183q-38 -141 -137 -240q-98 -99 -248.5 -151.5t-335.5 -52.5h-229l-121 -455h-252l240 899h-211l41 154h211l119 438h383q155 0 263 -34t185 -111q108 -111 111 -293h205zM565 664h195q251 0 373 122q51 51 73 121h-577zM727 1274l-61 -230h561q-3 93 -60 150
q-86 80 -243 80h-197z" />
    <glyph glyph-name="hryvnia" unicode="&#x20b4;" horiz-adv-x="1384" 
d="M221 918l45 116l604 -84q97 60 138 108t41 103q0 62 -46.5 100.5t-146.5 38.5q-155 0 -350 -114l-94 194q236 136 471 136q110 0 195 -27.5t136 -74.5t77 -105.5t26 -124.5q0 -144 -133 -277l215 -28l-45 -117l-307 41l-242 -146l481 -65l-45 -117l-600 82
q-118 -71 -160.5 -120.5t-42.5 -106.5q0 -65 49.5 -102.5t149.5 -37.5q188 0 391 119l94 -194q-254 -140 -504 -140q-218 0 -333 94t-115 244q0 160 149 289l-210 29l45 117l311 -43l240 145z" />
    <glyph glyph-name="numero" unicode="&#x2116;" horiz-adv-x="2422" 
d="M35 0l399 1491h230l360 -1061l279 1061h243l-399 -1491h-211l-373 1094l-284 -1094h-244zM1970 592q-164 0 -255 98t-91 266q0 115 43.5 226t112.5 180q137 137 309 137q163 0 254.5 -98t91.5 -264q0 -114 -44.5 -225.5t-113.5 -180.5q-139 -139 -307 -139zM1976 752
q85 0 154 69q51 54 83 140.5t32 171.5q0 95 -42 150.5t-122 55.5q-83 0 -152 -69q-53 -53 -85 -138t-32 -171q0 -96 43 -152.5t121 -56.5zM1473 287l43 145h718l-43 -145h-718z" />
    <glyph glyph-name="published" unicode="&#x2117;" horiz-adv-x="1787" 
d="M782 1163h262q139 0 218 -61.5t79 -181.5q0 -141 -106.5 -223.5t-286.5 -82.5h-162l-67 -256h-152zM1188 911q0 59 -40.5 88t-109.5 29h-141l-74 -280h133q102 0 167 39.5t65 123.5zM1024 1516q154 0 283 -52t216.5 -143t136 -215t48.5 -266q0 -174 -66 -335.5
t-188 -283.5q-246 -246 -594 -246q-154 0 -283 52t-216.5 143t-136 215t-48.5 266q0 174 66 335.5t188 283.5q246 246 594 246zM862 51q313 0 527 217q115 112 176 259t61 313q0 124 -41.5 233t-117.5 190.5t-191.5 129t-255.5 47.5q-309 0 -526 -217
q-115 -112 -175.5 -257.5t-60.5 -310.5q0 -170 70 -305.5t209 -217t325 -81.5z" />
    <glyph glyph-name="servicemark" unicode="&#x2120;" horiz-adv-x="1521" 
d="M440 823q-175 0 -280 123l86 74q86 -98 207 -98q56 0 92.5 27t36.5 69q0 31 -25.5 52t-99.5 50q-94 36 -133 75t-39 101q0 79 55 134q73 73 203 73q144 0 237 -100l-78 -78q-75 78 -174 78q-58 0 -92.5 -25.5t-34.5 -62.5q0 -32 28 -54.5t108 -52.5q88 -33 124.5 -70.5
t36.5 -101.5q0 -83 -55 -141q-78 -72 -203 -72zM801 836l182 655h119l119 -315l284 315h137l-180 -655h-119l132 471l-293 -320h-13l-120 320l-129 -471h-119z" />
    <glyph glyph-name="trademark" unicode="&#x2122;" horiz-adv-x="1503" 
d="M315 836l150 544h-203l33 111h528l-32 -111h-203l-150 -544h-123zM784 836l181 655h120l117 -315l287 315h135l-180 -655h-117l129 471l-291 -320h-12l-121 320l-131 -471h-117z" />
    <glyph glyph-name="Omega" unicode="&#x2126;" horiz-adv-x="1863" 
d="M500 690q0 -269 207 -479l-58 -211h-631l60 217l391 -2q-227 241 -227 524q0 162 63 305.5t173.5 247.5t269.5 164t342 60q313 0 494 -163.5t181 -428.5q0 -211 -120 -383t-351 -326l375 2l-57 -217h-670l57 211q504 301 504 674q0 181 -114.5 290t-315.5 109
q-252 0 -412.5 -165t-160.5 -429z" />
    <glyph glyph-name="onethird" unicode="&#x2153;" horiz-adv-x="1775" 
d="M1190 -20q-210 0 -307 141l100 96q89 -102 207 -102q81 0 134.5 40.5t53.5 100.5q0 56 -47.5 85.5t-134.5 29.5h-49l-17 90l300 231h-361l37 135h559l-31 -114l-317 -240q99 -13 157 -64t58 -141q0 -126 -98.5 -207t-243.5 -81zM307 664l180 673l-186 -63l-10 131l274 98
h113l-223 -839h-148zM33 0l739 774l670 717h160l-740 -774l-667 -717h-162z" />
    <glyph glyph-name="twothirds" unicode="&#x2154;" horiz-adv-x="1935" 
d="M1350 -20q-211 0 -308 141l101 96q89 -102 207 -102q81 0 134.5 40.5t53.5 100.5q0 56 -47.5 85.5t-134.5 29.5h-49l-17 90l299 231h-360l37 135h559l-31 -114l-317 -240q99 -13 157 -64t58 -141q0 -126 -98.5 -207t-243.5 -81zM90 664l35 129l438 315q65 46 94 82.5
t29 81.5q0 47 -35 74.5t-92 27.5q-105 0 -215 -110l-92 96q135 151 315 151q124 0 198.5 -62.5t74.5 -162.5q0 -77 -43.5 -141.5t-157.5 -138.5l-305 -209h399l-35 -133h-608zM184 0l740 774l669 717h160l-739 -774l-668 -717h-162z" />
    <glyph glyph-name="onefifth" unicode="&#x2155;" horiz-adv-x="1775" 
d="M1194 -20q-97 0 -182.5 40t-134.5 103l104 94q90 -100 217 -100q87 0 142 43.5t55 111.5q0 55 -44 89t-118 34q-75 0 -141 -37l-91 68l138 401h497l-34 -137h-371l-70 -196q44 20 125 20q124 0 196 -62.5t72 -170.5q0 -126 -99 -213.5t-261 -87.5zM307 664l180 673
l-186 -63l-10 131l274 98h113l-223 -839h-148zM43 0l739 774l670 717h160l-740 -774l-667 -717h-162z" />
    <glyph glyph-name="twofifths" unicode="&#x2156;" horiz-adv-x="1935" 
d="M1354 -20q-97 0 -183 40t-135 103l105 94q90 -100 217 -100q87 0 141.5 43.5t54.5 111.5q0 55 -43.5 89t-117.5 34q-76 0 -142 -37l-90 68l137 401h498l-35 -137h-370l-70 -196q44 20 125 20q124 0 196 -62.5t72 -170.5q0 -126 -99 -213.5t-261 -87.5zM205 0l739 774
l670 717h160l-740 -774l-667 -717h-162zM90 664l35 129l438 315q65 46 94 82.5t29 81.5q0 47 -35 74.5t-92 27.5q-105 0 -215 -110l-92 96q135 151 315 151q124 0 198.5 -62.5t74.5 -162.5q0 -77 -43.5 -141.5t-157.5 -138.5l-305 -209h399l-35 -133h-608z" />
    <glyph glyph-name="threefifths" unicode="&#x2157;" horiz-adv-x="1935" 
d="M1354 -20q-97 0 -183 40t-135 103l105 94q90 -100 217 -100q87 0 141.5 43.5t54.5 111.5q0 55 -43.5 89t-117.5 34q-76 0 -142 -37l-90 68l137 401h498l-35 -137h-370l-70 -196q44 20 125 20q124 0 196 -62.5t72 -170.5q0 -126 -99 -213.5t-261 -87.5zM174 0l739 774
l670 717h160l-739 -774l-668 -717h-162zM422 641q-209 0 -307 143l100 95q88 -101 207 -101q81 0 134.5 40t53.5 100q0 116 -182 116h-49l-17 90l300 232h-361l37 135h559l-31 -115l-317 -239q98 -13 156.5 -64.5t58.5 -140.5q0 -126 -99 -208.5t-243 -82.5z" />
    <glyph glyph-name="fourfifths" unicode="&#x2158;" horiz-adv-x="1935" 
d="M485 659l50 181h-402l19 141l536 520h162l-143 -540h112l-33 -121h-112l-49 -181h-140zM291 961h276l99 364h-2zM1354 -20q-97 0 -183 40t-135 103l105 94q90 -100 217 -100q87 0 141.5 43.5t54.5 111.5q0 55 -43.5 89t-117.5 34q-76 0 -142 -37l-90 68l137 401h498
l-35 -137h-370l-70 -196q44 20 125 20q124 0 196 -62.5t72 -170.5q0 -126 -99 -213.5t-261 -87.5zM205 0l739 774l670 717h160l-740 -774l-667 -717h-162z" />
    <glyph glyph-name="onesixth" unicode="&#x2159;" horiz-adv-x="1775" 
d="M1202 -20q-135 0 -208.5 79.5t-73.5 221.5q0 117 48 237.5t132 204.5q127 127 293 127q144 0 233 -96l-84 -109q-65 68 -162 68q-109 0 -188 -82q-74 -80 -105 -182q86 86 213 86q98 0 165 -61t67 -169q0 -129 -95.5 -227t-234.5 -98zM1208 104q76 0 127 53.5t51 127.5
q0 61 -36 97t-101 36q-78 0 -131 -56q-51 -45 -51 -120q0 -62 38 -100t103 -38zM307 664l180 673l-186 -63l-10 131l274 98h113l-223 -839h-148zM57 0l740 774l669 717h160l-739 -774l-668 -717h-162z" />
    <glyph glyph-name="fivesixths" unicode="&#x215a;" horiz-adv-x="1935" 
d="M1362 -20q-136 0 -209.5 79.5t-73.5 221.5q0 117 48 237t133 205q127 127 292 127q145 0 234 -96l-84 -109q-65 68 -162 68q-109 0 -188 -82q-74 -80 -105 -182q86 86 213 86q98 0 165 -61t67 -169q0 -129 -95.5 -227t-234.5 -98zM1368 104q76 0 127 53.5t51 127.5
q0 61 -36 97t-101 36q-78 0 -131 -56q-51 -45 -51 -120q0 -62 38 -100t103 -38zM184 0l740 774l669 717h160l-739 -774l-668 -717h-162zM428 641q-97 0 -182.5 40.5t-134.5 104.5l104 95q91 -101 217 -101q87 0 142 44t55 112q0 55 -44 89t-118 34q-75 0 -141 -37l-90 68
l137 401h497l-34 -139h-371l-70 -195q47 21 125 21q123 0 195.5 -63t72.5 -171q0 -126 -99 -214.5t-261 -88.5z" />
    <glyph glyph-name="oneeighth" unicode="&#x215b;" horiz-adv-x="1775" 
d="M1219 -20q-133 0 -223.5 64.5t-90.5 166.5q0 95 60.5 154t162.5 79q-108 53 -108 170q0 97 84 166.5t227 69.5q129 0 210 -63t81 -162q0 -83 -52 -139t-140 -74q126 -61 126 -183q0 -104 -93 -176.5t-244 -72.5zM1225 98q80 0 133 38t53 97q2 57 -46.5 93t-127.5 36
q-84 0 -136 -38t-54 -99q0 -54 50.5 -90.5t127.5 -36.5zM1315 481q75 0 121.5 35.5t46.5 91.5q0 51 -43 86t-113 35q-73 0 -121.5 -36t-48.5 -91t42.5 -88t115.5 -33zM307 664l180 673l-186 -63l-10 131l274 98h113l-223 -839h-148zM49 0l739 774l670 717h160l-739 -774
l-668 -717h-162z" />
    <glyph glyph-name="threeeighths" unicode="&#x215c;" horiz-adv-x="1935" 
d="M1378 -20q-133 0 -223 64.5t-90 166.5q0 95 60.5 154t162.5 79q-108 53 -108 170q0 97 84 166.5t227 69.5q129 0 210 -63t81 -162q0 -83 -52.5 -139t-140.5 -74q127 -62 127 -183q0 -104 -93.5 -176.5t-244.5 -72.5zM1384 98q80 0 133.5 38t53.5 97q2 57 -46.5 93
t-127.5 36q-84 0 -136.5 -38.5t-54.5 -98.5q0 -54 50.5 -90.5t127.5 -36.5zM1475 481q75 0 121 35.5t46 91.5q0 51 -42.5 86t-112.5 35q-73 0 -121.5 -36t-48.5 -91t42.5 -88t115.5 -33zM184 0l740 774l669 717h160l-739 -774l-668 -717h-162zM422 641q-209 0 -307 143
l100 95q88 -101 207 -101q81 0 134.5 40t53.5 100q0 116 -182 116h-49l-17 90l300 232h-361l37 135h559l-31 -115l-317 -239q98 -13 156.5 -64.5t58.5 -140.5q0 -126 -99 -208.5t-243 -82.5z" />
    <glyph glyph-name="fiveeighths" unicode="&#x215d;" horiz-adv-x="1935" 
d="M1378 -20q-133 0 -223 64.5t-90 166.5q0 95 60.5 154t162.5 79q-108 53 -108 170q0 97 84 166.5t227 69.5q129 0 210 -63t81 -162q0 -83 -52.5 -139t-140.5 -74q127 -62 127 -183q0 -104 -93.5 -176.5t-244.5 -72.5zM1384 98q80 0 133.5 38t53.5 97q2 57 -46.5 93
t-127.5 36q-84 0 -136.5 -38.5t-54.5 -98.5q0 -54 50.5 -90.5t127.5 -36.5zM1475 481q75 0 121 35.5t46 91.5q0 51 -42.5 86t-112.5 35q-73 0 -121.5 -36t-48.5 -91t42.5 -88t115.5 -33zM184 0l740 774l669 717h160l-739 -774l-668 -717h-162zM428 641q-97 0 -182.5 40.5
t-134.5 104.5l104 95q91 -101 217 -101q87 0 142 44t55 112q0 55 -44 89t-118 34q-75 0 -141 -37l-90 68l137 401h497l-34 -139h-371l-70 -195q47 21 125 21q123 0 195.5 -63t72.5 -171q0 -126 -99 -214.5t-261 -88.5z" />
    <glyph glyph-name="seveneighths" unicode="&#x215e;" horiz-adv-x="1935" 
d="M1378 -20q-133 0 -223 64.5t-90 166.5q0 95 60.5 154t162.5 79q-108 53 -108 170q0 97 84 166.5t227 69.5q129 0 210 -63t81 -162q0 -83 -52.5 -139t-140.5 -74q127 -62 127 -183q0 -104 -93.5 -176.5t-244.5 -72.5zM1384 98q80 0 133.5 38t53.5 97q2 57 -46.5 93
t-127.5 36q-84 0 -136.5 -38.5t-54.5 -98.5q0 -54 50.5 -90.5t127.5 -36.5zM1475 481q75 0 121 35.5t46 91.5q0 51 -42.5 86t-112.5 35q-73 0 -121.5 -36t-48.5 -91t42.5 -88t115.5 -33zM195 659l528 691h-408l37 141h578l-33 -117l-535 -715h-167zM121 0l739 774l670 717
h160l-740 -774l-667 -717h-162z" />
    <glyph glyph-name="Delta" unicode="&#x2206;" horiz-adv-x="1667" 
d="M1221 1501l254 -1319l-70 -182h-1432l29 182l959 1319h260zM1024 1210l-700 -987h876z" />
    <glyph glyph-name="minus" unicode="&#x2212;" horiz-adv-x="1368" 
d="M176 635l60 231h1058l-59 -231h-1059z" />
    <glyph glyph-name="NUL" horiz-adv-x="0" 
 />
    <glyph glyph-name="CR" horiz-adv-x="659" 
 />
    <glyph glyph-name="Q.alt" horiz-adv-x="1802" 
d="M1059 1516q147 0 272 -50t211.5 -137.5t135 -208t48.5 -258.5q0 -176 -71.5 -342t-202.5 -295l133 -164l-203 -139l-114 162q-193 -111 -426 -111q-147 0 -272.5 50.5t-212 138t-135 208t-48.5 257.5q0 176 70.5 342t195.5 291q122 121 280 188.5t339 67.5zM868 205
q145 0 262 69l-210 269l204 143l183 -266q75 93 116 204t41 226q0 191 -116.5 312.5t-315.5 121.5q-227 0 -397 -170q-94 -94 -146.5 -219t-52.5 -254q0 -193 116.5 -314.5t315.5 -121.5z" />
    <glyph glyph-name="a.alt" horiz-adv-x="1441" 
d="M545 -23q-191 0 -315 130.5t-124 347.5q0 151 55 282t150 226q87 87 195.5 134.5t224.5 47.5q267 0 385 -227l55 204h246l-301 -1122h-246l41 154q-86 -86 -172 -131.5t-194 -45.5zM637 188q151 0 272 121q142 142 142 334q0 128 -81 209.5t-208 81.5q-147 0 -260 -113
q-64 -64 -100.5 -154.5t-36.5 -193.5q0 -130 74.5 -207.5t197.5 -77.5z" />
    <glyph glyph-name="three.alt" horiz-adv-x="1327" 
d="M559 -25q-205 0 -346.5 78.5t-214.5 200.5l190 139q72 -94 163 -143t224 -49q148 0 238 71t90 168q0 103 -82.5 155t-234.5 52h-129l57 211h141q169 0 275 64t106 176q0 86 -71 138t-179 52q-105 0 -186 -36t-168 -113l-143 159q108 105 233.5 161.5t288.5 56.5
q215 0 349 -107.5t134 -273.5q0 -148 -95.5 -247.5t-276.5 -142.5q103 -35 169 -113.5t66 -193.5q0 -198 -168 -330.5t-430 -132.5z" />
    <glyph glyph-name="registered.alt" horiz-adv-x="1787" 
d="M1024 1516q154 0 283 -52t216.5 -143t136 -215t48.5 -266q0 -174 -66 -335.5t-188 -283.5q-246 -246 -594 -246q-154 0 -283 52t-216.5 143t-136 215t-48.5 266q0 174 66 335.5t188 283.5q246 246 594 246zM862 51q313 0 527 217q115 112 176 259t61 313q0 124 -41.5 233
t-117.5 190.5t-191.5 129t-255.5 47.5q-309 0 -526 -217q-115 -112 -175.5 -257.5t-60.5 -310.5q0 -170 70 -305.5t209 -217t325 -81.5zM756 645l-76 -280h-150l218 804h294q166 0 242 -73q59 -65 59 -158q0 -111 -71 -182q-73 -69 -185 -92l136 -299h-162l-125 280h-180z
M793 776h172q132 0 190 58q37 37 37 94q0 42 -27 69q-39 39 -137 39h-168z" />
    <glyph glyph-name="aogonek.alt" horiz-adv-x="1441" 
d="M1096 -229l-31 -121q-18 -4 -74 -4q-227 9 -227 141q0 101 145 213h-39l41 154q-86 -86 -172 -131.5t-194 -45.5q-191 0 -315 130.5t-124 347.5q0 151 55 282t150 226q87 87 195.5 134.5t224.5 47.5q267 0 385 -227l55 204h246l-301 -1122h-33q-62 -53 -90 -90.5
t-28 -71.5t30 -48t101 -19zM637 188q151 0 272 121q142 142 142 334q0 128 -81 209.5t-208 81.5q-147 0 -260 -113q-64 -64 -100.5 -154.5t-36.5 -193.5q0 -130 74.5 -207.5t197.5 -77.5z" />
    <glyph glyph-name="aringacute.alt" horiz-adv-x="1441" 
d="M1210 1526q0 -105 -77.5 -183.5t-188.5 -78.5q-102 0 -164.5 59.5t-62.5 149.5q0 106 77.5 185t188.5 79q103 0 165 -59.5t62 -151.5zM823 1481q0 -55 34.5 -89t88.5 -34q66 0 112 49t46 113q0 55 -34.5 88.5t-90.5 33.5q-65 0 -110.5 -49t-45.5 -112zM545 -23
q-191 0 -315 130.5t-124 347.5q0 151 55 282t150 226q87 87 195.5 134.5t224.5 47.5q267 0 385 -227l55 204h246l-301 -1122h-246l41 154q-86 -86 -172 -131.5t-194 -45.5zM637 188q151 0 272 121q142 142 142 334q0 128 -81 209.5t-208 81.5q-147 0 -260 -113
q-64 -64 -100.5 -154.5t-36.5 -193.5q0 -130 74.5 -207.5t197.5 -77.5zM940 1804l309 291l215 -102l-317 -189h-207z" />
    <glyph glyph-name="aring.alt2" horiz-adv-x="1259" 
d="M713 0l39 152q-158 -175 -375 -175q-144 0 -242 84.5t-98 221.5q0 161 106 270q138 135 385 135q178 0 355 -55l6 20q14 54 14 95q0 176 -256 176q-153 0 -307 -60l-41 199q145 56 303 70q-43 55 -43 124q0 103 78.5 181t189.5 78q101 0 163.5 -60t62.5 -149
q0 -65 -31 -119t-86 -90q207 -83 207 -307q0 -74 -23 -164l-168 -627h-239zM791 1137q64 0 109.5 49t45.5 112q0 56 -34 89.5t-89 33.5q-66 0 -110.5 -48t-44.5 -113q0 -56 34 -89.5t89 -33.5zM475 156q118 0 221 78.5t135 195.5l15 53q-137 45 -283 45q-144 0 -221 -77
q-57 -57 -57 -140q0 -70 51.5 -112.5t138.5 -42.5z" />
    <glyph glyph-name="aringacute.alt2" horiz-adv-x="1259" 
d="M713 0l39 152q-158 -175 -375 -175q-144 0 -242 84.5t-98 221.5q0 161 106 270q138 135 385 135q178 0 355 -55l6 20q14 54 14 95q0 176 -256 176q-153 0 -307 -60l-41 199q145 56 303 70q-43 55 -43 124q0 103 78.5 181t189.5 78q101 0 163.5 -60t62.5 -149
q0 -65 -31 -119t-86 -90q207 -83 207 -307q0 -74 -23 -164l-168 -627h-239zM791 1137q64 0 109.5 49t45.5 112q0 56 -34 89.5t-89 33.5q-66 0 -110.5 -48t-44.5 -113q0 -56 34 -89.5t89 -33.5zM475 156q118 0 221 78.5t135 195.5l15 53q-137 45 -283 45q-144 0 -221 -77
q-57 -57 -57 -140q0 -70 51.5 -112.5t138.5 -42.5zM786 1593l310 291l215 -102l-318 -189h-207z" />
    <glyph glyph-name="i.dot" horiz-adv-x="624" 
d="M39 0l301 1122h246l-301 -1122h-246zM379 1303l63 237h269l-66 -237h-266z" />
    <glyph glyph-name="aacute.alt" horiz-adv-x="1441" 
d="M545 -23q-191 0 -315 130.5t-124 347.5q0 151 55 282t150 226q87 87 195.5 134.5t224.5 47.5q267 0 385 -227l55 204h246l-301 -1122h-246l41 154q-86 -86 -172 -131.5t-194 -45.5zM637 188q151 0 272 121q142 142 142 334q0 128 -81 209.5t-208 81.5q-147 0 -260 -113
q-64 -64 -100.5 -154.5t-36.5 -193.5q0 -130 74.5 -207.5t197.5 -77.5zM793 1268l315 344l223 -103l-323 -241h-215z" />
    <glyph glyph-name="agrave.alt" horiz-adv-x="1441" 
d="M545 -23q-191 0 -315 130.5t-124 347.5q0 151 55 282t150 226q87 87 195.5 134.5t224.5 47.5q267 0 385 -227l55 204h246l-301 -1122h-246l41 154q-86 -86 -172 -131.5t-194 -45.5zM637 188q151 0 272 121q142 142 142 334q0 128 -81 209.5t-208 81.5q-147 0 -260 -113
q-64 -64 -100.5 -154.5t-36.5 -193.5q0 -130 74.5 -207.5t197.5 -77.5zM797 1268l-191 241l232 103l129 -344h-170z" />
    <glyph glyph-name="acircumflex.alt" horiz-adv-x="1441" 
d="M528 1268l328 307h229l162 -307h-184l-123 141l-207 -141h-205zM545 -23q-191 0 -315 130.5t-124 347.5q0 151 55 282t150 226q87 87 195.5 134.5t224.5 47.5q267 0 385 -227l55 204h246l-301 -1122h-246l41 154q-86 -86 -172 -131.5t-194 -45.5zM637 188q151 0 272 121
q142 142 142 334q0 128 -81 209.5t-208 81.5q-147 0 -260 -113q-64 -64 -100.5 -154.5t-36.5 -193.5q0 -130 74.5 -207.5t197.5 -77.5z" />
    </font>
</defs>
</svg>
