<?xml version="1.0" standalone="no"?>
<!DOCTYPE svg PUBLIC "-//W3C//DTD SVG 1.1//EN" "http://www.w3.org/Graphics/SVG/1.1/DTD/svg11.dtd" >
<svg xmlns="http://www.w3.org/2000/svg" xmlns:xlink="http://www.w3.org/1999/xlink" version="1.1">
<metadata>
Created by FontForge 20201107 at Mon Apr  7 19:28:51 2025
 By 
Copyright (C) 2001, 2010 Hoefler &#38; Co. http://www.typography.com |DCNT
</metadata>
<defs>
<font id="GothamSSm-XLight" horiz-adv-x="860" >
  <font-face 
    font-family="GothamSSm ExtraLight"
    font-weight="250"
    font-stretch="normal"
    units-per-em="2048"
    panose-1="0 0 0 0 0 0 0 0 0 0"
    ascent="1638"
    descent="-410"
    x-height="1079"
    cap-height="1491"
    bbox="-430 -455 2429 2089"
    underline-thickness="102"
    underline-position="-204"
    unicode-range="U+0020-FB04"
  />
<missing-glyph horiz-adv-x="1024" 
d="M0 -410v2048h1024v-2048h-1024zM145 1536l367 -799l367 799h-734zM102 -156l353 770l-353 770v-1540zM922 1384l-353 -770l353 -770v1540zM512 492l-367 -799h734z" />
    <glyph glyph-name="f_f" unicode="ff" horiz-adv-x="1519" 
d="M276 0v1001h-159v78h159v121q0 184 95 279q82 82 221 82q90 0 158 -27v-82q-82 29 -158 29q-227 0 -227 -285v-117h380v-78h-380v-1001h-89zM1024 0v1001h-160v78h160v121q0 185 94 279q82 82 221 82q91 0 158 -27v-82q-82 29 -158 29q-227 0 -227 -285v-117h381v-78
h-381v-1001h-88z" />
    <glyph glyph-name="fi" unicode="fi" horiz-adv-x="1284" 
d="M276 0v1001h-159v78h159v121q0 184 95 279q82 82 221 82q90 0 158 -27v-82q-82 29 -158 29q-227 0 -227 -285v-117h380v-78h-380v-1001h-89zM961 1370v135h110v-135h-110zM973 0v1079h86v-1079h-86z" />
    <glyph glyph-name="fl" unicode="fl" horiz-adv-x="1284" 
d="M973 0v1554h86v-1554h-86zM276 0v1001h-159v78h159v121q0 184 95 279q82 82 221 82q90 0 158 -27v-82q-82 29 -158 29q-227 0 -227 -285v-117h380v-78h-380v-1001h-89z" />
    <glyph glyph-name="f_f_i" unicode="ffi" horiz-adv-x="2029" 
d="M276 0v1001h-159v78h159v121q0 184 95 279q82 82 221 82q90 0 158 -27v-82q-82 29 -158 29q-227 0 -227 -285v-117h380v-78h-380v-1001h-89zM1024 0v1001h-160v78h160v121q0 185 94 279q82 82 221 82q91 0 158 -27v-82q-82 29 -158 29q-227 0 -227 -285v-117h381v-78
h-381v-1001h-88zM1708 1370v135h111v-135h-111zM1720 0v1079h86v-1079h-86z" />
    <glyph glyph-name="f_f_l" unicode="ffl" horiz-adv-x="2029" 
d="M276 0v1001h-159v78h159v121q0 184 95 279q82 82 221 82q90 0 158 -27v-82q-82 29 -158 29q-227 0 -227 -285v-117h380v-78h-380v-1001h-89zM1024 0v1001h-160v78h160v121q0 185 94 279q82 82 221 82q91 0 158 -27v-82q-82 29 -158 29q-227 0 -227 -285v-117h381v-78
h-381v-1001h-88zM1720 0v1554h86v-1554h-86z" />
    <glyph glyph-name=".notdef" horiz-adv-x="1024" 
d="M0 -410v2048h1024v-2048h-1024zM145 1536l367 -799l367 799h-734zM102 -156l353 770l-353 770v-1540zM922 1384l-353 -770l353 -770v1540zM512 492l-367 -799h734z" />
    <glyph glyph-name=".null" horiz-adv-x="0" 
 />
    <glyph glyph-name="nonmarkingreturn" horiz-adv-x="682" 
 />
    <glyph glyph-name="space" unicode=" " horiz-adv-x="651" 
 />
    <glyph glyph-name="exclam" unicode="!" horiz-adv-x="524" 
d="M238 389l-27 928v174h102v-174l-26 -928h-49zM201 0v160h123v-160h-123z" />
    <glyph glyph-name="quotedbl" unicode="&#x22;" horiz-adv-x="829" 
d="M502 950l76 541h112v-8l-137 -533h-51zM152 950l75 541h113v-8l-137 -533h-51z" />
    <glyph glyph-name="numbersign" unicode="#" horiz-adv-x="1490" 
d="M1286 489v-81h-285l-69 -408h-86l69 408h-460l-70 -408h-84l70 408h-254v81h268l90 523h-272v82h286l68 397h84l-68 -397h461l68 397h84l-68 -397h254v-82h-268l-88 -523h270zM559 1012l-90 -523h461l90 523h-461z" />
    <glyph glyph-name="dollar" unicode="$" horiz-adv-x="1363" 
d="M1149 1313l-57 -68q-167 142 -363 162v-621q244 -52 355.5 -144.5t111.5 -250.5v-2q0 -168 -130 -278.5t-335 -110.5v-209h-84v211q-276 23 -502 227l58 68q204 -195 448 -217v637q-238 52 -344 143t-106 250v2q0 158 125.5 266.5t320.5 112.5v123h84v-127
q125 -10 224.5 -52t193.5 -122zM1106 385v2q0 122 -82.5 192t-294.5 119v-620q167 0 272 87.5t105 219.5zM291 1116v-2q0 -120 78 -190.5t282 -118.5v606q-159 0 -259.5 -85.5t-100.5 -209.5z" />
    <glyph glyph-name="percent" unicode="%" horiz-adv-x="1761" 
d="M457 743q-143 0 -235.5 113t-92.5 266v4q0 156 92.5 268.5t237.5 112.5q143 0 235 -112.5t92 -264.5v-4q0 -157 -92 -270t-237 -113zM455 1432q-103 0 -168.5 -88.5t-65.5 -213.5v-4q0 -129 68.5 -217t169.5 -88q103 0 169 87t66 214v4q0 128 -68.5 217t-170.5 89z
M846 764l534 727h95l-566 -770l-528 -721h-96zM1303 -16q-144 0 -236 111t-92 265v5q0 156 92.5 269.5t237.5 113.5q143 0 235 -113t92 -266v-4q0 -156 -92 -268.5t-237 -112.5zM1305 59q103 0 169 87t66 214v5q0 128 -69 216.5t-171 88.5t-168.5 -88.5t-66.5 -212.5v-4
q0 -129 69 -217.5t171 -88.5z" />
    <glyph glyph-name="ampersand" unicode="&#x26;" horiz-adv-x="1486" 
d="M1333 -27l-258 269q-219 -262 -504 -262q-196 0 -324 114.5t-128 288.5v4q0 155 102.5 261.5t290.5 182.5q-95 101 -135.5 181t-40.5 170v4q0 137 101 233.5t261 96.5q145 0 241.5 -93t96.5 -223v-4q0 -131 -90.5 -223.5t-283.5 -165.5l411 -432q107 149 199 379l82 -31
q-100 -245 -221 -408l270 -284zM606 862q179 66 259.5 144.5t80.5 185.5v4q0 100 -72 172t-180 72q-118 0 -193 -73.5t-75 -176.5v-4q0 -73 39.5 -145t140.5 -179zM573 59q247 0 445 242l-451 473q-356 -132 -356 -383v-4q0 -139 101.5 -233.5t260.5 -94.5z" />
    <glyph glyph-name="quotesingle" unicode="'" horiz-adv-x="479" 
d="M152 950l75 541h113v-8l-137 -533h-51z" />
    <glyph glyph-name="parenleft" unicode="(" horiz-adv-x="915" 
d="M778 -240l-37 -59q-283 161 -431 391.5t-148 517.5v2q0 286 148.5 518.5t430.5 391.5l37 -60q-524 -314 -524 -852v-2q0 -265 133.5 -480t390.5 -368z" />
    <glyph glyph-name="parenright" unicode=")" horiz-adv-x="915" 
d="M174 -299l-39 59q260 155 393.5 369t133.5 481v2q0 267 -134 482t-393 368l39 60q283 -161 431.5 -392.5t148.5 -519.5v-2q0 -286 -148.5 -517t-431.5 -390z" />
    <glyph glyph-name="asterisk" unicode="*" horiz-adv-x="940" 
d="M432 864l17 279l-234 -156l-39 68l256 125l-256 125l39 67l234 -155l-17 278h76l-16 -278l233 155l41 -67l-258 -125l258 -125l-41 -68l-233 156l16 -279h-76z" />
    <glyph glyph-name="plus" unicode="+" horiz-adv-x="1333" 
d="M623 242v467h-463v82h463v469h88v-469h463v-82h-463v-467h-88z" />
    <glyph glyph-name="comma" unicode="," horiz-adv-x="473" 
d="M150 -211l-23 45q59 29 82 67t18 99h-51v160h121v-140q0 -97 -33.5 -148.5t-113.5 -82.5z" />
    <glyph glyph-name="hyphen" unicode="-" horiz-adv-x="880" 
d="M162 584v98h557v-98h-557z" />
    <glyph glyph-name="period" unicode="." horiz-adv-x="473" 
d="M176 0v160h121v-160h-121z" />
    <glyph glyph-name="slash" unicode="/" horiz-adv-x="1071" 
d="M-27 -272l1006 1972h86l-1004 -1972h-88z" />
    <glyph glyph-name="zero" unicode="0" horiz-adv-x="1536" 
d="M766 -25q-140 0 -256.5 62t-193.5 167.5t-119.5 244t-42.5 292.5v4q0 154 43.5 293.5t121 245.5t195 169t256.5 63q140 0 257 -62t194.5 -167.5t120 -244t42.5 -292.5v-5q0 -154 -43.5 -293.5t-121.5 -245.5t-195.5 -168.5t-257.5 -62.5zM770 57q119 0 218.5 56.5
t164 152t100 218.5t35.5 257v4q0 134 -36.5 258t-102.5 220t-165.5 153.5t-217.5 57.5q-117 0 -216 -56.5t-164.5 -151.5t-101.5 -218t-36 -258v-5q0 -133 36.5 -257t102.5 -220t165.5 -153.5t217.5 -57.5z" />
    <glyph glyph-name="one" unicode="1" horiz-adv-x="724" 
d="M389 0v1405l-285 -107l-26 74l330 129h71v-1501h-90z" />
    <glyph glyph-name="two" unicode="2" horiz-adv-x="1265" 
d="M109 0v66l591 548q178 165 245 273t67 219q0 140 -103 233t-252 93q-141 0 -247 -72t-197 -213l-70 45q96 157 219 238t304 81q191 0 316.5 -114.5t125.5 -282.5v-4q0 -134 -74.5 -251t-271.5 -302l-508 -469h870v-88h-1015z" />
    <glyph glyph-name="three" unicode="3" horiz-adv-x="1277" 
d="M643 -25q-172 0 -309.5 71.5t-235.5 195.5l72 59q185 -244 475 -244q162 0 274.5 95.5t112.5 244.5v6q0 109 -63.5 186t-172.5 114.5t-253 37.5h-74l-23 52l533 612h-803v86h928v-66l-526 -600q118 -4 216.5 -31.5t174 -78t117.5 -129.5t42 -180v-5q0 -123 -68 -222
t-178.5 -151.5t-238.5 -52.5z" />
    <glyph glyph-name="four" unicode="4" horiz-adv-x="1411" 
d="M965 0v373h-828l-31 65l865 1063h82v-1048h243v-80h-243v-373h-88zM219 453h746v915z" />
    <glyph glyph-name="five" unicode="5" horiz-adv-x="1304" 
d="M651 -25q-145 0 -283 67.5t-235 172.5l66 64q98 -103 214.5 -162.5t239.5 -59.5q184 0 302 111t118 278v5q0 163 -118.5 264.5t-303.5 101.5q-177 0 -354 -96l-70 45l45 725h824v-88h-744l-37 -584q174 82 347 82q216 0 360.5 -125t144.5 -321v-4q0 -209 -144.5 -342.5
t-371.5 -133.5z" />
    <glyph glyph-name="six" unicode="6" horiz-adv-x="1382" 
d="M715 -25q-114 0 -211.5 40t-165.5 110q-95 95 -140.5 228t-45.5 349v5q0 227 72 410t210.5 291t319.5 108q120 0 222 -43.5t204 -129.5l-58 -69q-177 160 -377 160q-152 0 -267 -98t-174.5 -266t-59.5 -380v-84q64 146 187.5 229t287.5 83q138 0 255.5 -57t189 -162
t71.5 -234v-4q0 -205 -150 -345.5t-370 -140.5zM723 57q181 0 298.5 117.5t117.5 282.5v4q0 162 -120.5 269.5t-305.5 107.5q-178 0 -302 -116t-124 -267v-4q0 -165 126 -279.5t310 -114.5z" />
    <glyph glyph-name="seven" unicode="7" horiz-adv-x="1241" 
d="M334 0l692 1403h-879v88h981v-66l-694 -1425h-100z" />
    <glyph glyph-name="eight" unicode="8" horiz-adv-x="1363" 
d="M682 -20q-241 0 -396 116.5t-155 296.5v4q0 131 97.5 230.5t250.5 142.5q-130 42 -212.5 133t-82.5 217v4q0 110 70 200t183.5 138.5t244.5 48.5t244.5 -48.5t183.5 -138.5t70 -200v-4q0 -126 -82.5 -217t-212.5 -133q155 -46 251.5 -144.5t96.5 -228.5v-4
q0 -180 -155 -296.5t-396 -116.5zM682 805q111 0 202.5 38.5t146 111t54.5 165.5v4q0 131 -117 218.5t-286 87.5t-286 -86.5t-117 -217.5v-4q0 -140 117 -228.5t286 -88.5zM682 61q207 0 332 96t125 232v4q0 144 -132.5 239t-324.5 95q-193 0 -325 -94.5t-132 -237.5v-4
q0 -137 125 -233.5t332 -96.5z" />
    <glyph glyph-name="nine" unicode="9" horiz-adv-x="1382" 
d="M631 57q152 0 268.5 97t178 262t61.5 370q0 50 -2 91q-61 -148 -185 -233t-288 -85q-223 0 -370 130.5t-147 326.5v6q0 207 148.5 350.5t372.5 143.5q226 0 376 -150q91 -92 138 -230.5t47 -349.5v-4q0 -231 -75.5 -415t-213 -288t-311.5 -104q-230 0 -445 185l60 69
q187 -172 387 -172zM668 639q92 0 173 32.5t136 86.5t87 125t32 147v6q0 167 -125 282.5t-314 115.5q-181 0 -298 -121t-117 -289v-4q0 -166 120.5 -273.5t305.5 -107.5z" />
    <glyph glyph-name="colon" unicode=":" horiz-adv-x="489" 
d="M184 920v159h121v-159h-121zM184 0v160h121v-160h-121z" />
    <glyph glyph-name="semicolon" unicode=";" horiz-adv-x="489" 
d="M184 920v159h121v-159h-121zM158 -211l-23 45q60 29 83 67.5t18 98.5h-52v160h121v-140q0 -97 -33.5 -148.5t-113.5 -82.5z" />
    <glyph glyph-name="less" unicode="&#x3c;" horiz-adv-x="1333" 
d="M1128 207l-985 510v65l985 510v-96l-874 -444l874 -449v-96z" />
    <glyph glyph-name="equal" unicode="=" horiz-adv-x="1333" 
d="M195 948v88h942v-88h-942zM195 463v88h942v-88h-942z" />
    <glyph glyph-name="greater" unicode="&#x3e;" horiz-adv-x="1333" 
d="M205 207v96l874 445l-874 448v96l985 -510v-65z" />
    <glyph glyph-name="question" unicode="?" horiz-adv-x="1138" 
d="M489 389l-24 342l10 10q210 8 329.5 100.5t119.5 250.5v4q0 140 -103.5 237t-265.5 97q-240 0 -412 -230l-65 53q92 123 208.5 189.5t272.5 66.5q202 0 329.5 -118.5t127.5 -290.5v-4q0 -96 -36.5 -174t-100 -129.5t-144 -83t-174.5 -41.5l-16 -279h-56zM457 0v160h121
v-160h-121z" />
    <glyph glyph-name="at" unicode="@" horiz-adv-x="2093" 
d="M1069 -346q-196 0 -370 71.5t-298 194t-196 293.5t-72 362q0 188 71.5 361t193.5 300.5t293.5 203.5t361.5 76q188 0 357.5 -68t289.5 -182t190 -268t70 -320q0 -106 -23 -194.5t-60.5 -147t-87 -99.5t-101.5 -59t-105 -18q-112 0 -181 60t-89 157q-148 -217 -367 -217
q-157 0 -264 103t-107 267q0 109 42 207.5t110 166.5t155 108.5t175 40.5q120 0 202 -59.5t117 -151.5l33 174l84 -10l-78 -437q-16 -106 -16 -143q0 -95 48.5 -148t141.5 -53q45 0 88 16t83 52t70 87.5t48 128.5t18 169q0 119 -41 234t-117.5 213t-179 173t-234 117.5
t-273.5 42.5q-180 0 -340 -71t-272 -190.5t-177 -281t-65 -337.5q0 -182 66 -342.5t181 -275t277.5 -181t347.5 -66.5q151 0 275.5 36t246.5 110l29 -49q-258 -156 -551 -156zM958 244q140 0 252 112q62 61 97.5 142.5t35.5 167.5q0 130 -81 216.5t-205 86.5
q-145 0 -260 -115q-129 -129 -129 -315q0 -139 79.5 -217t210.5 -78z" />
    <glyph glyph-name="A" unicode="A" horiz-adv-x="1691" 
d="M102 0l701 1501h86l702 -1501h-100l-197 426h-901l-196 -426h-95zM432 510h823l-411 889z" />
    <glyph glyph-name="B" unicode="B" horiz-adv-x="1564" 
d="M233 0v1491h615q258 0 389 -131q96 -96 96 -238v-4q0 -139 -73.5 -226t-190.5 -128q72 -17 132 -45.5t109.5 -71.5t77 -104.5t27.5 -136.5v-5q0 -187 -144 -294t-390 -107h-648zM1239 1110v4q0 135 -103 214t-290 79h-520v-612h524q172 0 280.5 83t108.5 232zM1321 399v4
q0 147 -120.5 227.5t-332.5 80.5h-542v-627h557q204 0 321 84t117 231z" />
    <glyph glyph-name="C" unicode="C" horiz-adv-x="1595" 
d="M905 -25q-209 0 -378.5 102.5t-264 277.5t-94.5 386v4q0 208 95 384.5t266 281.5t380 105q186 0 317 -60.5t259 -177.5l-66 -66q-111 106 -229.5 164t-282.5 58q-181 0 -329.5 -91.5t-232 -248.5t-83.5 -344v-5q0 -142 49.5 -269.5t135 -219.5t206 -145.5t256.5 -53.5
q160 0 285.5 60t237.5 176l61 -62q-122 -122 -263 -189t-325 -67z" />
    <glyph glyph-name="D" unicode="D" horiz-adv-x="1685" 
d="M233 0v1491h492q229 0 411 -97.5t282 -266.5t100 -377v-5q0 -208 -100 -378t-282 -268.5t-411 -98.5h-492zM725 1407h-399v-1323h399q156 0 288 51t221.5 139.5t139 209t49.5 257.5v4q0 136 -50.5 257t-140.5 211t-221.5 142t-285.5 52z" />
    <glyph glyph-name="E" unicode="E" horiz-adv-x="1445" 
d="M233 0v1491h1055v-84h-962v-614h868v-84h-868v-625h972v-84h-1065z" />
    <glyph glyph-name="F" unicode="F" horiz-adv-x="1400" 
d="M233 0v1491h1045v-84h-952v-637h858v-84h-858v-686h-93z" />
    <glyph glyph-name="G" unicode="G" horiz-adv-x="1691" 
d="M913 -25q-138 0 -257.5 39t-208 109.5t-152 166t-95.5 210.5t-32 241v4q0 150 53 289.5t146.5 246.5t233.5 171t304 64q170 0 296.5 -48.5t240.5 -146.5l-60 -68q-108 88 -218 134.5t-265 46.5q-138 0 -258.5 -56.5t-202.5 -150.5t-129 -218.5t-47 -258.5v-5
q0 -195 77.5 -350.5t228 -247.5t350.5 -92q140 0 268 51t223 130v444h-514v86h602v-565q-114 -101 -263 -163.5t-321 -62.5z" />
    <glyph glyph-name="H" unicode="H" horiz-adv-x="1638" 
d="M233 0v1491h93v-698h987v698h92v-1491h-92v709h-987v-709h-93z" />
    <glyph glyph-name="I" unicode="I" horiz-adv-x="589" 
d="M248 0v1491h92v-1491h-92z" />
    <glyph glyph-name="J" unicode="J" horiz-adv-x="1183" 
d="M530 -23q-298 0 -444 285l78 47q64 -125 154.5 -186.5t218.5 -61.5q152 0 248 110t96 314v1006h92v-997q0 -259 -137 -396q-121 -121 -306 -121z" />
    <glyph glyph-name="K" unicode="K" horiz-adv-x="1527" 
d="M233 0v1491h93v-987l974 987h125l-651 -649l678 -842h-119l-622 776l-385 -383v-393h-93z" />
    <glyph glyph-name="L" unicode="L" horiz-adv-x="1312" 
d="M233 0v1491h93v-1407h886v-84h-979z" />
    <glyph glyph-name="M" unicode="M" horiz-adv-x="1867" 
d="M233 0v1491h86l615 -895l614 895h86v-1491h-92v1329l-606 -876h-6l-608 876v-1329h-89z" />
    <glyph glyph-name="N" unicode="N" horiz-adv-x="1699" 
d="M233 0v1491h86l1059 -1333v1333h88v-1491h-69l-1075 1352v-1352h-89z" />
    <glyph glyph-name="O" unicode="O" horiz-adv-x="1830" 
d="M913 -25q-165 0 -306 62.5t-236.5 168t-149 244.5t-53.5 291v4q0 153 54 292.5t149.5 246t237 169.5t306.5 63t307 -62.5t237.5 -168t149.5 -244.5t54 -291v-5q0 -153 -54 -292.5t-150 -245.5t-238.5 -169t-307.5 -63zM918 57q188 0 337.5 93t230.5 249t81 342v4
q0 185 -82.5 342t-233.5 252t-338 95t-337 -93t-232 -249t-82 -342v-5q0 -138 49 -264t134 -219.5t208.5 -149t264.5 -55.5z" />
    <glyph glyph-name="P" unicode="P" horiz-adv-x="1447" 
d="M233 0v1491h537q256 0 407.5 -120.5t151.5 -332.5v-4q0 -112 -45 -202t-123.5 -148t-184 -88.5t-228.5 -30.5h-422v-565h-93zM326 649h426q221 0 353 102.5t132 276.5v4q0 180 -127.5 277.5t-347.5 97.5h-436v-758z" />
    <glyph glyph-name="Q" unicode="Q" horiz-adv-x="1830" 
d="M1677 33l-63 -70l-213 189q-203 -177 -488 -177q-165 0 -306 62.5t-236.5 168t-149 244.5t-53.5 291v4q0 153 54 292.5t149.5 246t237 169.5t306.5 63t307 -62.5t237.5 -168t149.5 -244.5t54 -291v-5q0 -312 -199 -530zM918 57q242 0 415 152l-301 260l66 72l299 -269
q81 94 125.5 215t44.5 254v4q0 185 -82.5 342t-233.5 252t-338 95t-337 -93t-232 -249t-82 -342v-5q0 -138 49 -264t134 -219.5t208.5 -149t264.5 -55.5z" />
    <glyph glyph-name="R" unicode="R" horiz-adv-x="1564" 
d="M233 0v1491h621q279 0 424 -145q111 -111 111 -277v-4q0 -182 -124.5 -292.5t-328.5 -131.5l494 -641h-117l-479 627h-508v-627h-93zM326 711h514q207 0 331.5 95t124.5 255v4q0 160 -118 251t-328 91h-524v-696z" />
    <glyph glyph-name="S" unicode="S" horiz-adv-x="1388" 
d="M735 -20q-176 0 -321 58.5t-277 178.5l62 68q125 -115 252.5 -169.5t289.5 -54.5q178 0 290 89t112 225v4q0 86 -37 143.5t-134.5 104t-271.5 82.5q-270 54 -386.5 149.5t-116.5 261.5v4q0 165 136.5 276t344.5 111q155 0 275.5 -43t234.5 -133l-60 -73
q-203 168 -454 168q-170 0 -277.5 -86.5t-107.5 -210.5v-7q0 -85 36.5 -143t136 -106t275.5 -82q266 -57 382 -152t116 -256v-4q0 -178 -139 -290.5t-361 -112.5z" />
    <glyph glyph-name="T" unicode="T" horiz-adv-x="1347" 
d="M629 0v1407h-527v84h1143v-84h-526v-1407h-90z" />
    <glyph glyph-name="U" unicode="U" horiz-adv-x="1638" 
d="M819 -23q-133 0 -244 42.5t-192.5 123.5t-126.5 206.5t-45 283.5v858h90v-852q0 -278 139.5 -429t382.5 -151q239 0 375.5 146.5t136.5 425.5v860h92v-850q0 -319 -165.5 -491.5t-442.5 -172.5z" />
    <glyph glyph-name="V" unicode="V" horiz-adv-x="1607" 
d="M764 -10l-662 1501h101l602 -1391l604 1391h96l-661 -1501h-80z" />
    <glyph glyph-name="W" unicode="W" horiz-adv-x="2318" 
d="M643 -10l-528 1501h102l467 -1358l442 1362h70l442 -1362l469 1358h95l-527 -1501h-76l-440 1331l-442 -1331h-74z" />
    <glyph glyph-name="X" unicode="X" horiz-adv-x="1529" 
d="M1288 1491h109l-576 -731l598 -760h-110l-545 698l-543 -698h-108l596 760l-576 731h109l524 -672z" />
    <glyph glyph-name="Y" unicode="Y" horiz-adv-x="1511" 
d="M711 0v600l-637 891h114l570 -809l571 809h109l-635 -889v-602h-92z" />
    <glyph glyph-name="Z" unicode="Z" horiz-adv-x="1476" 
d="M156 0v51l1038 1358h-1001v82h1132v-51l-1038 -1358h1036v-82h-1167z" />
    <glyph glyph-name="bracketleft" unicode="[" horiz-adv-x="927" 
d="M221 -276v1767h576v-68h-494v-1632h494v-67h-576z" />
    <glyph glyph-name="backslash" unicode="\" horiz-adv-x="1071" 
d="M1010 -272l-1004 1972h86l1006 -1972h-88z" />
    <glyph glyph-name="bracketright" unicode="]" horiz-adv-x="927" 
d="M131 -276v67h494v1632h-494v68h576v-1767h-576z" />
    <glyph glyph-name="asciicircum" unicode="^" horiz-adv-x="1089" 
d="M172 1051l336 446h74l336 -446h-91l-284 366l-283 -366h-88z" />
    <glyph glyph-name="underscore" unicode="_" horiz-adv-x="1269" 
d="M8 -334v78h1254v-78h-1254z" />
    <glyph glyph-name="grave" unicode="`" horiz-adv-x="1089" 
d="M584 1268l-222 219l107 51l186 -270h-71z" />
    <glyph glyph-name="a" unicode="a" horiz-adv-x="1241" 
d="M535 -25q-78 0 -151 21.5t-132.5 62t-95 105.5t-35.5 145v4q0 165 131 257t344 92q195 0 373 -52v60q0 170 -98 258t-275 88q-165 0 -344 -88l-31 76q200 94 381 94q223 0 342 -119q109 -109 109 -305v-674h-84v203q-57 -96 -167 -162t-267 -66zM539 55q182 0 306 100
t124 246v127q-173 56 -377 56q-177 0 -278 -71t-101 -196v-4q0 -118 95.5 -188t230.5 -70z" />
    <glyph glyph-name="b" unicode="b" horiz-adv-x="1427" 
d="M758 -25q-161 0 -278.5 80t-182.5 207v-262h-86v1554h86v-743q69 131 186.5 213t274.5 82q82 0 160.5 -25.5t144.5 -75t116 -117t78.5 -156.5t28.5 -189v-4q0 -124 -43.5 -231t-116.5 -179t-169 -113t-199 -41zM750 57q192 0 318 132.5t126 347.5v4q0 212 -127.5 346.5
t-316.5 134.5q-122 0 -227 -61.5t-168.5 -172t-63.5 -245.5v-4q0 -136 64 -247.5t169 -173t226 -61.5z" />
    <glyph glyph-name="c" unicode="c" horiz-adv-x="1234" 
d="M686 -25q-151 0 -278.5 77t-200 206t-72.5 279v4q0 112 43 216t116 180.5t176 122.5t216 46q139 0 241.5 -53.5t190.5 -147.5l-61 -61q-79 84 -168 132t-205 48q-191 0 -323 -140t-132 -339v-4q0 -201 135 -343.5t328 -142.5q210 0 375 187l59 -54
q-88 -102 -192.5 -157.5t-247.5 -55.5z" />
    <glyph glyph-name="d" unicode="d" horiz-adv-x="1427" 
d="M670 -25q-103 0 -199 41t-170 113t-118 178.5t-44 229.5v4q0 123 44 230t117.5 179.5t170 114t199.5 41.5q160 0 275.5 -80t184.5 -209v737h87v-1554h-87v268q-67 -130 -184.5 -211.5t-275.5 -81.5zM678 57q121 0 225.5 61.5t168 173t63.5 247.5v4q0 135 -63 245.5
t-168 172t-226 61.5q-193 0 -319 -131.5t-126 -345.5v-4q0 -211 128.5 -347.5t316.5 -136.5z" />
    <glyph glyph-name="e" unicode="e" horiz-adv-x="1267" 
d="M668 -25q-107 0 -204 41t-170 113t-116 179t-43 231v4q0 156 67 285t185 203.5t262 74.5q116 0 211 -46t156.5 -124t95 -180.5t33.5 -216.5v-33h-918q12 -205 139.5 -328t305.5 -123q222 0 379 185l61 -54q-178 -211 -444 -211zM227 584h826q-6 88 -34.5 166t-77.5 140.5
t-125 99t-169 36.5q-172 0 -290 -125.5t-130 -316.5z" />
    <glyph glyph-name="f" unicode="f" horiz-adv-x="772" 
d="M276 0v1001h-159v78h159v121q0 184 95 279q82 82 221 82q90 0 158 -27v-82q-82 29 -158 29q-227 0 -227 -285v-117h380v-78h-380v-1001h-89z" />
    <glyph glyph-name="g" unicode="g" horiz-adv-x="1421" 
d="M682 -346q-270 0 -494 166l52 69q202 -153 444 -153q202 0 321 113t119 325v174q-71 -119 -190 -193.5t-270 -74.5q-101 0 -196 37.5t-168 103t-117 162.5t-44 207v4q0 110 44 206.5t117 163t168 104.5t196 38q155 0 271.5 -72.5t188.5 -189.5v235h86v-913
q0 -232 -137 -369q-143 -143 -391 -143zM672 164q119 0 223.5 54t169.5 153t65 219v4q0 121 -65 220.5t-169.5 153.5t-223.5 54q-184 0 -311.5 -119.5t-127.5 -306.5v-4q0 -183 129 -305.5t310 -122.5z" />
    <glyph glyph-name="h" unicode="h" horiz-adv-x="1327" 
d="M211 0v1554h86v-704q49 110 151.5 183t251.5 73q205 0 322 -127t117 -334v-645h-88v631q0 181 -96 288t-267 107q-166 0 -278.5 -117t-112.5 -293v-616h-86z" />
    <glyph glyph-name="i" unicode="i" horiz-adv-x="536" 
d="M213 1370v135h111v-135h-111zM225 0v1079h86v-1079h-86z" />
    <glyph glyph-name="j" unicode="j" horiz-adv-x="536" 
d="M213 1370v135h111v-135h-111zM86 -350q-43 0 -84 8v78q38 -6 84 -6q64 0 101.5 42t37.5 124v1183h88v-1177q0 -126 -60 -189t-167 -63z" />
    <glyph glyph-name="k" unicode="k" horiz-adv-x="1202" 
d="M211 0v1554h86v-1169l692 694h115l-483 -477l503 -602h-108l-455 541l-264 -260v-281h-86z" />
    <glyph glyph-name="l" unicode="l" horiz-adv-x="536" 
d="M225 0v1554h86v-1554h-86z" />
    <glyph glyph-name="m" unicode="m" horiz-adv-x="2031" 
d="M211 0v1079h86v-217q119 244 365 244q141 0 233.5 -72.5t138.5 -187.5q49 110 149 185t238 75q190 0 302 -123t112 -334v-649h-86v639q0 184 -89.5 285.5t-244.5 101.5q-142 0 -246 -110t-104 -287v-629h-86v643q0 181 -89.5 282t-240.5 101q-143 0 -247.5 -116.5
t-104.5 -284.5v-625h-86z" />
    <glyph glyph-name="n" unicode="n" horiz-adv-x="1327" 
d="M211 0v1079h86v-229q49 110 151.5 183t251.5 73q205 0 322 -127t117 -334v-645h-88v631q0 181 -96 288t-267 107q-166 0 -278.5 -117t-112.5 -293v-616h-86z" />
    <glyph glyph-name="o" unicode="o" horiz-adv-x="1384" 
d="M690 -25q-119 0 -223 45.5t-176.5 122t-114 179t-41.5 215.5v4q0 150 70.5 279t199.5 207.5t289 78.5q119 0 223 -45t176.5 -121.5t114 -179t41.5 -215.5v-4q0 -151 -70.5 -280t-199.5 -207.5t-289 -78.5zM694 55q132 0 238.5 66t164.5 176t58 240v4q0 132 -61 243
t-168 175.5t-236 64.5q-133 0 -239.5 -65t-165 -175t-58.5 -241v-4q0 -202 134.5 -343t332.5 -141z" />
    <glyph glyph-name="p" unicode="p" horiz-adv-x="1427" 
d="M211 -340v1419h86v-268q69 131 186.5 213t274.5 82q82 0 160.5 -25.5t144.5 -75t116 -117t78.5 -156.5t28.5 -189v-4q0 -124 -43.5 -231t-116.5 -179t-169 -113t-199 -41q-161 0 -278.5 80t-182.5 207v-602h-86zM750 57q192 0 318 132.5t126 347.5v4q0 212 -127.5 346.5
t-316.5 134.5q-122 0 -227 -61.5t-168.5 -172t-63.5 -245.5v-4q0 -136 64 -247.5t169 -173t226 -61.5z" />
    <glyph glyph-name="q" unicode="q" horiz-adv-x="1427" 
d="M1130 -340v608q-67 -130 -184.5 -211.5t-275.5 -81.5q-103 0 -199 41t-170 113t-118 178.5t-44 229.5v4q0 123 44 230t117.5 179.5t170 114t199.5 41.5q160 0 275.5 -80t184.5 -209v262h87v-1419h-87zM678 57q121 0 225.5 61.5t168 173t63.5 247.5v4q0 135 -63 245.5
t-168 172t-226 61.5q-193 0 -319 -131.5t-126 -345.5v-4q0 -211 128.5 -347.5t316.5 -136.5z" />
    <glyph glyph-name="r" unicode="r" horiz-adv-x="835" 
d="M211 0v1079h86v-317q57 149 183.5 245.5t285.5 92.5v-94h-10q-194 0 -326.5 -150t-132.5 -379v-477h-86z" />
    <glyph glyph-name="s" unicode="s" horiz-adv-x="1079" 
d="M555 -20q-117 0 -235.5 42.5t-206.5 114.5l53 70q178 -146 393 -146q121 0 203 60t82 155v5q0 40 -18 73t-43.5 55t-70.5 42t-81 31.5t-94 27.5q-49 14 -80.5 23.5t-75 26t-71 31.5t-58 37.5t-48 47t-29 58t-11.5 71.5v4q0 128 100.5 209.5t261.5 81.5q199 0 381 -119
l-47 -72q-163 111 -336 111q-121 0 -195.5 -56.5t-74.5 -144.5v-4q0 -27 9.5 -50t23 -40.5t39.5 -34.5t47.5 -28t60 -25t63.5 -22t70 -21q64 -17 110.5 -32.5t97.5 -41.5t83 -56t53 -74.5t21 -98.5v-4q0 -138 -107.5 -222.5t-269.5 -84.5z" />
    <glyph glyph-name="t" unicode="t" 
d="M563 -18q-134 0 -214.5 75t-80.5 219v725h-162v78h162v355h86v-355h385v-78h-385v-714q0 -115 58.5 -170.5t162.5 -55.5q75 0 160 39v-82q-76 -36 -172 -36z" />
    <glyph glyph-name="u" unicode="u" horiz-adv-x="1327" 
d="M627 -25q-206 0 -322.5 126.5t-116.5 332.5v645h88v-630q0 -182 94.5 -288t268.5 -106q167 0 279 116t112 292v616h86v-1079h-86v229q-50 -109 -152.5 -181.5t-250.5 -72.5z" />
    <glyph glyph-name="v" unicode="v" horiz-adv-x="1249" 
d="M590 -8l-490 1087h99l428 -983l428 983h96l-489 -1087h-72z" />
    <glyph glyph-name="w" unicode="w" horiz-adv-x="1822" 
d="M506 -8l-389 1087h96l332 -968l334 974h69l332 -974l334 968h92l-391 -1087h-74l-330 954l-331 -954h-74z" />
    <glyph glyph-name="x" unicode="x" horiz-adv-x="1212" 
d="M225 1079l381 -471l385 471h105l-434 -528l450 -551h-106l-402 492l-399 -492h-105l451 549l-432 530h106z" />
    <glyph glyph-name="y" unicode="y" horiz-adv-x="1265" 
d="M659 94l412 985h94l-477 -1112q-76 -175 -159 -245t-197 -70q-102 0 -211 51l33 76q80 -45 182 -45q89 0 150.5 58.5t129.5 211.5l-520 1075h101z" />
    <glyph glyph-name="z" unicode="z" horiz-adv-x="1161" 
d="M121 0v49l792 952h-763v78h892v-49l-792 -952h794v-78h-923z" />
    <glyph glyph-name="braceleft" unicode="{" horiz-adv-x="1021" 
d="M883 -240l-13 -61q-112 21 -190.5 52t-125.5 67.5t-73 88t-34.5 102.5t-8.5 124v170q0 130 -59 202.5t-199 72.5h-51v67h51q140 0 199 72.5t59 202.5v170q0 73 8.5 124t34.5 102t73 86.5t125.5 67t190.5 54.5l13 -62q-82 -19 -140.5 -39.5t-98 -47.5t-63 -53.5t-36 -67
t-16 -78.5t-3.5 -97v-161q0 -133 -57.5 -207t-169.5 -101q116 -30 171.5 -101t55.5 -204v-162q0 -59 3.5 -97t16 -78.5t36 -67t63 -53.5t98 -47.5t140.5 -39.5z" />
    <glyph glyph-name="bar" unicode="|" horiz-adv-x="614" 
d="M268 -272v1972h78v-1972h-78z" />
    <glyph glyph-name="braceright" unicode="}" horiz-adv-x="1021" 
d="M152 -301l-13 61q82 19 140.5 39.5t98 47.5t63 53.5t36 67t16 78.5t3.5 97v162q0 133 56.5 206.5t168.5 98.5q-114 30 -169.5 102.5t-55.5 205.5v161q0 59 -3.5 97t-16 78.5t-36 67t-63 53.5t-98 47.5t-140.5 39.5l13 62q112 -23 190.5 -54.5t125.5 -67t73 -86.5
t34.5 -102t8.5 -124v-170q0 -130 59 -202.5t199 -72.5h51v-67h-51q-140 0 -199 -72.5t-59 -202.5v-170q0 -73 -8.5 -124t-34.5 -102.5t-73 -88t-125.5 -67.5t-190.5 -52z" />
    <glyph glyph-name="asciitilde" unicode="~" horiz-adv-x="991" 
d="M633 539q-9 0 -18 1t-20 4.5t-19 6t-21.5 8t-20 8.5t-23 10.5t-22.5 10.5q-92 49 -131 49t-63 -25t-47 -90l-60 17q25 104 66 146t106 42q42 0 142 -49q92 -49 131 -49t63 24.5t47 89.5l60 -14q-25 -105 -66 -147.5t-104 -42.5z" />
    <glyph glyph-name="uni00A0" unicode="&#xa0;" horiz-adv-x="0" 
 />
    <glyph glyph-name="exclamdown" unicode="&#xa1;" horiz-adv-x="524" 
d="M201 1331v160h123v-160h-123zM211 0v174l27 928h49l26 -928v-174h-102z" />
    <glyph glyph-name="cent" unicode="&#xa2;" horiz-adv-x="1249" 
d="M862 1503l-39 -194q162 -36 307 -187l-59 -63q-132 135 -266 170l-187 -953q40 -6 82 -6q206 0 379 187l60 -54q-89 -102 -195.5 -157.5t-247.5 -55.5q-39 0 -90 7l-39 -209h-88l45 229q-166 52 -271.5 203t-105.5 334v2q0 112 43.5 216t117 180.5t176.5 122.5t216 46
q25 0 39 -2l37 184h86zM240 760v-2q0 -157 84 -283t219 -176l184 940q-6 2 -31 2q-125 0 -230 -65t-165.5 -175.5t-60.5 -240.5z" />
    <glyph glyph-name="sterling" unicode="&#xa3;" horiz-adv-x="1368" 
d="M158 0v45l186 35v579h-186v84h186v250q0 254 139 396q122 122 318 122q267 0 436 -227l-72 -55q-75 98 -158.5 149.5t-207.5 51.5q-153 0 -252 -99q-113 -113 -113 -334v-254h637v-84h-637v-577h799v-82h-1075z" />
    <glyph glyph-name="yen" unicode="&#xa5;" horiz-adv-x="1441" 
d="M227 586v80h414l-567 825h112l537 -805l539 805h106l-569 -825h415v-80h-448v-244h448v-80h-448v-262h-90v262h-449v80h449v244h-449z" />
    <glyph glyph-name="section" unicode="&#xa7;" horiz-adv-x="1370" 
d="M872 475q211 -81 211 -231v-4q0 -116 -103 -188t-275 -72q-135 0 -260 51t-207 133l65 63q73 -71 181.5 -116t226.5 -45q132 0 204 49t72 127v4q0 79 -93 133t-314 104q-227 51 -325.5 118.5t-98.5 170.5v4q0 98 93 164t251 76q-211 79 -211 231v4q0 116 103.5 188
t275.5 72q135 0 258.5 -50.5t208.5 -133.5l-66 -63q-77 72 -184 116.5t-226 44.5q-131 0 -202.5 -49t-71.5 -127v-4q0 -79 93.5 -133t314.5 -104q225 -51 323 -118.5t98 -170.5v-4q0 -98 -92 -164t-250 -76zM834 532q125 0 207.5 52t82.5 123v4q0 69 -78.5 122t-267.5 95
q-130 30 -241 30q-125 0 -207 -51.5t-82 -122.5v-4q0 -70 77 -121.5t267 -95.5q135 -31 242 -31z" />
    <glyph glyph-name="dieresis" unicode="&#xa8;" horiz-adv-x="1089" 
d="M645 1280v152h125v-152h-125zM319 1280v152h125v-152h-125z" />
    <glyph glyph-name="copyright" unicode="&#xa9;" horiz-adv-x="1792" 
d="M895 -25q-212 0 -389.5 103.5t-279 279.5t-101.5 383v4q0 155 60.5 297t163.5 246t246.5 166t301.5 62q212 0 389.5 -103.5t279 -279.5t101.5 -383v-5q0 -207 -102.5 -384t-280.5 -281.5t-389 -104.5zM895 27q198 0 363 96.5t259.5 261.5t94.5 360v5q0 194 -94.5 358
t-259 260t-361.5 96t-361.5 -97t-259 -262t-94.5 -360v-4q0 -194 93.5 -358t257.5 -260t362 -96zM907 352q-164 0 -275.5 118t-111.5 284v4q0 165 112.5 284t276.5 119q97 0 165 -33t134 -96l-53 -55q-56 52 -114.5 82.5t-133.5 30.5q-132 0 -220.5 -96.5t-88.5 -233.5v-4
q0 -136 91.5 -234t219.5 -98q80 0 137.5 28t116.5 87l49 -50q-68 -68 -137.5 -102.5t-167.5 -34.5z" />
    <glyph glyph-name="ordfeminine" unicode="&#xaa;" horiz-adv-x="874" 
d="M393 877q-92 0 -160.5 50.5t-68.5 137.5v4q0 92 71.5 143.5t190.5 51.5q95 0 186 -25v18q0 86 -49 130.5t-137 44.5q-86 0 -188 -50l-25 60q113 55 217 55q124 0 191 -67q59 -59 59 -170v-369h-68v96q-75 -110 -219 -110zM395 942q90 0 153.5 50t63.5 124v62
q-83 26 -190 26q-86 0 -136 -35.5t-50 -95.5v-4q0 -59 46.5 -93t112.5 -34zM158 641v68h532v-68h-532z" />
    <glyph glyph-name="guillemotleft" unicode="&#xab;" horiz-adv-x="1087" 
d="M881 92l-353 443v16l353 442l61 -41l-307 -407l307 -410zM467 92l-350 443v16l350 442l63 -41l-309 -407l309 -410z" />
    <glyph glyph-name="registered" unicode="&#xae;" horiz-adv-x="911" 
d="M455 766q-155 0 -263 109t-108 262v2q0 153 108.5 262.5t262.5 109.5q155 0 262.5 -108.5t107.5 -261.5v-2q0 -153 -108 -263t-262 -110zM455 805q139 0 235 98.5t96 235.5v2q0 138 -95.5 236t-235.5 98q-138 0 -234 -99t-96 -237v-2q0 -138 95 -235t235 -97zM317 961
v372h166q60 0 99 -29.5t39 -84.5v-2q0 -41 -27 -70.5t-68 -40.5l107 -145h-68l-98 139h-96v-139h-54zM371 1145h104q90 0 90 69v3q0 32 -23.5 50t-64.5 17h-106v-139z" />
    <glyph glyph-name="macron" unicode="&#xaf;" horiz-adv-x="1089" 
d="M242 1323v82h606v-82h-606z" />
    <glyph glyph-name="degree" unicode="&#xb0;" horiz-adv-x="970" 
d="M485 887q-128 0 -222.5 91.5t-94.5 215.5v4q0 123 94.5 214t222.5 91q125 0 220.5 -91.5t95.5 -213.5v-4q0 -124 -95.5 -215.5t-220.5 -91.5zM485 963q97 0 163.5 68.5t66.5 162.5v4q0 94 -66.5 161.5t-163.5 67.5t-163 -67.5t-66 -161.5v-4q0 -94 66 -162.5t163 -68.5z
" />
    <glyph glyph-name="plusminus" unicode="&#xb1;" horiz-adv-x="1333" 
d="M1159 772h-448v-438h-88v438h-449v84h449v438h88v-438h448v-84zM1159 0h-985v84h985v-84z" />
    <glyph glyph-name="two.sup" unicode="&#xb2;" 
d="M133 907v62l328 286q94 80 133 138.5t39 124.5q0 72 -53 120t-134 48q-139 0 -241 -160l-55 33q59 93 130 142.5t173 49.5q107 0 180.5 -67.5t73.5 -161.5q0 -85 -45 -150t-154 -158l-277 -239h484v-68h-582z" />
    <glyph glyph-name="three.sup" unicode="&#xb3;" 
d="M424 887q-182 0 -303 151l53 45q103 -133 252 -133q86 0 144.5 51t58.5 129q0 84 -69.5 131.5t-182.5 47.5h-55l-17 43l295 311h-438v66h530v-58l-284 -301q134 -6 214 -67t80 -170q0 -107 -81.5 -176.5t-196.5 -69.5z" />
    <glyph glyph-name="acute" unicode="&#xb4;" horiz-adv-x="1089" 
d="M434 1268l187 270l106 -51l-221 -219h-72z" />
    <glyph glyph-name="mu" unicode="&#xb5;" horiz-adv-x="1431" 
d="M1386 76v-80q-38 -12 -90 -12q-232 0 -241 241q-54 -111 -152 -180.5t-227 -69.5q-141 0 -238 71.5t-147 191.5h-2q8 -115 8 -281v-297h-86v1419h86v-614q0 -172 109.5 -291t269.5 -119q161 0 270 119t109 291v614h86v-827q0 -189 162 -189q46 0 83 13z" />
    <glyph glyph-name="paragraph" unicode="&#xb6;" horiz-adv-x="1032" 
d="M721 0v590h-16q-164 0 -294 51.5t-208 155t-78 243.5v4q0 206 152.5 326.5t396.5 120.5h139v-1491h-92z" />
    <glyph glyph-name="periodcentered" unicode="&#xb7;" horiz-adv-x="473" 
d="M176 551v160h121v-160h-121z" />
    <glyph glyph-name="cedilla" unicode="&#xb8;" horiz-adv-x="1089" 
d="M461 -311l-94 47l188 280h74z" />
    <glyph glyph-name="one.sup" unicode="&#xb9;" horiz-adv-x="700" 
d="M434 907h-72v762l-198 -74l-19 64l230 86h59v-838z" />
    <glyph glyph-name="ordmasculine" unicode="&#xba;" horiz-adv-x="874" 
d="M436 877q-131 0 -218 91t-87 218v4q0 129 88 220t221 91q130 0 216.5 -90t86.5 -217v-4q0 -129 -87.5 -221t-219.5 -92zM135 641v68h606v-68h-606zM440 946q98 0 163 70t65 170v4q0 99 -67.5 170.5t-164.5 71.5q-100 0 -163.5 -69.5t-63.5 -168.5v-4q0 -102 66 -173
t165 -71z" />
    <glyph glyph-name="guillemotright" unicode="&#xbb;" horiz-adv-x="1087" 
d="M621 92l-64 43l309 406l-309 411l64 41l350 -442v-16zM207 92l-62 43l308 406l-308 411l62 41l352 -442v-16z" />
    <glyph glyph-name="onequarter" unicode="&#xbc;" horiz-adv-x="1775" 
d="M432 670h-72v760l-198 -74l-19 63l230 86h59v-835zM313 0l525 758l491 733h82l-524 -758l-492 -733h-82zM1538 195v-199h-68v199h-413l-23 57l422 584h82v-580h123v-61h-123zM1470 256v487l-354 -487h354z" />
    <glyph glyph-name="onehalf" unicode="&#xbd;" horiz-adv-x="1775" 
d="M1065 0v61l328 287q94 81 133 138.5t39 123.5q0 72 -53 120t-134 48q-139 0 -241 -160l-56 33q60 94 130.5 143.5t172.5 49.5q106 0 180 -67.5t74 -162.5q0 -85 -44.5 -149.5t-153.5 -157.5l-277 -239h484v-68h-582zM432 670h-72v760l-198 -74l-19 63l230 86h59v-835z
M293 0l524 758l492 733h82l-525 -758l-491 -733h-82z" />
    <glyph glyph-name="threequarters" unicode="&#xbe;" horiz-adv-x="1935" 
d="M430 647q-182 0 -303 154l53 43q101 -131 252 -131q87 0 145 50t58 130q0 84 -69 130t-183 46h-55l-17 45l295 309h-438v68h530v-59l-284 -299q135 -8 215 -68.5t80 -171.5q0 -107 -82 -176.5t-197 -69.5zM463 0l524 758l492 733h82l-525 -758l-491 -733h-82zM1698 195
v-199h-68v199h-413l-23 57l422 584h82v-580h123v-61h-123zM1630 256v487l-354 -487h354z" />
    <glyph glyph-name="questiondown" unicode="&#xbf;" horiz-adv-x="1138" 
d="M561 1331v160h123v-160h-123zM582 -18q-204 0 -331.5 118.5t-127.5 290.5v4q0 96 36.5 174t100 129.5t144 83t174.5 41.5l18 279h53l25 -342l-8 -10q-210 -8 -329.5 -100.5t-119.5 -250.5v-4q0 -140 102 -237t265 -97q239 0 411 230l66 -53q-92 -124 -207 -190t-272 -66z
" />
    <glyph glyph-name="Agrave" unicode="&#xc0;" horiz-adv-x="1691" 
d="M102 0l701 1501h86l702 -1501h-100l-197 426h-901l-196 -426h-95zM432 510h823l-411 889zM885 1649h-78l-227 188l102 49z" />
    <glyph glyph-name="Aacute" unicode="&#xc1;" horiz-adv-x="1691" 
d="M102 0l701 1501h86l702 -1501h-100l-197 426h-901l-196 -426h-95zM432 510h823l-411 889zM807 1649l203 237l102 -49l-227 -188h-78z" />
    <glyph glyph-name="Acircumflex" unicode="&#xc2;" horiz-adv-x="1691" 
d="M102 0l701 1501h86l702 -1501h-100l-197 426h-901l-196 -426h-95zM432 510h823l-411 889zM584 1645l221 221h82l221 -221h-94l-170 137l-168 -137h-92z" />
    <glyph glyph-name="Atilde" unicode="&#xc3;" horiz-adv-x="1691" 
d="M102 0l701 1501h86l702 -1501h-100l-197 426h-901l-196 -426h-95zM432 510h823l-411 889zM989 1655q-41 0 -149 49q-77 41 -121 41q-38 0 -63 -23.5t-48 -83.5l-63 17q26 96 66 137t102 41q49 0 149 -49q77 -41 121 -41q39 0 63.5 23.5t47.5 82.5l63 -18
q-26 -95 -66 -135.5t-102 -40.5z" />
    <glyph glyph-name="Adieresis" unicode="&#xc4;" horiz-adv-x="1691" 
d="M102 0l701 1501h86l702 -1501h-100l-197 426h-901l-196 -426h-95zM432 510h823l-411 889zM956 1661v143h134v-143h-134zM604 1661v143h135v-143h-135z" />
    <glyph glyph-name="Aring" unicode="&#xc5;" horiz-adv-x="1691" 
d="M102 0l666 1425q-66 20 -105.5 70.5t-39.5 116.5q0 84 65 140t158 56t158 -56t65 -140q0 -65 -39.5 -115.5t-103.5 -71.5l665 -1425h-100l-197 426h-901l-196 -426h-95zM432 510h823l-411 889zM846 1473q66 0 109.5 39t43.5 100q0 60 -43.5 99.5t-109.5 39.5t-110 -39.5
t-44 -99.5q0 -61 43.5 -100t110.5 -39z" />
    <glyph glyph-name="AE" unicode="&#xc6;" horiz-adv-x="2230" 
d="M43 0l918 1491h1112v-84h-930v-614h835v-84h-835v-625h942v-84h-1034v426h-648l-262 -426h-98zM453 510h598v899h-47z" />
    <glyph glyph-name="Ccedilla" unicode="&#xc7;" horiz-adv-x="1595" 
d="M782 -311l-94 47l162 241q-194 13 -350.5 117.5t-244 274.5t-87.5 372v4q0 208 95 384.5t266 281.5t380 105q186 0 317 -60.5t259 -177.5l-66 -66q-111 106 -229.5 164t-282.5 58q-181 0 -329.5 -91.5t-232 -248.5t-83.5 -344v-5q0 -142 49.5 -269.5t135 -219.5
t206 -145.5t256.5 -53.5q160 0 285.5 60t237.5 176l61 -62q-119 -119 -253.5 -185.5t-309.5 -70.5z" />
    <glyph glyph-name="Egrave" unicode="&#xc8;" horiz-adv-x="1445" 
d="M805 1630h-78l-227 189l102 49zM233 0v1491h1055v-84h-962v-614h868v-84h-868v-625h972v-84h-1065z" />
    <glyph glyph-name="Eacute" unicode="&#xc9;" horiz-adv-x="1445" 
d="M727 1630l203 238l102 -49l-227 -189h-78zM233 0v1491h1055v-84h-962v-614h868v-84h-868v-625h972v-84h-1065z" />
    <glyph glyph-name="Ecircumflex" unicode="&#xca;" horiz-adv-x="1445" 
d="M233 0v1491h1055v-84h-962v-614h868v-84h-868v-625h972v-84h-1065zM504 1630l221 221h82l221 -221h-94l-170 137l-168 -137h-92z" />
    <glyph glyph-name="Edieresis" unicode="&#xcb;" horiz-adv-x="1445" 
d="M877 1642v144h133v-144h-133zM524 1642v144h135v-144h-135zM233 0v1491h1055v-84h-962v-614h868v-84h-868v-625h972v-84h-1065z" />
    <glyph glyph-name="Igrave" unicode="&#xcc;" horiz-adv-x="589" 
d="M248 0v1491h92v-1491h-92zM336 1630h-78l-227 189l102 49z" />
    <glyph glyph-name="Iacute" unicode="&#xcd;" horiz-adv-x="589" 
d="M248 0v1491h92v-1491h-92zM256 1630l203 238l102 -49l-227 -189h-78z" />
    <glyph glyph-name="Icircumflex" unicode="&#xce;" horiz-adv-x="589" 
d="M248 0v1491h92v-1491h-92zM35 1630l221 221h82l221 -221h-94l-170 137l-168 -137h-92z" />
    <glyph glyph-name="Idieresis" unicode="&#xcf;" horiz-adv-x="589" 
d="M248 0v1491h92v-1491h-92zM408 1642v144h133v-144h-133zM55 1642v144h135v-144h-135z" />
    <glyph glyph-name="Eth" unicode="&#xd0;" horiz-adv-x="1748" 
d="M297 0v707h-160v86h160v698h491q229 0 411 -97.5t282 -266.5t100 -377v-5q0 -208 -100 -378t-282 -268.5t-411 -98.5h-491zM897 707h-508v-623h399q156 0 288 51t221.5 139.5t139.5 209t50 257.5v4q0 109 -32 209t-93.5 182t-145.5 143t-194 94.5t-234 33.5h-399v-614
h508v-86z" />
    <glyph glyph-name="Ntilde" unicode="&#xd1;" horiz-adv-x="1699" 
d="M999 1628q-41 0 -149 49q-77 41 -121 41q-39 0 -63.5 -23.5t-47.5 -82.5l-63 16q26 96 66 137t102 41q49 0 149 -49q77 -41 121 -41q38 0 63 23.5t48 83.5l63 -19q-26 -95 -66 -135.5t-102 -40.5zM233 0v1491h86l1059 -1333v1333h88v-1491h-69l-1075 1352v-1352h-89z" />
    <glyph glyph-name="Ograve" unicode="&#xd2;" horiz-adv-x="1830" 
d="M954 1649h-77l-228 188l103 49zM913 -25q-165 0 -306 62.5t-236.5 168t-149 244.5t-53.5 291v4q0 153 54 292.5t149.5 246t237 169.5t306.5 63t307 -62.5t237.5 -168t149.5 -244.5t54 -291v-5q0 -153 -54 -292.5t-150 -245.5t-238.5 -169t-307.5 -63zM918 57
q188 0 337.5 93t230.5 249t81 342v4q0 185 -82.5 342t-233.5 252t-338 95t-337 -93t-232 -249t-82 -342v-5q0 -138 49 -264t134 -219.5t208.5 -149t264.5 -55.5z" />
    <glyph glyph-name="Oacute" unicode="&#xd3;" horiz-adv-x="1830" 
d="M874 1649l203 237l103 -49l-228 -188h-78zM913 -25q-165 0 -306 62.5t-236.5 168t-149 244.5t-53.5 291v4q0 153 54 292.5t149.5 246t237 169.5t306.5 63t307 -62.5t237.5 -168t149.5 -244.5t54 -291v-5q0 -153 -54 -292.5t-150 -245.5t-238.5 -169t-307.5 -63zM918 57
q188 0 337.5 93t230.5 249t81 342v4q0 185 -82.5 342t-233.5 252t-338 95t-337 -93t-232 -249t-82 -342v-5q0 -138 49 -264t134 -219.5t208.5 -149t264.5 -55.5z" />
    <glyph glyph-name="Ocircumflex" unicode="&#xd4;" horiz-adv-x="1830" 
d="M913 -25q-165 0 -306 62.5t-236.5 168t-149 244.5t-53.5 291v4q0 153 54 292.5t149.5 246t237 169.5t306.5 63t307 -62.5t237.5 -168t149.5 -244.5t54 -291v-5q0 -153 -54 -292.5t-150 -245.5t-238.5 -169t-307.5 -63zM918 57q188 0 337.5 93t230.5 249t81 342v4
q0 185 -82.5 342t-233.5 252t-338 95t-337 -93t-232 -249t-82 -342v-5q0 -138 49 -264t134 -219.5t208.5 -149t264.5 -55.5zM653 1649l221 221h82l222 -221h-95l-170 137l-168 -137h-92z" />
    <glyph glyph-name="Otilde" unicode="&#xd5;" horiz-adv-x="1830" 
d="M1059 1655q-42 0 -150 49q-77 41 -121 41q-38 0 -62.5 -23.5t-47.5 -83.5l-64 17q26 96 66 137t102 41q50 0 150 -49q77 -41 121 -41q38 0 62.5 23t47.5 83l64 -18q-26 -95 -66 -135.5t-102 -40.5zM913 -25q-165 0 -306 62.5t-236.5 168t-149 244.5t-53.5 291v4
q0 153 54 292.5t149.5 246t237 169.5t306.5 63t307 -62.5t237.5 -168t149.5 -244.5t54 -291v-5q0 -153 -54 -292.5t-150 -245.5t-238.5 -169t-307.5 -63zM918 57q188 0 337.5 93t230.5 249t81 342v4q0 185 -82.5 342t-233.5 252t-338 95t-337 -93t-232 -249t-82 -342v-5
q0 -138 49 -264t134 -219.5t208.5 -149t264.5 -55.5z" />
    <glyph glyph-name="Odieresis" unicode="&#xd6;" horiz-adv-x="1830" 
d="M1024 1661v143h133v-143h-133zM672 1661v143h135v-143h-135zM913 -25q-165 0 -306 62.5t-236.5 168t-149 244.5t-53.5 291v4q0 153 54 292.5t149.5 246t237 169.5t306.5 63t307 -62.5t237.5 -168t149.5 -244.5t54 -291v-5q0 -153 -54 -292.5t-150 -245.5t-238.5 -169
t-307.5 -63zM918 57q188 0 337.5 93t230.5 249t81 342v4q0 185 -82.5 342t-233.5 252t-338 95t-337 -93t-232 -249t-82 -342v-5q0 -138 49 -264t134 -219.5t208.5 -149t264.5 -55.5z" />
    <glyph glyph-name="multiply" unicode="&#xd7;" horiz-adv-x="1333" 
d="M1057 297l-393 395l-392 -395l-59 57l395 394l-395 393l63 63l392 -397l393 397l59 -59l-397 -393l397 -394z" />
    <glyph glyph-name="Oslash" unicode="&#xd8;" horiz-adv-x="1830" 
d="M1565 1501h106l-207 -221q96 -105 147.5 -242.5t51.5 -287.5v-5q0 -153 -54 -292.5t-150 -245.5t-238.5 -169t-307.5 -63q-292 0 -491 183l-158 -168h-106l209 221q-199 218 -199 530v4q0 153 54 292.5t149.5 246t237 169.5t306.5 63q293 0 492 -183zM260 750v-2
q0 -135 44 -257t124 -215l924 990q-188 170 -439 170q-141 0 -264 -54.5t-207.5 -147.5t-133 -219t-48.5 -265zM918 55q187 0 337 93t232 249.5t82 343.5v2q0 134 -44 255t-124 216l-922 -991q186 -168 439 -168z" />
    <glyph glyph-name="Ugrave" unicode="&#xd9;" horiz-adv-x="1638" 
d="M858 1622h-78l-227 188l102 50zM819 -23q-133 0 -244 42.5t-192.5 123.5t-126.5 206.5t-45 283.5v858h90v-852q0 -278 139.5 -429t382.5 -151q239 0 375.5 146.5t136.5 425.5v860h92v-850q0 -319 -165.5 -491.5t-442.5 -172.5z" />
    <glyph glyph-name="Uacute" unicode="&#xda;" horiz-adv-x="1638" 
d="M780 1622l203 238l102 -50l-227 -188h-78zM819 -23q-133 0 -244 42.5t-192.5 123.5t-126.5 206.5t-45 283.5v858h90v-852q0 -278 139.5 -429t382.5 -151q239 0 375.5 146.5t136.5 425.5v860h92v-850q0 -319 -165.5 -491.5t-442.5 -172.5z" />
    <glyph glyph-name="Ucircumflex" unicode="&#xdb;" horiz-adv-x="1638" 
d="M819 -23q-133 0 -244 42.5t-192.5 123.5t-126.5 206.5t-45 283.5v858h90v-852q0 -278 139.5 -429t382.5 -151q239 0 375.5 146.5t136.5 425.5v860h92v-850q0 -319 -165.5 -491.5t-442.5 -172.5zM557 1622l221 221h82l221 -221h-94l-170 137l-168 -137h-92z" />
    <glyph glyph-name="Udieresis" unicode="&#xdc;" horiz-adv-x="1638" 
d="M930 1634v144h133v-144h-133zM578 1634v144h135v-144h-135zM819 -23q-133 0 -244 42.5t-192.5 123.5t-126.5 206.5t-45 283.5v858h90v-852q0 -278 139.5 -429t382.5 -151q239 0 375.5 146.5t136.5 425.5v860h92v-850q0 -319 -165.5 -491.5t-442.5 -172.5z" />
    <glyph glyph-name="Yacute" unicode="&#xdd;" horiz-adv-x="1511" 
d="M711 0v600l-637 891h114l570 -809l571 809h109l-635 -889v-602h-92zM717 1622l203 238l102 -50l-227 -188h-78z" />
    <glyph glyph-name="Thorn" unicode="&#xde;" horiz-adv-x="1456" 
d="M233 0v1491h93v-277h444q256 0 407.5 -120t151.5 -332v-4q0 -147 -78 -255t-208 -161t-295 -53h-422v-289h-93zM326 373h426q221 0 353 102.5t132 278.5v4q0 180 -127 276t-348 96h-436v-757z" />
    <glyph glyph-name="germandbls" unicode="&#xdf;" horiz-adv-x="1314" 
d="M610 -4v76q218 5 342.5 89.5t124.5 239.5v5q0 146 -122 229t-345 104v74q170 47 271.5 142t101.5 237v4q0 124 -93 207.5t-233 83.5q-164 0 -262 -114.5t-98 -303.5v-1069h-86v1069q0 224 121 362t330 138q183 0 298 -107t115 -264v-4q0 -145 -96.5 -250t-241.5 -153
q92 -15 168 -45t137 -75.5t95 -112t34 -148.5v-4q0 -192 -152.5 -301t-408.5 -109z" />
    <glyph glyph-name="agrave" unicode="&#xe0;" horiz-adv-x="1241" 
d="M535 -25q-78 0 -151 21.5t-132.5 62t-95 105.5t-35.5 145v4q0 165 131 257t344 92q195 0 373 -52v60q0 170 -98 258t-275 88q-165 0 -344 -88l-31 76q200 94 381 94q223 0 342 -119q109 -109 109 -305v-674h-84v203q-57 -96 -167 -162t-267 -66zM539 55q182 0 306 100
t124 246v127q-173 56 -377 56q-177 0 -278 -71t-101 -196v-4q0 -118 95.5 -188t230.5 -70zM590 1268l-221 219l106 51l187 -270h-72z" />
    <glyph glyph-name="aacute" unicode="&#xe1;" horiz-adv-x="1241" 
d="M535 -25q-78 0 -151 21.5t-132.5 62t-95 105.5t-35.5 145v4q0 165 131 257t344 92q195 0 373 -52v60q0 170 -98 258t-275 88q-165 0 -344 -88l-31 76q200 94 381 94q223 0 342 -119q109 -109 109 -305v-674h-84v203q-57 -96 -167 -162t-267 -66zM539 55q182 0 306 100
t124 246v127q-173 56 -377 56q-177 0 -278 -71t-101 -196v-4q0 -118 95.5 -188t230.5 -70zM584 1268l186 270l107 -51l-222 -219h-71z" />
    <glyph glyph-name="acircumflex" unicode="&#xe2;" horiz-adv-x="1241" 
d="M535 -25q-78 0 -151 21.5t-132.5 62t-95 105.5t-35.5 145v4q0 165 131 257t344 92q195 0 373 -52v60q0 170 -98 258t-275 88q-165 0 -344 -88l-31 76q200 94 381 94q223 0 342 -119q109 -109 109 -305v-674h-84v203q-57 -96 -167 -162t-267 -66zM539 55q182 0 306 100
t124 246v127q-173 56 -377 56q-177 0 -278 -71t-101 -196v-4q0 -118 95.5 -188t230.5 -70zM373 1268l215 254h69l215 -254h-81l-170 155l-170 -155h-78z" />
    <glyph glyph-name="atilde" unicode="&#xe3;" horiz-adv-x="1241" 
d="M535 -25q-78 0 -151 21.5t-132.5 62t-95 105.5t-35.5 145v4q0 165 131 257t344 92q195 0 373 -52v60q0 170 -98 258t-275 88q-165 0 -344 -88l-31 76q200 94 381 94q223 0 342 -119q109 -109 109 -305v-674h-84v203q-57 -96 -167 -162t-267 -66zM539 55q182 0 306 100
t124 246v127q-173 56 -377 56q-177 0 -278 -71t-101 -196v-4q0 -118 95.5 -188t230.5 -70zM766 1274q-10 0 -22 2t-21 4.5t-24.5 9t-22.5 9.5t-27 12t-26 12q-92 49 -131 49t-63.5 -25t-47.5 -90l-59 17q25 104 66 146t104 42q43 0 143 -49q92 -49 131 -49t63.5 25t47.5 90
l59 -15q-25 -105 -66 -147.5t-104 -42.5z" />
    <glyph glyph-name="adieresis" unicode="&#xe4;" horiz-adv-x="1241" 
d="M535 -25q-78 0 -151 21.5t-132.5 62t-95 105.5t-35.5 145v4q0 165 131 257t344 92q195 0 373 -52v60q0 170 -98 258t-275 88q-165 0 -344 -88l-31 76q200 94 381 94q223 0 342 -119q109 -109 109 -305v-674h-84v203q-57 -96 -167 -162t-267 -66zM539 55q182 0 306 100
t124 246v127q-173 56 -377 56q-177 0 -278 -71t-101 -196v-4q0 -118 95.5 -188t230.5 -70zM723 1280v152h125v-152h-125zM397 1280v152h125v-152h-125z" />
    <glyph glyph-name="aring" unicode="&#xe5;" horiz-adv-x="1241" 
d="M535 -25q-78 0 -151 21.5t-132.5 62t-95 105.5t-35.5 145v4q0 165 131 257t344 92q195 0 373 -52v60q0 170 -98 258t-275 88q-165 0 -344 -88l-31 76q200 94 381 94q223 0 342 -119q109 -109 109 -305v-674h-84v203q-57 -96 -167 -162t-267 -66zM539 55q182 0 306 100
t124 246v127q-173 56 -377 56q-177 0 -278 -71t-101 -196v-4q0 -118 95.5 -188t230.5 -70zM623 1264q-89 0 -153 61.5t-64 147.5t64 147t153 61t153 -61t64 -147t-64 -147.5t-153 -61.5zM623 1319q63 0 109 45.5t46 108.5t-46 108t-109 45t-109.5 -45t-46.5 -108
t46.5 -108.5t109.5 -45.5z" />
    <glyph glyph-name="ae" unicode="&#xe6;" horiz-adv-x="2072" 
d="M535 -25q-110 0 -202 36.5t-152 114t-60 183.5v4q0 165 129.5 257t337.5 92q182 0 356 -52q1 5 2 30.5t2 29.5q-1 171 -95 258.5t-267 87.5q-91 0 -168.5 -22.5t-165.5 -65.5l-31 76q101 48 185.5 71t185.5 23q167 0 274 -73t142 -214q63 136 180.5 215.5t267.5 79.5
q151 0 265.5 -79t172.5 -207t58 -281q0 -19 -2 -33h-916q12 -205 139 -328t304 -123q224 0 381 178l59 -51q-86 -100 -191 -153.5t-253 -53.5q-140 0 -256.5 64.5t-188.5 181.5q-84 -107 -210 -176.5t-283 -69.5zM1034 584h824q-4 87 -32.5 166t-78 141t-126 98.5
t-169.5 36.5q-171 0 -288.5 -126t-129.5 -316zM539 55q140 0 258 67.5t192 172.5q-44 105 -47 237q-185 52 -358 52q-172 0 -271.5 -71.5t-99.5 -195.5v-4q0 -119 93 -188.5t233 -69.5z" />
    <glyph glyph-name="ccedilla" unicode="&#xe7;" horiz-adv-x="1234" 
d="M565 -311l-94 47l162 244q-140 11 -254.5 89.5t-179 202t-64.5 265.5v4q0 112 43 216t116 180.5t176 122.5t216 46q139 0 241.5 -53.5t190.5 -147.5l-61 -61q-79 84 -168 132t-205 48q-191 0 -323 -140t-132 -339v-4q0 -201 135 -343.5t328 -142.5q210 0 375 187l59 -54
q-85 -99 -182.5 -153t-230.5 -60z" />
    <glyph glyph-name="egrave" unicode="&#xe8;" horiz-adv-x="1267" 
d="M668 -25q-107 0 -204 41t-170 113t-116 179t-43 231v4q0 156 67 285t185 203.5t262 74.5q116 0 211 -46t156.5 -124t95 -180.5t33.5 -216.5v-33h-918q12 -205 139.5 -328t305.5 -123q222 0 379 185l61 -54q-178 -211 -444 -211zM227 584h826q-6 88 -34.5 166t-77.5 140.5
t-125 99t-169 36.5q-172 0 -290 -125.5t-130 -316.5zM616 1268l-221 219l107 51l186 -270h-72z" />
    <glyph glyph-name="eacute" unicode="&#xe9;" horiz-adv-x="1267" 
d="M610 1268l187 270l106 -51l-221 -219h-72zM668 -25q-107 0 -204 41t-170 113t-116 179t-43 231v4q0 156 67 285t185 203.5t262 74.5q116 0 211 -46t156.5 -124t95 -180.5t33.5 -216.5v-33h-918q12 -205 139.5 -328t305.5 -123q222 0 379 185l61 -54q-178 -211 -444 -211z
M227 584h826q-6 88 -34.5 166t-77.5 140.5t-125 99t-169 36.5q-172 0 -290 -125.5t-130 -316.5z" />
    <glyph glyph-name="ecircumflex" unicode="&#xea;" horiz-adv-x="1267" 
d="M399 1268l215 254h70l215 -254h-82l-170 155l-170 -155h-78zM668 -25q-107 0 -204 41t-170 113t-116 179t-43 231v4q0 156 67 285t185 203.5t262 74.5q116 0 211 -46t156.5 -124t95 -180.5t33.5 -216.5v-33h-918q12 -205 139.5 -328t305.5 -123q222 0 379 185l61 -54
q-178 -211 -444 -211zM227 584h826q-6 88 -34.5 166t-77.5 140.5t-125 99t-169 36.5q-172 0 -290 -125.5t-130 -316.5z" />
    <glyph glyph-name="edieresis" unicode="&#xeb;" horiz-adv-x="1267" 
d="M750 1280v152h124v-152h-124zM424 1280v152h125v-152h-125zM668 -25q-107 0 -204 41t-170 113t-116 179t-43 231v4q0 156 67 285t185 203.5t262 74.5q116 0 211 -46t156.5 -124t95 -180.5t33.5 -216.5v-33h-918q12 -205 139.5 -328t305.5 -123q222 0 379 185l61 -54
q-178 -211 -444 -211zM227 584h826q-6 88 -34.5 166t-77.5 140.5t-125 99t-169 36.5q-172 0 -290 -125.5t-130 -316.5z" />
    <glyph glyph-name="igrave" unicode="&#xec;" horiz-adv-x="536" 
d="M225 0v1079h86v-1079h-86zM236 1268l-222 219l107 51l186 -270h-71z" />
    <glyph glyph-name="iacute" unicode="&#xed;" horiz-adv-x="536" 
d="M229 1268l187 270l106 -51l-221 -219h-72zM225 0v1079h86v-1079h-86z" />
    <glyph glyph-name="icircumflex" unicode="&#xee;" horiz-adv-x="536" 
d="M18 1268l215 254h70l215 -254h-82l-170 155l-170 -155h-78zM225 0v1079h86v-1079h-86z" />
    <glyph glyph-name="idieresis" unicode="&#xef;" horiz-adv-x="536" 
d="M369 1280v152h125v-152h-125zM43 1280v152h125v-152h-125zM225 0v1079h86v-1079h-86z" />
    <glyph glyph-name="eth" unicode="&#xf0;" horiz-adv-x="1380" 
d="M1012 1497l-195 -106q426 -396 426 -801v-4q0 -270 -156 -440.5t-403 -170.5q-153 0 -279 75.5t-198 204.5t-72 284v4q0 118 44 220.5t117.5 172.5t170.5 110.5t201 40.5q250 0 426 -188q-96 214 -355 451l-233 -127l-39 65l211 115q-83 72 -193 151h138q79 -61 135 -110
l213 117zM692 55q196 0 327.5 141t131.5 349v4q0 197 -134.5 328t-340.5 131q-195 0 -322 -134.5t-127 -334.5v-4q0 -131 61 -241.5t168 -174.5t236 -64z" />
    <glyph glyph-name="ntilde" unicode="&#xf1;" horiz-adv-x="1327" 
d="M211 0v1079h86v-229q49 110 151.5 183t251.5 73q205 0 322 -127t117 -334v-645h-88v631q0 181 -96 288t-267 107q-166 0 -278.5 -117t-112.5 -293v-616h-86zM817 1274q-10 0 -22 2t-21 4.5t-24.5 9t-22.5 9.5t-27 12t-26 12q-92 49 -131 49t-63.5 -25t-47.5 -90l-59 17
q25 104 66 146t104 42q43 0 143 -49q92 -49 131 -49t63.5 25t47.5 90l59 -15q-25 -105 -66 -147.5t-104 -42.5z" />
    <glyph glyph-name="ograve" unicode="&#xf2;" horiz-adv-x="1384" 
d="M690 -25q-119 0 -223 45.5t-176.5 122t-114 179t-41.5 215.5v4q0 150 70.5 279t199.5 207.5t289 78.5q119 0 223 -45t176.5 -121.5t114 -179t41.5 -215.5v-4q0 -151 -70.5 -280t-199.5 -207.5t-289 -78.5zM694 55q132 0 238.5 66t164.5 176t58 240v4q0 132 -61 243
t-168 175.5t-236 64.5q-133 0 -239.5 -65t-165 -175t-58.5 -241v-4q0 -202 134.5 -343t332.5 -141zM659 1268l-221 219l107 51l186 -270h-72z" />
    <glyph glyph-name="oacute" unicode="&#xf3;" horiz-adv-x="1384" 
d="M653 1268l187 270l106 -51l-221 -219h-72zM690 -25q-119 0 -223 45.5t-176.5 122t-114 179t-41.5 215.5v4q0 150 70.5 279t199.5 207.5t289 78.5q119 0 223 -45t176.5 -121.5t114 -179t41.5 -215.5v-4q0 -151 -70.5 -280t-199.5 -207.5t-289 -78.5zM694 55
q132 0 238.5 66t164.5 176t58 240v4q0 132 -61 243t-168 175.5t-236 64.5q-133 0 -239.5 -65t-165 -175t-58.5 -241v-4q0 -202 134.5 -343t332.5 -141z" />
    <glyph glyph-name="ocircumflex" unicode="&#xf4;" horiz-adv-x="1384" 
d="M442 1268l215 254h70l215 -254h-82l-170 155l-170 -155h-78zM690 -25q-119 0 -223 45.5t-176.5 122t-114 179t-41.5 215.5v4q0 150 70.5 279t199.5 207.5t289 78.5q119 0 223 -45t176.5 -121.5t114 -179t41.5 -215.5v-4q0 -151 -70.5 -280t-199.5 -207.5t-289 -78.5z
M694 55q132 0 238.5 66t164.5 176t58 240v4q0 132 -61 243t-168 175.5t-236 64.5q-133 0 -239.5 -65t-165 -175t-58.5 -241v-4q0 -202 134.5 -343t332.5 -141z" />
    <glyph glyph-name="otilde" unicode="&#xf5;" horiz-adv-x="1384" 
d="M690 -25q-119 0 -223 45.5t-176.5 122t-114 179t-41.5 215.5v4q0 150 70.5 279t199.5 207.5t289 78.5q119 0 223 -45t176.5 -121.5t114 -179t41.5 -215.5v-4q0 -151 -70.5 -280t-199.5 -207.5t-289 -78.5zM694 55q132 0 238.5 66t164.5 176t58 240v4q0 132 -61 243
t-168 175.5t-236 64.5q-133 0 -239.5 -65t-165 -175t-58.5 -241v-4q0 -202 134.5 -343t332.5 -141zM836 1274q-9 0 -18 1t-20 4.5t-19 6t-21.5 8t-20 8.5t-23 10.5t-22.5 10.5q-92 49 -131 49t-63 -25t-47 -90l-60 17q25 104 66 146t104 42q44 0 144 -49q92 -49 131 -49
t63 25t47 90l60 -15q-25 -105 -66 -147.5t-104 -42.5z" />
    <glyph glyph-name="odieresis" unicode="&#xf6;" horiz-adv-x="1384" 
d="M793 1280v152h125v-152h-125zM467 1280v152h125v-152h-125zM690 -25q-119 0 -223 45.5t-176.5 122t-114 179t-41.5 215.5v4q0 150 70.5 279t199.5 207.5t289 78.5q119 0 223 -45t176.5 -121.5t114 -179t41.5 -215.5v-4q0 -151 -70.5 -280t-199.5 -207.5t-289 -78.5z
M694 55q132 0 238.5 66t164.5 176t58 240v4q0 132 -61 243t-168 175.5t-236 64.5q-133 0 -239.5 -65t-165 -175t-58.5 -241v-4q0 -202 134.5 -343t332.5 -141z" />
    <glyph glyph-name="divide" unicode="&#xf7;" horiz-adv-x="1333" 
d="M596 1090v165h141v-165h-141zM1174 709h-1014v82h1014v-82zM596 246v166h141v-166h-141z" />
    <glyph glyph-name="oslash" unicode="&#xf8;" horiz-adv-x="1384" 
d="M1167 1094h101l-162 -170q143 -165 143 -379v-4q0 -151 -70.5 -280t-199.5 -207.5t-289 -78.5q-209 0 -362 131l-111 -116h-102l161 168q-141 157 -141 379v4q0 150 70.5 279t199.5 207.5t289 78.5q204 0 361 -131zM694 55q133 0 239.5 65.5t165 175.5t58.5 241v2
q0 183 -113 321l-659 -690q134 -118 309 -115zM227 543v-2q0 -184 111 -320l661 688q-130 117 -309 117q-133 0 -239.5 -65.5t-165 -176t-58.5 -241.5z" />
    <glyph glyph-name="ugrave" unicode="&#xf9;" horiz-adv-x="1327" 
d="M627 -25q-206 0 -322.5 126.5t-116.5 332.5v645h88v-630q0 -182 94.5 -288t268.5 -106q167 0 279 116t112 292v616h86v-1079h-86v229q-50 -109 -152.5 -181.5t-250.5 -72.5zM618 1266l-221 219l107 51l186 -270h-72z" />
    <glyph glyph-name="uacute" unicode="&#xfa;" horiz-adv-x="1327" 
d="M614 1266l187 270l106 -51l-221 -219h-72zM627 -25q-206 0 -322.5 126.5t-116.5 332.5v645h88v-630q0 -182 94.5 -288t268.5 -106q167 0 279 116t112 292v616h86v-1079h-86v229q-50 -109 -152.5 -181.5t-250.5 -72.5z" />
    <glyph glyph-name="ucircumflex" unicode="&#xfb;" horiz-adv-x="1327" 
d="M401 1266l215 254h70l215 -254h-82l-170 155l-170 -155h-78zM627 -25q-206 0 -322.5 126.5t-116.5 332.5v645h88v-630q0 -182 94.5 -288t268.5 -106q167 0 279 116t112 292v616h86v-1079h-86v229q-50 -109 -152.5 -181.5t-250.5 -72.5z" />
    <glyph glyph-name="udieresis" unicode="&#xfc;" horiz-adv-x="1327" 
d="M752 1278v152h125v-152h-125zM426 1278v152h125v-152h-125zM627 -25q-206 0 -322.5 126.5t-116.5 332.5v645h88v-630q0 -182 94.5 -288t268.5 -106q167 0 279 116t112 292v616h86v-1079h-86v229q-50 -109 -152.5 -181.5t-250.5 -72.5z" />
    <glyph glyph-name="yacute" unicode="&#xfd;" horiz-adv-x="1265" 
d="M659 94l412 985h94l-477 -1112q-76 -175 -159 -245t-197 -70q-102 0 -211 51l33 76q80 -45 182 -45q89 0 150.5 58.5t129.5 211.5l-520 1075h101zM600 1266l186 270l107 -51l-221 -219h-72z" />
    <glyph glyph-name="thorn" unicode="&#xfe;" horiz-adv-x="1427" 
d="M211 -340v1894h86v-743q69 131 186.5 213t274.5 82q82 0 160.5 -25.5t144.5 -75t116 -117t78.5 -156.5t28.5 -189v-4q0 -124 -43.5 -231t-116.5 -179t-169 -113t-199 -41q-161 0 -278.5 80t-182.5 207v-602h-86zM750 57q192 0 318 132.5t126 347.5v4q0 212 -127.5 346.5
t-316.5 134.5q-122 0 -227 -61.5t-168.5 -172t-63.5 -245.5v-4q0 -136 64 -247.5t169 -173t226 -61.5z" />
    <glyph glyph-name="ydieresis" unicode="&#xff;" horiz-adv-x="1265" 
d="M659 94l412 985h94l-477 -1112q-76 -175 -159 -245t-197 -70q-102 0 -211 51l33 76q80 -45 182 -45q89 0 150.5 58.5t129.5 211.5l-520 1075h101zM739 1278v152h125v-152h-125zM414 1278v152h125v-152h-125z" />
    <glyph glyph-name="Amacron" unicode="&#x100;" horiz-adv-x="1691" 
d="M102 0l701 1501h86l702 -1501h-100l-197 426h-901l-196 -426h-95zM432 510h823l-411 889zM528 1704v86h635v-86h-635z" />
    <glyph glyph-name="amacron" unicode="&#x101;" horiz-adv-x="1241" 
d="M535 -25q-78 0 -151 21.5t-132.5 62t-95 105.5t-35.5 145v4q0 165 131 257t344 92q195 0 373 -52v60q0 170 -98 258t-275 88q-165 0 -344 -88l-31 76q200 94 381 94q223 0 342 -119q109 -109 109 -305v-674h-84v203q-57 -96 -167 -162t-267 -66zM539 55q182 0 306 100
t124 246v127q-173 56 -377 56q-177 0 -278 -71t-101 -196v-4q0 -118 95.5 -188t230.5 -70zM319 1323v82h607v-82h-607z" />
    <glyph glyph-name="Abreve" unicode="&#x102;" horiz-adv-x="1691" 
d="M102 0l701 1501h86l702 -1501h-100l-197 426h-901l-196 -426h-95zM432 510h823l-411 889zM846 1645q-121 0 -194.5 54t-84.5 148h76q38 -118 203 -118q162 0 203 118h75q-11 -94 -84 -148t-194 -54z" />
    <glyph glyph-name="abreve" unicode="&#x103;" horiz-adv-x="1241" 
d="M535 -25q-78 0 -151 21.5t-132.5 62t-95 105.5t-35.5 145v4q0 165 131 257t344 92q195 0 373 -52v60q0 170 -98 258t-275 88q-165 0 -344 -88l-31 76q200 94 381 94q223 0 342 -119q109 -109 109 -305v-674h-84v203q-57 -96 -167 -162t-267 -66zM539 55q182 0 306 100
t124 246v127q-173 56 -377 56q-177 0 -278 -71t-101 -196v-4q0 -118 95.5 -188t230.5 -70zM623 1264q-120 0 -194 62t-85 167h70q19 -65 71 -105t138 -40q87 0 138 40t70 105h70q-11 -105 -85.5 -167t-192.5 -62z" />
    <glyph glyph-name="Aogonek" unicode="&#x104;" horiz-adv-x="1691" 
d="M1616 -283v-63h-2q-122 4 -190 48.5t-66 117.5q0 52 31.5 97t95.5 95v2l-191 412h-901l-196 -426h-95l701 1501h86l702 -1501h-24q-64 -48 -92.5 -87.5t-28.5 -82.5q0 -99 170 -113zM432 510h823l-411 889z" />
    <glyph glyph-name="aogonek" unicode="&#x105;" horiz-adv-x="1241" 
d="M1094 -283v-63h-2q-122 4 -190 48.5t-66 117.5q0 53 32.5 100t100.5 98v2v183q-57 -96 -167 -162t-267 -66q-78 0 -151 21.5t-132.5 62t-95 105.5t-35.5 145v4q0 165 131 257t344 92q195 0 373 -52v60q0 170 -98 258t-275 88q-165 0 -344 -88l-31 76q200 94 381 94
q223 0 342 -119q109 -109 109 -305v-674h-9q-64 -48 -92 -87t-28 -83q0 -99 170 -113zM539 55q182 0 306 100t124 246v127q-173 56 -377 56q-177 0 -278 -71t-101 -196v-4q0 -118 95.5 -188t230.5 -70z" />
    <glyph glyph-name="Cacute" unicode="&#x106;" horiz-adv-x="1595" 
d="M905 -25q-209 0 -378.5 102.5t-264 277.5t-94.5 386v4q0 208 95 384.5t266 281.5t380 105q186 0 317 -60.5t259 -177.5l-66 -66q-111 106 -229.5 164t-282.5 58q-181 0 -329.5 -91.5t-232 -248.5t-83.5 -344v-5q0 -142 49.5 -269.5t135 -219.5t206 -145.5t256.5 -53.5
q160 0 285.5 60t237.5 176l61 -62q-122 -122 -263 -189t-325 -67zM858 1649l203 237l102 -49l-227 -188h-78z" />
    <glyph glyph-name="cacute" unicode="&#x107;" horiz-adv-x="1234" 
d="M643 1268l186 270l107 -51l-221 -219h-72zM686 -25q-151 0 -278.5 77t-200 206t-72.5 279v4q0 112 43 216t116 180.5t176 122.5t216 46q139 0 241.5 -53.5t190.5 -147.5l-61 -61q-79 84 -168 132t-205 48q-191 0 -323 -140t-132 -339v-4q0 -201 135 -343.5t328 -142.5
q210 0 375 187l59 -54q-88 -102 -192.5 -157.5t-247.5 -55.5z" />
    <glyph glyph-name="Cdotaccent" unicode="&#x10a;" horiz-adv-x="1595" 
d="M829 1661v143h140v-143h-140zM905 -25q-209 0 -378.5 102.5t-264 277.5t-94.5 386v4q0 208 95 384.5t266 281.5t380 105q186 0 317 -60.5t259 -177.5l-66 -66q-111 106 -229.5 164t-282.5 58q-181 0 -329.5 -91.5t-232 -248.5t-83.5 -344v-5q0 -142 49.5 -269.5
t135 -219.5t206 -145.5t256.5 -53.5q160 0 285.5 60t237.5 176l61 -62q-122 -122 -263 -189t-325 -67z" />
    <glyph glyph-name="cdotaccent" unicode="&#x10b;" horiz-adv-x="1234" 
d="M686 -25q-151 0 -278.5 77t-200 206t-72.5 279v4q0 112 43 216t116 180.5t176 122.5t216 46q139 0 241.5 -53.5t190.5 -147.5l-61 -61q-79 84 -168 132t-205 48q-191 0 -323 -140t-132 -339v-4q0 -201 135 -343.5t328 -142.5q210 0 375 187l59 -54
q-88 -102 -192.5 -157.5t-247.5 -55.5zM614 1280v152h131v-152h-131z" />
    <glyph glyph-name="Ccaron" unicode="&#x10c;" horiz-adv-x="1595" 
d="M905 -25q-209 0 -378.5 102.5t-264 277.5t-94.5 386v4q0 208 95 384.5t266 281.5t380 105q186 0 317 -60.5t259 -177.5l-66 -66q-111 106 -229.5 164t-282.5 58q-181 0 -329.5 -91.5t-232 -248.5t-83.5 -344v-5q0 -142 49.5 -269.5t135 -219.5t206 -145.5t256.5 -53.5
q160 0 285.5 60t237.5 176l61 -62q-122 -122 -263 -189t-325 -67zM1161 1870l-221 -221h-82l-221 221h94l170 -139l168 139h92z" />
    <glyph glyph-name="ccaron" unicode="&#x10d;" horiz-adv-x="1234" 
d="M930 1522l-215 -254h-70l-215 254h82l170 -158l170 158h78zM686 -25q-151 0 -278.5 77t-200 206t-72.5 279v4q0 112 43 216t116 180.5t176 122.5t216 46q139 0 241.5 -53.5t190.5 -147.5l-61 -61q-79 84 -168 132t-205 48q-191 0 -323 -140t-132 -339v-4
q0 -201 135 -343.5t328 -142.5q210 0 375 187l59 -54q-88 -102 -192.5 -157.5t-247.5 -55.5z" />
    <glyph glyph-name="Dcaron" unicode="&#x10e;" horiz-adv-x="1685" 
d="M1063 1851l-221 -221h-82l-221 221h94l170 -139l168 139h92zM233 0v1491h492q229 0 411 -97.5t282 -266.5t100 -377v-5q0 -208 -100 -378t-282 -268.5t-411 -98.5h-492zM725 1407h-399v-1323h399q156 0 288 51t221.5 139.5t139 209t49.5 257.5v4q0 136 -50.5 257
t-140.5 211t-221.5 142t-285.5 52z" />
    <glyph glyph-name="dcaron" unicode="&#x10f;" horiz-adv-x="1427" 
d="M1358 1237l37 317h106v-6l-92 -311h-51zM670 -25q-103 0 -199 41t-170 113t-118 178.5t-44 229.5v4q0 123 44 230t117.5 179.5t170 114t199.5 41.5q160 0 275.5 -80t184.5 -209v737h87v-1554h-87v268q-67 -130 -184.5 -211.5t-275.5 -81.5zM678 57q121 0 225.5 61.5
t168 173t63.5 247.5v4q0 135 -63 245.5t-168 172t-226 61.5q-193 0 -319 -131.5t-126 -345.5v-4q0 -211 128.5 -347.5t316.5 -136.5z" />
    <glyph glyph-name="Dcroat" unicode="&#x110;" horiz-adv-x="1748" 
d="M297 0v707h-160v86h160v698h491q229 0 411 -97.5t282 -266.5t100 -377v-5q0 -208 -100 -378t-282 -268.5t-411 -98.5h-491zM897 707h-508v-623h399q156 0 288 51t221.5 139.5t139.5 209t50 257.5v4q0 109 -32 209t-93.5 182t-145.5 143t-194 94.5t-234 33.5h-399v-614
h508v-86z" />
    <glyph glyph-name="dcroat" unicode="&#x111;" horiz-adv-x="1427" 
d="M735 1317v78h395v159h87v-159h149v-78h-149v-1317h-87v268q-67 -130 -184.5 -211.5t-275.5 -81.5q-103 0 -199 41t-170 113t-118 178.5t-44 229.5v4q0 123 44 230t117.5 179.5t170 114t199.5 41.5q160 0 275.5 -80t184.5 -209v500h-395zM678 57q121 0 225.5 61.5t168 173
t63.5 247.5v4q0 135 -63 245.5t-168 172t-226 61.5q-193 0 -319 -131.5t-126 -345.5v-4q0 -211 128.5 -347.5t316.5 -136.5z" />
    <glyph glyph-name="Emacron" unicode="&#x112;" horiz-adv-x="1445" 
d="M449 1686v86h634v-86h-634zM233 0v1491h1055v-84h-962v-614h868v-84h-868v-625h972v-84h-1065z" />
    <glyph glyph-name="emacron" unicode="&#x113;" horiz-adv-x="1267" 
d="M668 -25q-107 0 -204 41t-170 113t-116 179t-43 231v4q0 156 67 285t185 203.5t262 74.5q116 0 211 -46t156.5 -124t95 -180.5t33.5 -216.5v-33h-918q12 -205 139.5 -328t305.5 -123q222 0 379 185l61 -54q-178 -211 -444 -211zM227 584h826q-6 88 -34.5 166t-77.5 140.5
t-125 99t-169 36.5q-172 0 -290 -125.5t-130 -316.5zM346 1323v82h606v-82h-606z" />
    <glyph glyph-name="Ebreve" unicode="&#x114;" horiz-adv-x="1445" 
d="M766 1626q-121 0 -194.5 54.5t-84.5 148.5h76q38 -119 203 -119q162 0 203 119h75q-11 -94 -84 -148.5t-194 -54.5zM233 0v1491h1055v-84h-962v-614h868v-84h-868v-625h972v-84h-1065z" />
    <glyph glyph-name="ebreve" unicode="&#x115;" horiz-adv-x="1267" 
d="M668 -25q-107 0 -204 41t-170 113t-116 179t-43 231v4q0 156 67 285t185 203.5t262 74.5q116 0 211 -46t156.5 -124t95 -180.5t33.5 -216.5v-33h-918q12 -205 139.5 -328t305.5 -123q222 0 379 185l61 -54q-178 -211 -444 -211zM227 584h826q-6 88 -34.5 166t-77.5 140.5
t-125 99t-169 36.5q-172 0 -290 -125.5t-130 -316.5zM649 1264q-120 0 -193.5 62t-84.5 167h69q19 -65 71 -105t138 -40q87 0 138.5 40t70.5 105h70q-11 -105 -86 -167t-193 -62z" />
    <glyph glyph-name="Edotaccent" unicode="&#x116;" horiz-adv-x="1445" 
d="M696 1642v144h140v-144h-140zM233 0v1491h1055v-84h-962v-614h868v-84h-868v-625h972v-84h-1065z" />
    <glyph glyph-name="edotaccent" unicode="&#x117;" horiz-adv-x="1267" 
d="M668 -25q-107 0 -204 41t-170 113t-116 179t-43 231v4q0 156 67 285t185 203.5t262 74.5q116 0 211 -46t156.5 -124t95 -180.5t33.5 -216.5v-33h-918q12 -205 139.5 -328t305.5 -123q222 0 379 185l61 -54q-178 -211 -444 -211zM227 584h826q-6 88 -34.5 166t-77.5 140.5
t-125 99t-169 36.5q-172 0 -290 -125.5t-130 -316.5zM584 1280v152h131v-152h-131z" />
    <glyph glyph-name="Eogonek" unicode="&#x118;" horiz-adv-x="1445" 
d="M233 0v1491h1055v-84h-962v-614h868v-84h-868v-625h972v-84h-49q-64 -48 -92.5 -87.5t-28.5 -82.5q0 -99 170 -113v-63h-2q-122 4 -190 48.5t-66 117.5q0 94 109 180h-916z" />
    <glyph glyph-name="eogonek" unicode="&#x119;" horiz-adv-x="1267" 
d="M227 584h826q-6 88 -34.5 166t-77.5 140.5t-125 99t-169 36.5q-172 0 -290 -125.5t-130 -316.5zM1051 240l61 -54q-58 -64 -131 -123q-91 -74 -124.5 -123t-33.5 -100q0 -55 39.5 -83.5t130.5 -39.5v-63h-2q-122 5 -189.5 49.5t-66.5 122.5q0 89 90 170q-73 -21 -157 -21
q-107 0 -204 41t-170 113t-116 179t-43 231v4q0 156 67 285t185 203.5t262 74.5q116 0 211 -46t156.5 -124t95 -180.5t33.5 -216.5q0 -2 0.5 -16.5t-0.5 -16.5h-918q12 -205 139.5 -328t305.5 -123q222 0 379 185z" />
    <glyph glyph-name="Ecaron" unicode="&#x11a;" horiz-adv-x="1445" 
d="M1028 1851l-221 -221h-82l-221 221h94l170 -139l168 139h92zM233 0v1491h1055v-84h-962v-614h868v-84h-868v-625h972v-84h-1065z" />
    <glyph glyph-name="ecaron" unicode="&#x11b;" horiz-adv-x="1267" 
d="M899 1522l-215 -254h-70l-215 254h82l170 -158l170 158h78zM668 -25q-107 0 -204 41t-170 113t-116 179t-43 231v4q0 156 67 285t185 203.5t262 74.5q116 0 211 -46t156.5 -124t95 -180.5t33.5 -216.5v-33h-918q12 -205 139.5 -328t305.5 -123q222 0 379 185l61 -54
q-178 -211 -444 -211zM227 584h826q-6 88 -34.5 166t-77.5 140.5t-125 99t-169 36.5q-172 0 -290 -125.5t-130 -316.5z" />
    <glyph glyph-name="Gbreve" unicode="&#x11e;" horiz-adv-x="1691" 
d="M889 1645q-121 0 -194.5 54t-84.5 148h76q38 -118 203 -118q162 0 203 118h75q-11 -94 -84 -148t-194 -54zM913 -25q-138 0 -257.5 39t-208 109.5t-152 166t-95.5 210.5t-32 241v4q0 150 53 289.5t146.5 246.5t233.5 171t304 64q170 0 296.5 -48.5t240.5 -146.5l-60 -68
q-108 88 -218 134.5t-265 46.5q-138 0 -258.5 -56.5t-202.5 -150.5t-129 -218.5t-47 -258.5v-5q0 -195 77.5 -350.5t228 -247.5t350.5 -92q140 0 268 51t223 130v444h-514v86h602v-565q-114 -101 -263 -163.5t-321 -62.5z" />
    <glyph glyph-name="gbreve" unicode="&#x11f;" horiz-adv-x="1421" 
d="M682 -346q-270 0 -494 166l52 69q202 -153 444 -153q202 0 321 113t119 325v174q-71 -119 -190 -193.5t-270 -74.5q-101 0 -196 37.5t-168 103t-117 162.5t-44 207v4q0 110 44 206.5t117 163t168 104.5t196 38q155 0 271.5 -72.5t188.5 -189.5v235h86v-913
q0 -232 -137 -369q-143 -143 -391 -143zM672 164q119 0 223.5 54t169.5 153t65 219v4q0 121 -65 220.5t-169.5 153.5t-223.5 54q-184 0 -311.5 -119.5t-127.5 -306.5v-4q0 -183 129 -305.5t310 -122.5zM719 1264q-120 0 -194 62t-85 167h70q19 -65 71 -105t138 -40
q87 0 138.5 40t70.5 105h69q-11 -105 -85.5 -167t-192.5 -62z" />
    <glyph glyph-name="Gdotaccent" unicode="&#x120;" horiz-adv-x="1691" 
d="M819 1661v143h139v-143h-139zM913 -25q-138 0 -257.5 39t-208 109.5t-152 166t-95.5 210.5t-32 241v4q0 150 53 289.5t146.5 246.5t233.5 171t304 64q170 0 296.5 -48.5t240.5 -146.5l-60 -68q-108 88 -218 134.5t-265 46.5q-138 0 -258.5 -56.5t-202.5 -150.5
t-129 -218.5t-47 -258.5v-5q0 -195 77.5 -350.5t228 -247.5t350.5 -92q140 0 268 51t223 130v444h-514v86h602v-565q-114 -101 -263 -163.5t-321 -62.5z" />
    <glyph glyph-name="gdotaccent" unicode="&#x121;" horiz-adv-x="1421" 
d="M682 -346q-270 0 -494 166l52 69q202 -153 444 -153q202 0 321 113t119 325v174q-71 -119 -190 -193.5t-270 -74.5q-101 0 -196 37.5t-168 103t-117 162.5t-44 207v4q0 110 44 206.5t117 163t168 104.5t196 38q155 0 271.5 -72.5t188.5 -189.5v235h86v-913
q0 -232 -137 -369q-143 -143 -391 -143zM672 164q119 0 223.5 54t169.5 153t65 219v4q0 121 -65 220.5t-169.5 153.5t-223.5 54q-184 0 -311.5 -119.5t-127.5 -306.5v-4q0 -183 129 -305.5t310 -122.5zM653 1280v152h131v-152h-131z" />
    <glyph glyph-name="Gcommaaccent" unicode="&#x122;" horiz-adv-x="1691" 
d="M913 -25q-138 0 -257.5 39t-208 109.5t-152 166t-95.5 210.5t-32 241v4q0 150 53 289.5t146.5 246.5t233.5 171t304 64q170 0 296.5 -48.5t240.5 -146.5l-60 -68q-108 88 -218 134.5t-265 46.5q-138 0 -258.5 -56.5t-202.5 -150.5t-129 -218.5t-47 -258.5v-5
q0 -195 77.5 -350.5t228 -247.5t350.5 -92q140 0 268 51t223 130v444h-514v86h602v-565q-114 -101 -263 -163.5t-321 -62.5zM795 -455l-15 45q55 14 79 41t20 74h-58v135h131v-106q0 -83 -38 -127t-119 -62z" />
    <glyph glyph-name="gcommaaccent" unicode="&#x123;" horiz-adv-x="1421" 
d="M682 -346q-270 0 -494 166l52 69q202 -153 444 -153q202 0 321 113t119 325v174q-71 -119 -190 -193.5t-270 -74.5q-101 0 -196 37.5t-168 103t-117 162.5t-44 207v4q0 110 44 206.5t117 163t168 104.5t196 38q155 0 271.5 -72.5t188.5 -189.5v235h86v-913
q0 -232 -137 -369q-143 -143 -391 -143zM672 164q119 0 223.5 54t169.5 153t65 219v4q0 121 -65 220.5t-169.5 153.5t-223.5 54q-184 0 -311.5 -119.5t-127.5 -306.5v-4q0 -183 129 -305.5t310 -122.5zM811 1573l12 -43q-55 -18 -77 -43t-21 -72h57v-137h-129v106
q0 84 37.5 128t120.5 61z" />
    <glyph glyph-name="Hbar" unicode="&#x126;" horiz-adv-x="1728" 
d="M119 1098v78h160v315h92v-315h987v315h92v-315h160v-78h-160v-1098h-92v700h-987v-700h-92v1098h-160zM371 784h987v314h-987v-314z" />
    <glyph glyph-name="hbar" unicode="&#x127;" horiz-adv-x="1327" 
d="M690 1317h-393v-467q49 110 151.5 183t251.5 73q205 0 322 -127t117 -334v-645h-88v631q0 181 -96 288t-267 107q-166 0 -278.5 -117t-112.5 -293v-616h-86v1317h-150v78h150v159h86v-159h393v-78z" />
    <glyph glyph-name="Imacron" unicode="&#x12a;" horiz-adv-x="589" 
d="M248 0v1491h92v-1491h-92zM-20 1686v86h634v-86h-634z" />
    <glyph glyph-name="imacron" unicode="&#x12b;" horiz-adv-x="536" 
d="M225 0v1079h86v-1079h-86zM-35 1323v82h606v-82h-606z" />
    <glyph glyph-name="Ibreve" unicode="&#x12c;" horiz-adv-x="589" 
d="M248 0v1491h92v-1491h-92zM297 1626q-121 0 -194.5 54.5t-84.5 148.5h76q38 -119 203 -119q162 0 203 119h75q-11 -94 -84 -148.5t-194 -54.5z" />
    <glyph glyph-name="ibreve" unicode="&#x12d;" horiz-adv-x="536" 
d="M225 0v1079h86v-1079h-86zM268 1264q-120 0 -193.5 62t-84.5 167h69q19 -65 71 -105t138 -40q87 0 138.5 40t70.5 105h70q-11 -105 -86 -167t-193 -62z" />
    <glyph glyph-name="Iogonek" unicode="&#x12e;" horiz-adv-x="589" 
d="M248 14v1477h92v-1491h-8q-64 -48 -92.5 -87.5t-28.5 -82.5q0 -99 170 -113v-63h-2q-122 4 -190 48.5t-66 117.5q0 52 30.5 97.5t94.5 94.5v2z" />
    <glyph glyph-name="iogonek" unicode="&#x12f;" horiz-adv-x="536" 
d="M225 16v1063h86v-1079h-6q-64 -48 -92.5 -87.5t-28.5 -82.5q0 -99 170 -113v-63h-2q-122 4 -190 48.5t-66 117.5q0 52 32 98.5t97 95.5v2zM213 1370v135h111v-135h-111z" />
    <glyph glyph-name="Idotaccent" unicode="&#x130;" horiz-adv-x="589" 
d="M248 0v1491h92v-1491h-92zM227 1642v144h140v-144h-140z" />
    <glyph glyph-name="dotlessi" unicode="&#x131;" horiz-adv-x="536" 
d="M225 0v1079h86v-1079h-86z" />
    <glyph glyph-name="Kcommaaccent" unicode="&#x136;" horiz-adv-x="1527" 
d="M233 0v1491h93v-987l974 987h125l-651 -649l678 -842h-119l-622 776l-385 -383v-393h-93zM684 -442l-14 45q55 14 78.5 40.5t19.5 73.5h-57v136h131v-107q0 -83 -38 -126.5t-120 -61.5z" />
    <glyph glyph-name="kcommaaccent" unicode="&#x137;" horiz-adv-x="1202" 
d="M539 -449l-15 46q55 14 79 41t20 73h-58v135h131v-106q0 -83 -38 -127t-119 -62zM211 0v1554h86v-1169l692 694h115l-483 -477l503 -602h-108l-455 541l-264 -260v-281h-86z" />
    <glyph glyph-name="Lacute" unicode="&#x139;" horiz-adv-x="1312" 
d="M264 1630l203 238l102 -49l-227 -189h-78zM233 0v1491h93v-1407h886v-84h-979z" />
    <glyph glyph-name="lacute" unicode="&#x13a;" horiz-adv-x="536" 
d="M229 1671l203 238l103 -49l-228 -189h-78zM225 0v1554h86v-1554h-86z" />
    <glyph glyph-name="Lcommaaccent" unicode="&#x13b;" horiz-adv-x="1312" 
d="M233 0v1491h93v-1407h886v-84h-979zM618 -453l-14 45q55 14 78.5 41t19.5 74h-57v135h131v-106q0 -83 -38.5 -127t-119.5 -62z" />
    <glyph glyph-name="lcommaaccent" unicode="&#x13c;" horiz-adv-x="536" 
d="M174 -453l-14 45q55 14 78.5 41t19.5 74h-57v135h131v-106q0 -83 -38.5 -127t-119.5 -62zM225 0v1554h86v-1554h-86z" />
    <glyph glyph-name="Lcaron" unicode="&#x13d;" horiz-adv-x="1312" 
d="M233 0v1491h93v-1407h886v-84h-979zM557 1176l37 317h106v-6l-92 -311h-51z" />
    <glyph glyph-name="lcaron" unicode="&#x13e;" horiz-adv-x="536" 
d="M455 1237l37 317h106v-6l-92 -311h-51zM225 0v1554h86v-1554h-86z" />
    <glyph glyph-name="Ldot" unicode="&#x13f;" horiz-adv-x="1312" 
d="M901 688v158h129v-158h-129zM233 0v1491h93v-1407h886v-84h-979z" />
    <glyph glyph-name="ldot" unicode="&#x140;" horiz-adv-x="624" 
d="M506 700v156h129v-156h-129zM225 0v1554h86v-1554h-86z" />
    <glyph glyph-name="Lslash" unicode="&#x141;" horiz-adv-x="1374" 
d="M803 887l-418 -201v-602h889v-84h-979v643l-172 -82v94l172 80v756h90v-713l418 201v-92z" />
    <glyph glyph-name="lslash" unicode="&#x142;" horiz-adv-x="651" 
d="M532 852l-163 -90v-762h-86v713l-166 -92v94l166 90v749h86v-700l163 92v-94z" />
    <glyph glyph-name="Nacute" unicode="&#x143;" horiz-adv-x="1699" 
d="M815 1622l203 238l102 -50l-227 -188h-78zM233 0v1491h86l1059 -1333v1333h88v-1491h-69l-1075 1352v-1352h-89z" />
    <glyph glyph-name="nacute" unicode="&#x144;" horiz-adv-x="1327" 
d="M635 1268l186 270l107 -51l-221 -219h-72zM211 0v1079h86v-229q49 110 151.5 183t251.5 73q205 0 322 -127t117 -334v-645h-88v631q0 181 -96 288t-267 107q-166 0 -278.5 -117t-112.5 -293v-616h-86z" />
    <glyph glyph-name="Ncommaaccent" unicode="&#x145;" horiz-adv-x="1699" 
d="M762 -442l-14 45q55 14 78.5 40.5t19.5 73.5h-58v136h132v-107q0 -83 -38 -126.5t-120 -61.5zM233 0v1491h86l1059 -1333v1333h88v-1491h-69l-1075 1352v-1352h-89z" />
    <glyph glyph-name="ncommaaccent" unicode="&#x146;" horiz-adv-x="1327" 
d="M580 -449l-15 46q55 14 79 41t20 73h-58v135h131v-106q0 -83 -38 -127t-119 -62zM211 0v1079h86v-229q49 110 151.5 183t251.5 73q205 0 322 -127t117 -334v-645h-88v631q0 181 -96 288t-267 107q-166 0 -278.5 -117t-112.5 -293v-616h-86z" />
    <glyph glyph-name="Ncaron" unicode="&#x147;" horiz-adv-x="1699" 
d="M1118 1843l-221 -221h-82l-221 221h94l170 -139l168 139h92zM233 0v1491h86l1059 -1333v1333h88v-1491h-69l-1075 1352v-1352h-89z" />
    <glyph glyph-name="ncaron" unicode="&#x148;" horiz-adv-x="1327" 
d="M924 1522l-215 -254h-70l-215 254h82l170 -158l170 158h78zM211 0v1079h86v-229q49 110 151.5 183t251.5 73q205 0 322 -127t117 -334v-645h-88v631q0 181 -96 288t-267 107q-166 0 -278.5 -117t-112.5 -293v-616h-86z" />
    <glyph glyph-name="Omacron" unicode="&#x14c;" horiz-adv-x="1830" 
d="M598 1704v86h635v-86h-635zM913 -25q-165 0 -306 62.5t-236.5 168t-149 244.5t-53.5 291v4q0 153 54 292.5t149.5 246t237 169.5t306.5 63t307 -62.5t237.5 -168t149.5 -244.5t54 -291v-5q0 -153 -54 -292.5t-150 -245.5t-238.5 -169t-307.5 -63zM918 57q188 0 337.5 93
t230.5 249t81 342v4q0 185 -82.5 342t-233.5 252t-338 95t-337 -93t-232 -249t-82 -342v-5q0 -138 49 -264t134 -219.5t208.5 -149t264.5 -55.5z" />
    <glyph glyph-name="omacron" unicode="&#x14d;" horiz-adv-x="1384" 
d="M389 1323v82h606v-82h-606zM690 -25q-119 0 -223 45.5t-176.5 122t-114 179t-41.5 215.5v4q0 150 70.5 279t199.5 207.5t289 78.5q119 0 223 -45t176.5 -121.5t114 -179t41.5 -215.5v-4q0 -151 -70.5 -280t-199.5 -207.5t-289 -78.5zM694 55q132 0 238.5 66t164.5 176
t58 240v4q0 132 -61 243t-168 175.5t-236 64.5q-133 0 -239.5 -65t-165 -175t-58.5 -241v-4q0 -202 134.5 -343t332.5 -141z" />
    <glyph glyph-name="Obreve" unicode="&#x14e;" horiz-adv-x="1830" 
d="M915 1645q-121 0 -194 54t-84 148h76q38 -118 202 -118q162 0 203 118h76q-11 -94 -84.5 -148t-194.5 -54zM913 -25q-165 0 -306 62.5t-236.5 168t-149 244.5t-53.5 291v4q0 153 54 292.5t149.5 246t237 169.5t306.5 63t307 -62.5t237.5 -168t149.5 -244.5t54 -291v-5
q0 -153 -54 -292.5t-150 -245.5t-238.5 -169t-307.5 -63zM918 57q188 0 337.5 93t230.5 249t81 342v4q0 185 -82.5 342t-233.5 252t-338 95t-337 -93t-232 -249t-82 -342v-5q0 -138 49 -264t134 -219.5t208.5 -149t264.5 -55.5z" />
    <glyph glyph-name="obreve" unicode="&#x14f;" horiz-adv-x="1384" 
d="M690 -25q-119 0 -223 45.5t-176.5 122t-114 179t-41.5 215.5v4q0 150 70.5 279t199.5 207.5t289 78.5q119 0 223 -45t176.5 -121.5t114 -179t41.5 -215.5v-4q0 -151 -70.5 -280t-199.5 -207.5t-289 -78.5zM694 55q132 0 238.5 66t164.5 176t58 240v4q0 132 -61 243
t-168 175.5t-236 64.5q-133 0 -239.5 -65t-165 -175t-58.5 -241v-4q0 -202 134.5 -343t332.5 -141zM692 1264q-120 0 -193.5 62t-84.5 167h69q19 -65 71 -105t138 -40q87 0 138.5 40t70.5 105h70q-11 -105 -86 -167t-193 -62z" />
    <glyph glyph-name="Ohungarumlaut" unicode="&#x150;" horiz-adv-x="1830" 
d="M913 -25q-165 0 -306 62.5t-236.5 168t-149 244.5t-53.5 291v4q0 153 54 292.5t149.5 246t237 169.5t306.5 63t307 -62.5t237.5 -168t149.5 -244.5t54 -291v-5q0 -153 -54 -292.5t-150 -245.5t-238.5 -169t-307.5 -63zM918 57q188 0 337.5 93t230.5 249t81 342v4
q0 185 -82.5 342t-233.5 252t-338 95t-337 -93t-232 -249t-82 -342v-5q0 -138 49 -264t134 -219.5t208.5 -149t264.5 -55.5zM713 1649l202 237l103 -49l-225 -188h-80zM999 1649l203 237l103 -49l-226 -188h-80z" />
    <glyph glyph-name="ohungarumlaut" unicode="&#x151;" horiz-adv-x="1384" 
d="M772 1268l189 270l96 -51l-213 -219h-72zM504 1268l188 270l99 -51l-213 -219h-74zM690 -25q-119 0 -223 45.5t-176.5 122t-114 179t-41.5 215.5v4q0 150 70.5 279t199.5 207.5t289 78.5q119 0 223 -45t176.5 -121.5t114 -179t41.5 -215.5v-4q0 -151 -70.5 -280
t-199.5 -207.5t-289 -78.5zM694 55q132 0 238.5 66t164.5 176t58 240v4q0 132 -61 243t-168 175.5t-236 64.5q-133 0 -239.5 -65t-165 -175t-58.5 -241v-4q0 -202 134.5 -343t332.5 -141z" />
    <glyph glyph-name="OE" unicode="&#x152;" horiz-adv-x="2486" 
d="M2341 0h-1380q-229 0 -411 97.5t-282 266.5t-100 377v4q0 156 59 293.5t162 237t251.5 157.5t320.5 58h1368v-84h-930v-614h835v-84h-835v-625h942v-84zM961 84h346v1323h-349q-206 0 -366 -88t-245 -237t-85 -332v-5q0 -136 50.5 -257t140.5 -210.5t222 -141.5t286 -52z
" />
    <glyph glyph-name="oe" unicode="&#x153;" horiz-adv-x="2285" 
d="M688 -25q-118 0 -222 45.5t-176 122t-113.5 179t-41.5 215.5v4q0 150 71 279t200 207.5t286 78.5q178 0 312 -97t194 -257q55 162 181 258t290 96q151 0 265.5 -79t172.5 -207t58 -281q0 -19 -2 -33h-918q12 -204 140 -327.5t303 -123.5q226 0 383 178l59 -51
q-85 -99 -190.5 -153t-251.5 -54q-166 0 -302 97t-188 260q-59 -160 -194.5 -258.5t-315.5 -98.5zM1245 584h826q-6 88 -34.5 166t-77.5 140.5t-125 99t-169 36.5q-172 0 -290 -125.5t-130 -316.5zM694 55q132 0 238.5 66t164.5 176t58 240v4q0 132 -61 243t-168 175.5
t-236 64.5q-133 0 -239.5 -65t-165 -175t-58.5 -241v-4q0 -202 134.5 -343t332.5 -141z" />
    <glyph glyph-name="Racute" unicode="&#x154;" horiz-adv-x="1564" 
d="M233 0v1491h621q279 0 424 -145q111 -111 111 -277v-4q0 -182 -124.5 -292.5t-328.5 -131.5l494 -641h-117l-479 627h-508v-627h-93zM326 711h514q207 0 331.5 95t124.5 255v4q0 160 -118 251t-328 91h-524v-696zM719 1630l203 238l102 -49l-227 -189h-78z" />
    <glyph glyph-name="racute" unicode="&#x155;" horiz-adv-x="835" 
d="M410 1268l186 270l106 -51l-221 -219h-71zM211 0v1079h86v-317q57 149 183.5 245.5t285.5 92.5v-94h-10q-194 0 -326.5 -150t-132.5 -379v-477h-86z" />
    <glyph glyph-name="Rcommaaccent" unicode="&#x156;" horiz-adv-x="1564" 
d="M233 0v1491h621q279 0 424 -145q111 -111 111 -277v-4q0 -182 -124.5 -292.5t-328.5 -131.5l494 -641h-117l-479 627h-508v-627h-93zM326 711h514q207 0 331.5 95t124.5 255v4q0 160 -118 251t-328 91h-524v-696zM664 -442l-15 45q55 14 79 41t20 73h-58v136h131v-107
q0 -83 -38 -126.5t-119 -61.5z" />
    <glyph glyph-name="rcommaaccent" unicode="&#x157;" horiz-adv-x="835" 
d="M176 -453l-14 45q55 14 78.5 41t19.5 74h-57v135h131v-106q0 -83 -38.5 -127t-119.5 -62zM211 0v1079h86v-317q57 149 183.5 245.5t285.5 92.5v-94h-10q-194 0 -326.5 -150t-132.5 -379v-477h-86z" />
    <glyph glyph-name="Rcaron" unicode="&#x158;" horiz-adv-x="1564" 
d="M1020 1851l-221 -221h-82l-221 221h94l170 -139l168 139h92zM233 0v1491h621q279 0 424 -145q111 -111 111 -277v-4q0 -182 -124.5 -292.5t-328.5 -131.5l494 -641h-117l-479 627h-508v-627h-93zM326 711h514q207 0 331.5 95t124.5 255v4q0 160 -118 251t-328 91h-524
v-696z" />
    <glyph glyph-name="rcaron" unicode="&#x159;" horiz-adv-x="835" 
d="M698 1522l-215 -254h-69l-215 254h82l170 -158l170 158h77zM211 0v1079h86v-317q57 149 183.5 245.5t285.5 92.5v-94h-10q-194 0 -326.5 -150t-132.5 -379v-477h-86z" />
    <glyph glyph-name="Sacute" unicode="&#x15a;" horiz-adv-x="1388" 
d="M735 -20q-176 0 -321 58.5t-277 178.5l62 68q125 -115 252.5 -169.5t289.5 -54.5q178 0 290 89t112 225v4q0 86 -37 143.5t-134.5 104t-271.5 82.5q-270 54 -386.5 149.5t-116.5 261.5v4q0 165 136.5 276t344.5 111q155 0 275.5 -43t234.5 -133l-60 -73
q-203 168 -454 168q-170 0 -277.5 -86.5t-107.5 -210.5v-7q0 -85 36.5 -143t136 -106t275.5 -82q266 -57 382 -152t116 -256v-4q0 -178 -139 -290.5t-361 -112.5zM674 1649l203 237l102 -49l-227 -188h-78z" />
    <glyph glyph-name="sacute" unicode="&#x15b;" horiz-adv-x="1079" 
d="M506 1268l186 270l107 -51l-221 -219h-72zM555 -20q-117 0 -235.5 42.5t-206.5 114.5l53 70q178 -146 393 -146q121 0 203 60t82 155v5q0 40 -18 73t-43.5 55t-70.5 42t-81 31.5t-94 27.5q-49 14 -80.5 23.5t-75 26t-71 31.5t-58 37.5t-48 47t-29 58t-11.5 71.5v4
q0 128 100.5 209.5t261.5 81.5q199 0 381 -119l-47 -72q-163 111 -336 111q-121 0 -195.5 -56.5t-74.5 -144.5v-4q0 -27 9.5 -50t23 -40.5t39.5 -34.5t47.5 -28t60 -25t63.5 -22t70 -21q64 -17 110.5 -32.5t97.5 -41.5t83 -56t53 -74.5t21 -98.5v-4q0 -138 -107.5 -222.5
t-269.5 -84.5z" />
    <glyph glyph-name="Scedilla" unicode="&#x15e;" horiz-adv-x="1388" 
d="M612 -311l-94 47l164 246q-157 7 -289.5 65t-255.5 170l62 68q125 -115 252.5 -169.5t289.5 -54.5q178 0 290 89t112 225v4q0 86 -37 143.5t-134.5 104t-271.5 82.5q-270 54 -386.5 149.5t-116.5 261.5v4q0 165 136.5 276t344.5 111q155 0 275.5 -43t234.5 -133l-60 -73
q-203 168 -454 168q-170 0 -277.5 -86.5t-107.5 -210.5v-7q0 -85 36.5 -143t136 -106t275.5 -82q266 -57 382 -152t116 -256v-4q0 -174 -130 -285t-343 -118z" />
    <glyph glyph-name="scedilla" unicode="&#x15f;" horiz-adv-x="1079" 
d="M424 -311l-94 47l166 248q-105 11 -205 50.5t-178 102.5l53 70q178 -146 393 -146q121 0 203 60t82 155v5q0 40 -18 73t-43.5 55t-70.5 42t-81 31.5t-94 27.5q-49 14 -80.5 23.5t-75 26t-71 31.5t-58 37.5t-48 47t-29 58t-11.5 71.5v4q0 128 100.5 209.5t261.5 81.5
q199 0 381 -119l-47 -72q-163 111 -336 111q-121 0 -195.5 -56.5t-74.5 -144.5v-4q0 -27 9.5 -50t23 -40.5t39.5 -34.5t47.5 -28t60 -25t63.5 -22t70 -21q64 -17 110.5 -32.5t97.5 -41.5t83 -56t53 -74.5t21 -98.5v-4q0 -132 -102 -217t-257 -90z" />
    <glyph glyph-name="Scaron" unicode="&#x160;" horiz-adv-x="1388" 
d="M735 -20q-176 0 -321 58.5t-277 178.5l62 68q125 -115 252.5 -169.5t289.5 -54.5q178 0 290 89t112 225v4q0 86 -37 143.5t-134.5 104t-271.5 82.5q-270 54 -386.5 149.5t-116.5 261.5v4q0 165 136.5 276t344.5 111q155 0 275.5 -43t234.5 -133l-60 -73
q-203 168 -454 168q-170 0 -277.5 -86.5t-107.5 -210.5v-7q0 -85 36.5 -143t136 -106t275.5 -82q266 -57 382 -152t116 -256v-4q0 -178 -139 -290.5t-361 -112.5zM975 1870l-221 -221h-82l-221 221h94l170 -139l168 139h92z" />
    <glyph glyph-name="scaron" unicode="&#x161;" horiz-adv-x="1079" 
d="M795 1522l-215 -254h-70l-215 254h82l170 -158l170 158h78zM555 -20q-117 0 -235.5 42.5t-206.5 114.5l53 70q178 -146 393 -146q121 0 203 60t82 155v5q0 40 -18 73t-43.5 55t-70.5 42t-81 31.5t-94 27.5q-49 14 -80.5 23.5t-75 26t-71 31.5t-58 37.5t-48 47t-29 58
t-11.5 71.5v4q0 128 100.5 209.5t261.5 81.5q199 0 381 -119l-47 -72q-163 111 -336 111q-121 0 -195.5 -56.5t-74.5 -144.5v-4q0 -27 9.5 -50t23 -40.5t39.5 -34.5t47.5 -28t60 -25t63.5 -22t70 -21q64 -17 110.5 -32.5t97.5 -41.5t83 -56t53 -74.5t21 -98.5v-4
q0 -138 -107.5 -222.5t-269.5 -84.5z" />
    <glyph glyph-name="Tcommaaccent" unicode="&#x162;" horiz-adv-x="1347" 
d="M629 0v1407h-527v84h1143v-84h-526v-1407h-90zM580 -453l-15 45q55 14 79 41t20 74h-58v135h131v-106q0 -83 -38 -127t-119 -62z" />
    <glyph glyph-name="Tcommaaccent" unicode="&#x21a;" horiz-adv-x="1347" 
d="M629 0v1407h-527v84h1143v-84h-526v-1407h-90zM580 -453l-15 45q55 14 79 41t20 74h-58v135h131v-106q0 -83 -38 -127t-119 -62z" />
    <glyph glyph-name="tcommaaccent" unicode="&#x163;" 
d="M391 -455l-14 45q55 14 78.5 41t19.5 74h-57v135h131v-106q0 -83 -38.5 -127t-119.5 -62zM563 -18q-134 0 -214.5 75t-80.5 219v725h-162v78h162v355h86v-355h385v-78h-385v-714q0 -115 58.5 -170.5t162.5 -55.5q75 0 160 39v-82q-76 -36 -172 -36z" />
    <glyph glyph-name="tcommaaccent" unicode="&#x21b;" 
d="M391 -455l-14 45q55 14 78.5 41t19.5 74h-57v135h131v-106q0 -83 -38.5 -127t-119.5 -62zM563 -18q-134 0 -214.5 75t-80.5 219v725h-162v78h162v355h86v-355h385v-78h-385v-714q0 -115 58.5 -170.5t162.5 -55.5q75 0 160 39v-82q-76 -36 -172 -36z" />
    <glyph glyph-name="Tcaron" unicode="&#x164;" horiz-adv-x="1347" 
d="M936 1851l-221 -221h-82l-221 221h94l170 -139l168 139h92zM629 0v1407h-527v84h1143v-84h-526v-1407h-90z" />
    <glyph glyph-name="tcaron" unicode="&#x165;" 
d="M571 1237l37 317h107v-6l-92 -311h-52zM563 -18q-134 0 -214.5 75t-80.5 219v725h-162v78h162v355h86v-355h385v-78h-385v-714q0 -115 58.5 -170.5t162.5 -55.5q75 0 160 39v-82q-76 -36 -172 -36z" />
    <glyph glyph-name="Umacron" unicode="&#x16a;" horiz-adv-x="1638" 
d="M502 1677v86h635v-86h-635zM819 -23q-133 0 -244 42.5t-192.5 123.5t-126.5 206.5t-45 283.5v858h90v-852q0 -278 139.5 -429t382.5 -151q239 0 375.5 146.5t136.5 425.5v860h92v-850q0 -319 -165.5 -491.5t-442.5 -172.5z" />
    <glyph glyph-name="umacron" unicode="&#x16b;" horiz-adv-x="1327" 
d="M627 -25q-206 0 -322.5 126.5t-116.5 332.5v645h88v-630q0 -182 94.5 -288t268.5 -106q167 0 279 116t112 292v616h86v-1079h-86v229q-50 -109 -152.5 -181.5t-250.5 -72.5zM348 1321v82h606v-82h-606z" />
    <glyph glyph-name="Ubreve" unicode="&#x16c;" horiz-adv-x="1638" 
d="M819 1618q-121 0 -194 54.5t-84 148.5h75q38 -119 203 -119q162 0 203 119h76q-11 -94 -84.5 -148.5t-194.5 -54.5zM819 -23q-133 0 -244 42.5t-192.5 123.5t-126.5 206.5t-45 283.5v858h90v-852q0 -278 139.5 -429t382.5 -151q239 0 375.5 146.5t136.5 425.5v860h92
v-850q0 -319 -165.5 -491.5t-442.5 -172.5z" />
    <glyph glyph-name="ubreve" unicode="&#x16d;" horiz-adv-x="1327" 
d="M627 -25q-206 0 -322.5 126.5t-116.5 332.5v645h88v-630q0 -182 94.5 -288t268.5 -106q167 0 279 116t112 292v616h86v-1079h-86v229q-50 -109 -152.5 -181.5t-250.5 -72.5zM651 1262q-120 0 -193.5 62t-84.5 167h69q19 -65 71 -105t138 -40q87 0 138.5 40t70.5 105h70
q-11 -105 -86 -167t-193 -62z" />
    <glyph glyph-name="Uring" unicode="&#x16e;" horiz-adv-x="1638" 
d="M819 -23q-133 0 -244 42.5t-192.5 123.5t-126.5 206.5t-45 283.5v858h90v-852q0 -278 139.5 -429t382.5 -151q239 0 375.5 146.5t136.5 425.5v860h92v-850q0 -319 -165.5 -491.5t-442.5 -172.5zM819 1595q-93 0 -158 56.5t-65 140.5q0 85 65 142t158 57t158 -57t65 -142
q0 -84 -65 -140.5t-158 -56.5zM819 1653q66 0 110 39.5t44 99.5q0 61 -44 101t-110 40t-109.5 -40t-43.5 -101q0 -60 43.5 -99.5t109.5 -39.5z" />
    <glyph glyph-name="uring" unicode="&#x16f;" horiz-adv-x="1327" 
d="M651 1241q-89 0 -153 61.5t-64 147.5t64 147.5t153 61.5t153 -61.5t64 -147.5t-64 -147.5t-153 -61.5zM651 1296q63 0 109.5 45.5t46.5 108.5t-46.5 108.5t-109.5 45.5t-109 -45.5t-46 -108.5t46 -108.5t109 -45.5zM627 -25q-206 0 -322.5 126.5t-116.5 332.5v645h88
v-630q0 -182 94.5 -288t268.5 -106q167 0 279 116t112 292v616h86v-1079h-86v229q-50 -109 -152.5 -181.5t-250.5 -72.5z" />
    <glyph glyph-name="Uhungarumlaut" unicode="&#x170;" horiz-adv-x="1638" 
d="M819 -23q-133 0 -244 42.5t-192.5 123.5t-126.5 206.5t-45 283.5v858h90v-852q0 -278 139.5 -429t382.5 -151q239 0 375.5 146.5t136.5 425.5v860h92v-850q0 -319 -165.5 -491.5t-442.5 -172.5zM616 1622l203 238l103 -50l-226 -188h-80zM903 1622l203 238l102 -50
l-225 -188h-80z" />
    <glyph glyph-name="uhungarumlaut" unicode="&#x171;" horiz-adv-x="1327" 
d="M627 -25q-206 0 -322.5 126.5t-116.5 332.5v645h88v-630q0 -182 94.5 -288t268.5 -106q167 0 279 116t112 292v616h86v-1079h-86v229q-50 -109 -152.5 -181.5t-250.5 -72.5zM731 1266l189 270l96 -51l-213 -219h-72zM463 1266l188 270l99 -51l-213 -219h-74z" />
    <glyph glyph-name="Uogonek" unicode="&#x172;" horiz-adv-x="1638" 
d="M940 -283v-63h-2q-122 4 -190 48.5t-66 117.5q0 83 86 160q-255 18 -406 185.5t-151 467.5v858h90v-852q0 -278 139.5 -429t382.5 -151q239 0 375.5 146.5t136.5 425.5v860h92v-850q0 -306 -151 -474.5t-410 -186.5q-51 -43 -73.5 -76.5t-22.5 -73.5q0 -99 170 -113z" />
    <glyph glyph-name="uogonek" unicode="&#x173;" horiz-adv-x="1327" 
d="M627 -25q-206 0 -322.5 126.5t-116.5 332.5v645h88v-630q0 -182 94.5 -288t268.5 -106q167 0 279 116t112 292v616h86v-1079h-8q-64 -48 -92.5 -87.5t-28.5 -82.5q0 -99 170 -113v-63h-2q-122 4 -190 48.5t-66 117.5q0 102 131 196v2v211q-50 -109 -152.5 -181.5
t-250.5 -72.5z" />
    <glyph glyph-name="Wcircumflex" unicode="&#x174;" horiz-adv-x="2318" 
d="M643 -10l-528 1501h102l467 -1358l442 1362h70l442 -1362l469 1358h95l-527 -1501h-76l-440 1331l-442 -1331h-74zM897 1630l221 221h82l221 -221h-94l-170 137l-168 -137h-92z" />
    <glyph glyph-name="wcircumflex" unicode="&#x175;" horiz-adv-x="1822" 
d="M659 1268l215 254h70l215 -254h-82l-170 155l-170 -155h-78zM506 -8l-389 1087h96l332 -968l334 974h69l332 -974l334 968h92l-391 -1087h-74l-330 954l-331 -954h-74z" />
    <glyph glyph-name="Ycircumflex" unicode="&#x176;" horiz-adv-x="1511" 
d="M711 0v600l-637 891h114l570 -809l571 809h109l-635 -889v-602h-92zM494 1622l221 221h82l221 -221h-94l-170 137l-168 -137h-92z" />
    <glyph glyph-name="ycircumflex" unicode="&#x177;" horiz-adv-x="1265" 
d="M659 94l412 985h94l-477 -1112q-76 -175 -159 -245t-197 -70q-102 0 -211 51l33 76q80 -45 182 -45q89 0 150.5 58.5t129.5 211.5l-520 1075h101zM389 1266l215 254h70l215 -254h-82l-170 155l-170 -155h-78z" />
    <glyph glyph-name="Ydieresis" unicode="&#x178;" horiz-adv-x="1511" 
d="M711 0v600l-637 891h114l570 -809l571 809h109l-635 -889v-602h-92zM866 1634v144h133v-144h-133zM514 1634v144h135v-144h-135z" />
    <glyph glyph-name="Zacute" unicode="&#x179;" horiz-adv-x="1476" 
d="M156 0v51l1038 1358h-1001v82h1132v-51l-1038 -1358h1036v-82h-1167zM719 1630l203 238l102 -49l-227 -189h-78z" />
    <glyph glyph-name="zacute" unicode="&#x17a;" horiz-adv-x="1161" 
d="M555 1268l186 270l107 -51l-221 -219h-72zM121 0v49l792 952h-763v78h892v-49l-792 -952h794v-78h-923z" />
    <glyph glyph-name="Zdotaccent" unicode="&#x17b;" horiz-adv-x="1476" 
d="M690 1642v144h139v-144h-139zM156 0v51l1038 1358h-1001v82h1132v-51l-1038 -1358h1036v-82h-1167z" />
    <glyph glyph-name="zdotaccent" unicode="&#x17c;" horiz-adv-x="1161" 
d="M121 0v49l792 952h-763v78h892v-49l-792 -952h794v-78h-923zM528 1280v152h131v-152h-131z" />
    <glyph glyph-name="Zcaron" unicode="&#x17d;" horiz-adv-x="1476" 
d="M1022 1851l-221 -221h-82l-221 221h94l170 -139l168 139h92zM156 0v51l1038 1358h-1001v82h1132v-51l-1038 -1358h1036v-82h-1167z" />
    <glyph glyph-name="zcaron" unicode="&#x17e;" horiz-adv-x="1161" 
d="M844 1522l-215 -254h-70l-215 254h82l170 -158l170 158h78zM121 0v49l792 952h-763v78h892v-49l-792 -952h794v-78h-923z" />
    <glyph glyph-name="uni018F" unicode="&#x18f;" horiz-adv-x="1722" 
d="M274 1167l-63 60q253 289 627 289q212 0 376 -101.5t252 -276t88 -390.5v-7q0 -157 -52.5 -298t-144.5 -244t-224.5 -163.5t-284.5 -60.5q-159 0 -289.5 61t-215.5 167t-131 246t-46 301v2q0 22 2 36h1290q-6 132 -52.5 249.5t-125 205.5t-193.5 139.5t-251 51.5
q-326 0 -562 -267zM848 59q131 0 243.5 50.5t190.5 137.5t124 205t52 253h-1198q8 -185 79 -330t203 -230.5t306 -85.5z" />
    <glyph glyph-name="florin" unicode="&#x192;" horiz-adv-x="1075" 
d="M186 -10q-57 0 -98 8v80q39 -10 92 -10q74 0 120.5 46.5t66.5 149.5l104 563h-233v80h247l58 295q29 157 101.5 228t197.5 71q74 0 147 -20v-80q-70 20 -139 20q-94 0 -144 -51t-73 -178l-53 -285h331v-80h-346l-106 -569q-29 -143 -94.5 -205.5t-178.5 -62.5z" />
    <glyph glyph-name="Aringacute" unicode="&#x1fa;" horiz-adv-x="1691" 
d="M102 0l666 1425q-66 20 -105.5 70.5t-39.5 116.5q0 84 65 140t158 56t158 -56t65 -140q0 -65 -39.5 -115.5t-103.5 -71.5l665 -1425h-100l-197 426h-901l-196 -426h-95zM432 510h823l-411 889zM846 1473q66 0 109.5 39t43.5 100q0 60 -43.5 99.5t-109.5 39.5t-110 -39.5
t-44 -99.5q0 -61 43.5 -100t110.5 -39zM801 1874l196 215l99 -49l-215 -166h-80z" />
    <glyph glyph-name="aringacute" unicode="&#x1fb;" horiz-adv-x="1241" 
d="M535 -25q-78 0 -151 21.5t-132.5 62t-95 105.5t-35.5 145v4q0 165 131 257t344 92q195 0 373 -52v60q0 170 -98 258t-275 88q-165 0 -344 -88l-31 76q200 94 381 94q223 0 342 -119q109 -109 109 -305v-674h-84v203q-57 -96 -167 -162t-267 -66zM539 55q182 0 306 100
t124 246v127q-173 56 -377 56q-177 0 -278 -71t-101 -196v-4q0 -118 95.5 -188t230.5 -70zM623 1264q-89 0 -153 61.5t-64 147.5t64 147t153 61t153 -61t64 -147t-64 -147.5t-153 -61.5zM623 1319q63 0 109 45.5t46 108.5t-46 108t-109 45t-109.5 -45t-46.5 -108
t46.5 -108.5t109.5 -45.5zM582 1747l188 235l102 -51l-215 -184h-75z" />
    <glyph glyph-name="AEacute" unicode="&#x1fc;" horiz-adv-x="2230" 
d="M1305 1630l202 238l103 -49l-228 -189h-77zM43 0l918 1491h1112v-84h-930v-614h835v-84h-835v-625h942v-84h-1034v426h-648l-262 -426h-98zM453 510h598v899h-47z" />
    <glyph glyph-name="aeacute" unicode="&#x1fd;" horiz-adv-x="2072" 
d="M997 1268l187 270l106 -51l-221 -219h-72zM535 -25q-110 0 -202 36.5t-152 114t-60 183.5v4q0 165 129.5 257t337.5 92q182 0 356 -52q1 5 2 30.5t2 29.5q-1 171 -95 258.5t-267 87.5q-91 0 -168.5 -22.5t-165.5 -65.5l-31 76q101 48 185.5 71t185.5 23q167 0 274 -73
t142 -214q63 136 180.5 215.5t267.5 79.5q151 0 265.5 -79t172.5 -207t58 -281q0 -19 -2 -33h-916q12 -205 139 -328t304 -123q224 0 381 178l59 -51q-86 -100 -191 -153.5t-253 -53.5q-140 0 -256.5 64.5t-188.5 181.5q-84 -107 -210 -176.5t-283 -69.5zM1034 584h824
q-4 87 -32.5 166t-78 141t-126 98.5t-169.5 36.5q-171 0 -288.5 -126t-129.5 -316zM539 55q140 0 258 67.5t192 172.5q-44 105 -47 237q-185 52 -358 52q-172 0 -271.5 -71.5t-99.5 -195.5v-4q0 -119 93 -188.5t233 -69.5z" />
    <glyph glyph-name="Oslashacute" unicode="&#x1fe;" horiz-adv-x="1830" 
d="M1565 1501h106l-207 -221q96 -105 147.5 -242.5t51.5 -287.5v-5q0 -153 -54 -292.5t-150 -245.5t-238.5 -169t-307.5 -63q-292 0 -491 183l-158 -168h-106l209 221q-199 218 -199 530v4q0 153 54 292.5t149.5 246t237 169.5t306.5 63q293 0 492 -183zM260 750v-2
q0 -135 44 -257t124 -215l924 990q-188 170 -439 170q-141 0 -264 -54.5t-207.5 -147.5t-133 -219t-48.5 -265zM918 55q187 0 337 93t232 249.5t82 343.5v2q0 134 -44 255t-124 216l-922 -991q186 -168 439 -168zM874 1649l203 237l103 -49l-228 -188h-78z" />
    <glyph glyph-name="oslashacute" unicode="&#x1ff;" horiz-adv-x="1384" 
d="M1167 1094h101l-162 -170q143 -165 143 -379v-4q0 -151 -70.5 -280t-199.5 -207.5t-289 -78.5q-209 0 -362 131l-111 -116h-102l161 168q-141 157 -141 379v4q0 150 70.5 279t199.5 207.5t289 78.5q204 0 361 -131zM694 55q133 0 239.5 65.5t165 175.5t58.5 241v2
q0 183 -113 321l-659 -690q134 -118 309 -115zM227 543v-2q0 -184 111 -320l661 688q-130 117 -309 117q-133 0 -239.5 -65.5t-165 -176t-58.5 -241.5zM653 1268l187 270l106 -51l-221 -219h-72z" />
    <glyph glyph-name="Scommaaccent" unicode="&#x218;" horiz-adv-x="1388" 
d="M735 -20q-176 0 -321 58.5t-277 178.5l62 68q125 -115 252.5 -169.5t289.5 -54.5q178 0 290 89t112 225v4q0 86 -37 143.5t-134.5 104t-271.5 82.5q-270 54 -386.5 149.5t-116.5 261.5v4q0 165 136.5 276t344.5 111q155 0 275.5 -43t234.5 -133l-60 -73
q-203 168 -454 168q-170 0 -277.5 -86.5t-107.5 -210.5v-7q0 -85 36.5 -143t136 -106t275.5 -82q266 -57 382 -152t116 -256v-4q0 -178 -139 -290.5t-361 -112.5zM618 -455l-14 45q55 14 78.5 41t19.5 74h-57v135h131v-106q0 -83 -38.5 -127t-119.5 -62z" />
    <glyph glyph-name="scommaaccent" unicode="&#x219;" horiz-adv-x="1079" 
d="M453 -455l-15 45q55 14 79 41t20 74h-58v135h131v-106q0 -83 -38 -127t-119 -62zM555 -20q-117 0 -235.5 42.5t-206.5 114.5l53 70q178 -146 393 -146q121 0 203 60t82 155v5q0 40 -18 73t-43.5 55t-70.5 42t-81 31.5t-94 27.5q-49 14 -80.5 23.5t-75 26t-71 31.5
t-58 37.5t-48 47t-29 58t-11.5 71.5v4q0 128 100.5 209.5t261.5 81.5q199 0 381 -119l-47 -72q-163 111 -336 111q-121 0 -195.5 -56.5t-74.5 -144.5v-4q0 -27 9.5 -50t23 -40.5t39.5 -34.5t47.5 -28t60 -25t63.5 -22t70 -21q64 -17 110.5 -32.5t97.5 -41.5t83 -56t53 -74.5
t21 -98.5v-4q0 -138 -107.5 -222.5t-269.5 -84.5z" />
    <glyph glyph-name="schwa" unicode="&#x259;" horiz-adv-x="1267" 
d="M600 1106q107 0 204 -41.5t170 -114t116 -179t43 -230.5v-4q0 -157 -66.5 -285.5t-185 -202.5t-263.5 -74q-153 0 -267.5 78.5t-171 205.5t-56.5 282v32h917q-12 205 -139.5 328t-304.5 123q-223 0 -379 -184l-61 53q180 213 444 213zM1040 496h-825q6 -87 34.5 -164.5
t77 -140t125 -99.5t169.5 -37q172 0 289.5 125t129.5 316z" />
    <glyph glyph-name="circumflex" unicode="&#x2c6;" horiz-adv-x="1089" 
d="M295 1268l215 254h70l215 -254h-82l-170 155l-170 -155h-78z" />
    <glyph glyph-name="caron" unicode="&#x2c7;" horiz-adv-x="1089" 
d="M795 1522l-215 -254h-70l-215 254h82l170 -158l170 158h78z" />
    <glyph glyph-name="breve" unicode="&#x2d8;" horiz-adv-x="1089" 
d="M545 1264q-120 0 -194 62t-85 167h70q19 -65 71 -105t138 -40q87 0 138.5 40t70.5 105h69q-11 -105 -85.5 -167t-192.5 -62z" />
    <glyph glyph-name="dotaccent" unicode="&#x2d9;" horiz-adv-x="1089" 
d="M479 1280v152h131v-152h-131z" />
    <glyph glyph-name="ring" unicode="&#x2da;" horiz-adv-x="1089" 
d="M545 1264q-89 0 -153 61.5t-64 147.5t64 147t153 61t153 -61t64 -147t-64 -147.5t-153 -61.5zM545 1319q63 0 109 45.5t46 108.5t-46 108t-109 45t-109.5 -45t-46.5 -108t46.5 -108.5t109.5 -45.5z" />
    <glyph glyph-name="ogonek" unicode="&#x2db;" horiz-adv-x="1089" 
d="M698 -283v-63h-2q-122 4 -190 48.5t-66 117.5q0 57 38.5 107.5t117.5 107.5l57 -33q-67 -50 -96 -89.5t-29 -82.5q0 -99 170 -113z" />
    <glyph glyph-name="tilde" unicode="&#x2dc;" horiz-adv-x="1089" 
d="M682 1274q-10 0 -22 2t-21 4.5t-24.5 9t-22.5 9.5t-27 12t-26 12q-92 49 -131 49t-63.5 -25t-47.5 -90l-59 17q25 104 66 146t104 42q43 0 143 -49q92 -49 131 -49t63.5 25t47.5 90l59 -15q-25 -105 -66 -147.5t-104 -42.5z" />
    <glyph glyph-name="hungarumlaut" unicode="&#x2dd;" horiz-adv-x="1089" 
d="M532 1268l189 270l96 -51l-213 -219h-72zM264 1268l189 270l98 -51l-213 -219h-74z" />
    <glyph glyph-name="commaaccent" unicode="&#x326;" horiz-adv-x="1089" 
d="M453 -453l-15 45q55 14 79 41t20 74h-58v135h131v-106q0 -83 -38 -127t-119 -62z" />
    <glyph glyph-name="uni0384" unicode="&#x384;" horiz-adv-x="1089" 
d="M455 1268l135 301l108 -45l-176 -256h-67z" />
    <glyph glyph-name="uni0385" unicode="&#x385;" horiz-adv-x="1089" 
d="M702 1280v150h125v-150h-125zM262 1280v150h125v-150h-125zM473 1280l86 326l109 -29l-129 -297h-66z" />
    <glyph glyph-name="uni0386" unicode="&#x386;" horiz-adv-x="1691" 
d="M102 0l701 1501h86l702 -1501h-100l-197 426h-901l-196 -426h-95zM432 510h823l-411 889zM172 1141l47 354h111l-103 -354h-55z" />
    <glyph glyph-name="uni0387" unicode="&#x387;" horiz-adv-x="489" 
d="M184 920v159h121v-159h-121z" />
    <glyph glyph-name="uni0388" unicode="&#x388;" horiz-adv-x="1445" 
d="M-20 1137l47 354h110l-102 -354h-55zM233 0v1491h1055v-84h-962v-614h868v-84h-868v-625h972v-84h-1065z" />
    <glyph glyph-name="uni0389" unicode="&#x389;" horiz-adv-x="1638" 
d="M233 0v1491h93v-698h987v698h92v-1491h-92v709h-987v-709h-93zM-20 1137l47 354h110l-102 -354h-55z" />
    <glyph glyph-name="uni038A" unicode="&#x38a;" horiz-adv-x="589" 
d="M248 0v1491h92v-1491h-92zM-14 1137l47 354h110l-102 -354h-55z" />
    <glyph glyph-name="uni038C" unicode="&#x38c;" horiz-adv-x="1830" 
d="M18 1145l48 354h110l-102 -354h-56zM913 -25q-165 0 -306 62.5t-236.5 168t-149 244.5t-53.5 291v4q0 153 54 292.5t149.5 246t237 169.5t306.5 63t307 -62.5t237.5 -168t149.5 -244.5t54 -291v-5q0 -153 -54 -292.5t-150 -245.5t-238.5 -169t-307.5 -63zM918 57
q188 0 337.5 93t230.5 249t81 342v4q0 185 -82.5 342t-233.5 252t-338 95t-337 -93t-232 -249t-82 -342v-5q0 -138 49 -264t134 -219.5t208.5 -149t264.5 -55.5z" />
    <glyph glyph-name="uni038E" unicode="&#x38e;" horiz-adv-x="1511" 
d="M711 0v600l-637 891h114l570 -809l571 809h109l-635 -889v-602h-92zM-147 1137l47 354h110l-102 -354h-55z" />
    <glyph glyph-name="uni038F" unicode="&#x38f;" horiz-adv-x="1863" 
d="M932 1516q162 0 299.5 -56t231.5 -152.5t147 -228.5t53 -282v-2q0 -221 -111.5 -395t-324.5 -320l489 4v-84h-622v76q113 73 194 143t147.5 157t100 191t33.5 226v2q0 182 -79 327.5t-225 228.5t-333 83t-332.5 -83t-224 -228.5t-78.5 -327.5v-2q0 -119 33 -223
t97.5 -191.5t147.5 -159.5t195 -143v-76h-623v84l490 -4q-212 143 -323 317.5t-111 397.5v2q0 199 89.5 362.5t257 260t382.5 96.5zM10 1145l47 354h111l-102 -354h-56z" />
    <glyph glyph-name="uni0390" unicode="&#x390;" horiz-adv-x="589" 
d="M446 1280v150h125v-150h-125zM6 1280v150h125v-150h-125zM217 1280l86 326l109 -29l-129 -297h-66zM209 250v829h86v-827q0 -189 162 -189q47 0 84 13v-80q-37 -12 -90 -12q-242 0 -242 266z" />
    <glyph glyph-name="uni0391" unicode="&#x391;" horiz-adv-x="1691" 
d="M102 0l701 1501h86l702 -1501h-100l-197 426h-901l-196 -426h-95zM432 510h823l-411 889z" />
    <glyph glyph-name="uni0392" unicode="&#x392;" horiz-adv-x="1564" 
d="M233 0v1491h615q258 0 389 -131q96 -96 96 -238v-4q0 -139 -73.5 -226t-190.5 -128q72 -17 132 -45.5t109.5 -71.5t77 -104.5t27.5 -136.5v-5q0 -187 -144 -294t-390 -107h-648zM1239 1110v4q0 135 -103 214t-290 79h-520v-612h524q172 0 280.5 83t108.5 232zM1321 399v4
q0 147 -120.5 227.5t-332.5 80.5h-542v-627h557q204 0 321 84t117 231z" />
    <glyph glyph-name="uni0393" unicode="&#x393;" horiz-adv-x="1312" 
d="M233 0v1491h979v-84h-886v-1407h-93z" />
    <glyph glyph-name="uni0394" unicode="&#x394;" horiz-adv-x="1689" 
d="M121 0l-8 70l690 1431h84l692 -1431l-10 -70h-1448zM844 1395l-629 -1311h1253z" />
    <glyph glyph-name="uni0395" unicode="&#x395;" horiz-adv-x="1445" 
d="M233 0v1491h1055v-84h-962v-614h868v-84h-868v-625h972v-84h-1065z" />
    <glyph glyph-name="uni0396" unicode="&#x396;" horiz-adv-x="1476" 
d="M156 0v51l1038 1358h-1001v82h1132v-51l-1038 -1358h1036v-82h-1167z" />
    <glyph glyph-name="uni0397" unicode="&#x397;" horiz-adv-x="1638" 
d="M233 0v1491h93v-698h987v698h92v-1491h-92v709h-987v-709h-93z" />
    <glyph glyph-name="uni0398" unicode="&#x398;" horiz-adv-x="1830" 
d="M913 -25q-165 0 -306 62.5t-236.5 168t-149 244.5t-53.5 291v4q0 153 54 292.5t149.5 246t237 169.5t306.5 63t307 -62.5t237.5 -168t149.5 -244.5t54 -291v-5q0 -153 -54 -292.5t-150 -245.5t-238.5 -169t-307.5 -63zM918 57q188 0 337.5 93t230.5 249t81 342v4
q0 185 -82.5 342t-233.5 252t-338 95t-337 -93t-232 -249t-82 -342v-5q0 -138 49 -264t134 -219.5t208.5 -149t264.5 -55.5zM1350 795v-88h-869v88h869z" />
    <glyph glyph-name="uni0399" unicode="&#x399;" horiz-adv-x="589" 
d="M248 0v1491h92v-1491h-92z" />
    <glyph glyph-name="uni039A" unicode="&#x39a;" horiz-adv-x="1527" 
d="M233 0v1491h93v-987l974 987h125l-651 -649l678 -842h-119l-622 776l-385 -383v-393h-93z" />
    <glyph glyph-name="uni039B" unicode="&#x39b;" horiz-adv-x="1654" 
d="M866 1501l688 -1501h-102l-627 1386l-626 -1386h-97l682 1501h82z" />
    <glyph glyph-name="uni039C" unicode="&#x39c;" horiz-adv-x="1867" 
d="M233 0v1491h86l615 -895l614 895h86v-1491h-92v1329l-606 -876h-6l-608 876v-1329h-89z" />
    <glyph glyph-name="uni039D" unicode="&#x39d;" horiz-adv-x="1699" 
d="M233 0v1491h86l1059 -1333v1333h88v-1491h-69l-1075 1352v-1352h-89z" />
    <glyph glyph-name="uni039E" unicode="&#x39e;" horiz-adv-x="1454" 
d="M1296 1403h-1138v88h1138v-88zM1235 707h-1018v88h1018v-88zM1307 0h-1160v88h1160v-88z" />
    <glyph glyph-name="uni039F" unicode="&#x39f;" horiz-adv-x="1830" 
d="M913 -25q-165 0 -306 62.5t-236.5 168t-149 244.5t-53.5 291v4q0 153 54 292.5t149.5 246t237 169.5t306.5 63t307 -62.5t237.5 -168t149.5 -244.5t54 -291v-5q0 -153 -54 -292.5t-150 -245.5t-238.5 -169t-307.5 -63zM918 57q188 0 337.5 93t230.5 249t81 342v4
q0 185 -82.5 342t-233.5 252t-338 95t-337 -93t-232 -249t-82 -342v-5q0 -138 49 -264t134 -219.5t208.5 -149t264.5 -55.5z" />
    <glyph glyph-name="uni03A0" unicode="&#x3a0;" horiz-adv-x="1634" 
d="M233 0v1491h1168v-1491h-92v1407h-983v-1407h-93z" />
    <glyph glyph-name="uni03A1" unicode="&#x3a1;" horiz-adv-x="1447" 
d="M233 0v1491h537q256 0 407.5 -120.5t151.5 -332.5v-4q0 -112 -45 -202t-123.5 -148t-184 -88.5t-228.5 -30.5h-422v-565h-93zM326 649h426q221 0 353 102.5t132 276.5v4q0 180 -127.5 277.5t-347.5 97.5h-436v-758z" />
    <glyph glyph-name="uni03A3" unicode="&#x3a3;" horiz-adv-x="1437" 
d="M915 745l-632 -661h1022v-84h-1151v68l645 677l-641 678v68h1130v-84h-1001z" />
    <glyph glyph-name="uni03A4" unicode="&#x3a4;" horiz-adv-x="1347" 
d="M629 0v1407h-527v84h1143v-84h-526v-1407h-90z" />
    <glyph glyph-name="uni03A5" unicode="&#x3a5;" horiz-adv-x="1511" 
d="M711 0v600l-637 891h114l570 -809l571 809h109l-635 -889v-602h-92z" />
    <glyph glyph-name="uni03A6" unicode="&#x3a6;" horiz-adv-x="1933" 
d="M922 -35v199q-182 2 -329.5 46t-246 121t-152 184.5t-53.5 236.5v2q0 171 91.5 302t269 206.5t420.5 78.5v185h90v-185q363 -4 571.5 -164.5t208.5 -424.5v-2q0 -169 -91.5 -300t-269.5 -207t-419 -79v-199h-90zM236 752v-2q0 -108 44 -198.5t128 -158t215.5 -106.5
t298.5 -41v1014q-329 -4 -507.5 -142.5t-178.5 -365.5zM1698 752v2q0 108 -44.5 199t-129 159t-215.5 107t-297 41v-1014q220 3 376 68.5t233 177.5t77 260z" />
    <glyph glyph-name="uni03A7" unicode="&#x3a7;" horiz-adv-x="1529" 
d="M1288 1491h109l-576 -731l598 -760h-110l-545 698l-543 -698h-108l596 760l-576 731h109l524 -672z" />
    <glyph glyph-name="uni03A8" unicode="&#x3a8;" horiz-adv-x="1832" 
d="M1651 1491v-510q0 -123 -32.5 -220.5t-91.5 -165.5t-145 -113.5t-190 -67t-229 -23.5v-391h-93v391q-157 2 -280.5 36.5t-216 103t-142 181.5t-49.5 265v514h92v-512q0 -494 596 -504v1016h93v-1016q288 5 442 125t154 377v514h92z" />
    <glyph glyph-name="uni03A9" unicode="&#x3a9;" horiz-adv-x="1863" 
d="M932 1516q162 0 299.5 -56t231.5 -152.5t147 -228.5t53 -282v-2q0 -221 -111.5 -395t-324.5 -320l489 4v-84h-622v76q113 73 194 143t147.5 157t100 191t33.5 226v2q0 182 -79 327.5t-225 228.5t-333 83t-332.5 -83t-224 -228.5t-78.5 -327.5v-2q0 -119 33 -223
t97.5 -191.5t147.5 -159.5t195 -143v-76h-623v84l490 -4q-212 143 -323 317.5t-111 397.5v2q0 199 89.5 362.5t257 260t382.5 96.5z" />
    <glyph glyph-name="uni03AA" unicode="&#x3aa;" horiz-adv-x="589" 
d="M248 0v1491h92v-1491h-92zM408 1642v144h133v-144h-133zM55 1642v144h135v-144h-135z" />
    <glyph glyph-name="uni03AB" unicode="&#x3ab;" horiz-adv-x="1511" 
d="M711 0v600l-637 891h114l570 -809l571 809h109l-635 -889v-602h-92zM866 1634v144h133v-144h-133zM514 1634v144h135v-144h-135z" />
    <glyph glyph-name="uni03AC" unicode="&#x3ac;" horiz-adv-x="1507" 
d="M690 1268l135 301l109 -45l-176 -256h-68zM1462 76v-80q-38 -12 -90 -12q-245 0 -242 274q-69 -126 -187.5 -204.5t-272.5 -78.5q-103 0 -199 41t-170 113t-118 178.5t-44 229.5v4q0 123 44 230t117.5 179.5t170 114t199.5 41.5q160 0 275.5 -80t184.5 -209v262h87v-827
q0 -189 161 -189q47 0 84 13zM678 57q121 0 225.5 61.5t168 173t63.5 247.5v4q0 135 -63 245.5t-168 172t-226 61.5q-193 0 -319 -131.5t-126 -345.5v-4q0 -211 128.5 -347.5t316.5 -136.5z" />
    <glyph glyph-name="uni03AD" unicode="&#x3ad;" horiz-adv-x="1198" 
d="M563 1268l135 301l109 -45l-176 -256h-68zM844 510h-248q-181 0 -273 -62t-92 -159v-2q0 -105 102.5 -168.5t282.5 -63.5q229 0 437 125l45 -69q-227 -136 -484 -136q-229 0 -352 86.5t-123 221.5v2q0 105 75 174t192 90q-236 59 -236 258v4q0 125 119 210t327 85
q254 0 463 -139l-51 -72q-174 131 -414 131q-166 0 -260 -63t-94 -158v-2q0 -102 91 -158.5t243 -56.5h250v-78z" />
    <glyph glyph-name="uni03AE" unicode="&#x3ae;" horiz-adv-x="1327" 
d="M618 1268l136 301l108 -45l-176 -256h-68zM1139 -340h-88v971q0 181 -96 288t-267 107q-166 0 -278.5 -117t-112.5 -293v-616h-86v1079h86v-229q49 110 151.5 183t251.5 73q205 0 322 -127t117 -334v-985z" />
    <glyph glyph-name="uni03AF" unicode="&#x3af;" horiz-adv-x="589" 
d="M205 1268l135 301l109 -45l-177 -256h-67zM209 250v829h86v-827q0 -189 162 -189q47 0 84 13v-80q-37 -12 -90 -12q-242 0 -242 266z" />
    <glyph glyph-name="uni03B0" unicode="&#x3b0;" horiz-adv-x="1331" 
d="M823 1278v149h125v-149h-125zM383 1278v149h125v-149h-125zM594 1278l86 326l108 -29l-129 -297h-65zM666 -25q-219 0 -346 126t-127 362v616h88v-614q0 -203 105 -306.5t280 -103.5q178 0 282.5 103.5t104.5 306.5v614h86v-616q0 -236 -127 -362t-346 -126z" />
    <glyph glyph-name="uni03B1" unicode="&#x3b1;" horiz-adv-x="1507" 
d="M1462 76v-80q-38 -12 -90 -12q-245 0 -242 274q-69 -126 -187.5 -204.5t-272.5 -78.5q-103 0 -199 41t-170 113t-118 178.5t-44 229.5v4q0 123 44 230t117.5 179.5t170 114t199.5 41.5q160 0 275.5 -80t184.5 -209v262h87v-827q0 -189 161 -189q47 0 84 13zM678 57
q121 0 225.5 61.5t168 173t63.5 247.5v4q0 135 -63 245.5t-168 172t-226 61.5q-193 0 -319 -131.5t-126 -345.5v-4q0 -211 128.5 -347.5t316.5 -136.5z" />
    <glyph glyph-name="uni03B2" unicode="&#x3b2;" horiz-adv-x="1394" 
d="M297 -340h-86v1376q0 247 136.5 390t371.5 143q212 0 342.5 -113t130.5 -291v-2q0 -155 -97.5 -251.5t-258.5 -127.5q90 -15 163.5 -45t133.5 -78t93.5 -121.5t33.5 -166.5v-2q0 -80 -32.5 -151.5t-92 -126t-151 -86.5t-202.5 -32q-163 0 -289.5 77t-195.5 210v-602z
M598 739h-301v-209q0 -138 65.5 -247.5t175.5 -168.5t244 -59q175 0 279 91t104 229q0 171 -141 267.5t-426 96.5zM297 1036v-219h299q239 0 371.5 92.5t132.5 257.5q0 142 -106 232t-275 90q-197 0 -309.5 -121.5t-112.5 -331.5z" />
    <glyph glyph-name="uni03B3" unicode="&#x3b3;" horiz-adv-x="1249" 
d="M1151 1079l-483 -1075v-344h-86v350l-482 1069h99l428 -981l428 981h96z" />
    <glyph glyph-name="uni03B4" unicode="&#x3b4;" horiz-adv-x="1357" 
d="M1065 1477h-680l424 -349q220 -176 314 -317t94 -309q0 -143 -65 -262.5t-190.5 -192t-287.5 -72.5q-160 0 -283.5 71.5t-188.5 190t-65 261.5q0 214 127.5 357t413.5 275l-434 363v61h821v-77zM760 1065l-17 12q-283 -128 -400.5 -259t-117.5 -320t125 -316t324 -127
q204 0 328 128t124 319q0 149 -82 271.5t-284 291.5z" />
    <glyph glyph-name="uni03B5" unicode="&#x3b5;" horiz-adv-x="1198" 
d="M844 510h-248q-181 0 -273 -62t-92 -159v-2q0 -105 102.5 -168.5t282.5 -63.5q229 0 437 125l45 -69q-227 -136 -484 -136q-229 0 -352 86.5t-123 221.5v2q0 105 75 174t192 90q-236 59 -236 258v4q0 125 119 210t327 85q254 0 463 -139l-51 -72q-174 131 -414 131
q-166 0 -260 -63t-94 -158v-2q0 -102 91 -158.5t243 -56.5h250v-78z" />
    <glyph glyph-name="uni03B6" unicode="&#x3b6;" horiz-adv-x="1153" 
d="M983 -272v249l-283 35q-561 70 -561 432q0 135 76.5 255.5t300.5 344.5l432 433h-727v77h852v-67l-493 -496q-207 -207 -278 -315t-71 -230q0 -289 486 -348l350 -43v-327h-84z" />
    <glyph glyph-name="uni03B7" unicode="&#x3b7;" horiz-adv-x="1327" 
d="M1139 -340h-88v971q0 181 -96 288t-267 107q-166 0 -278.5 -117t-112.5 -293v-616h-86v1079h86v-229q49 110 151.5 183t251.5 73q205 0 322 -127t117 -334v-985z" />
    <glyph glyph-name="uni03B8" unicode="&#x3b8;" horiz-adv-x="1417" 
d="M709 -25q-105 0 -195 41t-155 113t-111 169t-69 210t-23 235v48q0 153 36.5 290.5t105 245t175 171t236.5 63.5t236.5 -63.5t175 -171t105 -245t36.5 -290.5v-48q0 -122 -23 -235t-69 -210t-111 -169t-155 -113t-195 -41zM711 55q138 0 242.5 90.5t159.5 242t58 341.5
h-925q3 -189 59 -341.5t162 -242.5t244 -90zM707 1481q-138 0 -243 -90t-160 -241.5t-58 -340.5h925q-3 188 -60 340t-162.5 242t-241.5 90z" />
    <glyph glyph-name="uni03B9" unicode="&#x3b9;" horiz-adv-x="589" 
d="M209 250v829h86v-827q0 -189 162 -189q47 0 84 13v-80q-37 -12 -90 -12q-242 0 -242 266z" />
    <glyph glyph-name="uni03BA" unicode="&#x3ba;" horiz-adv-x="1202" 
d="M297 1079v-698l698 698h117l-487 -481l501 -598h-110l-453 541l-266 -265v-276h-86v1079h86z" />
    <glyph glyph-name="uni03BB" unicode="&#x3bb;" horiz-adv-x="1267" 
d="M205 1454v80q64 25 131 25q58 0 99.5 -15.5t77.5 -56t65.5 -96t68.5 -150.5l522 -1241h-98l-422 1012l-450 -1010l-99 -2l506 1114l-41 98q-62 154 -112 210.5t-127 56.5q-54 0 -121 -25z" />
    <glyph glyph-name="uni03BC" unicode="&#x3bc;" horiz-adv-x="1431" 
d="M1386 76v-80q-38 -12 -90 -12q-232 0 -241 241q-54 -111 -152 -180.5t-227 -69.5q-141 0 -238 71.5t-147 191.5h-2q8 -115 8 -281v-297h-86v1419h86v-614q0 -172 109.5 -291t269.5 -119q161 0 270 119t109 291v614h86v-827q0 -189 162 -189q46 0 83 13z" />
    <glyph glyph-name="uni03BD" unicode="&#x3bd;" horiz-adv-x="1249" 
d="M590 -8l-490 1087h99l428 -983l428 983h96l-489 -1087h-72z" />
    <glyph glyph-name="uni03BE" unicode="&#x3be;" horiz-adv-x="1185" 
d="M1120 1399l-55 -70q-88 78 -182 119t-209 41q-171 0 -273 -89t-102 -241q0 -159 118 -246.5t302 -87.5h199v-77h-216q-221 0 -347 -90.5t-126 -233.5q0 -77 36 -135t106.5 -96t162 -61t214.5 -36l342 -41v-327h-84v249l-271 33q-112 12 -201 32.5t-165 53.5t-127 78
t-79 107.5t-28 140.5q0 79 31 144t84.5 108.5t115.5 72.5t134 44q-33 9 -68.5 25.5t-77 48t-73 71t-53 98.5t-21.5 127q0 173 128.5 290.5t338.5 117.5q132 0 237.5 -44t208.5 -126z" />
    <glyph glyph-name="uni03BF" unicode="&#x3bf;" horiz-adv-x="1384" 
d="M690 -25q-119 0 -223 45.5t-176.5 122t-114 179t-41.5 215.5v4q0 150 70.5 279t199.5 207.5t289 78.5q119 0 223 -45t176.5 -121.5t114 -179t41.5 -215.5v-4q0 -151 -70.5 -280t-199.5 -207.5t-289 -78.5zM694 55q132 0 238.5 66t164.5 176t58 240v4q0 132 -61 243
t-168 175.5t-236 64.5q-133 0 -239.5 -65t-165 -175t-58.5 -241v-4q0 -202 134.5 -343t332.5 -141z" />
    <glyph glyph-name="uni03C0" unicode="&#x3c0;" horiz-adv-x="1492" 
d="M68 1079h1316v-78h-241v-749q0 -189 164 -189q43 0 84 13v-80q-41 -12 -93 -12q-241 0 -241 266v751h-662v-1001h-86v1001h-241v78z" />
    <glyph glyph-name="uni03C1" unicode="&#x3c1;" horiz-adv-x="1398" 
d="M182 -340v883q0 155 68.5 283.5t193 204t279.5 75.5q110 0 208 -41t170 -113.5t114 -178t42 -228.5v-4q0 -123 -44 -230.5t-116.5 -180t-168.5 -114t-199 -41.5q-162 0 -278.5 80.5t-182.5 214.5v-610h-86zM725 57q191 0 315.5 132.5t124.5 347.5v4q0 210 -126 345.5
t-314 135.5q-198 0 -324.5 -135t-126.5 -344v-4q0 -206 132 -344t319 -138z" />
    <glyph glyph-name="uni03C2" unicode="&#x3c2;" horiz-adv-x="1232" 
d="M958 -272v249l-253 33q-294 36 -450.5 175.5t-156.5 381.5v2q0 148 68.5 271t193 194.5t279.5 71.5q148 0 253.5 -55.5t194.5 -153.5l-65 -66q-170 193 -385 193q-196 0 -321.5 -128t-125.5 -325v-2q0 -210 138 -326.5t389 -146.5l327 -41v-327h-86z" />
    <glyph glyph-name="uni03C3" unicode="&#x3c3;" horiz-adv-x="1433" 
d="M1360 1001h-418q140 -63 221.5 -189.5t81.5 -281.5v-4q0 -150 -71.5 -276t-199.5 -200.5t-286 -74.5t-285 73.5t-197.5 199t-70.5 276.5v2q0 114 41.5 215t115 176t181.5 118.5t234 43.5h653v-78zM692 55q199 0 329 134.5t130 334.5v2q0 203 -133 338t-330 135
q-200 0 -329.5 -134.5t-129.5 -334.5v-4q0 -201 133 -336t330 -135z" />
    <glyph glyph-name="uni03C4" unicode="&#x3c4;" horiz-adv-x="1193" 
d="M1102 1001h-490v-688q0 -139 59 -194.5t171 -55.5q90 0 155 27v-78q-73 -28 -157 -28q-152 0 -233 74.5t-81 252.5v690h-471v78h1047v-78z" />
    <glyph glyph-name="uni03C5" unicode="&#x3c5;" horiz-adv-x="1331" 
d="M666 -25q-219 0 -346 126t-127 362v616h88v-614q0 -203 105 -306.5t280 -103.5q178 0 282.5 103.5t104.5 306.5v614h86v-616q0 -236 -127 -362t-346 -126z" />
    <glyph glyph-name="uni03C6" unicode="&#x3c6;" horiz-adv-x="1753" 
d="M920 -340h-86v334q-168 2 -302 43.5t-220.5 114.5t-132.5 171t-46 214v2q0 117 46 215.5t132.5 171.5t220.5 115t302 44v469h86v-469q168 -2 301.5 -43.5t220.5 -114t132.5 -170.5t45.5 -214v-2q0 -117 -45.5 -216t-132.5 -172t-220.5 -115t-301.5 -44v-334zM1528 539v2
q0 102 -39 186t-113.5 145.5t-191 96.5t-264.5 37v-932q296 4 452 130t156 335zM225 541v-2q0 -209 156.5 -335t452.5 -130v932q-296 -4 -452.5 -130t-156.5 -335z" />
    <glyph glyph-name="uni03C7" unicode="&#x3c7;" horiz-adv-x="1273" 
d="M233 1079l404 -606l410 606h104l-461 -669l516 -750h-108l-463 682l-461 -682h-104l514 748l-461 671h110z" />
    <glyph glyph-name="uni03C8" unicode="&#x3c8;" horiz-adv-x="1710" 
d="M899 -340h-86v334q-298 4 -461.5 152t-163.5 401v532h88v-528q0 -223 140.5 -348t396.5 -129v1480h86v-1480q256 4 396.5 129.5t140.5 347.5v528h86v-528q0 -254 -165 -403.5t-458 -153.5v-334z" />
    <glyph glyph-name="uni03C9" unicode="&#x3c9;" horiz-adv-x="1886" 
d="M899 881h86v-310q0 -152 35.5 -265.5t115 -182t195.5 -68.5q139 0 225 111.5t86 304.5q0 319 -268 608h111q248 -293 248 -608q0 -233 -110.5 -364.5t-291.5 -131.5q-157 0 -257.5 99t-131.5 252q-17 -73 -47.5 -134.5t-77.5 -111t-115 -77.5t-151 -28q-179 0 -289 131
t-110 365q0 315 249 608h109q-268 -281 -268 -608q0 -189 87 -302.5t222 -113.5q118 0 198 68.5t115 182t35 265.5v310z" />
    <glyph glyph-name="uni03CA" unicode="&#x3ca;" horiz-adv-x="589" 
d="M358 1280v152h125v-152h-125zM33 1280v152h125v-152h-125zM209 250v829h86v-827q0 -189 162 -189q47 0 84 13v-80q-37 -12 -90 -12q-242 0 -242 266z" />
    <glyph glyph-name="uni03CB" unicode="&#x3cb;" horiz-adv-x="1331" 
d="M766 1278v152h125v-152h-125zM440 1278v152h125v-152h-125zM666 -25q-219 0 -346 126t-127 362v616h88v-614q0 -203 105 -306.5t280 -103.5q178 0 282.5 103.5t104.5 306.5v614h86v-616q0 -236 -127 -362t-346 -126z" />
    <glyph glyph-name="uni03CC" unicode="&#x3cc;" horiz-adv-x="1384" 
d="M637 1268l135 301l109 -45l-176 -256h-68zM690 -25q-119 0 -223 45.5t-176.5 122t-114 179t-41.5 215.5v4q0 150 70.5 279t199.5 207.5t289 78.5q119 0 223 -45t176.5 -121.5t114 -179t41.5 -215.5v-4q0 -151 -70.5 -280t-199.5 -207.5t-289 -78.5zM694 55
q132 0 238.5 66t164.5 176t58 240v4q0 132 -61 243t-168 175.5t-236 64.5q-133 0 -239.5 -65t-165 -175t-58.5 -241v-4q0 -202 134.5 -343t332.5 -141z" />
    <glyph glyph-name="uni03CD" unicode="&#x3cd;" horiz-adv-x="1331" 
d="M610 1266l135 301l109 -45l-176 -256h-68zM666 -25q-219 0 -346 126t-127 362v616h88v-614q0 -203 105 -306.5t280 -103.5q178 0 282.5 103.5t104.5 306.5v614h86v-616q0 -236 -127 -362t-346 -126z" />
    <glyph glyph-name="uni03CE" unicode="&#x3ce;" horiz-adv-x="1886" 
d="M887 1266l135 301l108 -45l-176 -256h-67zM899 881h86v-310q0 -152 35.5 -265.5t115 -182t195.5 -68.5q139 0 225 111.5t86 304.5q0 319 -268 608h111q248 -293 248 -608q0 -233 -110.5 -364.5t-291.5 -131.5q-157 0 -257.5 99t-131.5 252q-17 -73 -47.5 -134.5
t-77.5 -111t-115 -77.5t-151 -28q-179 0 -289 131t-110 365q0 315 249 608h109q-268 -281 -268 -608q0 -189 87 -302.5t222 -113.5q118 0 198 68.5t115 182t35 265.5v310z" />
    <glyph glyph-name="uni0400" unicode="&#x400;" horiz-adv-x="1445" 
d="M805 1630h-78l-227 189l102 49zM233 0v1491h1055v-84h-962v-614h868v-84h-868v-625h972v-84h-1065z" />
    <glyph glyph-name="uni0401" unicode="&#x401;" horiz-adv-x="1445" 
d="M877 1642v144h133v-144h-133zM524 1642v144h135v-144h-135zM233 0v1491h1055v-84h-962v-614h868v-84h-868v-625h972v-84h-1065z" />
    <glyph glyph-name="uni0402" unicode="&#x402;" horiz-adv-x="1814" 
d="M1227 1491v-84h-535v-549q213 68 436 68q274 0 419 -123.5t145 -341.5q0 -215 -152 -340t-412 -125h-47v84h45q230 0 350.5 100t120.5 281q0 175 -117.5 277t-355.5 102q-213 0 -432 -66v-774h-92v1407h-506v84h1133z" />
    <glyph glyph-name="uni0403" unicode="&#x403;" horiz-adv-x="1312" 
d="M641 1630l203 238l102 -49l-227 -189h-78zM233 0v1491h979v-84h-886v-1407h-93z" />
    <glyph glyph-name="uni0404" unicode="&#x404;" horiz-adv-x="1599" 
d="M903 -25q-210 0 -379 102.5t-262.5 277.5t-93.5 386v4q0 125 35 241.5t102 212t157 167t206.5 111t244.5 39.5q187 0 316 -60t258 -178l-64 -64q-220 220 -512 220q-135 0 -252.5 -50t-201.5 -136t-135 -204t-60 -251h905v-82h-905q8 -183 93 -332.5t230 -235.5t322 -86
q163 0 288 59.5t237 176.5l63 -62q-124 -124 -264 -190t-328 -66z" />
    <glyph glyph-name="uni0405" unicode="&#x405;" horiz-adv-x="1388" 
d="M735 -20q-176 0 -321 58.5t-277 178.5l62 68q125 -115 252.5 -169.5t289.5 -54.5q178 0 290 89t112 225v4q0 86 -37 143.5t-134.5 104t-271.5 82.5q-270 54 -386.5 149.5t-116.5 261.5v4q0 165 136.5 276t344.5 111q155 0 275.5 -43t234.5 -133l-60 -73
q-203 168 -454 168q-170 0 -277.5 -86.5t-107.5 -210.5v-7q0 -85 36.5 -143t136 -106t275.5 -82q266 -57 382 -152t116 -256v-4q0 -178 -139 -290.5t-361 -112.5z" />
    <glyph glyph-name="uni0406" unicode="&#x406;" horiz-adv-x="589" 
d="M248 0v1491h92v-1491h-92z" />
    <glyph glyph-name="uni0407" unicode="&#x407;" horiz-adv-x="589" 
d="M248 0v1491h92v-1491h-92zM408 1642v144h133v-144h-133zM55 1642v144h135v-144h-135z" />
    <glyph glyph-name="uni0408" unicode="&#x408;" horiz-adv-x="1183" 
d="M530 -23q-298 0 -444 285l78 47q64 -125 154.5 -186.5t218.5 -61.5q152 0 248 110t96 314v1006h92v-997q0 -259 -137 -396q-121 -121 -306 -121z" />
    <glyph glyph-name="uni0409" unicode="&#x409;" horiz-adv-x="2185" 
d="M995 0v1413h-4l-846 -1413h-100l893 1491h149v-578h422q254 0 405.5 -119.5t151.5 -326.5v-6q0 -146 -79.5 -252t-209.5 -157.5t-292 -51.5h-490zM1087 84h402q218 0 351.5 101t133.5 272v4q0 176 -126 271t-345 95h-416v-743z" />
    <glyph glyph-name="uni040A" unicode="&#x40a;" horiz-adv-x="2476" 
d="M1286 0v709h-954v-709h-92v1491h92v-698h954v698h92v-578h422q254 0 405.5 -119.5t151.5 -326.5v-6q0 -146 -79.5 -252t-209.5 -157.5t-292 -51.5h-490zM1378 84h404q218 0 350.5 101t132.5 272v4q0 176 -126 271t-345 95h-416v-743z" />
    <glyph glyph-name="uni040B" unicode="&#x40b;" horiz-adv-x="1882" 
d="M1227 1491v-84h-535v-547q232 68 451 68q271 0 411 -118.5t140 -379.5v-430h-92v414q0 229 -113.5 329.5t-353.5 100.5q-211 0 -443 -70v-774h-92v1407h-506v84h1133z" />
    <glyph glyph-name="uni040C" unicode="&#x40c;" horiz-adv-x="1527" 
d="M709 1622l202 238l103 -50l-228 -188h-77zM233 0v1491h93v-686h311l670 686h123l-713 -725l741 -766h-127l-692 721h-313v-721h-93z" />
    <glyph glyph-name="uni040D" unicode="&#x40d;" horiz-adv-x="1699" 
d="M891 1622h-78l-227 188l102 50zM1466 0h-90v1352l-1073 -1352h-70v1491h93v-1333l1056 1333h84v-1491z" />
    <glyph glyph-name="uni040E" unicode="&#x40e;" horiz-adv-x="1505" 
d="M774 1618q-121 0 -194 54.5t-84 148.5h75q38 -119 203 -119q162 0 203 119h76q-11 -94 -84.5 -148.5t-194.5 -54.5zM528 0h-104l324 524l-658 967h109l598 -887l528 887h107z" />
    <glyph glyph-name="uni040F" unicode="&#x40f;" horiz-adv-x="1646" 
d="M772 -311v311h-539v1491h93v-1407h983v1407h92v-1491h-539v-311h-90z" />
    <glyph glyph-name="uni0410" unicode="&#x410;" horiz-adv-x="1691" 
d="M102 0l701 1501h86l702 -1501h-100l-197 426h-901l-196 -426h-95zM432 510h823l-411 889z" />
    <glyph glyph-name="uni0411" unicode="&#x411;" horiz-adv-x="1515" 
d="M233 0v1491h1035v-84h-942v-580h516q254 0 401.5 -102t147.5 -299v-4q0 -139 -78.5 -236t-205 -141.5t-288.5 -44.5h-586zM326 84h497q217 0 346 87t129 245v6q0 161 -122.5 241t-339.5 80h-510v-659z" />
    <glyph glyph-name="uni0412" unicode="&#x412;" horiz-adv-x="1564" 
d="M233 0v1491h615q258 0 389 -131q96 -96 96 -238v-4q0 -139 -73.5 -226t-190.5 -128q72 -17 132 -45.5t109.5 -71.5t77 -104.5t27.5 -136.5v-5q0 -187 -144 -294t-390 -107h-648zM1239 1110v4q0 135 -103 214t-290 79h-520v-612h524q172 0 280.5 83t108.5 232zM1321 399v4
q0 147 -120.5 227.5t-332.5 80.5h-542v-627h557q204 0 321 84t117 231z" />
    <glyph glyph-name="uni0413" unicode="&#x413;" horiz-adv-x="1312" 
d="M233 0v1491h979v-84h-886v-1407h-93z" />
    <glyph glyph-name="uni0414" unicode="&#x414;" horiz-adv-x="1830" 
d="M92 84h144l634 1417h91l634 -1417h144v-395h-90v311h-1467v-311h-90v395zM915 1391l-583 -1307h1163z" />
    <glyph glyph-name="uni0415" unicode="&#x415;" horiz-adv-x="1445" 
d="M233 0v1491h1055v-84h-962v-614h868v-84h-868v-625h972v-84h-1065z" />
    <glyph glyph-name="uni0416" unicode="&#x416;" horiz-adv-x="2289" 
d="M94 1491h117l649 -686h238v686h92v-686h240l649 686h116l-686 -723l707 -768h-115l-667 721h-244v-721h-92v721h-248l-666 -721h-112l706 768z" />
    <glyph glyph-name="uni0417" unicode="&#x417;" horiz-adv-x="1406" 
d="M180 1237l-57 61q249 218 577 218q228 0 374.5 -109.5t146.5 -280.5v-4q0 -136 -88.5 -233.5t-245.5 -132.5q163 -29 264.5 -124.5t101.5 -234.5v-4q0 -184 -159.5 -301t-411.5 -117q-180 0 -319 52t-259 147l56 68q226 -187 522 -187q205 0 340 94.5t135 241.5v4
q0 151 -127.5 233.5t-357.5 82.5h-256v82h254q131 0 233 36t162.5 110.5t60.5 178.5v4q0 138 -118.5 226t-309.5 88q-279 0 -518 -199z" />
    <glyph glyph-name="uni0418" unicode="&#x418;" horiz-adv-x="1699" 
d="M1466 0h-90v1352l-1073 -1352h-70v1491h93v-1333l1056 1333h84v-1491z" />
    <glyph glyph-name="uni0419" unicode="&#x419;" horiz-adv-x="1699" 
d="M850 1618q-121 0 -194.5 54.5t-84.5 148.5h76q38 -119 203 -119q162 0 203 119h75q-11 -94 -84 -148.5t-194 -54.5zM1466 0h-90v1352l-1073 -1352h-70v1491h93v-1333l1056 1333h84v-1491z" />
    <glyph glyph-name="uni041A" unicode="&#x41a;" horiz-adv-x="1527" 
d="M233 0v1491h93v-686h311l670 686h123l-713 -725l741 -766h-127l-692 721h-313v-721h-93z" />
    <glyph glyph-name="uni041B" unicode="&#x41b;" horiz-adv-x="1654" 
d="M866 1501l688 -1501h-102l-627 1386l-626 -1386h-97l682 1501h82z" />
    <glyph glyph-name="uni041C" unicode="&#x41c;" horiz-adv-x="1867" 
d="M233 0v1491h86l615 -895l614 895h86v-1491h-92v1329l-606 -876h-6l-608 876v-1329h-89z" />
    <glyph glyph-name="uni041D" unicode="&#x41d;" horiz-adv-x="1638" 
d="M233 0v1491h93v-698h987v698h92v-1491h-92v709h-987v-709h-93z" />
    <glyph glyph-name="uni041E" unicode="&#x41e;" horiz-adv-x="1830" 
d="M913 -25q-165 0 -306 62.5t-236.5 168t-149 244.5t-53.5 291v4q0 153 54 292.5t149.5 246t237 169.5t306.5 63t307 -62.5t237.5 -168t149.5 -244.5t54 -291v-5q0 -153 -54 -292.5t-150 -245.5t-238.5 -169t-307.5 -63zM918 57q188 0 337.5 93t230.5 249t81 342v4
q0 185 -82.5 342t-233.5 252t-338 95t-337 -93t-232 -249t-82 -342v-5q0 -138 49 -264t134 -219.5t208.5 -149t264.5 -55.5z" />
    <glyph glyph-name="uni041F" unicode="&#x41f;" horiz-adv-x="1634" 
d="M233 0v1491h1168v-1491h-92v1407h-983v-1407h-93z" />
    <glyph glyph-name="uni0420" unicode="&#x420;" horiz-adv-x="1447" 
d="M233 0v1491h537q256 0 407.5 -120.5t151.5 -332.5v-4q0 -112 -45 -202t-123.5 -148t-184 -88.5t-228.5 -30.5h-422v-565h-93zM326 649h426q221 0 353 102.5t132 276.5v4q0 180 -127.5 277.5t-347.5 97.5h-436v-758z" />
    <glyph glyph-name="uni0421" unicode="&#x421;" horiz-adv-x="1595" 
d="M905 -25q-209 0 -378.5 102.5t-264 277.5t-94.5 386v4q0 208 95 384.5t266 281.5t380 105q186 0 317 -60.5t259 -177.5l-66 -66q-111 106 -229.5 164t-282.5 58q-181 0 -329.5 -91.5t-232 -248.5t-83.5 -344v-5q0 -142 49.5 -269.5t135 -219.5t206 -145.5t256.5 -53.5
q160 0 285.5 60t237.5 176l61 -62q-122 -122 -263 -189t-325 -67z" />
    <glyph glyph-name="uni0422" unicode="&#x422;" horiz-adv-x="1347" 
d="M629 0v1407h-527v84h1143v-84h-526v-1407h-90z" />
    <glyph glyph-name="uni0423" unicode="&#x423;" horiz-adv-x="1505" 
d="M528 0h-104l324 524l-658 967h109l598 -887l528 887h107z" />
    <glyph glyph-name="uni0424" unicode="&#x424;" horiz-adv-x="1933" 
d="M922 -35v199q-182 2 -329.5 46t-246 121t-152 184.5t-53.5 236.5v2q0 171 91.5 302t269 206.5t420.5 78.5v185h90v-185q363 -4 571.5 -164.5t208.5 -424.5v-2q0 -169 -91.5 -300t-269.5 -207t-419 -79v-199h-90zM236 752v-2q0 -108 44 -198.5t128 -158t215.5 -106.5
t298.5 -41v1014q-329 -4 -507.5 -142.5t-178.5 -365.5zM1698 752v2q0 108 -44.5 199t-129 159t-215.5 107t-297 41v-1014q220 3 376 68.5t233 177.5t77 260z" />
    <glyph glyph-name="uni0425" unicode="&#x425;" horiz-adv-x="1529" 
d="M1288 1491h109l-576 -731l598 -760h-110l-545 698l-543 -698h-108l596 760l-576 731h109l524 -672z" />
    <glyph glyph-name="uni0426" unicode="&#x426;" horiz-adv-x="1656" 
d="M1454 -311v311h-1221v1491h93v-1407h983v1407h92v-1407h143v-395h-90z" />
    <glyph glyph-name="uni0427" unicode="&#x427;" horiz-adv-x="1515" 
d="M1190 0v631q-213 -68 -451 -68q-271 0 -411 118.5t-140 379.5v430h93v-414q0 -229 113 -329.5t351 -100.5q226 0 445 70v774h92v-1491h-92z" />
    <glyph glyph-name="uni0428" unicode="&#x428;" horiz-adv-x="2359" 
d="M233 0v1491h93v-1407h809v1407h92v-1407h809v1407h90v-1491h-1893z" />
    <glyph glyph-name="uni0429" unicode="&#x429;" horiz-adv-x="2381" 
d="M233 0v1491h93v-1407h809v1407h92v-1407h809v1407h90v-1407h143v-395h-90v311h-1946z" />
    <glyph glyph-name="uni042A" unicode="&#x42a;" horiz-adv-x="1826" 
d="M612 0v1407h-518v84h611v-578h446q254 0 405.5 -119.5t151.5 -326.5v-6q0 -146 -80 -252t-210 -157.5t-292 -51.5h-514zM705 84h428q218 0 350.5 101t132.5 272v4q0 176 -126 271t-345 95h-440v-743z" />
    <glyph glyph-name="uni042B" unicode="&#x42b;" horiz-adv-x="1966" 
d="M233 0v1491h93v-578h446q254 0 405.5 -119.5t151.5 -326.5v-6q0 -146 -79.5 -252t-209.5 -157.5t-292 -51.5h-515zM326 84h428q218 0 350.5 101t132.5 272v4q0 176 -126 271t-345 95h-440v-743zM1640 0v1491h93v-1491h-93z" />
    <glyph glyph-name="uni042C" unicode="&#x42c;" horiz-adv-x="1447" 
d="M233 0v1491h93v-578h446q254 0 405.5 -119.5t151.5 -326.5v-6q0 -146 -79.5 -252t-209.5 -157.5t-292 -51.5h-515zM326 84h428q218 0 350.5 101t132.5 272v4q0 176 -126 271t-345 95h-440v-743z" />
    <glyph glyph-name="uni042D" unicode="&#x42d;" horiz-adv-x="1601" 
d="M176 1214l-59 62q258 240 588 240q158 0 294 -58.5t231.5 -160.5t149.5 -243.5t54 -303.5v-5q0 -159 -54 -300t-150 -245t-235.5 -164.5t-302.5 -60.5q-334 0 -583 252l63 64q228 -234 520 -234q184 0 330 86.5t227.5 235t89.5 332.5h-905v82h903q-11 183 -94 329
t-223.5 229t-314.5 83q-292 0 -529 -220z" />
    <glyph glyph-name="uni042E" unicode="&#x42e;" horiz-adv-x="2332" 
d="M233 0v1491h93v-698h393q9 144 64 274.5t147 230.5t225 159t287 59q160 0 297 -63.5t229.5 -169.5t144.5 -245t52 -288v-5q0 -150 -53 -289.5t-146 -246t-230.5 -170.5t-295.5 -64q-155 0 -289 60.5t-226 162t-147 234.5t-61 277h-391v-709h-93zM1444 57q135 0 253 55.5
t199.5 149t128 218t46.5 261.5v4q0 137 -47.5 263t-129.5 220t-200.5 150t-253.5 56t-253.5 -55.5t-200 -148.5t-128.5 -218t-47 -262v-5q0 -137 47.5 -263t130 -219.5t201.5 -149.5t254 -56z" />
    <glyph glyph-name="uni042F" unicode="&#x42f;" horiz-adv-x="1564" 
d="M176 1065v2q0 187 148 305.5t397 118.5h610v-1491h-92v627h-494l-493 -627h-117l504 635q-209 18 -336 131.5t-127 298.5zM1239 711v696h-522q-212 0 -330.5 -93t-118.5 -249v-4q0 -167 128.5 -258.5t340.5 -91.5h502z" />
    <glyph glyph-name="uni0430" unicode="&#x430;" horiz-adv-x="1241" 
d="M535 -25q-78 0 -151 21.5t-132.5 62t-95 105.5t-35.5 145v4q0 165 131 257t344 92q195 0 373 -52v60q0 170 -98 258t-275 88q-165 0 -344 -88l-31 76q200 94 381 94q223 0 342 -119q109 -109 109 -305v-674h-84v203q-57 -96 -167 -162t-267 -66zM539 55q182 0 306 100
t124 246v127q-173 56 -377 56q-177 0 -278 -71t-101 -196v-4q0 -118 95.5 -188t230.5 -70z" />
    <glyph glyph-name="uni0431" unicode="&#x431;" horiz-adv-x="1388" 
d="M709 -25q-231 0 -377 146q-170 167 -170 495v2q0 306 59.5 489t188 278.5t354.5 134.5l336 57l16 -82l-342 -59q-115 -20 -196.5 -53.5t-141.5 -84t-97.5 -126.5t-59 -172t-31.5 -230q65 141 193 218t290 77q152 0 272 -72t185 -193.5t65 -269.5v-2q0 -112 -39.5 -212.5
t-109 -176t-172.5 -120t-223 -44.5zM711 55q199 0 324.5 135.5t125.5 335.5v2q0 197 -122 326t-312 129q-202 0 -337.5 -125t-135.5 -313q0 -219 131.5 -354.5t325.5 -135.5z" />
    <glyph glyph-name="uni0432" unicode="&#x432;" horiz-adv-x="1294" 
d="M211 0v1079h545q167 0 262.5 -72t95.5 -200q0 -97 -58 -161.5t-161 -94.5q121 -24 189.5 -90.5t68.5 -173.5q0 -135 -103.5 -211t-289.5 -76h-549zM1022 803q0 93 -69.5 145.5t-198.5 52.5h-457v-413h436q135 0 212 58t77 157zM1063 287q0 104 -84.5 163.5t-243.5 59.5
h-438v-430h463q145 0 224 56.5t79 150.5z" />
    <glyph glyph-name="uni0433" unicode="&#x433;" horiz-adv-x="1050" 
d="M211 0v1079h770v-78h-684v-1001h-86z" />
    <glyph glyph-name="uni0434" unicode="&#x434;" horiz-adv-x="1406" 
d="M659 1087h89l464 -1007h127v-377h-82v297h-1107v-297h-82v377h127zM702 1001l-415 -921h827z" />
    <glyph glyph-name="uni0435" unicode="&#x435;" horiz-adv-x="1267" 
d="M668 -25q-107 0 -204 41t-170 113t-116 179t-43 231v4q0 156 67 285t185 203.5t262 74.5q116 0 211 -46t156.5 -124t95 -180.5t33.5 -216.5v-33h-918q12 -205 139.5 -328t305.5 -123q222 0 379 185l61 -54q-178 -211 -444 -211zM227 584h826q-6 88 -34.5 166t-77.5 140.5
t-125 99t-169 36.5q-172 0 -290 -125.5t-130 -316.5z" />
    <glyph glyph-name="uni0436" unicode="&#x436;" horiz-adv-x="1830" 
d="M958 1079v-493h226l444 493h111l-484 -532l504 -547h-112l-463 506h-226v-506h-86v506h-229l-463 -506h-110l501 547l-481 532h113l444 -493h225v493h86z" />
    <glyph glyph-name="uni0437" unicode="&#x437;" horiz-adv-x="1196" 
d="M104 117l50 73q184 -135 430 -135q171 0 274 64.5t103 169.5v2q0 104 -97 162t-272 57h-242v78h242q158 0 249 60t91 161v2q0 98 -89 156.5t-245 58.5q-231 0 -432 -145l-45 69q226 156 475 156q199 0 312.5 -80.5t113.5 -212.5v-4q0 -103 -71 -167.5t-177 -88.5
q126 -22 202.5 -87.5t76.5 -176.5v-2q0 -136 -125.5 -224t-343.5 -88q-136 0 -262 39t-218 103z" />
    <glyph glyph-name="uni0438" unicode="&#x438;" horiz-adv-x="1374" 
d="M211 0v1079h86v-954l782 954h86v-1079h-88v952l-782 -952h-84z" />
    <glyph glyph-name="uni0439" unicode="&#x439;" horiz-adv-x="1374" 
d="M211 0v1079h86v-954l782 954h86v-1079h-88v952l-782 -952h-84zM686 1262q-120 0 -193.5 62t-84.5 167h69q19 -65 71 -105t138 -40q87 0 138.5 40t70.5 105h70q-11 -105 -86 -167t-193 -62z" />
    <glyph glyph-name="uni043A" unicode="&#x43a;" horiz-adv-x="1202" 
d="M297 1079v-493h246l465 493h110l-500 -530l519 -549h-117l-473 506h-250v-506h-86v1079h86z" />
    <glyph glyph-name="uni043B" unicode="&#x43b;" horiz-adv-x="1284" 
d="M680 1087l506 -1087h-101l-444 979l-446 -979h-97l506 1087h76z" />
    <glyph glyph-name="uni043C" unicode="&#x43c;" horiz-adv-x="1552" 
d="M211 0v1079h90l475 -684l475 684h90v-1079h-90v934l-473 -672h-6l-475 670v-932h-86z" />
    <glyph glyph-name="uni043D" unicode="&#x43d;" horiz-adv-x="1366" 
d="M211 0v1079h86v-493h772v493h86v-1079h-86v506h-772v-506h-86z" />
    <glyph glyph-name="uni043E" unicode="&#x43e;" horiz-adv-x="1384" 
d="M690 -25q-119 0 -223 45.5t-176.5 122t-114 179t-41.5 215.5v4q0 150 70.5 279t199.5 207.5t289 78.5q119 0 223 -45t176.5 -121.5t114 -179t41.5 -215.5v-4q0 -151 -70.5 -280t-199.5 -207.5t-289 -78.5zM694 55q132 0 238.5 66t164.5 176t58 240v4q0 132 -61 243
t-168 175.5t-236 64.5q-133 0 -239.5 -65t-165 -175t-58.5 -241v-4q0 -202 134.5 -343t332.5 -141z" />
    <glyph glyph-name="uni043F" unicode="&#x43f;" horiz-adv-x="1359" 
d="M211 0v1079h940v-1079h-86v1001h-768v-1001h-86z" />
    <glyph glyph-name="uni0440" unicode="&#x440;" horiz-adv-x="1427" 
d="M211 -340v1419h86v-268q69 131 186.5 213t274.5 82q82 0 160.5 -25.5t144.5 -75t116 -117t78.5 -156.5t28.5 -189v-4q0 -124 -43.5 -231t-116.5 -179t-169 -113t-199 -41q-161 0 -278.5 80t-182.5 207v-602h-86zM750 57q192 0 318 132.5t126 347.5v4q0 212 -127.5 346.5
t-316.5 134.5q-122 0 -227 -61.5t-168.5 -172t-63.5 -245.5v-4q0 -136 64 -247.5t169 -173t226 -61.5z" />
    <glyph glyph-name="uni0441" unicode="&#x441;" horiz-adv-x="1234" 
d="M686 -25q-151 0 -278.5 77t-200 206t-72.5 279v4q0 112 43 216t116 180.5t176 122.5t216 46q139 0 241.5 -53.5t190.5 -147.5l-61 -61q-79 84 -168 132t-205 48q-191 0 -323 -140t-132 -339v-4q0 -201 135 -343.5t328 -142.5q210 0 375 187l59 -54
q-88 -102 -192.5 -157.5t-247.5 -55.5z" />
    <glyph glyph-name="uni0442" unicode="&#x442;" horiz-adv-x="1163" 
d="M539 0v1001h-476v78h1037v-78h-475v-1001h-86z" />
    <glyph glyph-name="uni0443" unicode="&#x443;" horiz-adv-x="1265" 
d="M659 94l412 985h94l-477 -1112q-76 -175 -159 -245t-197 -70q-102 0 -211 51l33 76q80 -45 182 -45q89 0 150.5 58.5t129.5 211.5l-520 1075h101z" />
    <glyph glyph-name="uni0444" unicode="&#x444;" horiz-adv-x="1753" 
d="M920 -340h-86v334q-168 2 -302 43.5t-220.5 114.5t-132.5 171t-46 214v2q0 117 46 215.5t132.5 171.5t220.5 115t302 44v469h86v-469q168 -2 301.5 -43.5t220.5 -114t132.5 -170.5t45.5 -214v-2q0 -117 -45.5 -216t-132.5 -172t-220.5 -115t-301.5 -44v-334zM1528 539v2
q0 102 -39 186t-113.5 145.5t-191 96.5t-264.5 37v-932q296 4 452 130t156 335zM225 541v-2q0 -209 156.5 -335t452.5 -130v932q-296 -4 -452.5 -130t-156.5 -335z" />
    <glyph glyph-name="uni0445" unicode="&#x445;" horiz-adv-x="1212" 
d="M225 1079l381 -471l385 471h105l-434 -528l450 -551h-106l-402 492l-399 -492h-105l451 549l-432 530h106z" />
    <glyph glyph-name="uni0446" unicode="&#x446;" horiz-adv-x="1386" 
d="M1196 -297v297h-985v1079h86v-999h768v999h86v-999h127v-377h-82z" />
    <glyph glyph-name="uni0447" unicode="&#x447;" horiz-adv-x="1261" 
d="M965 0v406q-200 -52 -357 -52q-217 0 -329.5 94.5t-112.5 301.5v329h86v-325q0 -169 88 -243.5t274 -74.5q162 0 351 51v592h86v-1079h-86z" />
    <glyph glyph-name="uni0448" unicode="&#x448;" horiz-adv-x="1976" 
d="M211 0v1079h86v-999h647v999h88v-999h647v999h86v-1079h-1554z" />
    <glyph glyph-name="uni0449" unicode="&#x449;" horiz-adv-x="2000" 
d="M211 0v1079h86v-999h647v999h88v-999h647v999h86v-999h127v-377h-82v297h-1599z" />
    <glyph glyph-name="uni044A" unicode="&#x44a;" horiz-adv-x="1462" 
d="M55 1079h484v-401h405q191 0 301.5 -93t110.5 -243v-6q0 -150 -110.5 -243t-301.5 -93h-491v1001h-398v78zM539 598v-520h405q157 0 239.5 70t82.5 190v2q0 120 -83 189t-239 69h-405z" />
    <glyph glyph-name="uni044B" unicode="&#x44b;" horiz-adv-x="1638" 
d="M297 1079v-401h405q191 0 301.5 -93t110.5 -243v-6q0 -150 -110.5 -243t-301.5 -93h-491v1079h86zM297 598v-520h405q156 0 239 70t83 190v2q0 120 -83 189t-239 69h-405zM1341 0v1079h86v-1079h-86z" />
    <glyph glyph-name="uni044C" unicode="&#x44c;" horiz-adv-x="1220" 
d="M297 1079v-401h405q191 0 301.5 -93t110.5 -243v-6q0 -150 -110.5 -243t-301.5 -93h-491v1079h86zM297 598v-520h405q156 0 239 70t83 190v2q0 120 -83 189t-239 69h-405z" />
    <glyph glyph-name="uni044D" unicode="&#x44d;" horiz-adv-x="1239" 
d="M104 172l62 61q160 -178 391 -178q188 0 316.5 131t136.5 324h-654v80h652q-12 185 -137.5 309.5t-307.5 124.5q-221 0 -395 -170l-55 64q197 188 450 188q232 0 386.5 -161t154.5 -402v-4q0 -111 -41.5 -214t-113 -180.5t-174 -123.5t-218.5 -46q-142 0 -250 49.5
t-203 147.5z" />
    <glyph glyph-name="uni044E" unicode="&#x44e;" horiz-adv-x="1830" 
d="M297 506v-506h-86v1079h86v-493h315q9 105 52.5 199.5t113 165.5t167.5 113t210 42q156 0 281.5 -78t192.5 -205.5t67 -277.5v-4q0 -112 -40.5 -215.5t-111 -181t-172.5 -123.5t-219 -46q-152 0 -274.5 72.5t-191.5 193t-77 265.5h-313zM1155 55q130 0 233.5 66.5
t159.5 176t56 239.5v4q0 131 -58 241.5t-162.5 176t-232.5 65.5q-130 0 -233.5 -65t-159.5 -174.5t-56 -241.5v-4q0 -131 58 -241.5t162.5 -176.5t232.5 -66z" />
    <glyph glyph-name="uni044F" unicode="&#x44f;" horiz-adv-x="1312" 
d="M1016 428h-443l-335 -428h-111l348 434q-145 23 -225 108.5t-80 211.5v2q0 141 112 232t296 91h526v-1079h-88v428zM1016 1001h-443q-141 0 -227 -69t-86 -176v-2q0 -114 84.5 -182t230.5 -68h441v497z" />
    <glyph glyph-name="uni0450" unicode="&#x450;" horiz-adv-x="1267" 
d="M668 -25q-107 0 -204 41t-170 113t-116 179t-43 231v4q0 156 67 285t185 203.5t262 74.5q116 0 211 -46t156.5 -124t95 -180.5t33.5 -216.5v-33h-918q12 -205 139.5 -328t305.5 -123q222 0 379 185l61 -54q-178 -211 -444 -211zM227 584h826q-6 88 -34.5 166t-77.5 140.5
t-125 99t-169 36.5q-172 0 -290 -125.5t-130 -316.5zM616 1268l-221 219l107 51l186 -270h-72z" />
    <glyph glyph-name="uni0451" unicode="&#x451;" horiz-adv-x="1267" 
d="M750 1280v152h124v-152h-124zM424 1280v152h125v-152h-125zM668 -25q-107 0 -204 41t-170 113t-116 179t-43 231v4q0 156 67 285t185 203.5t262 74.5q116 0 211 -46t156.5 -124t95 -180.5t33.5 -216.5v-33h-918q12 -205 139.5 -328t305.5 -123q222 0 379 185l61 -54
q-178 -211 -444 -211zM227 584h826q-6 88 -34.5 166t-77.5 140.5t-125 99t-169 36.5q-172 0 -290 -125.5t-130 -316.5z" />
    <glyph glyph-name="uni0452" unicode="&#x452;" horiz-adv-x="1275" 
d="M707 1253h-410v-399q196 51 356 51q217 0 330 -95t113 -300v-432q0 -213 -86 -319.5t-267 -106.5q-40 0 -122 16v82q63 -18 120 -18q138 0 203.5 81.5t65.5 268.5v422q0 168 -89.5 243.5t-273.5 75.5q-165 0 -350 -53v-770h-86v1253h-242v80h242v221h86v-221h410v-80z
" />
    <glyph glyph-name="uni0453" unicode="&#x453;" horiz-adv-x="1050" 
d="M526 1268l187 270l106 -51l-221 -219h-72zM211 0v1079h770v-78h-684v-1001h-86z" />
    <glyph glyph-name="uni0454" unicode="&#x454;" horiz-adv-x="1234" 
d="M1118 920l-57 -66q-84 82 -171.5 126t-205.5 44q-182 0 -312.5 -125t-142.5 -309h654v-80h-654q8 -193 140 -324t323 -131q217 0 381 178l55 -57q-88 -97 -194 -149t-248 -52q-154 0 -281 75.5t-198.5 204.5t-71.5 282v4q0 153 72.5 282.5t199.5 206t279 76.5
q141 0 242 -48.5t190 -137.5z" />
    <glyph glyph-name="uni0455" unicode="&#x455;" horiz-adv-x="1079" 
d="M555 -20q-117 0 -235.5 42.5t-206.5 114.5l53 70q178 -146 393 -146q121 0 203 60t82 155v5q0 40 -18 73t-43.5 55t-70.5 42t-81 31.5t-94 27.5q-49 14 -80.5 23.5t-75 26t-71 31.5t-58 37.5t-48 47t-29 58t-11.5 71.5v4q0 128 100.5 209.5t261.5 81.5q199 0 381 -119
l-47 -72q-163 111 -336 111q-121 0 -195.5 -56.5t-74.5 -144.5v-4q0 -27 9.5 -50t23 -40.5t39.5 -34.5t47.5 -28t60 -25t63.5 -22t70 -21q64 -17 110.5 -32.5t97.5 -41.5t83 -56t53 -74.5t21 -98.5v-4q0 -138 -107.5 -222.5t-269.5 -84.5z" />
    <glyph glyph-name="uni0456" unicode="&#x456;" horiz-adv-x="536" 
d="M213 1370v135h111v-135h-111zM225 0v1079h86v-1079h-86z" />
    <glyph glyph-name="uni0457" unicode="&#x457;" horiz-adv-x="536" 
d="M369 1280v152h125v-152h-125zM43 1280v152h125v-152h-125zM225 0v1079h86v-1079h-86z" />
    <glyph glyph-name="uni0458" unicode="&#x458;" horiz-adv-x="536" 
d="M213 1370v135h111v-135h-111zM86 -350q-43 0 -84 8v78q38 -6 84 -6q64 0 101.5 42t37.5 124v1183h88v-1177q0 -126 -60 -189t-167 -63z" />
    <glyph glyph-name="uni0459" unicode="&#x459;" horiz-adv-x="1773" 
d="M784 0v1004h-2l-643 -1004h-98l694 1079h135v-401h385q191 0 301.5 -93t110.5 -243v-6q0 -151 -110.5 -243.5t-303.5 -92.5h-469zM870 78h383q158 0 241 70t83 190v2q0 120 -83 189t-241 69h-383v-520z" />
    <glyph glyph-name="uni045A" unicode="&#x45a;" horiz-adv-x="2039" 
d="M1137 1079v-401h385q190 0 300.5 -93t110.5 -243v-6q0 -150 -110.5 -243t-300.5 -93h-471v506h-754v-506h-86v1079h86v-493h754v493h86zM1137 598v-520h385q157 0 239 70t82 190v2q0 120 -82.5 189t-238.5 69h-385z" />
    <glyph glyph-name="uni045B" unicode="&#x45b;" horiz-adv-x="1275" 
d="M297 1554v-221h410v-80h-410v-399q196 51 356 51q217 0 330 -95t113 -300v-510h-86v504q0 168 -89.5 243.5t-273.5 75.5q-165 0 -350 -53v-770h-86v1253h-242v80h242v221h86z" />
    <glyph glyph-name="uni045C" unicode="&#x45c;" horiz-adv-x="1202" 
d="M573 1266l187 270l106 -51l-221 -219h-72zM297 1079v-493h246l465 493h110l-500 -530l519 -549h-117l-473 506h-250v-506h-86v1079h86z" />
    <glyph glyph-name="uni045D" unicode="&#x45d;" horiz-adv-x="1374" 
d="M653 1266l-221 219l107 51l186 -270h-72zM211 0v1079h86v-954l782 954h86v-1079h-88v952l-782 -952h-84z" />
    <glyph glyph-name="uni045E" unicode="&#x45e;" horiz-adv-x="1265" 
d="M659 94l412 985h94l-477 -1112q-76 -175 -159 -245t-197 -70q-102 0 -211 51l33 76q80 -45 182 -45q89 0 150.5 58.5t129.5 211.5l-520 1075h101zM639 1262q-120 0 -194 62t-85 167h70q19 -65 71 -105t138 -40q87 0 138.5 40t70.5 105h70q-11 -105 -86 -167t-193 -62z
" />
    <glyph glyph-name="uni045F" unicode="&#x45f;" horiz-adv-x="1359" 
d="M211 0v1079h86v-999h768v999h86v-1079h-432v-297h-82v297h-426z" />
    <glyph glyph-name="uni0462" unicode="&#x462;" horiz-adv-x="1826" 
d="M705 799h483q251 0 385.5 -102t134.5 -289v-7q0 -187 -145 -294t-385 -107h-564v1153h-520v84h520v289h91v-289h575v-84h-575v-354zM1184 715h-479v-631h477q204 0 320 83.5t116 231.5v4q0 312 -434 312z" />
    <glyph glyph-name="uni0463" unicode="&#x463;" horiz-adv-x="1462" 
d="M539 678h405q191 0 301.5 -93t110.5 -243v-6q0 -150 -110.5 -243t-301.5 -93h-491v1001h-398v78h398v475h86v-475h473v-78h-473v-323zM539 598v-520h405q157 0 239.5 70t82.5 190v2q0 120 -83 189t-239 69h-405z" />
    <glyph glyph-name="uni0472" unicode="&#x472;" horiz-adv-x="1830" 
d="M913 -25q-165 0 -306 62.5t-236.5 167.5t-149 244t-53.5 292v4q0 153 54 293t149 246t237 169t307 63t307 -62.5t237.5 -167.5t149.5 -244t54 -292v-5q0 -122 -34 -237t-100 -211.5t-156 -168.5t-208.5 -112.5t-251.5 -40.5zM918 57q136 0 255.5 51.5t203.5 139.5
t135 207.5t57 253.5h-1309q8 -177 93.5 -326t234.5 -237.5t330 -88.5zM913 1434q-137 0 -256 -50.5t-202.5 -137t-134.5 -204t-60 -249.5h1307q-12 175 -96 320.5t-231 233t-327 87.5z" />
    <glyph glyph-name="uni0473" unicode="&#x473;" horiz-adv-x="1384" 
d="M690 -25q-119 0 -223 45.5t-176.5 122t-114 179t-41.5 215.5v4q0 150 70.5 279t199.5 207.5t289 78.5q119 0 223 -45t176.5 -121.5t114 -179t41.5 -215.5v-4q0 -151 -70.5 -280t-199.5 -207.5t-289 -78.5zM694 55q192 0 321.5 131t141.5 320h-932q12 -191 145.5 -321
t323.5 -130zM690 1024q-190 0 -318.5 -125t-146.5 -313h932q-17 186 -150 312t-317 126z" />
    <glyph glyph-name="uni0474" unicode="&#x474;" horiz-adv-x="1689" 
d="M760 -10l-658 1501h101l598 -1391l432 1041q84 204 178 280t246 76h12v-82h-10q-122 0 -198 -67.5t-150 -239.5l-473 -1118h-78z" />
    <glyph glyph-name="uni0475" unicode="&#x475;" horiz-adv-x="1269" 
d="M567 -8l-467 1087h99l405 -983l279 676q72 176 152 245.5t198 69.5h6v-79h-2q-87 0 -149.5 -57.5t-126.5 -207.5l-320 -751h-74z" />
    <glyph glyph-name="uni0490" unicode="&#x490;" horiz-adv-x="1312" 
d="M233 1491h891v297h88v-381h-886v-1407h-93v1491z" />
    <glyph glyph-name="uni0491" unicode="&#x491;" horiz-adv-x="1050" 
d="M211 0v1079h688v289h82v-367h-684v-1001h-86z" />
    <glyph glyph-name="uni0492" unicode="&#x492;" horiz-adv-x="1376" 
d="M297 0v694h-160v84h160v713h979v-84h-887v-629h445v-84h-445v-694h-92z" />
    <glyph glyph-name="uni0493" unicode="&#x493;" horiz-adv-x="1091" 
d="M252 0v485h-150v80h150v514h770v-78h-684v-436h319v-80h-319v-485h-86z" />
    <glyph glyph-name="uni0496" unicode="&#x496;" horiz-adv-x="2328" 
d="M2195 1491l-686 -723l629 -684h148v-395h-91v311h-94l-667 721h-244v-721h-92v721h-248l-666 -721h-112l706 768l-684 723h117l649 -686h238v686h92v-686h240l649 686h116z" />
    <glyph glyph-name="uni0497" unicode="&#x497;" horiz-adv-x="1857" 
d="M1739 1079l-484 -532l431 -467h135v-377h-82v297h-92l-463 506h-226v-506h-86v506h-229l-463 -506h-110l501 547l-481 532h113l444 -493h225v493h86v-493h226l444 493h111z" />
    <glyph glyph-name="uni0498" unicode="&#x498;" horiz-adv-x="1404" 
d="M178 1237l-57 61q249 218 577 218q228 0 374.5 -109.5t146.5 -280.5v-4q0 -136 -88.5 -233.5t-245.5 -132.5q163 -29 264.5 -124.5t101.5 -234.5v-4q0 -177 -148.5 -292.5t-383.5 -123.5v-288h-88v288q-298 13 -529 197l56 68q226 -187 522 -187q205 0 340 94.5
t135 241.5v4q0 151 -127.5 233.5t-357.5 82.5h-256v82h254q131 0 233 36t162.5 110.5t60.5 178.5v4q0 138 -118.5 226t-309.5 88q-279 0 -518 -199z" />
    <glyph glyph-name="uni0499" unicode="&#x499;" horiz-adv-x="1196" 
d="M104 117l50 73q184 -135 430 -135q171 0 274 64.5t103 169.5v2q0 104 -97 162t-272 57h-242v78h242q158 0 249 60t91 161v2q0 98 -89 156.5t-245 58.5q-231 0 -432 -145l-45 69q226 156 475 156q199 0 312.5 -80.5t113.5 -212.5v-4q0 -103 -71 -167.5t-177 -88.5
q126 -22 202.5 -87.5t76.5 -176.5v-2q0 -132 -113.5 -217.5t-318.5 -92.5v-274h-82v274q-125 6 -239 43.5t-196 96.5z" />
    <glyph glyph-name="uni049A" unicode="&#x49a;" horiz-adv-x="1566" 
d="M233 0v1491h93v-686h311l670 686h123l-713 -725l659 -682h148v-395h-90v311h-103l-692 721h-313v-721h-93z" />
    <glyph glyph-name="uni049B" unicode="&#x49b;" horiz-adv-x="1220" 
d="M297 1079v-493h246l465 493h110l-500 -530l443 -469h123v-377h-82v297h-82l-473 506h-250v-506h-86v1079h86z" />
    <glyph glyph-name="uni049C" unicode="&#x49c;" horiz-adv-x="1581" 
d="M1481 1491l-617 -727l637 -764h-117l-596 711h-26v-494h-88v494h-348v-711h-93v1491h93v-696h348v499h88v-499h18l582 696h119z" />
    <glyph glyph-name="uni049D" unicode="&#x49d;" horiz-adv-x="1292" 
d="M1204 1079l-448 -518l450 -561h-108l-414 514h-68v-346h-84v346h-235v-514h-86v1079h86v-487h235v350h84v-350h64l412 487h112z" />
    <glyph glyph-name="uni04A0" unicode="&#x4a0;" horiz-adv-x="1908" 
d="M94 1407v84h611v-686h311l670 686h122l-712 -725l741 -766h-127l-692 721h-313v-721h-93v1407h-518z" />
    <glyph glyph-name="uni04A1" unicode="&#x4a1;" horiz-adv-x="1443" 
d="M539 1079v-493h245l465 493h111l-500 -530l518 -549h-116l-474 506h-249v-506h-86v1001h-398v78h484z" />
    <glyph glyph-name="uni04A2" unicode="&#x4a2;" horiz-adv-x="1660" 
d="M233 0v1491h93v-698h987v698h92v-1407h143v-395h-90v311h-145v709h-987v-709h-93z" />
    <glyph glyph-name="uni04A3" unicode="&#x4a3;" horiz-adv-x="1390" 
d="M209 0v1079h86v-493h772v493h86v-999h129v-377h-82v297h-133v506h-772v-506h-86z" />
    <glyph glyph-name="uni04A4" unicode="&#x4a4;" horiz-adv-x="2211" 
d="M1217 0v709h-955v-709h-90v1491h90v-698h955v698h894v-84h-802v-1407h-92z" />
    <glyph glyph-name="uni04A5" unicode="&#x4a5;" horiz-adv-x="1859" 
d="M1051 0v506h-754v-506h-86v1079h86v-493h754v493h737v-78h-651v-1001h-86z" />
    <glyph glyph-name="uni04AA" unicode="&#x4aa;" horiz-adv-x="1595" 
d="M856 -311v288q-196 11 -354 116t-246 275.5t-88 372.5v4q0 208 95 384.5t266 281.5t380 105q186 0 317 -60.5t259 -177.5l-66 -66q-111 106 -229.5 164t-282.5 58q-181 0 -329.5 -91.5t-232 -248.5t-83.5 -344v-5q0 -142 49.5 -269.5t135 -219.5t206 -145.5t256.5 -53.5
q160 0 285.5 60t237.5 176l61 -62q-117 -117 -246.5 -182t-300.5 -72v-288h-90z" />
    <glyph glyph-name="uni04AB" unicode="&#x4ab;" horiz-adv-x="1234" 
d="M637 -297v274q-141 11 -256.5 90t-180.5 203.5t-65 266.5v4q0 112 43 216t116 180.5t176 122.5t216 46q139 0 241.5 -53.5t190.5 -147.5l-61 -61q-79 84 -168 132t-205 48q-191 0 -323 -140t-132 -339v-4q0 -201 135 -343.5t328 -142.5q210 0 375 187l59 -54
q-171 -201 -407 -211v-274h-82z" />
    <glyph glyph-name="uni04AE" unicode="&#x4ae;" horiz-adv-x="1511" 
d="M711 0v600l-637 891h114l570 -809l571 809h109l-635 -889v-602h-92z" />
    <glyph glyph-name="uni04AF" unicode="&#x4af;" horiz-adv-x="1249" 
d="M1151 1079l-483 -1075v-344h-86v350l-482 1069h99l428 -981l428 981h96z" />
    <glyph glyph-name="uni04B0" unicode="&#x4b0;" horiz-adv-x="1511" 
d="M711 0v532h-414v84h401l-624 875h114l570 -809l571 809h109l-625 -875h399v-84h-409v-532h-92z" />
    <glyph glyph-name="uni04B1" unicode="&#x4b1;" horiz-adv-x="1249" 
d="M1030 80v-80h-362v-340h-86v340h-363v80h330l-449 999h99l428 -981l428 981h96l-451 -999h330z" />
    <glyph glyph-name="uni04B2" unicode="&#x4b2;" horiz-adv-x="1560" 
d="M1288 1491h109l-576 -731l531 -676h139v-395h-90v311h-92l-545 698l-543 -698h-108l596 760l-576 731h109l524 -672z" />
    <glyph glyph-name="uni04B3" unicode="&#x4b3;" horiz-adv-x="1226" 
d="M225 1079l381 -471l385 471h105l-434 -528l385 -471h124v-377h-81v297h-84l-402 492l-399 -492h-105l451 549l-432 530h106z" />
    <glyph glyph-name="uni04B6" unicode="&#x4b6;" horiz-adv-x="1538" 
d="M1190 0v631q-213 -68 -451 -68q-271 0 -411 118.5t-140 379.5v430h93v-414q0 -229 113 -329.5t351 -100.5q226 0 445 70v774h92v-1407h143v-395h-90v311h-145z" />
    <glyph glyph-name="uni04B7" unicode="&#x4b7;" horiz-adv-x="1286" 
d="M965 0v406q-200 -52 -357 -52q-217 0 -329.5 94.5t-112.5 301.5v329h86v-325q0 -169 88 -243.5t274 -74.5q162 0 351 51v592h86v-999h127v-377h-82v297h-131z" />
    <glyph glyph-name="uni04B8" unicode="&#x4b8;" horiz-adv-x="1507" 
d="M1182 0v631q-196 -58 -406 -68v-373h-88v373q-252 8 -380 127t-128 371v430h90v-414q0 -218 102 -320t316 -110v500h88v-500q223 11 406 70v774h92v-1491h-92z" />
    <glyph glyph-name="uni04B9" unicode="&#x4b9;" horiz-adv-x="1261" 
d="M965 0v406q-156 -43 -312 -52v-237h-84v237q-403 18 -403 391v334h86v-317q0 -167 79 -242.5t238 -83.5v355h84v-355q174 10 312 51v592h86v-1079h-86z" />
    <glyph glyph-name="uni04BA" unicode="&#x4ba;" horiz-adv-x="1507" 
d="M307 1491v-633q219 70 451 70q273 0 412 -118.5t139 -379.5v-430h-90v414q0 229 -113.5 329.5t-353.5 100.5q-226 0 -445 -70v-774h-92v1491h92z" />
    <glyph glyph-name="uni04BB" unicode="&#x4bb;" horiz-adv-x="1327" 
d="M211 0v1554h86v-704q49 110 151.5 183t251.5 73q205 0 322 -127t117 -334v-645h-88v631q0 181 -96 288t-267 107q-166 0 -278.5 -117t-112.5 -293v-616h-86z" />
    <glyph glyph-name="uni04C0" unicode="&#x4c0;" horiz-adv-x="589" 
d="M248 0v1491h92v-1491h-92z" />
    <glyph glyph-name="uni04C1" unicode="&#x4c1;" horiz-adv-x="2289" 
d="M1145 1626q-121 0 -194.5 54.5t-84.5 148.5h76q38 -119 203 -119q162 0 203 119h75q-11 -94 -84 -148.5t-194 -54.5zM94 1491h117l649 -686h238v686h92v-686h240l649 686h116l-686 -723l707 -768h-115l-667 721h-244v-721h-92v721h-248l-666 -721h-112l706 768z" />
    <glyph glyph-name="uni04C2" unicode="&#x4c2;" horiz-adv-x="1830" 
d="M958 1079v-493h226l444 493h111l-484 -532l504 -547h-112l-463 506h-226v-506h-86v506h-229l-463 -506h-110l501 547l-481 532h113l444 -493h225v493h86zM915 1264q-120 0 -193.5 62t-84.5 167h70q19 -65 70.5 -105t137.5 -40q87 0 138.5 40t70.5 105h70
q-11 -105 -86 -167t-193 -62z" />
    <glyph glyph-name="uni04CF" unicode="&#x4cf;" horiz-adv-x="536" 
d="M225 0v1554h86v-1554h-86z" />
    <glyph glyph-name="uni04D0" unicode="&#x4d0;" horiz-adv-x="1691" 
d="M102 0l701 1501h86l702 -1501h-100l-197 426h-901l-196 -426h-95zM432 510h823l-411 889zM846 1645q-121 0 -194.5 54t-84.5 148h76q38 -118 203 -118q162 0 203 118h75q-11 -94 -84 -148t-194 -54z" />
    <glyph glyph-name="uni04D1" unicode="&#x4d1;" horiz-adv-x="1241" 
d="M535 -25q-78 0 -151 21.5t-132.5 62t-95 105.5t-35.5 145v4q0 165 131 257t344 92q195 0 373 -52v60q0 170 -98 258t-275 88q-165 0 -344 -88l-31 76q200 94 381 94q223 0 342 -119q109 -109 109 -305v-674h-84v203q-57 -96 -167 -162t-267 -66zM539 55q182 0 306 100
t124 246v127q-173 56 -377 56q-177 0 -278 -71t-101 -196v-4q0 -118 95.5 -188t230.5 -70zM623 1264q-120 0 -194 62t-85 167h70q19 -65 71 -105t138 -40q87 0 138 40t70 105h70q-11 -105 -85.5 -167t-192.5 -62z" />
    <glyph glyph-name="uni04D2" unicode="&#x4d2;" horiz-adv-x="1691" 
d="M102 0l701 1501h86l702 -1501h-100l-197 426h-901l-196 -426h-95zM432 510h823l-411 889zM956 1661v143h134v-143h-134zM604 1661v143h135v-143h-135z" />
    <glyph glyph-name="uni04D3" unicode="&#x4d3;" horiz-adv-x="1241" 
d="M535 -25q-78 0 -151 21.5t-132.5 62t-95 105.5t-35.5 145v4q0 165 131 257t344 92q195 0 373 -52v60q0 170 -98 258t-275 88q-165 0 -344 -88l-31 76q200 94 381 94q223 0 342 -119q109 -109 109 -305v-674h-84v203q-57 -96 -167 -162t-267 -66zM539 55q182 0 306 100
t124 246v127q-173 56 -377 56q-177 0 -278 -71t-101 -196v-4q0 -118 95.5 -188t230.5 -70zM723 1280v152h125v-152h-125zM397 1280v152h125v-152h-125z" />
    <glyph glyph-name="uni04D4" unicode="&#x4d4;" horiz-adv-x="2230" 
d="M43 0l918 1491h1112v-84h-930v-614h835v-84h-835v-625h942v-84h-1034v426h-648l-262 -426h-98zM453 510h598v899h-47z" />
    <glyph glyph-name="uni04D5" unicode="&#x4d5;" horiz-adv-x="2072" 
d="M535 -25q-110 0 -202 36.5t-152 114t-60 183.5v4q0 165 129.5 257t337.5 92q182 0 356 -52q1 5 2 30.5t2 29.5q-1 171 -95 258.5t-267 87.5q-91 0 -168.5 -22.5t-165.5 -65.5l-31 76q101 48 185.5 71t185.5 23q167 0 274 -73t142 -214q63 136 180.5 215.5t267.5 79.5
q151 0 265.5 -79t172.5 -207t58 -281q0 -19 -2 -33h-916q12 -205 139 -328t304 -123q224 0 381 178l59 -51q-86 -100 -191 -153.5t-253 -53.5q-140 0 -256.5 64.5t-188.5 181.5q-84 -107 -210 -176.5t-283 -69.5zM1034 584h824q-4 87 -32.5 166t-78 141t-126 98.5
t-169.5 36.5q-171 0 -288.5 -126t-129.5 -316zM539 55q140 0 258 67.5t192 172.5q-44 105 -47 237q-185 52 -358 52q-172 0 -271.5 -71.5t-99.5 -195.5v-4q0 -119 93 -188.5t233 -69.5z" />
    <glyph glyph-name="uni04D6" unicode="&#x4d6;" horiz-adv-x="1445" 
d="M766 1626q-121 0 -194.5 54.5t-84.5 148.5h76q38 -119 203 -119q162 0 203 119h75q-11 -94 -84 -148.5t-194 -54.5zM233 0v1491h1055v-84h-962v-614h868v-84h-868v-625h972v-84h-1065z" />
    <glyph glyph-name="uni04D7" unicode="&#x4d7;" horiz-adv-x="1267" 
d="M668 -25q-107 0 -204 41t-170 113t-116 179t-43 231v4q0 156 67 285t185 203.5t262 74.5q116 0 211 -46t156.5 -124t95 -180.5t33.5 -216.5v-33h-918q12 -205 139.5 -328t305.5 -123q222 0 379 185l61 -54q-178 -211 -444 -211zM227 584h826q-6 88 -34.5 166t-77.5 140.5
t-125 99t-169 36.5q-172 0 -290 -125.5t-130 -316.5zM649 1264q-120 0 -193.5 62t-84.5 167h69q19 -65 71 -105t138 -40q87 0 138.5 40t70.5 105h70q-11 -105 -86 -167t-193 -62z" />
    <glyph glyph-name="uni04D8" unicode="&#x4d8;" horiz-adv-x="1722" 
d="M274 1167l-63 60q253 289 627 289q212 0 376 -101.5t252 -276t88 -390.5v-7q0 -157 -52.5 -298t-144.5 -244t-224.5 -163.5t-284.5 -60.5q-159 0 -289.5 61t-215.5 167t-131 246t-46 301v2q0 22 2 36h1290q-6 132 -52.5 249.5t-125 205.5t-193.5 139.5t-251 51.5
q-326 0 -562 -267zM848 59q131 0 243.5 50.5t190.5 137.5t124 205t52 253h-1198q8 -185 79 -330t203 -230.5t306 -85.5z" />
    <glyph glyph-name="uni04D9" unicode="&#x4d9;" horiz-adv-x="1267" 
d="M600 1106q107 0 204 -41.5t170 -114t116 -179t43 -230.5v-4q0 -157 -66.5 -285.5t-185 -202.5t-263.5 -74q-153 0 -267.5 78.5t-171 205.5t-56.5 282v32h917q-12 205 -139.5 328t-304.5 123q-223 0 -379 -184l-61 53q180 213 444 213zM1040 496h-825q6 -87 34.5 -164.5
t77 -140t125 -99.5t169.5 -37q172 0 289.5 125t129.5 316z" />
    <glyph glyph-name="uni04DC" unicode="&#x4dc;" horiz-adv-x="2289" 
d="M1253 1642v144h133v-144h-133zM901 1642v144h135v-144h-135zM94 1491h117l649 -686h238v686h92v-686h240l649 686h116l-686 -723l707 -768h-115l-667 721h-244v-721h-92v721h-248l-666 -721h-112l706 768z" />
    <glyph glyph-name="uni04DD" unicode="&#x4dd;" horiz-adv-x="1830" 
d="M1016 1280v152h125v-152h-125zM690 1280v152h125v-152h-125zM958 1079v-493h226l444 493h111l-484 -532l504 -547h-112l-463 506h-226v-506h-86v506h-229l-463 -506h-110l501 547l-481 532h113l444 -493h225v493h86z" />
    <glyph glyph-name="uni04DE" unicode="&#x4de;" horiz-adv-x="1404" 
d="M797 1661v143h133v-143h-133zM444 1661v143h136v-143h-136zM180 1237l-57 61q249 218 577 218q228 0 374.5 -109.5t146.5 -280.5v-4q0 -136 -88.5 -233.5t-245.5 -132.5q163 -29 264.5 -124.5t101.5 -234.5v-4q0 -184 -159.5 -301t-411.5 -117q-180 0 -319 52t-259 147
l56 68q226 -187 522 -187q205 0 340 94.5t135 241.5v4q0 151 -127.5 233.5t-357.5 82.5h-256v82h254q131 0 233 36t162.5 110.5t60.5 178.5v4q0 138 -118.5 226t-309.5 88q-279 0 -518 -199z" />
    <glyph glyph-name="uni04DF" unicode="&#x4df;" horiz-adv-x="1196" 
d="M690 1280v152h125v-152h-125zM365 1280v152h124v-152h-124zM104 117l50 73q184 -135 430 -135q171 0 274 64.5t103 169.5v2q0 104 -97 162t-272 57h-242v78h242q158 0 249 60t91 161v2q0 98 -89 156.5t-245 58.5q-231 0 -432 -145l-45 69q226 156 475 156
q199 0 312.5 -80.5t113.5 -212.5v-4q0 -103 -71 -167.5t-177 -88.5q126 -22 202.5 -87.5t76.5 -176.5v-2q0 -136 -125.5 -224t-343.5 -88q-136 0 -262 39t-218 103z" />
    <glyph glyph-name="uni04E2" unicode="&#x4e2;" horiz-adv-x="1699" 
d="M532 1677v86h635v-86h-635zM1466 0h-90v1352l-1073 -1352h-70v1491h93v-1333l1056 1333h84v-1491z" />
    <glyph glyph-name="uni04E3" unicode="&#x4e3;" horiz-adv-x="1374" 
d="M383 1321v82h606v-82h-606zM211 0v1079h86v-954l782 954h86v-1079h-88v952l-782 -952h-84z" />
    <glyph glyph-name="uni04E4" unicode="&#x4e4;" horiz-adv-x="1699" 
d="M961 1634v144h133v-144h-133zM608 1634v144h135v-144h-135zM1466 0h-90v1352l-1073 -1352h-70v1491h93v-1333l1056 1333h84v-1491z" />
    <glyph glyph-name="uni04E5" unicode="&#x4e5;" horiz-adv-x="1374" 
d="M786 1278v152h125v-152h-125zM461 1278v152h125v-152h-125zM211 0v1079h86v-954l782 954h86v-1079h-88v952l-782 -952h-84z" />
    <glyph glyph-name="uni04E6" unicode="&#x4e6;" horiz-adv-x="1830" 
d="M1024 1661v143h133v-143h-133zM672 1661v143h135v-143h-135zM913 -25q-165 0 -306 62.5t-236.5 168t-149 244.5t-53.5 291v4q0 153 54 292.5t149.5 246t237 169.5t306.5 63t307 -62.5t237.5 -168t149.5 -244.5t54 -291v-5q0 -153 -54 -292.5t-150 -245.5t-238.5 -169
t-307.5 -63zM918 57q188 0 337.5 93t230.5 249t81 342v4q0 185 -82.5 342t-233.5 252t-338 95t-337 -93t-232 -249t-82 -342v-5q0 -138 49 -264t134 -219.5t208.5 -149t264.5 -55.5z" />
    <glyph glyph-name="uni04E7" unicode="&#x4e7;" horiz-adv-x="1384" 
d="M793 1280v152h125v-152h-125zM467 1280v152h125v-152h-125zM690 -25q-119 0 -223 45.5t-176.5 122t-114 179t-41.5 215.5v4q0 150 70.5 279t199.5 207.5t289 78.5q119 0 223 -45t176.5 -121.5t114 -179t41.5 -215.5v-4q0 -151 -70.5 -280t-199.5 -207.5t-289 -78.5z
M694 55q132 0 238.5 66t164.5 176t58 240v4q0 132 -61 243t-168 175.5t-236 64.5q-133 0 -239.5 -65t-165 -175t-58.5 -241v-4q0 -202 134.5 -343t332.5 -141z" />
    <glyph glyph-name="uni04E8" unicode="&#x4e8;" horiz-adv-x="1830" 
d="M913 -25q-165 0 -306 62.5t-236.5 167.5t-149 244t-53.5 292v4q0 153 54 293t149 246t237 169t307 63t307 -62.5t237.5 -167.5t149.5 -244t54 -292v-5q0 -122 -34 -237t-100 -211.5t-156 -168.5t-208.5 -112.5t-251.5 -40.5zM918 57q136 0 255.5 51.5t203.5 139.5
t135 207.5t57 253.5h-1309q8 -177 93.5 -326t234.5 -237.5t330 -88.5zM913 1434q-137 0 -256 -50.5t-202.5 -137t-134.5 -204t-60 -249.5h1307q-12 175 -96 320.5t-231 233t-327 87.5z" />
    <glyph glyph-name="uni04E9" unicode="&#x4e9;" horiz-adv-x="1384" 
d="M690 -25q-119 0 -223 45.5t-176.5 122t-114 179t-41.5 215.5v4q0 150 70.5 279t199.5 207.5t289 78.5q119 0 223 -45t176.5 -121.5t114 -179t41.5 -215.5v-4q0 -151 -70.5 -280t-199.5 -207.5t-289 -78.5zM694 55q192 0 321.5 131t141.5 320h-932q12 -191 145.5 -321
t323.5 -130zM690 1024q-190 0 -318.5 -125t-146.5 -313h932q-17 186 -150 312t-317 126z" />
    <glyph glyph-name="uni04EE" unicode="&#x4ee;" horiz-adv-x="1505" 
d="M457 1677v86h635v-86h-635zM528 0h-104l324 524l-658 967h109l598 -887l528 887h107z" />
    <glyph glyph-name="uni04EF" unicode="&#x4ef;" horiz-adv-x="1265" 
d="M659 94l412 985h94l-477 -1112q-76 -175 -159 -245t-197 -70q-102 0 -211 51l33 76q80 -45 182 -45q89 0 150.5 58.5t129.5 211.5l-520 1075h101zM336 1321v82h606v-82h-606z" />
    <glyph glyph-name="uni04F0" unicode="&#x4f0;" horiz-adv-x="1505" 
d="M885 1634v144h133v-144h-133zM532 1634v144h136v-144h-136zM528 0h-104l324 524l-658 967h109l598 -887l528 887h107z" />
    <glyph glyph-name="uni04F1" unicode="&#x4f1;" horiz-adv-x="1265" 
d="M659 94l412 985h94l-477 -1112q-76 -175 -159 -245t-197 -70q-102 0 -211 51l33 76q80 -45 182 -45q89 0 150.5 58.5t129.5 211.5l-520 1075h101zM739 1278v152h125v-152h-125zM414 1278v152h125v-152h-125z" />
    <glyph glyph-name="uni04F2" unicode="&#x4f2;" horiz-adv-x="1505" 
d="M528 0h-104l324 524l-658 967h109l598 -887l528 887h107zM571 1622l203 238l103 -50l-226 -188h-80zM858 1622l203 238l102 -50l-225 -188h-80z" />
    <glyph glyph-name="uni04F3" unicode="&#x4f3;" horiz-adv-x="1265" 
d="M659 94l412 985h94l-477 -1112q-76 -175 -159 -245t-197 -70q-102 0 -211 51l33 76q80 -45 182 -45q89 0 150.5 58.5t129.5 211.5l-520 1075h101zM719 1266l188 270l97 -51l-213 -219h-72zM451 1266l188 270l98 -51l-213 -219h-73z" />
    <glyph glyph-name="uni04F4" unicode="&#x4f4;" horiz-adv-x="1515" 
d="M1190 0v631q-213 -68 -451 -68q-271 0 -411 118.5t-140 379.5v430h93v-414q0 -229 113 -329.5t351 -100.5q226 0 445 70v774h92v-1491h-92zM844 1634v144h133v-144h-133zM492 1634v144h135v-144h-135z" />
    <glyph glyph-name="uni04F5" unicode="&#x4f5;" horiz-adv-x="1261" 
d="M709 1278v152h125v-152h-125zM383 1278v152h125v-152h-125zM965 0v406q-200 -52 -357 -52q-217 0 -329.5 94.5t-112.5 301.5v329h86v-325q0 -169 88 -243.5t274 -74.5q162 0 351 51v592h86v-1079h-86z" />
    <glyph glyph-name="uni04F8" unicode="&#x4f8;" horiz-adv-x="1966" 
d="M233 0v1491h93v-578h446q254 0 405.5 -119.5t151.5 -326.5v-6q0 -146 -79.5 -252t-209.5 -157.5t-292 -51.5h-515zM326 84h428q218 0 350.5 101t132.5 272v4q0 176 -126 271t-345 95h-440v-743zM1640 0v1491h93v-1491h-93zM1092 1634v144h133v-144h-133zM739 1634v144
h135v-144h-135z" />
    <glyph glyph-name="uni04F9" unicode="&#x4f9;" horiz-adv-x="1638" 
d="M913 1278v152h125v-152h-125zM588 1278v152h125v-152h-125zM297 1079v-401h405q191 0 301.5 -93t110.5 -243v-6q0 -150 -110.5 -243t-301.5 -93h-491v1079h86zM297 598v-520h405q156 0 239 70t83 190v2q0 120 -83 189t-239 69h-405zM1341 0v1079h86v-1079h-86z" />
    <glyph glyph-name="baht" unicode="&#xe3f;" horiz-adv-x="1359" 
d="M766 1659h82l-31 -178q162 -27 254 -120.5t92 -238.5v-2q0 -144 -78.5 -233t-197.5 -125q73 -18 132.5 -47t107.5 -72.5t74 -105.5t26 -138v-2q0 -185 -139 -291t-379 -106h-156l-43 -252h-80l43 252h-246v1491h473q21 0 35 -2zM709 715h-33l-111 -635h146
q203 0 316.5 82.5t113.5 234.5v2q0 152 -114.5 235t-317.5 81zM315 791h301l109 618q-5 0 -14 1t-13 1h-383v-620zM1075 1112v2q0 118 -72 193.5t-206 95.5l-109 -612q181 0 284 83.5t103 237.5zM315 80h177l110 635h-287v-635z" />
    <glyph glyph-name="Wgrave" unicode="&#x1e80;" horiz-adv-x="2318" 
d="M1198 1630h-78l-227 189l102 49zM643 -10l-528 1501h102l467 -1358l442 1362h70l442 -1362l469 1358h95l-527 -1501h-76l-440 1331l-442 -1331h-74z" />
    <glyph glyph-name="wgrave" unicode="&#x1e81;" horiz-adv-x="1822" 
d="M506 -8l-389 1087h96l332 -968l334 974h69l332 -974l334 968h92l-391 -1087h-74l-330 954l-331 -954h-74zM877 1268l-222 219l107 51l186 -270h-71z" />
    <glyph glyph-name="Wacute" unicode="&#x1e82;" horiz-adv-x="2318" 
d="M1118 1630l203 238l102 -49l-227 -189h-78zM643 -10l-528 1501h102l467 -1358l442 1362h70l442 -1362l469 1358h95l-527 -1501h-76l-440 1331l-442 -1331h-74z" />
    <glyph glyph-name="wacute" unicode="&#x1e83;" horiz-adv-x="1822" 
d="M872 1268l187 270l106 -51l-221 -219h-72zM506 -8l-389 1087h96l332 -968l334 974h69l332 -974l334 968h92l-391 -1087h-74l-330 954l-331 -954h-74z" />
    <glyph glyph-name="Wdieresis" unicode="&#x1e84;" horiz-adv-x="2318" 
d="M1268 1642v144h133v-144h-133zM915 1642v144h136v-144h-136zM643 -10l-528 1501h102l467 -1358l442 1362h70l442 -1362l469 1358h95l-527 -1501h-76l-440 1331l-442 -1331h-74z" />
    <glyph glyph-name="wdieresis" unicode="&#x1e85;" horiz-adv-x="1822" 
d="M1010 1280v152h125v-152h-125zM684 1280v152h125v-152h-125zM506 -8l-389 1087h96l332 -968l334 974h69l332 -974l334 968h92l-391 -1087h-74l-330 954l-331 -954h-74z" />
    <glyph glyph-name="Ygrave" unicode="&#x1ef2;" horiz-adv-x="1511" 
d="M711 0v600l-637 891h114l570 -809l571 809h109l-635 -889v-602h-92zM795 1622h-78l-228 188l103 50z" />
    <glyph glyph-name="ygrave" unicode="&#x1ef3;" horiz-adv-x="1265" 
d="M659 94l412 985h94l-477 -1112q-76 -175 -159 -245t-197 -70q-102 0 -211 51l33 76q80 -45 182 -45q89 0 150.5 58.5t129.5 211.5l-520 1075h101zM606 1266l-221 219l107 51l186 -270h-72z" />
    <glyph glyph-name="enspace" unicode="&#x2002;" horiz-adv-x="1024" 
 />
    <glyph glyph-name="emspace" unicode="&#x2003;" horiz-adv-x="2048" 
 />
    <glyph glyph-name="threeperemspace" unicode="&#x2004;" horiz-adv-x="681" 
 />
    <glyph glyph-name="fourperemspace" unicode="&#x2005;" horiz-adv-x="512" 
 />
    <glyph glyph-name="figurespace" unicode="&#x2007;" horiz-adv-x="1290" 
 />
    <glyph glyph-name="thinspace" unicode="&#x2009;" horiz-adv-x="272" 
 />
    <glyph glyph-name="hairspace" unicode="&#x200a;" horiz-adv-x="153" 
 />
    <glyph glyph-name="endash" unicode="&#x2013;" horiz-adv-x="1155" 
d="M162 588v90h831v-90h-831z" />
    <glyph glyph-name="emdash" unicode="&#x2014;" horiz-adv-x="1935" 
d="M162 588v90h1612v-90h-1612z" />
    <glyph glyph-name="quoteleft" unicode="&#x2018;" horiz-adv-x="473" 
d="M168 1128v142q0 96 33.5 147t113.5 84l23 -47q-59 -29 -82 -67t-18 -99h51v-160h-121z" />
    <glyph glyph-name="quoteright" unicode="&#x2019;" horiz-adv-x="473" 
d="M158 1120l-23 45q60 29 83 67.5t18 98.5h-54v160h123v-139q0 -97 -34 -149t-113 -83z" />
    <glyph glyph-name="quotesinglbase" unicode="&#x201a;" horiz-adv-x="473" 
d="M150 -211l-23 45q59 29 82 67t18 99h-51v160h121v-140q0 -97 -33.5 -148.5t-113.5 -82.5z" />
    <glyph glyph-name="quotedblleft" unicode="&#x201c;" horiz-adv-x="798" 
d="M494 1128v142q0 96 33.5 147t113.5 84l23 -47q-60 -29 -83 -67.5t-18 -98.5h51v-160h-120zM168 1128v142q0 96 33.5 147t113.5 84l23 -47q-59 -29 -82 -67t-18 -99h51v-160h-121z" />
    <glyph glyph-name="quotedblright" unicode="&#x201d;" horiz-adv-x="798" 
d="M483 1120l-22 45q59 29 82 67t18 99h-53v160h123v-139q0 -97 -34 -149t-114 -83zM158 1120l-23 45q60 29 83 67.5t18 98.5h-54v160h123v-139q0 -97 -34 -149t-113 -83z" />
    <glyph glyph-name="quotedblbase" unicode="&#x201e;" horiz-adv-x="798" 
d="M475 -211l-22 45q59 29 82 67t18 99h-51v160h121v-140q0 -97 -33.5 -148.5t-114.5 -82.5zM150 -211l-23 45q59 29 82 67t18 99h-51v160h121v-140q0 -97 -33.5 -148.5t-113.5 -82.5z" />
    <glyph glyph-name="dagger" unicode="&#x2020;" horiz-adv-x="884" 
d="M401 508l13 614l-267 -14v82l265 -14l-15 315h88l-12 -315l264 14v-82l-266 14l12 -614h-82z" />
    <glyph glyph-name="daggerdbl" unicode="&#x2021;" horiz-adv-x="913" 
d="M412 0l14 315l-264 -14v82l266 -14l-10 376l10 377l-266 -14v82l264 -14l-14 315h90l-15 -315l265 14v-82l-267 14l11 -377l-11 -376l267 14v-82l-265 14l15 -315h-90z" />
    <glyph glyph-name="bullet" unicode="&#x2022;" horiz-adv-x="999" 
d="M500 498q-103 0 -177.5 73t-74.5 177v4q0 103 75.5 176t176.5 73t177.5 -73t76.5 -176v-4q0 -104 -74.5 -177t-179.5 -73z" />
    <glyph glyph-name="ellipsis" unicode="&#x2026;" horiz-adv-x="1347" 
d="M1055 0v158h116v-158h-116zM614 0v158h119v-158h-119zM176 0v158h117v-158h-117z" />
    <glyph glyph-name="perthousand" unicode="&#x2030;" horiz-adv-x="2557" 
d="M459 821q103 0 169 87t66 214v4q0 128 -68.5 217t-170.5 89q-103 0 -168.5 -88.5t-65.5 -213.5v-4q0 -129 68.5 -217t169.5 -88zM457 743q-143 0 -235.5 113t-92.5 266v4q0 156 92.5 268.5t237.5 112.5q143 0 235 -112.5t92 -264.5v-4q0 -157 -92 -270t-237 -113z
M1475 1491l-566 -770l-528 -721h-96l561 764l534 727h95zM1305 59q103 0 169 87t66 214v5q0 128 -69 216.5t-171 88.5t-168.5 -88.5t-66.5 -212.5v-4q0 -129 69 -217.5t171 -88.5zM1303 -16q-144 0 -236 111t-92 265v5q0 156 92.5 269.5t237.5 113.5q143 0 235 -113t92 -266
v-4q0 -156 -92 -268.5t-237 -112.5zM2103 59q101 0 167.5 87.5t66.5 213.5v5q0 128 -68.5 216.5t-169.5 88.5q-102 0 -168.5 -88.5t-66.5 -212.5v-4q0 -130 68.5 -218t170.5 -88zM2099 -16q-144 0 -235.5 111t-91.5 265v5q0 101 40.5 188t117 141t171.5 54q143 0 235.5 -113
t92.5 -266v-4q0 -156 -92.5 -268.5t-237.5 -112.5z" />
    <glyph glyph-name="guilsinglleft" unicode="&#x2039;" horiz-adv-x="675" 
d="M467 92l-350 443v16l350 442l63 -41l-309 -407l309 -410z" />
    <glyph glyph-name="guilsinglright" unicode="&#x203a;" horiz-adv-x="675" 
d="M207 92l-62 43l308 406l-308 411l62 41l352 -442v-16z" />
    <glyph glyph-name="fraction" unicode="&#x2044;" horiz-adv-x="237" 
d="M-430 0l524 758l492 733h82l-525 -758l-491 -733h-82z" />
    <glyph glyph-name="zero.sup" unicode="&#x2070;" 
d="M428 887q-134 0 -214.5 120t-80.5 308v4q0 188 81.5 310t215.5 122t215.5 -121t81.5 -307v-4q0 -187 -83 -309.5t-216 -122.5zM428 1686q-102 0 -162.5 -104t-60.5 -261v-4q0 -158 61 -262.5t164 -104.5t164 104.5t61 262.5v4q0 157 -62 261t-165 104z" />
    <glyph glyph-name="four.sup" unicode="&#x2074;" 
d="M627 1102v-199h-68v199h-414l-22 57l422 584h82v-580h123v-61h-123zM559 1163v488l-354 -488h354z" />
    <glyph glyph-name="five.sup" unicode="&#x2075;" 
d="M422 887q-169 0 -293 141l51 47q107 -125 244 -125q103 0 165 56.5t62 144.5q0 85 -60.5 134.5t-160.5 49.5q-103 0 -203 -49l-47 29l27 414h479v-70h-418l-22 -297q82 39 190 39q124 0 206.5 -68t82.5 -178q0 -117 -88 -192.5t-215 -75.5z" />
    <glyph glyph-name="six.sup" unicode="&#x2076;" 
d="M424 889q-121 0 -199 78q-47 47 -72.5 120.5t-25.5 198.5v4q0 202 93.5 331.5t236.5 129.5q74 0 126 -24.5t103 -75.5l-47 -49q-46 42 -88 63t-98 21q-106 0 -180 -109t-74 -283q87 131 241 131q110 0 188.5 -72.5t78.5 -189.5q0 -115 -82 -194.5t-201 -79.5zM424 952
q93 0 153 57.5t60 149.5t-56.5 147.5t-148.5 55.5q-91 0 -154 -59t-63 -146v-2q0 -85 63 -144t146 -59z" />
    <glyph glyph-name="seven.sup" unicode="&#x2077;" 
d="M336 903h-82l383 756h-483v70h563v-54z" />
    <glyph glyph-name="eight.sup" unicode="&#x2078;" 
d="M430 887q-130 0 -214.5 65.5t-84.5 169.5q0 142 170 209q-65 28 -104 77t-39 118q0 98 82.5 161.5t193.5 63.5q109 0 191 -64t82 -161q0 -134 -142 -195q76 -27 122 -81t46 -124q0 -105 -86.5 -172t-216.5 -67zM432 1688q-91 0 -148 -45t-57 -117q0 -73 57.5 -120.5
t147.5 -47.5t147.5 47.5t57.5 120.5q0 72 -57 117t-148 45zM432 1298q-103 0 -166 -50t-63 -126t63 -124t166 -48t166.5 48t63.5 124t-63.5 126t-166.5 50z" />
    <glyph glyph-name="nine.sup" unicode="&#x2079;" 
d="M436 1749q119 0 199 -80q98 -98 98 -317v-4q0 -207 -93 -334t-237 -127q-140 0 -239 104l47 49q45 -45 90 -67.5t107 -22.5q106 0 180 106t74 279q-88 -133 -242 -133q-110 0 -188 73t-78 193q0 118 81.5 199.5t200.5 81.5zM428 1268q93 0 155 58.5t62 148.5v2
q0 88 -62.5 147t-146.5 59q-93 0 -153 -58.5t-60 -151.5q0 -96 56 -150.5t149 -54.5z" />
    <glyph glyph-name="zero.inf" unicode="&#x2080;" 
d="M428 -299q-134 0 -214.5 120t-80.5 308v4q0 188 81.5 310t215.5 122t215.5 -121t81.5 -307v-4q0 -187 -83 -309.5t-216 -122.5zM428 500q-102 0 -162.5 -104t-60.5 -261v-4q0 -158 61 -262.5t164 -104.5t164 104.5t61 262.5v4q0 157 -62 261t-165 104z" />
    <glyph glyph-name="one.inf" unicode="&#x2081;" horiz-adv-x="700" 
d="M434 -279h-72v762l-198 -73l-19 63l230 86h59v-838z" />
    <glyph glyph-name="two.inf" unicode="&#x2082;" 
d="M133 -279v62l328 287q94 81 133 138.5t39 123.5q0 72 -53 120t-134 48q-139 0 -241 -160l-55 33q59 93 130 142.5t173 49.5q107 0 180.5 -67.5t73.5 -161.5q0 -84 -45 -149t-154 -158l-277 -240h484v-68h-582z" />
    <glyph glyph-name="three.inf" unicode="&#x2083;" 
d="M424 -299q-181 0 -303 152l53 45q104 -134 252 -134q86 0 144.5 51t58.5 130q0 84 -69.5 131t-182.5 47h-55l-17 43l295 311h-438v66h530v-58l-284 -301q134 -6 214 -67t80 -170q0 -107 -81.5 -176.5t-196.5 -69.5z" />
    <glyph glyph-name="four.inf" unicode="&#x2084;" 
d="M627 -84v-199h-68v199h-414l-22 57l422 584h82v-580h123v-61h-123zM559 -23v488l-354 -488h354z" />
    <glyph glyph-name="five.inf" unicode="&#x2085;" 
d="M422 -299q-169 0 -293 141l51 47q107 -125 244 -125q103 0 165 56.5t62 144.5q0 85 -61 135t-160 50q-101 0 -203 -50l-47 29l27 414h479v-70h-418l-22 -297q82 39 190 39q124 0 206.5 -68t82.5 -178q0 -117 -88 -192.5t-215 -75.5z" />
    <glyph glyph-name="six.inf" unicode="&#x2086;" 
d="M424 -297q-121 0 -199 78q-47 47 -72.5 120.5t-25.5 198.5v4q0 202 93.5 331.5t236.5 129.5q74 0 126 -24.5t103 -75.5l-47 -49q-46 42 -88 63t-98 21q-106 0 -180 -108.5t-74 -282.5q87 131 241 131q110 0 188.5 -72.5t78.5 -190.5q0 -115 -82 -194.5t-201 -79.5z
M424 -233q93 0 153 57t60 149t-56.5 147.5t-148.5 55.5q-91 0 -154 -59t-63 -146v-2q0 -85 63 -143.5t146 -58.5z" />
    <glyph glyph-name="seven.inf" unicode="&#x2087;" 
d="M336 -283h-82l383 756h-483v70h563v-54z" />
    <glyph glyph-name="eight.inf" unicode="&#x2088;" 
d="M430 -299q-130 0 -214.5 66t-84.5 170q0 141 170 208q-65 28 -104 77t-39 118q0 98 82.5 161.5t193.5 63.5q109 0 191 -64t82 -161q0 -134 -142 -195q76 -27 122 -80.5t46 -123.5q0 -105 -86.5 -172.5t-216.5 -67.5zM432 502q-91 0 -148 -45t-57 -117q0 -73 57.5 -120.5
t147.5 -47.5t147.5 47.5t57.5 120.5q0 72 -57 117t-148 45zM432 113q-103 0 -166 -50t-63 -126t63 -124.5t166 -48.5t166.5 48.5t63.5 124.5t-63.5 126t-166.5 50z" />
    <glyph glyph-name="nine.inf" unicode="&#x2089;" 
d="M436 563q119 0 199 -80q98 -98 98 -317v-4q0 -207 -93 -334t-237 -127q-140 0 -239 104l47 50q46 -46 90.5 -68.5t106.5 -22.5q106 0 180 106.5t74 279.5q-89 -134 -242 -134q-110 0 -188 73.5t-78 193.5q0 118 81.5 199t200.5 81zM428 82q93 0 155 58.5t62 148.5v2
q0 89 -62.5 148t-146.5 59q-93 0 -153 -59t-60 -152q0 -96 56 -150.5t149 -54.5z" />
    <glyph glyph-name="colonmonetary" unicode="&#x20a1;" horiz-adv-x="1298" 
d="M1020 1659h78l-43 -244q50 -29 119 -84l-52 -65q-41 36 -88 67l-221 -1259q166 19 322 162l49 -60q-175 -162 -379 -180l-43 -248h-80l45 248q-124 3 -217 47l-51 -295h-78l57 332q-144 93 -225.5 261t-81.5 392v15q0 312 156 516t399 229l31 166h78l-29 -162
q119 -3 217 -45zM748 1421l-226 -1294q102 -57 221 -57l228 1302q-100 49 -221 49h-2zM219 750v-15q0 -192 64 -336.5t178 -232.5l217 1249q-201 -30 -330 -210t-129 -455z" />
    <glyph glyph-name="naira" unicode="&#x20a6;" horiz-adv-x="1767" 
d="M1649 506h-211v-506h-117l-328 506h-579v-506h-84v506h-211v76h211v336h-211v75h211v498h127l319 -498h578v498h84v-498h211v-75h-211v-336h211v-76zM414 918v-336h536l-219 336h-317zM819 918l219 -336h316v336h-535zM414 1403v-414h270zM1354 100v410h-269z" />
    <glyph glyph-name="rupee" unicode="&#x20a8;" horiz-adv-x="2297" 
d="M197 0v1491h477q237 0 376.5 -118.5t139.5 -311.5v-6q0 -169 -108.5 -282t-284.5 -146l440 -627h-109l-430 612h-415v-612h-86zM283 690h376q203 0 323 99t120 264v4q0 166 -114 259t-318 93h-387v-719zM1796 -20q-115 0 -222.5 40.5t-189.5 110.5l52 66
q89 -70 175.5 -104t190.5 -34q116 0 194.5 57.5t78.5 153.5v4q0 80 -61 132t-222 100q-194 58 -276 127.5t-82 183.5v2q0 126 97 205.5t243 79.5q195 0 360 -121l-43 -72q-160 113 -319 113q-111 0 -181.5 -57t-70.5 -144v-2q0 -80 63.5 -129.5t235.5 -103.5
q188 -59 265 -127.5t77 -181.5v-5q0 -133 -105.5 -213.5t-259.5 -80.5z" />
    <glyph glyph-name="won" unicode="&#x20a9;" horiz-adv-x="2363" 
d="M2142 1491l-143 -498h258v-73h-279l-98 -340h377v-72h-397l-148 -516h-102l-160 516h-537l-157 -516h-105l-149 516h-396v72h375l-96 340h-279v73h256l-141 498h98l140 -498h518l151 502h113l150 -502h522l137 498h92zM1036 920l-102 -340h496l-103 340h-291zM475 920
l92 -340h289l100 340h-481zM1413 920l100 -340h287l90 340h-477zM705 80h8l123 428h-248zM1659 80h8l113 428h-246zM1178 1395l-121 -402h248l-119 402h-8z" />
    <glyph glyph-name="sheqel" unicode="&#x20aa;" horiz-adv-x="1341" 
d="M524 289l-71 438h82l69 -418q18 -119 76.5 -174t173.5 -55h219v999h84v-1079h-305q-146 0 -225.5 70.5t-102.5 218.5zM776 381v383q0 127 -60.5 182t-191.5 55h-256v-1001h-84v1079h342q169 0 249.5 -73.5t80.5 -237.5v-387h-80z" />
    <glyph glyph-name="Euro" unicode="&#x20ac;" horiz-adv-x="1558" 
d="M1417 1217l-71 -48q-90 135 -191 201t-252 66q-167 0 -298 -127.5t-181 -329.5h620v-84h-638q-11 -90 -11 -150v-2q0 -66 6 -127h643v-86h-626q50 -216 185.5 -345.5t322.5 -129.5q139 0 240.5 73t187.5 208l67 -43q-45 -71 -93.5 -125.5t-109 -99.5t-135.5 -69t-161 -24
q-223 0 -384.5 151.5t-211.5 403.5h-195v86h180q-6 62 -6 127v2q0 89 10 150h-184v84h203q55 235 211.5 386t361.5 151q92 0 169.5 -22t139 -64.5t108 -93t93.5 -119.5z" />
    <glyph glyph-name="peso" unicode="&#x20b1;" horiz-adv-x="1533" 
d="M305 0v983h-209v78h209v430h385q248 0 399 -115t158 -315h211v-78h-211q-8 -140 -87 -241t-205 -150t-285 -49h-273v-543h-92zM395 627h279q213 0 343 96t142 262h-764v-358zM395 1409v-350h762q-12 166 -138 258t-335 92h-289z" />
    <glyph glyph-name="hryvnia" unicode="&#x20b4;" horiz-adv-x="1368" 
d="M152 932l10 74l694 -82q103 80 143.5 142t38.5 132q0 110 -87.5 173t-225.5 63q-100 0 -207.5 -41t-202.5 -119l-51 67q90 78 212 126.5t251 48.5q193 0 300.5 -90t107.5 -228q0 -84 -39.5 -149t-128.5 -140l303 -35l-10 -71l-377 43l-273 -205l617 -72l-10 -73l-691 82
q-110 -90 -151 -153.5t-41 -129.5q0 -119 91.5 -178.5t236.5 -59.5q230 0 440 162l53 -72q-233 -172 -493 -172q-212 0 -318 88t-106 230q0 147 176 297l-305 37l10 73l379 -45l272 205z" />
    <glyph glyph-name="numero" unicode="&#x2116;" horiz-adv-x="2398" 
d="M203 0v1491h84l882 -1319v1319h86v-1491h-71l-897 1341v-1341h-84zM1880 616q-162 0 -265.5 124.5t-103.5 310.5v12q0 186 105 311t268 125q164 0 267.5 -124t103.5 -310v-14q0 -185 -106 -310t-269 -125zM1882 690q126 0 208.5 103.5t82.5 257.5v12q0 155 -82 258.5
t-209 103.5q-126 0 -208.5 -105t-82.5 -255v-14q0 -154 82.5 -257.5t208.5 -103.5zM1518 336v72h729v-72h-729z" />
    <glyph glyph-name="published" unicode="&#x2117;" horiz-adv-x="1792" 
d="M895 -25q-212 0 -389.5 103.5t-279 279.5t-101.5 383v4q0 155 60.5 297t163.5 246t246.5 166t301.5 62q212 0 389.5 -103.5t279 -279.5t101.5 -383v-5q0 -207 -102.5 -384t-280.5 -281.5t-389 -104.5zM895 27q198 0 363 96.5t259.5 261.5t94.5 360v5q0 194 -94.5 358
t-259 260t-361.5 96t-361.5 -97t-259 -262t-94.5 -360v-4q0 -194 93.5 -358t257.5 -260t362 -96zM651 367v780h293q141 0 222 -64t81 -180v-4q0 -121 -90 -187.5t-225 -66.5h-203v-278h-78zM729 719h205q107 0 170 46t63 130v4q0 86 -60 130t-167 44h-211v-354z" />
    <glyph glyph-name="servicemark" unicode="&#x2120;" horiz-adv-x="1515" 
d="M756 836v655h65l260 -393l262 393h64v-655h-61v544l-261 -383h-8l-258 383v-544h-63zM356 823q-153 0 -272 107l39 47q110 -96 235 -96q73 0 118.5 35.5t45.5 89.5q0 52 -38.5 81t-145.5 52q-120 25 -172.5 66.5t-52.5 117.5q0 78 63.5 128t161.5 50q125 0 231 -80
l-39 -45q-88 70 -194 70q-72 0 -116 -34t-44 -85t39.5 -80t149.5 -53q118 -27 169.5 -68.5t51.5 -115.5q0 -84 -65 -135.5t-165 -51.5z" />
    <glyph glyph-name="trademark" unicode="&#x2122;" horiz-adv-x="1472" 
d="M713 836v655h65l260 -393l262 393h64v-655h-61v544l-261 -383h-8l-260 383v-544h-61zM283 836v596h-222v59h504v-59h-221v-596h-61z" />
    <glyph glyph-name="Omega" unicode="&#x2126;" horiz-adv-x="1863" 
d="M932 1516q162 0 299.5 -56t231.5 -152.5t147 -228.5t53 -282v-2q0 -221 -111.5 -395t-324.5 -320l489 4v-84h-622v76q113 73 194 143t147.5 157t100 191t33.5 226v2q0 182 -79 327.5t-225 228.5t-333 83t-332.5 -83t-224 -228.5t-78.5 -327.5v-2q0 -119 33 -223
t97.5 -191.5t147.5 -159.5t195 -143v-76h-623v84l490 -4q-212 143 -323 317.5t-111 397.5v2q0 199 89.5 362.5t257 260t382.5 96.5z" />
    <glyph glyph-name="onethird" unicode="&#x2153;" horiz-adv-x="1775" 
d="M1356 -20q-182 0 -303 151l53 45q103 -133 252 -133q86 0 144.5 51t58.5 129q0 84 -69.5 131t-182.5 47h-56l-16 43l295 312h-438v65h530v-57l-285 -301q134 -6 214.5 -67.5t80.5 -170.5q0 -107 -81.5 -176t-196.5 -69zM432 670h-72v760l-198 -74l-19 63l230 86h59v-835z
M262 0l524 758l492 733h82l-524 -758l-492 -733h-82z" />
    <glyph glyph-name="twothirds" unicode="&#x2154;" horiz-adv-x="1935" 
d="M1516 -20q-183 0 -304 151l54 45q103 -133 252 -133q86 0 144 50.5t58 129.5q0 84 -69.5 131t-182.5 47h-55l-16 43l295 312h-439v65h531v-57l-285 -301q134 -6 214.5 -67.5t80.5 -170.5q0 -107 -81.5 -176t-196.5 -69zM121 670v59l328 289q94 81 133 138t39 124
q0 72 -53 120t-134 48q-139 0 -241 -160l-56 33q59 93 130 141.5t173 48.5q108 0 181 -65.5t73 -163.5q0 -84 -45.5 -150.5t-152.5 -156.5l-277 -240h483v-65h-581zM420 0l524 758l492 733h82l-525 -758l-491 -733h-82z" />
    <glyph glyph-name="onefifth" unicode="&#x2155;" horiz-adv-x="1775" 
d="M1354 -20q-169 0 -293 141l51 47q107 -125 244 -125q103 0 165 56.5t62 144.5q0 85 -60.5 134.5t-160.5 49.5q-103 0 -203 -49l-47 29l27 413h479v-69h-418l-22 -297q82 39 190 39q124 0 206.5 -68t82.5 -178q0 -117 -88 -192.5t-215 -75.5zM432 670h-72v760l-198 -74
l-19 63l230 86h59v-835zM276 0l525 758l491 733h82l-524 -758l-492 -733h-82z" />
    <glyph glyph-name="twofifths" unicode="&#x2156;" horiz-adv-x="1935" 
d="M121 670v59l328 289q94 81 133 138t39 124q0 72 -53 120t-134 48q-139 0 -241 -160l-56 33q59 93 130 141.5t173 48.5q108 0 181 -65.5t73 -163.5q0 -84 -45.5 -150.5t-152.5 -156.5l-277 -240h483v-65h-581zM440 0l525 758l491 733h82l-524 -758l-492 -733h-82z
M1513 -20q-168 0 -292 141l51 47q107 -125 244 -125q103 0 165 56.5t62 144.5q0 85 -60.5 134.5t-160.5 49.5q-103 0 -203 -49l-47 29l26 413h480v-69h-418l-23 -297q82 39 191 39q124 0 206.5 -68t82.5 -178q0 -116 -88.5 -192t-215.5 -76z" />
    <glyph glyph-name="threefifths" unicode="&#x2157;" horiz-adv-x="1935" 
d="M1513 -20q-168 0 -292 141l51 47q107 -125 244 -125q103 0 165 56.5t62 144.5q0 85 -60.5 134.5t-160.5 49.5q-103 0 -203 -49l-47 29l26 413h480v-69h-418l-23 -297q82 39 191 39q124 0 206.5 -68t82.5 -178q0 -116 -88.5 -192t-215.5 -76zM410 0l524 758l491 733h82
l-524 -758l-491 -733h-82zM412 647q-182 0 -303 154l53 43q101 -131 252 -131q86 0 144 50t58 130q0 84 -69 130t-182 46h-56l-16 45l295 309h-438v68h530v-59l-285 -299q135 -8 215 -68.5t80 -171.5q0 -107 -81.5 -176.5t-196.5 -69.5z" />
    <glyph glyph-name="fourfifths" unicode="&#x2158;" horiz-adv-x="1935" 
d="M614 864v-200h-67v200h-414l-22 58l421 581h82v-577h123v-62h-123zM547 926v485l-354 -485h354zM1513 -20q-168 0 -292 141l51 47q107 -125 244 -125q103 0 165 56.5t62 144.5q0 85 -60.5 134.5t-160.5 49.5q-103 0 -203 -49l-47 29l26 413h480v-69h-418l-23 -297
q82 39 191 39q124 0 206.5 -68t82.5 -178q0 -116 -88.5 -192t-215.5 -76zM440 0l525 758l491 733h82l-524 -758l-492 -733h-82z" />
    <glyph glyph-name="onesixth" unicode="&#x2159;" horiz-adv-x="1775" 
d="M1356 -18q-122 0 -199 77q-47 47 -72.5 121t-25.5 199v4q0 202 93.5 331.5t236.5 129.5q74 0 126 -25t103 -76l-47 -49q-46 42 -88.5 63t-98.5 21q-106 0 -180 -108.5t-74 -282.5q87 131 242 131q110 0 188 -72t78 -190q0 -115 -81.5 -194.5t-200.5 -79.5zM1356 45
q93 0 153 57.5t60 149.5t-56.5 147.5t-148.5 55.5q-91 0 -154 -59t-63 -146v-2q0 -85 63 -144t146 -59zM432 670h-72v760l-198 -74l-19 63l230 86h59v-835zM293 0l524 758l492 733h82l-525 -758l-491 -733h-82z" />
    <glyph glyph-name="fivesixths" unicode="&#x215a;" horiz-adv-x="1935" 
d="M1516 -18q-122 0 -199 77q-47 47 -72.5 121t-25.5 199v4q0 202 93 331.5t236 129.5q74 0 126.5 -25t103.5 -76l-47 -49q-46 42 -88.5 63t-98.5 21q-106 0 -180 -108.5t-74 -282.5q87 131 242 131q110 0 188 -72t78 -190q0 -115 -81.5 -194.5t-200.5 -79.5zM1516 45
q93 0 153 57.5t60 149.5t-56.5 147.5t-148.5 55.5q-91 0 -154 -59t-63 -146v-2q0 -85 63 -144t146 -59zM410 647q-166 0 -293 141l51 48q111 -123 244 -123q103 0 165 56t62 142q0 85 -61 135t-160 50q-103 0 -203 -49l-47 30l27 414h479v-70h-418l-23 -299q90 41 191 41
q124 0 206.5 -67.5t82.5 -177.5q0 -118 -88 -194.5t-215 -76.5zM420 0l524 758l492 733h82l-525 -758l-491 -733h-82z" />
    <glyph glyph-name="oneeighth" unicode="&#x215b;" horiz-adv-x="1775" 
d="M1362 -20q-130 0 -214.5 65.5t-84.5 169.5q0 142 170 209q-143 61 -143 194q0 98 82.5 162t193.5 64q109 0 190.5 -64.5t81.5 -161.5q0 -134 -141 -194q76 -27 122 -81t46 -124q0 -105 -86.5 -172t-216.5 -67zM1364 780q-91 0 -148 -45t-57 -117t57.5 -119.5t147.5 -47.5
t147.5 47.5t57.5 119.5t-57 117t-148 45zM1364 391q-103 0 -166 -50t-63 -126t63 -124t166 -48t166 48t63 124t-63 126t-166 50zM432 670h-72v760l-198 -74l-19 63l230 86h59v-835zM291 0l524 758l492 733h82l-525 -758l-491 -733h-82z" />
    <glyph glyph-name="threeeighths" unicode="&#x215c;" horiz-adv-x="1935" 
d="M1522 -20q-130 0 -214.5 65.5t-84.5 169.5q0 142 170 209q-66 28 -105 77t-39 117q0 98 83 162t194 64q109 0 190.5 -64.5t81.5 -161.5q0 -134 -141 -194q76 -27 122 -81t46 -124q0 -105 -86.5 -172t-216.5 -67zM1524 780q-91 0 -148 -45t-57 -117t57.5 -119.5
t147.5 -47.5t147.5 47.5t57.5 119.5t-57 117t-148 45zM1524 391q-103 0 -166.5 -50t-63.5 -126t63.5 -124t166.5 -48t166 48t63 124t-63 126t-166 50zM420 0l524 758l492 733h82l-525 -758l-491 -733h-82zM412 647q-182 0 -303 154l53 43q101 -131 252 -131q86 0 144 50
t58 130q0 84 -69 130t-182 46h-56l-16 45l295 309h-438v68h530v-59l-285 -299q135 -8 215 -68.5t80 -171.5q0 -107 -81.5 -176.5t-196.5 -69.5z" />
    <glyph glyph-name="fiveeighths" unicode="&#x215d;" horiz-adv-x="1935" 
d="M1522 -20q-130 0 -214.5 65.5t-84.5 169.5q0 142 170 209q-66 28 -105 77t-39 117q0 98 83 162t194 64q109 0 190.5 -64.5t81.5 -161.5q0 -134 -141 -194q76 -27 122 -81t46 -124q0 -105 -86.5 -172t-216.5 -67zM1524 780q-91 0 -148 -45t-57 -117t57.5 -119.5
t147.5 -47.5t147.5 47.5t57.5 119.5t-57 117t-148 45zM1524 391q-103 0 -166.5 -50t-63.5 -126t63.5 -124t166.5 -48t166 48t63 124t-63 126t-166 50zM410 647q-166 0 -293 141l51 48q111 -123 244 -123q103 0 165 56t62 142q0 85 -61 135t-160 50q-103 0 -203 -49l-47 30
l27 414h479v-70h-418l-23 -299q90 41 191 41q124 0 206.5 -67.5t82.5 -177.5q0 -118 -88 -194.5t-215 -76.5zM420 0l524 758l492 733h82l-525 -758l-491 -733h-82z" />
    <glyph glyph-name="seveneighths" unicode="&#x215e;" horiz-adv-x="1935" 
d="M1522 -20q-130 0 -214.5 65.5t-84.5 169.5q0 142 170 209q-66 28 -105 77t-39 117q0 98 83 162t194 64q109 0 190.5 -64.5t81.5 -161.5q0 -134 -141 -194q76 -27 122 -81t46 -124q0 -105 -86.5 -172t-216.5 -67zM1524 780q-91 0 -148 -45t-57 -117t57.5 -119.5
t147.5 -47.5t147.5 47.5t57.5 119.5t-57 117t-148 45zM1524 391q-103 0 -166.5 -50t-63.5 -126t63.5 -124t166.5 -48t166 48t63 124t-63 126t-166 50zM342 664h-82l383 757h-483v70h563v-53zM356 0l525 758l491 733h82l-524 -758l-492 -733h-82z" />
    <glyph glyph-name="Delta" unicode="&#x2206;" horiz-adv-x="1689" 
d="M121 0l-8 70l690 1431h84l692 -1431l-10 -70h-1448zM844 1395l-629 -1311h1253z" />
    <glyph glyph-name="minus" unicode="&#x2212;" horiz-adv-x="1333" 
d="M1174 707h-1014v86h1014v-86z" />
    <glyph glyph-name="NUL" horiz-adv-x="0" 
 />
    <glyph glyph-name="CR" horiz-adv-x="651" 
 />
    <glyph glyph-name="Q.alt" horiz-adv-x="1830" 
d="M1599 -215l-311 287q-163 -97 -375 -97q-165 0 -306 62.5t-236.5 168t-149 244.5t-53.5 291v4q0 153 54 292.5t149.5 246t237 169.5t306.5 63t307 -62.5t237.5 -168t149.5 -244.5t54 -291v-5q0 -186 -76.5 -347.5t-216.5 -270.5l359 -336v-6h-130zM918 57q188 0 337.5 93
t230.5 249t81 342v4q0 185 -82.5 342t-233.5 252t-338 95t-337 -93t-232 -249t-82 -342v-5q0 -138 49 -264t134 -219.5t208.5 -149t264.5 -55.5z" />
    <glyph glyph-name="a.alt" horiz-adv-x="1427" 
d="M670 -25q-103 0 -199 41t-170 113t-118 178.5t-44 229.5v4q0 123 44 230t117.5 179.5t170 114t199.5 41.5q160 0 275.5 -80t184.5 -209v262h87v-1079h-87v268q-67 -130 -184.5 -211.5t-275.5 -81.5zM678 57q121 0 225.5 61.5t168 173t63.5 247.5v4q0 135 -63 245.5
t-168 172t-226 61.5q-193 0 -319 -131.5t-126 -345.5v-4q0 -211 128.5 -347.5t316.5 -136.5z" />
    <glyph glyph-name="uni039E.alt" horiz-adv-x="1617" 
d="M1470 84v-84h-1323v84h617v625h-547v84h547v614h-606v84h1302v-84h-606v-614h545v-84h-545v-625h616z" />
    <glyph glyph-name="uni0424.bgr" horiz-adv-x="1957" 
d="M934 -213v211q-169 2 -313 61t-243.5 159t-155.5 235t-56 288v4q0 120 35.5 231.5t103 203.5t160.5 161.5t213.5 109t255.5 42.5v211h90v-211q169 -4 313.5 -63.5t243.5 -159.5t155 -234.5t56 -285.5v-5q0 -150 -56 -285t-154.5 -236t-243.5 -161.5t-314 -64.5v-211h-90z
M260 750v-5q0 -185 86.5 -335.5t240.5 -237.5t347 -92v1329q-194 -5 -348 -91.5t-240 -235.5t-86 -332zM1696 741v4q0 184 -86.5 334t-240 237.5t-345.5 92.5v-1329q146 4 271.5 55.5t213 138.5t137.5 208t50 259z" />
    <glyph glyph-name="uni0432.bgr" horiz-adv-x="1374" 
d="M188 537v499q0 247 136.5 390t371.5 143q214 0 344.5 -113t130.5 -291v-2q0 -155 -98 -251.5t-260 -127.5q72 -12 132.5 -32t115.5 -53t93 -76t60.5 -103.5t22.5 -134.5v-2q0 -175 -134.5 -291.5t-371.5 -116.5q-261 0 -402 141.5t-141 420.5zM575 739h-301v-202
q0 -231 115 -356.5t344 -125.5q189 0 300.5 93.5t111.5 238.5q0 166 -141.5 259t-428.5 93zM274 1036v-219h301q237 0 369.5 92.5t132.5 257.5q0 142 -106 232t-275 90q-197 0 -309.5 -121.5t-112.5 -331.5z" />
    <glyph glyph-name="uni0433.bgr" horiz-adv-x="1099" 
d="M518 -20q-177 0 -271.5 72t-94.5 202v4q0 65 23 113t76.5 86.5t117.5 67.5t170 65q133 44 204 82.5t96 75t25 88.5v4q0 79 -66.5 129.5t-191.5 50.5q-196 0 -375 -117l-47 70q93 60 203.5 93.5t218.5 33.5q167 0 257.5 -71t90.5 -189v-4q0 -114 -89 -183.5t-302 -138.5
q-182 -63 -251.5 -113t-69.5 -139v-4q0 -197 282 -197q104 0 211 37.5t199 106.5l49 -70q-215 -155 -465 -155z" />
    <glyph glyph-name="uni0434.bgr" horiz-adv-x="1421" 
d="M682 -346q-270 0 -494 166l52 69q202 -153 444 -153q202 0 321 113t119 325v174q-71 -119 -190 -193.5t-270 -74.5q-101 0 -196 37.5t-168 103t-117 162.5t-44 207v4q0 110 44 206.5t117 163t168 104.5t196 38q155 0 271.5 -72.5t188.5 -189.5v235h86v-913
q0 -232 -137 -369q-143 -143 -391 -143zM672 164q119 0 223.5 54t169.5 153t65 219v4q0 121 -65 220.5t-169.5 153.5t-223.5 54q-184 0 -311.5 -119.5t-127.5 -306.5v-4q0 -183 129 -305.5t310 -122.5z" />
    <glyph glyph-name="uni0436.bgr" horiz-adv-x="1830" 
d="M958 1554v-968h226l444 493h111l-484 -532l504 -547h-112l-463 506h-226v-506h-86v506h-229l-463 -506h-110l501 547l-481 532h113l444 -493h225v968h86z" />
    <glyph glyph-name="uni0438.bgr" horiz-adv-x="1327" 
d="M627 -25q-206 0 -322.5 126.5t-116.5 332.5v645h88v-630q0 -182 94.5 -288t268.5 -106q167 0 279 116t112 292v616h86v-1079h-86v229q-50 -109 -152.5 -181.5t-250.5 -72.5z" />
    <glyph glyph-name="uni0439.bgr" horiz-adv-x="1327" 
d="M627 -25q-206 0 -322.5 126.5t-116.5 332.5v645h88v-630q0 -182 94.5 -288t268.5 -106q167 0 279 116t112 292v616h86v-1079h-86v229q-50 -109 -152.5 -181.5t-250.5 -72.5zM651 1262q-120 0 -193.5 62t-84.5 167h69q19 -65 71 -105t138 -40q87 0 138.5 40t70.5 105h70
q-11 -105 -86 -167t-193 -62z" />
    <glyph glyph-name="uni043A.bgr" horiz-adv-x="1202" 
d="M297 1554v-968h246l465 493h110l-500 -530l519 -549h-117l-473 506h-250v-506h-86v1554h86z" />
    <glyph glyph-name="uni043F.bgr" horiz-adv-x="1327" 
d="M211 0v1079h86v-229q49 110 151.5 183t251.5 73q205 0 322 -127t117 -334v-645h-88v631q0 181 -96 288t-267 107q-166 0 -278.5 -117t-112.5 -293v-616h-86z" />
    <glyph glyph-name="uni0442.bgr" horiz-adv-x="2031" 
d="M211 0v1079h86v-217q119 244 365 244q141 0 233.5 -72.5t138.5 -187.5q49 110 149 185t238 75q190 0 302 -123t112 -334v-649h-86v639q0 184 -89.5 285.5t-244.5 101.5q-142 0 -246 -110t-104 -287v-629h-86v643q0 181 -89.5 282t-240.5 101q-143 0 -247.5 -116.5
t-104.5 -284.5v-625h-86z" />
    <glyph glyph-name="uni0446.bgr" horiz-adv-x="1351" 
d="M627 -25q-206 0 -322.5 126.5t-116.5 332.5v645h88v-630q0 -182 94.5 -288t268.5 -106q167 0 279 116t112 292v616h86v-999h127v-377h-82v297h-131v229q-50 -109 -152.5 -181.5t-250.5 -72.5z" />
    <glyph glyph-name="uni0448.bgr" horiz-adv-x="2031" 
d="M1823 1079v-1079h-88v217q-52 -104 -141 -173t-222 -69q-143 0 -236 71.5t-137 186.5q-50 -110 -149.5 -184t-239.5 -74q-191 0 -302 121t-111 334v649h88v-639q0 -184 88 -284.5t243 -100.5q143 0 247 110t104 286v628h86v-643q0 -181 89 -281t240 -100q143 0 248 116.5
t105 283.5v624h88z" />
    <glyph glyph-name="uni0449.bgr" horiz-adv-x="2056" 
d="M1868 -297v297h-133v217q-52 -104 -141 -173t-222 -69q-143 0 -236 71.5t-137 186.5q-50 -110 -149.5 -184t-239.5 -74q-191 0 -302 121t-111 334v649h88v-639q0 -184 88 -284.5t243 -100.5q143 0 247 110t104 286v628h86v-643q0 -181 89 -281t240 -100q143 0 248 116.5
t105 283.5v624h88v-999h127v-377h-82z" />
    <glyph glyph-name="uni044E.bgr" horiz-adv-x="1830" 
d="M1153 -25q-152 0 -274.5 72.5t-191.5 193t-77 265.5h-313v-506h-86v1554h86v-968h315q9 105 52.5 199.5t113 165.5t167.5 113t210 42q156 0 281.5 -78t192.5 -205.5t67 -277.5v-4q0 -112 -40.5 -215.5t-111 -181t-172.5 -123.5t-219 -46zM1155 55q130 0 233.5 66.5
t159.5 176t56 239.5v4q0 131 -58 241.5t-162.5 176t-232.5 65.5q-130 0 -233.5 -65t-159.5 -174.5t-56 -241.5v-4q0 -131 58 -241.5t162.5 -176.5t232.5 -66z" />
    <glyph glyph-name="aacute.alt" horiz-adv-x="1427" 
d="M680 1268l186 270l107 -51l-221 -219h-72zM670 -25q-103 0 -199 41t-170 113t-118 178.5t-44 229.5v4q0 123 44 230t117.5 179.5t170 114t199.5 41.5q160 0 275.5 -80t184.5 -209v262h87v-1079h-87v268q-67 -130 -184.5 -211.5t-275.5 -81.5zM678 57q121 0 225.5 61.5
t168 173t63.5 247.5v4q0 135 -63 245.5t-168 172t-226 61.5q-193 0 -319 -131.5t-126 -345.5v-4q0 -211 128.5 -347.5t316.5 -136.5z" />
    <glyph glyph-name="abreve.alt" horiz-adv-x="1427" 
d="M670 -25q-103 0 -199 41t-170 113t-118 178.5t-44 229.5v4q0 123 44 230t117.5 179.5t170 114t199.5 41.5q160 0 275.5 -80t184.5 -209v262h87v-1079h-87v268q-67 -130 -184.5 -211.5t-275.5 -81.5zM678 57q121 0 225.5 61.5t168 173t63.5 247.5v4q0 135 -63 245.5
t-168 172t-226 61.5q-193 0 -319 -131.5t-126 -345.5v-4q0 -211 128.5 -347.5t316.5 -136.5zM719 1264q-120 0 -194 62t-85 167h70q19 -65 71 -105t138 -40q87 0 138.5 40t70.5 105h69q-11 -105 -85.5 -167t-192.5 -62z" />
    <glyph glyph-name="acircumflex.alt" horiz-adv-x="1427" 
d="M469 1268l215 254h70l215 -254h-82l-170 155l-170 -155h-78zM670 -25q-103 0 -199 41t-170 113t-118 178.5t-44 229.5v4q0 123 44 230t117.5 179.5t170 114t199.5 41.5q160 0 275.5 -80t184.5 -209v262h87v-1079h-87v268q-67 -130 -184.5 -211.5t-275.5 -81.5zM678 57
q121 0 225.5 61.5t168 173t63.5 247.5v4q0 135 -63 245.5t-168 172t-226 61.5q-193 0 -319 -131.5t-126 -345.5v-4q0 -211 128.5 -347.5t316.5 -136.5z" />
    <glyph glyph-name="adieresis.alt" horiz-adv-x="1427" 
d="M819 1280v152h125v-152h-125zM494 1280v152h124v-152h-124zM670 -25q-103 0 -199 41t-170 113t-118 178.5t-44 229.5v4q0 123 44 230t117.5 179.5t170 114t199.5 41.5q160 0 275.5 -80t184.5 -209v262h87v-1079h-87v268q-67 -130 -184.5 -211.5t-275.5 -81.5zM678 57
q121 0 225.5 61.5t168 173t63.5 247.5v4q0 135 -63 245.5t-168 172t-226 61.5q-193 0 -319 -131.5t-126 -345.5v-4q0 -211 128.5 -347.5t316.5 -136.5z" />
    <glyph glyph-name="agrave.alt" horiz-adv-x="1427" 
d="M670 -25q-103 0 -199 41t-170 113t-118 178.5t-44 229.5v4q0 123 44 230t117.5 179.5t170 114t199.5 41.5q160 0 275.5 -80t184.5 -209v262h87v-1079h-87v268q-67 -130 -184.5 -211.5t-275.5 -81.5zM678 57q121 0 225.5 61.5t168 173t63.5 247.5v4q0 135 -63 245.5
t-168 172t-226 61.5q-193 0 -319 -131.5t-126 -345.5v-4q0 -211 128.5 -347.5t316.5 -136.5zM686 1268l-221 219l106 51l187 -270h-72z" />
    <glyph glyph-name="amacron.alt" horiz-adv-x="1427" 
d="M670 -25q-103 0 -199 41t-170 113t-118 178.5t-44 229.5v4q0 123 44 230t117.5 179.5t170 114t199.5 41.5q160 0 275.5 -80t184.5 -209v262h87v-1079h-87v268q-67 -130 -184.5 -211.5t-275.5 -81.5zM678 57q121 0 225.5 61.5t168 173t63.5 247.5v4q0 135 -63 245.5
t-168 172t-226 61.5q-193 0 -319 -131.5t-126 -345.5v-4q0 -211 128.5 -347.5t316.5 -136.5zM416 1323v82h606v-82h-606z" />
    <glyph glyph-name="aogonek.alt" horiz-adv-x="1427" 
d="M1257 -283v-63h-2q-122 4 -190 48.5t-66 117.5q0 102 131 196v2v250q-67 -130 -184.5 -211.5t-275.5 -81.5q-103 0 -199 41t-170 113t-118 178.5t-44 229.5v4q0 123 44 230t117.5 179.5t170 114t199.5 41.5q160 0 275.5 -80t184.5 -209v262h87v-1079h-9
q-64 -48 -92.5 -87.5t-28.5 -82.5q0 -99 170 -113zM678 57q121 0 225.5 61.5t168 173t63.5 247.5v4q0 135 -63 245.5t-168 172t-226 61.5q-193 0 -319 -131.5t-126 -345.5v-4q0 -211 128.5 -347.5t316.5 -136.5z" />
    <glyph glyph-name="aring.alt" horiz-adv-x="1427" 
d="M719 1264q-89 0 -153 61.5t-64 147.5t64 147t153 61t153 -61t64 -147t-64 -147.5t-153 -61.5zM719 1319q63 0 109 45.5t46 108.5t-46 108t-109 45t-109.5 -45t-46.5 -108t46.5 -108.5t109.5 -45.5zM670 -25q-103 0 -199 41t-170 113t-118 178.5t-44 229.5v4q0 123 44 230
t117.5 179.5t170 114t199.5 41.5q160 0 275.5 -80t184.5 -209v262h87v-1079h-87v268q-67 -130 -184.5 -211.5t-275.5 -81.5zM678 57q121 0 225.5 61.5t168 173t63.5 247.5v4q0 135 -63 245.5t-168 172t-226 61.5q-193 0 -319 -131.5t-126 -345.5v-4q0 -211 128.5 -347.5
t316.5 -136.5z" />
    <glyph glyph-name="aring.alt2" horiz-adv-x="1241" 
d="M535 -25q-78 0 -151 21.5t-132.5 62t-95 105.5t-35.5 145v4q0 165 131 257t344 92q195 0 373 -52v60q0 170 -98 258t-275 88q-165 0 -344 -88l-31 76q157 70 271 86q-86 55 -86 161q0 86 63.5 146.5t153.5 60.5t153.5 -60.5t63.5 -146.5q0 -104 -97 -170
q116 -23 201 -102q109 -109 109 -305v-674h-84v203q-57 -96 -167 -162t-267 -66zM539 55q182 0 306 100t124 246v127q-173 56 -377 56q-177 0 -278 -71t-101 -196v-4q0 -118 95.5 -188t230.5 -70zM467 1251q0 -63 45 -108t111 -45q63 0 108 45t45 108t-45 108.5t-108 45.5
q-65 0 -110.5 -45.5t-45.5 -108.5z" />
    <glyph glyph-name="aringacute.alt" horiz-adv-x="1427" 
d="M719 1264q-89 0 -153 61.5t-64 147.5t64 147t153 61t153 -61t64 -147t-64 -147.5t-153 -61.5zM719 1319q63 0 109 45.5t46 108.5t-46 108t-109 45t-109.5 -45t-46.5 -108t46.5 -108.5t109.5 -45.5zM670 -25q-103 0 -199 41t-170 113t-118 178.5t-44 229.5v4q0 123 44 230
t117.5 179.5t170 114t199.5 41.5q160 0 275.5 -80t184.5 -209v262h87v-1079h-87v268q-67 -130 -184.5 -211.5t-275.5 -81.5zM678 57q121 0 225.5 61.5t168 173t63.5 247.5v4q0 135 -63 245.5t-168 172t-226 61.5q-193 0 -319 -131.5t-126 -345.5v-4q0 -211 128.5 -347.5
t316.5 -136.5zM678 1747l188 235l103 -51l-215 -184h-76z" />
    <glyph glyph-name="aringacute.alt2" horiz-adv-x="1241" 
d="M535 -25q-78 0 -151 21.5t-132.5 62t-95 105.5t-35.5 145v4q0 165 131 257t344 92q195 0 373 -52v60q0 170 -98 258t-275 88q-165 0 -344 -88l-31 76q157 70 271 86q-86 55 -86 161q0 86 63.5 146.5t153.5 60.5t153.5 -60.5t63.5 -146.5q0 -104 -97 -170
q116 -23 201 -102q109 -109 109 -305v-674h-84v203q-57 -96 -167 -162t-267 -66zM539 55q182 0 306 100t124 246v127q-173 56 -377 56q-177 0 -278 -71t-101 -196v-4q0 -118 95.5 -188t230.5 -70zM467 1251q0 -63 45 -108t111 -45q63 0 108 45t45 108t-45 108.5t-108 45.5
q-65 0 -110.5 -45.5t-45.5 -108.5zM582 1542l188 236l102 -52l-215 -184h-75z" />
    <glyph glyph-name="atilde.alt" horiz-adv-x="1427" 
d="M670 -25q-103 0 -199 41t-170 113t-118 178.5t-44 229.5v4q0 123 44 230t117.5 179.5t170 114t199.5 41.5q160 0 275.5 -80t184.5 -209v262h87v-1079h-87v268q-67 -130 -184.5 -211.5t-275.5 -81.5zM678 57q121 0 225.5 61.5t168 173t63.5 247.5v4q0 135 -63 245.5
t-168 172t-226 61.5q-193 0 -319 -131.5t-126 -345.5v-4q0 -211 128.5 -347.5t316.5 -136.5zM860 1274q-10 0 -22 2t-21 4.5t-24.5 9t-22.5 9.5t-27 12t-26 12q-92 49 -131 49t-63.5 -25t-47.5 -90l-59 17q25 104 66 146t104 42q43 0 143 -49q92 -49 131 -49t63.5 25
t47.5 90l59 -15q-25 -105 -66 -147.5t-104 -42.5z" />
    <glyph glyph-name="i.dot" horiz-adv-x="536" 
d="M213 1370v135h111v-135h-111zM225 0v1079h86v-1079h-86z" />
    <glyph glyph-name="uni0386.calt" horiz-adv-x="1691" 
d="M102 0l701 1501h86l702 -1501h-100l-197 426h-901l-196 -426h-95zM432 510h823l-411 889z" />
    <glyph glyph-name="uni0388.calt" horiz-adv-x="1445" 
d="M233 0v1491h1055v-84h-962v-614h868v-84h-868v-625h972v-84h-1065z" />
    <glyph glyph-name="uni0389.calt" horiz-adv-x="1638" 
d="M233 0v1491h93v-698h987v698h92v-1491h-92v709h-987v-709h-93z" />
    <glyph glyph-name="uni038A.calt" horiz-adv-x="589" 
d="M248 0v1491h92v-1491h-92z" />
    <glyph glyph-name="uni038C.calt" horiz-adv-x="1830" 
d="M913 -25q-165 0 -306 62.5t-236.5 168t-149 244.5t-53.5 291v4q0 153 54 292.5t149.5 246t237 169.5t306.5 63t307 -62.5t237.5 -168t149.5 -244.5t54 -291v-5q0 -153 -54 -292.5t-150 -245.5t-238.5 -169t-307.5 -63zM918 57q188 0 337.5 93t230.5 249t81 342v4
q0 185 -82.5 342t-233.5 252t-338 95t-337 -93t-232 -249t-82 -342v-5q0 -138 49 -264t134 -219.5t208.5 -149t264.5 -55.5z" />
    <glyph glyph-name="uni038E.calt" horiz-adv-x="1511" 
d="M711 0v600l-637 891h114l570 -809l571 809h109l-635 -889v-602h-92z" />
    <glyph glyph-name="uni038F.calt" horiz-adv-x="1863" 
d="M932 1516q162 0 299.5 -56t231.5 -152.5t147 -228.5t53 -282v-2q0 -221 -111.5 -395t-324.5 -320l489 4v-84h-622v76q113 73 194 143t147.5 157t100 191t33.5 226v2q0 182 -79 327.5t-225 228.5t-333 83t-332.5 -83t-224 -228.5t-78.5 -327.5v-2q0 -119 33 -223
t97.5 -191.5t147.5 -159.5t195 -143v-76h-623v84l490 -4q-212 143 -323 317.5t-111 397.5v2q0 199 89.5 362.5t257 260t382.5 96.5z" />
    <glyph glyph-name="uni0399.calt" horiz-adv-x="589" 
d="M248 0v1491h92v-1491h-92zM408 1642v144h133v-144h-133zM55 1642v144h135v-144h-135z" />
    <glyph glyph-name="uni03A5.calt" horiz-adv-x="1511" 
d="M711 0v600l-637 891h114l570 -809l571 809h109l-635 -889v-602h-92zM866 1634v144h133v-144h-133zM514 1634v144h135v-144h-135z" />
    <glyph glyph-name="uni0431.srb" horiz-adv-x="1359" 
d="M1104 1554v-77h-592q-73 0 -110 -27.5t-37 -73.5q0 -41 31 -73.5t110 -77.5l401 -226q145 -80 231.5 -202t86.5 -285v-2q0 -145 -68 -267t-194.5 -195t-286.5 -73q-156 0 -281 70.5t-193.5 190t-68.5 264.5v2q0 108 41 204.5t114 169t182.5 113.5t238.5 37l-246 137
q-109 61 -148 108.5t-39 114.5q0 75 61 121.5t175 46.5h592zM678 55q200 0 327.5 130.5t127.5 324.5v2q0 192 -129.5 318t-321.5 126q-200 0 -327.5 -131.5t-127.5 -324.5v-2q0 -190 127 -316.5t324 -126.5z" />
    <glyph glyph-name="three.alt" horiz-adv-x="1277" 
d="M643 -25q-171 0 -311 74t-236 199l76 55q189 -246 475 -246q171 0 285.5 91.5t114.5 240.5v4q0 154 -121 237t-334 83h-154v80h156q181 0 297.5 87.5t116.5 235.5v4q0 132 -107 223t-272 91q-256 0 -428 -238l-70 43q191 277 502 277q202 0 335.5 -113t133.5 -279v-4
q0 -142 -86.5 -234t-214.5 -124q154 -40 247 -130t93 -237v-4q0 -177 -142.5 -296.5t-355.5 -119.5z" />
    <glyph glyph-name="registered.alt" horiz-adv-x="1792" 
d="M895 -25q-212 0 -389.5 103.5t-279 279.5t-101.5 383v4q0 155 60.5 297t163.5 246t246.5 166t301.5 62q212 0 389.5 -103.5t279 -279.5t101.5 -383v-5q0 -207 -102.5 -384t-280.5 -281.5t-389 -104.5zM895 27q198 0 363 96.5t259.5 261.5t94.5 360v5q0 194 -94.5 358
t-259 260t-361.5 96t-361.5 -97t-259 -262t-94.5 -360v-4q0 -194 93.5 -358t257.5 -260t362 -96zM606 377v780h342q145 0 226 -78q59 -59 59 -145v-4q0 -93 -59 -149t-162 -74l260 -330h-101l-247 317h-242v-317h-76zM682 766h254q99 0 158 42.5t59 119.5v4q0 69 -55.5 110
t-153.5 41h-262v-317z" />
    </font>
</defs>
</svg>
