<?xml version="1.0" standalone="no"?>
<!DOCTYPE svg PUBLIC "-//W3C//DTD SVG 1.1//EN" "http://www.w3.org/Graphics/SVG/1.1/DTD/svg11.dtd" >
<svg xmlns="http://www.w3.org/2000/svg" xmlns:xlink="http://www.w3.org/1999/xlink" version="1.1">
<metadata>
Created by FontForge 20201107 at Mon Apr  7 19:28:52 2025
 By 
Copyright (C) 2001, 2010 Hoefler &#38; Co. http://www.typography.com |DCNT
</metadata>
<defs>
<font id="GothamSSm-XLightItalic" horiz-adv-x="860" >
  <font-face 
    font-family="GothamSSm ExtraLight"
    font-weight="250"
    font-style="italic"
    font-stretch="normal"
    units-per-em="2048"
    panose-1="0 0 0 0 0 0 0 0 0 0"
    ascent="1638"
    descent="-410"
    x-height="1079"
    cap-height="1491"
    bbox="-629 -455 2591 2089"
    underline-thickness="102"
    underline-position="-204"
    slope="-15"
    unicode-range="U+0020-FB04"
  />
<missing-glyph horiz-adv-x="1024" 
d="M0 -410v2048h1024v-2048h-1024zM102 -156l353 770l-353 770v-1540zM145 -307h734l-367 799zM512 737l367 799h-734zM922 -156v1540l-353 -770z" />
    <glyph glyph-name="f_f" unicode="ff" horiz-adv-x="1523" 
d="M125 0l270 1001h-162l21 78h162l43 162q46 157 119 225q88 88 225 88q117 0 207 -49l-23 -78q-95 50 -188 50q-191 0 -256 -250l-41 -148h391l-21 -78h-391l-268 -1001h-88zM872 0l271 1001h-162l20 78h162l43 162q46 157 119 225q88 88 225 88q117 0 207 -49l-22 -78
q-95 50 -189 50q-191 0 -256 -250l-41 -148h391l-20 -78h-391l-268 -1001h-89z" />
    <glyph glyph-name="fi" unicode="fi" horiz-adv-x="1290" 
d="M829 0l291 1079h86l-291 -1079h-86zM1186 1370l37 135h110l-37 -135h-110zM125 0l270 1001h-162l21 78h162l43 162q46 157 119 225q88 88 225 88q117 0 207 -49l-23 -78q-95 50 -188 50q-191 0 -256 -250l-41 -148h391l-21 -78h-391l-268 -1001h-88z" />
    <glyph glyph-name="fl" unicode="fl" horiz-adv-x="1288" 
d="M829 0l418 1554h86l-418 -1554h-86zM125 0l270 1001h-162l21 78h162l43 162q46 157 119 225q88 88 225 88q117 0 207 -49l-23 -78q-95 50 -188 50q-191 0 -256 -250l-41 -148h391l-21 -78h-391l-268 -1001h-88z" />
    <glyph glyph-name="f_f_i" unicode="ffi" horiz-adv-x="2037" 
d="M1577 0l291 1079h86l-291 -1079h-86zM1933 1370l37 135h111l-37 -135h-111zM125 0l270 1001h-162l21 78h162l43 162q46 157 119 225q88 88 225 88q117 0 207 -49l-23 -78q-95 50 -188 50q-191 0 -256 -250l-41 -148h391l-21 -78h-391l-268 -1001h-88zM872 0l271 1001
h-162l20 78h162l43 162q46 157 119 225q88 88 225 88q117 0 207 -49l-22 -78q-95 50 -189 50q-191 0 -256 -250l-41 -148h391l-20 -78h-391l-268 -1001h-89z" />
    <glyph glyph-name="f_f_l" unicode="ffl" horiz-adv-x="2035" 
d="M1577 0l418 1554h86l-418 -1554h-86zM125 0l270 1001h-162l21 78h162l43 162q46 157 119 225q88 88 225 88q117 0 207 -49l-23 -78q-95 50 -188 50q-191 0 -256 -250l-41 -148h391l-21 -78h-391l-268 -1001h-88zM872 0l271 1001h-162l20 78h162l43 162q46 157 119 225
q88 88 225 88q117 0 207 -49l-22 -78q-95 50 -189 50q-191 0 -256 -250l-41 -148h391l-20 -78h-391l-268 -1001h-89z" />
    <glyph glyph-name=".notdef" horiz-adv-x="1024" 
d="M0 -410v2048h1024v-2048h-1024zM102 -156l353 770l-353 770v-1540zM145 -307h734l-367 799zM512 737l367 799h-734zM922 -156v1540l-353 -770z" />
    <glyph glyph-name=".null" horiz-adv-x="0" 
 />
    <glyph glyph-name="nonmarkingreturn" horiz-adv-x="682" 
 />
    <glyph glyph-name="space" unicode=" " horiz-adv-x="651" 
 />
    <glyph glyph-name="exclam" unicode="!" horiz-adv-x="526" 
d="M199 389l223 928l47 174h100l-47 -174l-274 -928h-49zM57 0l43 160h123l-45 -160h-121z" />
    <glyph glyph-name="quotedbl" unicode="&#x22;" horiz-adv-x="833" 
d="M225 950l203 541h111v-8l-265 -533h-49zM575 950l203 541h111v-8l-264 -533h-50z" />
    <glyph glyph-name="numbersign" unicode="#" horiz-adv-x="1462" 
d="M213 0l141 408h-252l21 81h260l184 523h-280l20 82h287l139 397h84l-139 -397h463l137 397h86l-139 -397h252l-21 -82h-260l-182 -523h278l-20 -81h-287l-141 -408h-84l141 408h-463l-141 -408h-84zM469 489h461l182 523h-463z" />
    <glyph glyph-name="dollar" unicode="$" horiz-adv-x="1347" 
d="M926 1614h86l-39 -139q212 -42 366 -193l-63 -61q-133 133 -332 174l-162 -607q194 -69 284.5 -154.5t90.5 -221.5q0 -173 -145.5 -292.5t-384.5 -119.5q-40 0 -58 2l-55 -211h-84l57 219q-285 45 -460 252l67 60q156 -192 422 -232l172 639q-202 73 -293.5 155.5
t-91.5 215.5q0 163 139.5 277t356.5 114q30 0 92 -4zM397 1108q0 -103 72 -165t242 -128l159 590q-54 4 -79 4q-174 0 -284 -89t-110 -212zM1065 403q0 102 -71 170.5t-234 131.5l-168 -623h51q192 0 307 94t115 227z" />
    <glyph glyph-name="percent" unicode="%" horiz-adv-x="1779" 
d="M510 737q-127 0 -209 88t-82 219q0 99 39 190.5t107 158.5q114 114 258 114q127 0 208.5 -88t81.5 -219q0 -99 -38.5 -190t-106.5 -158q-115 -115 -258 -115zM516 813q103 0 189 86q56 56 88 134t32 159q0 107 -56 173.5t-153 66.5q-102 0 -188 -86q-57 -55 -89 -133
t-32 -160q0 -107 56 -173.5t153 -66.5zM160 0l731 745l731 746h107l-732 -746l-731 -745h-106zM1264 -16q-127 0 -208 88t-81 219q0 99 38 190t105 158q115 115 260 115q127 0 208 -88.5t81 -219.5q0 -99 -38 -190t-105 -158q-114 -114 -260 -114zM1270 59q104 0 190 86
q56 56 88.5 134t32.5 159q0 107 -56 173.5t-153 66.5t-190 -86q-56 -56 -88.5 -134t-32.5 -159q0 -107 56 -173.5t153 -66.5z" />
    <glyph glyph-name="ampersand" unicode="&#x26;" horiz-adv-x="1488" 
d="M1321 717l70 -41q-135 -227 -277 -383l195 -275l-68 -45l-186 263q-134 -131 -262.5 -193.5t-288.5 -62.5q-179 0 -300.5 99.5t-121.5 270.5q0 188 141 314t393 190q-108 164 -108 291q0 159 114.5 265t276.5 106q152 0 246 -83.5t94 -215.5q0 -139 -117.5 -241.5
t-373.5 -172.5l319 -449q136 155 254 363zM514 59q255 0 496 238l-348 494q-235 -58 -360.5 -167.5t-125.5 -265.5q0 -137 94 -218t244 -81zM598 1149q0 -131 104 -281q232 62 339.5 147t107.5 197q0 101 -69 163.5t-183 62.5q-124 0 -211.5 -83.5t-87.5 -205.5z" />
    <glyph glyph-name="quotesingle" unicode="'" horiz-adv-x="483" 
d="M225 950l203 541h111v-8l-265 -533h-49z" />
    <glyph glyph-name="parenleft" unicode="(" horiz-adv-x="919" 
d="M643 -240l-51 -51q-373 318 -373 756q0 200 80 388t238 345q202 205 526 334l31 -68q-298 -121 -490 -313q-293 -293 -293 -684q0 -116 25.5 -220.5t74 -191.5t104 -156.5t128.5 -138.5z" />
    <glyph glyph-name="parenright" unicode=")" horiz-adv-x="919" 
d="M317 1477l52 53q372 -321 372 -758q0 -199 -79.5 -387t-237.5 -346q-204 -204 -526 -332l-31 68q300 122 489 311q293 293 293 686q0 116 -25.5 220.5t-74 191t-104 155.5t-128.5 138z" />
    <glyph glyph-name="asterisk" unicode="*" horiz-adv-x="946" 
d="M588 866l-76 19l90 266l-266 -90l-21 74l281 55l-217 186l57 56l185 -211l57 272l74 -18l-90 -267l266 90l22 -73l-280 -56l215 -186l-58 -53l-184 211z" />
    <glyph glyph-name="plus" unicode="+" horiz-adv-x="1337" 
d="M543 242l127 467h-465l22 82h465l125 469h88l-127 -469h465l-22 -82h-465l-125 -467h-88z" />
    <glyph glyph-name="comma" unicode="," horiz-adv-x="477" 
d="M-49 -209l-12 43q122 43 147 166h-53l43 160h123l-39 -140q-29 -105 -74.5 -154.5t-134.5 -74.5z" />
    <glyph glyph-name="hyphen" unicode="-" horiz-adv-x="886" 
d="M174 584l27 98h557l-25 -98h-559z" />
    <glyph glyph-name="period" unicode="." horiz-adv-x="477" 
d="M33 0l43 160h123l-43 -160h-123z" />
    <glyph glyph-name="slash" unicode="/" horiz-adv-x="1087" 
d="M-227 -272l1525 1972h97l-1528 -1972h-94z" />
    <glyph glyph-name="zero" unicode="0" horiz-adv-x="1538" 
d="M956 1516q160 0 274 -73.5t169 -198.5t55 -288q0 -217 -83 -429t-224 -349q-203 -203 -457 -203q-160 0 -273.5 73.5t-168.5 198.5t-55 288q0 217 83 427t224 351q203 203 456 203zM696 57q205 0 377 172q131 131 209 327t78 400q0 137 -45 243t-139 170.5t-226 64.5
q-205 0 -377 -172q-131 -131 -208.5 -327t-77.5 -400q0 -137 44.5 -243t138.5 -170.5t226 -64.5z" />
    <glyph glyph-name="one" unicode="1" horiz-adv-x="727" 
d="M219 0l373 1397l-313 -107l-5 82l365 129h72l-402 -1501h-90z" />
    <glyph glyph-name="two" unicode="2" horiz-adv-x="1261" 
d="M-27 0l15 66l880 702q141 111 205 199.5t64 189.5q0 118 -90.5 195.5t-245.5 77.5q-235 0 -434 -220l-64 56q227 245 500 245q193 0 310.5 -99t117.5 -253q0 -124 -72.5 -225t-234.5 -227l-781 -619h883l-22 -88h-1031z" />
    <glyph glyph-name="three" unicode="3" horiz-adv-x="1286" 
d="M532 -25q-185 0 -313.5 76t-193.5 211l75 41q128 -246 437 -246q205 0 342 109.5t137 279.5q0 141 -114.5 218t-323.5 77h-60l-18 47l686 617h-813l26 86h944l-18 -66l-678 -610q208 -8 335.5 -101.5t127.5 -260.5q0 -179 -127 -306q-82 -82 -199.5 -127t-251.5 -45z" />
    <glyph glyph-name="four" unicode="4" horiz-adv-x="1384" 
d="M809 0l100 373h-827l-14 65l1151 1063h81l-280 -1048h244l-21 -80h-244l-100 -373h-90zM197 453h735l242 903z" />
    <glyph glyph-name="five" unicode="5" horiz-adv-x="1294" 
d="M547 -25q-176 0 -303 74t-197 193l76 47q148 -234 430 -234q108 0 201.5 35t157.5 94t100.5 137.5t36.5 163.5q0 156 -104.5 243t-272.5 87q-170 0 -350 -92l-58 45l238 723h796l-24 -88h-715l-192 -576q60 30 147.5 51t159.5 21q213 0 341 -110t128 -300
q0 -195 -144 -342q-81 -81 -197.5 -126.5t-254.5 -45.5z" />
    <glyph glyph-name="six" unicode="6" horiz-adv-x="1380" 
d="M680 -25q-104 0 -195 36t-155 100q-140 134 -140 387q0 245 83.5 458.5t222.5 352.5q207 207 473 207q260 0 428 -199l-68 -57q-158 174 -366 174q-219 0 -398 -179q-113 -113 -184.5 -274t-89.5 -332q68 117 194 196t289 79q110 0 201 -35t149.5 -94.5t90.5 -136
t32 -160.5q0 -208 -149 -357q-166 -166 -418 -166zM686 55q199 0 340 138q127 127 127 305q0 66 -24 126t-70 108.5t-121 77t-170 28.5q-214 0 -356 -142q-121 -115 -121 -268q0 -160 104 -264q112 -109 291 -109z" />
    <glyph glyph-name="seven" unicode="7" horiz-adv-x="1228" 
d="M166 0l1026 1403h-875l25 88h983l-18 -66l-1035 -1425h-106z" />
    <glyph glyph-name="eight" unicode="8" horiz-adv-x="1384" 
d="M643 -20q-240 0 -390.5 110t-150.5 277q0 112 62.5 202t166.5 144.5t238 74.5q-107 37 -173 121t-66 197q0 114 69.5 207t190 145.5t266.5 52.5q209 0 346 -102.5t137 -265.5q0 -152 -112.5 -258.5t-284.5 -136.5q120 -39 200.5 -130t80.5 -212q0 -186 -164 -306
t-416 -120zM647 61q218 0 349.5 96.5t131.5 250.5q0 133 -123 227t-319 94q-216 0 -352.5 -104t-136.5 -248q0 -141 124 -228.5t326 -87.5zM801 801q201 0 322.5 99t121.5 237q0 129 -109.5 211t-281.5 82q-190 0 -310 -93t-120 -235q0 -129 106.5 -215t270.5 -86z" />
    <glyph glyph-name="nine" unicode="9" horiz-adv-x="1380" 
d="M518 -25q-134 0 -246 55t-192 158l65 58q160 -189 379 -189q217 0 396 179q115 113 185.5 271t88.5 329q-30 -54 -74 -102t-103.5 -90t-139.5 -66.5t-168 -24.5q-111 0 -201.5 35.5t-148.5 95.5t-89.5 137.5t-31.5 163.5q0 210 153 363q168 168 416 168q104 0 195 -36
t155 -100q139 -133 139 -387q0 -245 -83.5 -458t-223.5 -353q-207 -207 -471 -207zM721 637q207 0 350 143q58 58 90.5 132t32.5 151q0 157 -102 262q-111 111 -291 111q-200 0 -336 -136q-130 -130 -133 -315q0 -67 23.5 -128t69 -111t122.5 -79.5t174 -29.5z" />
    <glyph glyph-name="colon" unicode=":" horiz-adv-x="495" 
d="M43 0l43 160h121l-43 -160h-121zM289 920l43 159h121l-43 -159h-121z" />
    <glyph glyph-name="semicolon" unicode=";" horiz-adv-x="495" 
d="M-41 -209l-12 43q122 43 147 166h-51l43 160h121l-37 -140q-31 -105 -77 -154.5t-134 -74.5zM289 920l43 159h121l-43 -159h-121z" />
    <glyph glyph-name="less" unicode="&#x3c;" horiz-adv-x="1337" 
d="M1040 207l-850 510l19 65l1122 510l-26 -102l-994 -447l754 -448z" />
    <glyph glyph-name="equal" unicode="=" horiz-adv-x="1337" 
d="M174 463l25 88h942l-25 -88h-942zM305 948l23 88h942l-23 -88h-942z" />
    <glyph glyph-name="greater" unicode="&#x3e;" horiz-adv-x="1337" 
d="M115 207l26 104l994 447l-754 446l25 88l849 -510l-18 -65z" />
    <glyph glyph-name="question" unicode="?" horiz-adv-x="1144" 
d="M430 389l68 342l12 10q156 12 276.5 59.5t193.5 135.5t73 203q0 133 -94 210.5t-246 77.5q-126 0 -235 -54t-191 -138l-58 59q219 215 490 215q195 0 311.5 -104.5t116.5 -263.5q0 -102 -45.5 -186.5t-125 -141.5t-180 -93.5t-218.5 -51.5l-93 -279h-55zM293 0l43 160
h121l-43 -160h-121z" />
    <glyph glyph-name="at" unicode="@" horiz-adv-x="2097" 
d="M1024 -342q-197 0 -359.5 60t-273.5 167t-172 258.5t-61 331.5q0 167 54 325.5t151.5 286.5t226 225.5t285.5 150.5t321 53q188 0 343 -59.5t256 -161.5t156.5 -236t55.5 -285q0 -119 -27.5 -222t-72 -173.5t-101.5 -121t-115.5 -74t-113.5 -23.5q-115 0 -175 63.5
t-65 163.5q-75 -108 -175.5 -168.5t-221.5 -60.5q-144 0 -237 96t-93 252q0 142 70.5 269t186.5 203.5t245 76.5q137 0 219 -70.5t109 -177.5l67 219l82 -22l-149 -484q-21 -70 -21 -125q0 -77 42 -122.5t122 -45.5q58 0 118.5 33.5t115.5 97t90 172t35 242.5
q0 139 -51.5 263.5t-145.5 218.5t-236 149t-313 55q-193 0 -372.5 -79t-311 -210.5t-210.5 -314t-79 -379.5q0 -165 56 -305t158.5 -240t253.5 -156.5t333 -56.5q242 0 453 99l26 -56q-218 -102 -479 -102zM956 240q83 0 165 40t142 102.5t97 143t37 158.5q0 131 -74 210
t-207 79q-112 0 -206.5 -65t-148.5 -171.5t-54 -226.5q0 -126 67.5 -198t181.5 -72z" />
    <glyph glyph-name="A" unicode="A" horiz-adv-x="1650" 
d="M-53 0l1104 1501h88l297 -1501h-95l-79 426h-900l-311 -426h-104zM422 510h821l-170 889z" />
    <glyph glyph-name="B" unicode="B" horiz-adv-x="1560" 
d="M92 0l400 1491h550q200 0 322.5 -89.5t122.5 -246.5q0 -83 -32.5 -154.5t-89 -121t-128.5 -82t-154 -45.5q136 -35 215.5 -112t79.5 -202q0 -193 -164 -315.5t-452 -122.5h-670zM205 84h563q244 0 381 96.5t137 259.5q0 130 -113 200.5t-296 70.5h-504zM397 795h482
q237 0 375.5 95t138.5 257q0 127 -96 193.5t-265 66.5h-471z" />
    <glyph glyph-name="C" unicode="C" horiz-adv-x="1595" 
d="M815 -27q-123 0 -232.5 41.5t-192.5 117.5t-131 190.5t-48 252.5q0 192 75.5 368.5t211.5 313.5q122 122 277.5 190.5t324.5 68.5q191 0 331.5 -87.5t210.5 -234.5l-77 -41q-154 281 -469 281q-149 0 -284 -60t-243 -166q-124 -124 -194 -288.5t-70 -339.5
q0 -238 146 -380.5t372 -142.5q163 0 287 59t236 171l61 -56q-251 -258 -592 -258z" />
    <glyph glyph-name="D" unicode="D" horiz-adv-x="1665" 
d="M92 0l400 1491h323q182 0 333 -51t253 -150q164 -164 164 -426q0 -345 -234 -579q-136 -136 -332 -210.5t-426 -74.5h-481zM1329 1231q-176 176 -514 176h-254l-356 -1323h381q207 0 379.5 67t298.5 193q206 206 206 514q0 235 -141 373z" />
    <glyph glyph-name="E" unicode="E" horiz-adv-x="1419" 
d="M92 0l400 1491h1048l-24 -84h-955l-166 -614h862l-22 -84h-862l-168 -625h966l-22 -84h-1057z" />
    <glyph glyph-name="F" unicode="F" horiz-adv-x="1409" 
d="M92 0l400 1491h1044l-23 -84h-952l-172 -637h858l-22 -84h-858l-185 -686h-90z" />
    <glyph glyph-name="G" unicode="G" horiz-adv-x="1697" 
d="M854 -27q-282 0 -459.5 173.5t-177.5 453.5q0 181 73 350.5t204 300.5q265 265 630 265q363 0 541 -273l-74 -47q-36 53 -76.5 93t-97 74.5t-132.5 52.5t-169 18q-312 0 -553 -234q-119 -119 -185.5 -276t-66.5 -322q0 -249 149.5 -398t397.5 -149q247 0 447 129l141 496
h-504l23 86h596l-181 -633q-250 -160 -526 -160z" />
    <glyph glyph-name="H" unicode="H" horiz-adv-x="1636" 
d="M92 0l400 1491h92l-189 -698h981l187 698h92l-400 -1491h-92l191 709h-981l-191 -709h-90z" />
    <glyph glyph-name="I" unicode="I" horiz-adv-x="593" 
d="M106 0l400 1491h92l-401 -1491h-91z" />
    <glyph glyph-name="J" unicode="J" horiz-adv-x="1179" 
d="M422 -23q-171 0 -274.5 93.5t-143.5 246.5l82 29q82 -285 334 -285q166 0 276 113q105 105 168 330l264 987h93l-271 -1002q-63 -243 -192 -372q-67 -67 -154.5 -103.5t-181.5 -36.5z" />
    <glyph glyph-name="K" unicode="K" horiz-adv-x="1542" 
d="M92 0l400 1491h92l-265 -981l1225 981h135l-823 -655l449 -836h-107l-418 782l-493 -395l-105 -387h-90z" />
    <glyph glyph-name="L" unicode="L" horiz-adv-x="1296" 
d="M92 0l400 1491h92l-379 -1407h889l-23 -84h-979z" />
    <glyph glyph-name="M" unicode="M" horiz-adv-x="1873" 
d="M92 0l400 1491h77l373 -893l852 893h98l-401 -1491h-90l356 1329l-842 -876h-6l-372 876l-357 -1329h-88z" />
    <glyph glyph-name="N" unicode="N" horiz-adv-x="1699" 
d="M92 0l400 1491h83l697 -1341l360 1341h88l-401 -1491h-70l-704 1362l-365 -1362h-88z" />
    <glyph glyph-name="O" unicode="O" horiz-adv-x="1824" 
d="M1073 1516q186 0 333.5 -85t228.5 -231.5t81 -325.5q0 -182 -72.5 -352t-201.5 -299q-118 -118 -267 -184t-313 -66q-186 0 -333.5 85.5t-228.5 231.5t-81 324q0 183 72.5 352.5t202.5 299.5q118 119 266.5 184.5t312.5 65.5zM862 55q145 0 276 58t234 161
q118 120 184 276t66 324q0 156 -68 283.5t-194.5 202t-286.5 74.5q-145 0 -276 -58.5t-234 -161.5q-118 -118 -184 -275t-66 -323q0 -158 68 -285.5t194 -201.5t287 -74z" />
    <glyph glyph-name="P" unicode="P" horiz-adv-x="1443" 
d="M92 0l400 1491h460q279 0 414 -135q100 -93 100 -264q0 -201 -133 -334q-93 -93 -244 -142t-348 -49h-405l-154 -567h-90zM1296 1296q-111 111 -346 111h-389l-203 -758h387q359 0 521 162q110 110 110 276q0 129 -80 209z" />
    <glyph glyph-name="Q" unicode="Q" horiz-adv-x="1824" 
d="M1073 1516q186 0 333.5 -85t228.5 -231.5t81 -325.5q0 -188 -81 -369.5t-232 -318.5l156 -172l-66 -55l-154 176q-222 -162 -477 -162q-186 0 -333.5 85.5t-228.5 231.5t-81 324q0 183 72.5 352.5t202.5 299.5q118 119 266.5 184.5t312.5 65.5zM862 55q229 0 420 144
l-256 286l68 58l249 -293q134 121 206.5 286t72.5 338q0 156 -68 283.5t-194.5 202t-286.5 74.5q-145 0 -276 -58.5t-234 -161.5q-118 -118 -184 -275t-66 -323q0 -158 68 -285.5t194 -201.5t287 -74z" />
    <glyph glyph-name="R" unicode="R" horiz-adv-x="1554" 
d="M1167 0l-323 627h-53h-439l-170 -627h-90l400 1491h534q272 0 397 -131q95 -92 95 -244q0 -180 -127 -307q-147 -144 -449 -176l332 -633h-107zM373 711h467q339 0 483 151q104 101 104 248q0 119 -71 190q-107 107 -334 107h-461z" />
    <glyph glyph-name="S" unicode="S" horiz-adv-x="1388" 
d="M653 -20q-193 0 -345.5 74.5t-248.5 207.5l70 51q198 -252 533 -252q196 0 320 99.5t124 238.5q0 111 -79 177.5t-269 140.5q-220 84 -319 168.5t-99 218.5q0 145 109 254q153 153 421 153q160 0 292 -60t222 -163l-69 -57q-180 199 -453 199q-194 0 -311 -94t-117 -224
q0 -105 87.5 -173.5t275.5 -139.5q104 -39 174 -75.5t123.5 -82.5t78.5 -103t25 -130q0 -156 -117 -273q-155 -155 -428 -155z" />
    <glyph glyph-name="T" unicode="T" horiz-adv-x="1316" 
d="M459 0l377 1407h-525l23 84h1143l-23 -84h-526l-379 -1407h-90z" />
    <glyph glyph-name="U" unicode="U" horiz-adv-x="1636" 
d="M754 -23q-252 0 -393.5 127t-141.5 345q0 119 33 237l215 805h92l-225 -842q-25 -105 -25 -194q0 -183 117.5 -289.5t333.5 -106.5q219 0 381 158q139 139 217 418l229 856h90l-235 -875q-79 -295 -238 -454q-185 -185 -450 -185z" />
    <glyph glyph-name="V" unicode="V" horiz-adv-x="1550" 
d="M575 -10l-249 1501h94l219 -1393l969 1393h106l-1059 -1501h-80z" />
    <glyph glyph-name="W" unicode="W" horiz-adv-x="2299" 
d="M473 -10l-133 1501h94l113 -1360l807 1364h73l84 -1364l834 1360h102l-931 -1501h-76l-90 1335l-801 -1335h-76z" />
    <glyph glyph-name="X" unicode="X" horiz-adv-x="1488" 
d="M-35 0l785 768l-402 723h98l369 -670l678 670h117l-752 -739l412 -752h-99l-378 700l-709 -700h-119z" />
    <glyph glyph-name="Y" unicode="Y" horiz-adv-x="1447" 
d="M522 0l164 610l-391 881h100l353 -809l788 809h123l-889 -901l-158 -590h-90z" />
    <glyph glyph-name="Z" unicode="Z" horiz-adv-x="1441" 
d="M-18 0l14 51l1384 1358h-985l23 82h1128l-14 -51l-1385 -1358h1024l-22 -82h-1167z" />
    <glyph glyph-name="bracketleft" unicode="[" horiz-adv-x="931" 
d="M41 -276l475 1767h576l-21 -68h-491l-439 -1632h494l-19 -67h-575z" />
    <glyph glyph-name="backslash" unicode="\" horiz-adv-x="1075" 
d="M805 -272l-471 1972h80l471 -1972h-80z" />
    <glyph glyph-name="bracketright" unicode="]" horiz-adv-x="931" 
d="M926 1491l-475 -1767h-576l19 67h493l436 1632h-491l18 68h576z" />
    <glyph glyph-name="asciicircum" unicode="^" horiz-adv-x="1093" 
d="M305 1051l455 446h71l218 -446h-80l-185 366l-383 -366h-96z" />
    <glyph glyph-name="underscore" unicode="_" horiz-adv-x="1273" 
d="M-227 -334l22 78h1256l-21 -78h-1257z" />
    <glyph glyph-name="grave" unicode="`" horiz-adv-x="1093" 
d="M807 1268l-162 217l109 53l112 -270h-59z" />
    <glyph glyph-name="a" unicode="a" horiz-adv-x="1241" 
d="M416 -25q-91 0 -169 32.5t-129.5 102.5t-51.5 164q0 152 102 254q134 134 383 134q208 0 428 -62l10 35q17 66 17 115q0 129 -89.5 197.5t-254.5 68.5q-151 0 -310 -58l-18 80q168 60 336 60q196 0 308 -89t112 -249q0 -66 -21 -142l-166 -618h-84l55 207
q-177 -232 -458 -232zM432 53q173 0 316.5 107.5t187.5 273.5l25 94q-199 56 -422 56q-198 0 -303 -105q-78 -84 -78 -192t77 -171t197 -63z" />
    <glyph glyph-name="b" unicode="b" horiz-adv-x="1419" 
d="M678 -27q-93 0 -170.5 28t-130 76t-87.5 104.5t-54 121.5l-82 -303h-86l417 1554h86l-190 -704q78 108 200 182t269 74q190 0 314 -129.5t124 -327.5q0 -147 -53.5 -277.5t-151.5 -224.5q-174 -174 -405 -174zM676 55q198 0 342 144q86 86 132 200t46 238
q0 171 -99.5 279t-254.5 108q-209 0 -377 -168q-86 -86 -134 -191t-48 -212q0 -170 109.5 -284t283.5 -114z" />
    <glyph glyph-name="c" unicode="c" horiz-adv-x="1220" 
d="M592 -25q-90 0 -174.5 31.5t-151 89t-107 147t-40.5 197.5q0 134 54 258.5t149 219.5q88 88 200 138t234 50q153 0 261 -74t163 -186l-74 -41q-126 219 -356 219q-101 0 -194 -42.5t-167 -117.5q-82 -82 -129 -190.5t-47 -227.5q0 -121 55.5 -212t141 -135t186.5 -44
q188 0 360 158l60 -55q-199 -183 -424 -183z" />
    <glyph glyph-name="d" unicode="d" horiz-adv-x="1419" 
d="M975 0l61 227q-79 -107 -201 -180.5t-270 -73.5q-190 0 -313 129.5t-123 327.5q0 145 53.5 274t149.5 228q174 174 405 174q93 0 170.5 -28t131 -76t89 -104.5t54.5 -121.5l209 778h86l-416 -1554h-86zM575 55q209 0 377 168q86 86 134.5 191.5t48.5 212.5
q0 169 -110 283t-284 114q-199 0 -342 -143q-86 -86 -132 -201.5t-46 -239.5q0 -170 98.5 -277.5t255.5 -107.5z" />
    <glyph glyph-name="e" unicode="e" horiz-adv-x="1271" 
d="M1130 510h-913q-4 -54 -4 -80q0 -166 103 -270.5t270 -104.5q214 0 387 146l49 -60q-94 -80 -198.5 -123t-237.5 -43q-206 0 -335.5 126t-129.5 325q0 139 55 269t154 229q182 182 418 182q99 0 178 -33.5t129 -92t76 -133t26 -159.5t-27 -178zM397 874
q-118 -118 -164 -286h826q10 42 10 94q0 96 -34 172t-109 124t-181 48q-196 0 -348 -152z" />
    <glyph glyph-name="f" unicode="f" horiz-adv-x="776" 
d="M125 0l270 1001h-162l21 78h162l43 162q46 157 119 225q88 88 225 88q117 0 207 -49l-23 -78q-95 50 -188 50q-191 0 -256 -250l-41 -148h391l-21 -78h-391l-268 -1001h-88z" />
    <glyph glyph-name="g" unicode="g" horiz-adv-x="1417" 
d="M518 -344q-144 0 -278 53.5t-232 147.5l64 63q185 -182 450 -182q217 0 342 125q52 52 86.5 120.5t65.5 172.5l43 155q-201 -231 -467 -231q-118 0 -220 50.5t-166.5 148t-64.5 221.5q0 248 176 424q87 87 199 134.5t234 47.5q93 0 169.5 -27t127.5 -73.5t84 -99.5
t53 -115l78 288h86l-252 -944q-56 -211 -170 -325q-154 -154 -408 -154zM608 162q109 0 208 44t175 120q73 73 112.5 158t39.5 171q0 95 -47 178t-138.5 136t-209.5 53q-211 0 -361 -150q-154 -154 -154 -366q0 -105 53 -184.5t137.5 -119.5t184.5 -40z" />
    <glyph glyph-name="h" unicode="h" horiz-adv-x="1323" 
d="M68 0l417 1554h86l-188 -698q181 250 428 250q166 0 262 -94.5t96 -251.5q0 -70 -24 -164l-158 -596h-86l160 602q20 67 20 150q0 127 -75.5 200.5t-214.5 73.5q-151 0 -289.5 -117.5t-186.5 -302.5l-161 -606h-86z" />
    <glyph glyph-name="i" unicode="i" horiz-adv-x="542" 
d="M82 0l291 1079h86l-291 -1079h-86zM438 1370l37 135h111l-37 -135h-111z" />
    <glyph glyph-name="j" unicode="j" horiz-adv-x="540" 
d="M-119 -350q-65 0 -121 20l23 78q50 -16 92 -16q132 0 178 162l320 1185h86l-322 -1194q-30 -115 -97 -175t-159 -60zM438 1370l37 135h111l-37 -135h-111z" />
    <glyph glyph-name="k" unicode="k" horiz-adv-x="1210" 
d="M68 0l417 1554h86l-313 -1167l866 692h125l-604 -479l328 -600h-101l-299 547l-348 -275l-71 -272h-86z" />
    <glyph glyph-name="l" unicode="l" horiz-adv-x="540" 
d="M82 0l418 1554h86l-418 -1554h-86z" />
    <glyph glyph-name="m" unicode="m" horiz-adv-x="2035" 
d="M68 0l288 1079h86l-59 -223q43 58 79 96.5t85 77t107 57.5t126 19q142 0 224.5 -82t95.5 -205q74 130 190 208.5t262 78.5q151 0 242.5 -95.5t91.5 -244.5q0 -52 -28 -170l-158 -596h-86l160 602q22 83 22 156q0 124 -70 196t-196 72q-139 0 -266 -122t-177 -302
l-159 -602h-86l159 602q23 87 23 156q0 124 -70 196t-196 72q-138 0 -266 -122t-177 -302l-161 -602h-86z" />
    <glyph glyph-name="n" unicode="n" horiz-adv-x="1327" 
d="M68 0l288 1079h86l-59 -223q181 250 428 250q166 0 262 -94.5t96 -251.5q0 -70 -24 -164l-158 -596h-86l160 602q20 67 20 150q0 127 -75.5 200.5t-214.5 73.5q-151 0 -289.5 -117.5t-186.5 -302.5l-161 -606h-86z" />
    <glyph glyph-name="o" unicode="o" horiz-adv-x="1368" 
d="M762 1106q214 0 348.5 -135t134.5 -344q0 -129 -51 -249t-145 -214q-89 -89 -203 -139t-240 -50q-214 0 -349.5 135t-135.5 345q0 128 52 247.5t146 212.5q89 89 203.5 140t239.5 51zM614 55q103 0 198 43t169 117q80 82 126 188t46 220q0 182 -110 291.5t-289 109.5
q-103 0 -198 -43t-169 -117q-81 -81 -126.5 -186t-45.5 -219q0 -184 110 -294t289 -110z" />
    <glyph glyph-name="p" unicode="p" horiz-adv-x="1419" 
d="M678 -27q-93 0 -170.5 28t-130 76t-87.5 104.5t-54 121.5l-173 -643h-88l381 1419h86l-61 -229q78 108 200 182t269 74q190 0 314 -129.5t124 -327.5q0 -147 -53.5 -277.5t-151.5 -224.5q-174 -174 -405 -174zM676 55q198 0 342 144q86 86 132 200t46 238
q0 171 -99.5 279t-254.5 108q-209 0 -377 -168q-86 -86 -134 -191t-48 -212q0 -170 109.5 -284t283.5 -114z" />
    <glyph glyph-name="q" unicode="q" horiz-adv-x="1419" 
d="M565 -27q-190 0 -313 129.5t-123 327.5q0 145 53.5 274t149.5 228q174 174 405 174q93 0 170.5 -28t131 -76t89 -104.5t54.5 -121.5l80 303h88l-381 -1419h-86l153 567q-79 -107 -201 -180.5t-270 -73.5zM575 55q209 0 377 168q86 86 134.5 191.5t48.5 212.5
q0 169 -110 283t-284 114q-199 0 -342 -143q-86 -86 -132 -201.5t-46 -239.5q0 -170 98.5 -277.5t255.5 -107.5z" />
    <glyph glyph-name="r" unicode="r" horiz-adv-x="835" 
d="M68 0l288 1079h86l-84 -315q109 163 251.5 252.5t299.5 83.5l-22 -94h-8q-185 0 -359.5 -148t-238.5 -385l-127 -473h-86z" />
    <glyph glyph-name="s" unicode="s" horiz-adv-x="1079" 
d="M471 -23q-126 0 -245 47t-208 136l62 61q170 -164 401 -164q124 0 212.5 66t88.5 158q0 74 -55.5 124.5t-194.5 104.5q-157 56 -231 120.5t-74 166.5q0 127 110 216t288 89q103 0 208.5 -40t178.5 -104l-56 -63q-70 57 -160 92t-180 35q-135 0 -216 -64t-81 -149
q0 -70 56 -117t200 -104q159 -62 229 -127.5t70 -165.5q0 -131 -116.5 -224.5t-286.5 -93.5z" />
    <glyph glyph-name="t" unicode="t" horiz-adv-x="856" 
d="M442 -18q-115 0 -183.5 53t-68.5 155q0 47 15 105l188 706h-160l21 78h162l94 355h86l-94 -355h381l-23 -78h-379l-190 -706q-12 -47 -12 -96q0 -138 182 -138q73 0 155 33l-22 -86q-62 -26 -152 -26z" />
    <glyph glyph-name="u" unicode="u" horiz-adv-x="1323" 
d="M512 -25q-166 0 -262 93.5t-96 250.5q0 70 24 164l158 596h88l-162 -602q-20 -67 -20 -147q0 -129 76.5 -203t216.5 -74q150 0 287.5 118t185.5 304l161 604h86l-288 -1079h-86l59 223q-186 -248 -428 -248z" />
    <glyph glyph-name="v" unicode="v" horiz-adv-x="1216" 
d="M408 -8l-195 1087h94l160 -981l682 981h104l-774 -1087h-71z" />
    <glyph glyph-name="w" unicode="w" horiz-adv-x="1802" 
d="M332 -8l-101 1087h88l80 -962l590 968h70l74 -968l591 962h97l-682 -1087h-74l-76 952l-586 -952h-71z" />
    <glyph glyph-name="x" unicode="x" horiz-adv-x="1198" 
d="M365 1079l249 -467l496 467h117l-574 -530l303 -549h-98l-264 496l-526 -496h-115l602 557l-289 522h99z" />
    <glyph glyph-name="y" unicode="y" horiz-adv-x="1241" 
d="M432 -2l-225 1081h92l199 -989l671 989h105l-768 -1110q-128 -180 -227 -248.5t-216 -68.5q-122 0 -223 69l47 68q86 -59 185 -59q87 0 169.5 58.5t190.5 209.5z" />
    <glyph glyph-name="z" unicode="z" horiz-adv-x="1153" 
d="M-31 0l13 49l1032 955h-748l21 75h889l-15 -49l-1032 -952h782l-20 -78h-922z" />
    <glyph glyph-name="braceleft" unicode="{" horiz-adv-x="1026" 
d="M688 -242l-24 -59q-171 39 -250.5 131.5t-79.5 222.5q0 56 10 107t37 147q22 80 22 131q0 137 -198 137h-58l19 70h57q153 0 230 80q90 85 131 322q25 112 56 189.5t91 137.5q134 134 416 148l-6 -68q-229 -14 -340 -125q-87 -87 -129 -285q-35 -161 -60 -223
q-33 -82 -82 -131q-66 -63 -186 -84q145 -41 145 -168q0 -52 -22 -135q-45 -145 -45 -244q0 -114 61.5 -187.5t204.5 -113.5z" />
    <glyph glyph-name="bar" unicode="|" horiz-adv-x="618" 
d="M53 -272l529 1972h77l-530 -1972h-76z" />
    <glyph glyph-name="braceright" unicode="}" horiz-adv-x="1026" 
d="M373 1464l26 60q170 -40 250 -132.5t80 -222.5q0 -57 -10.5 -110.5t-36.5 -143.5q-25 -80 -25 -131q0 -137 199 -137h59l-20 -69h-57q-153 0 -230 -80q-14 -14 -27 -33t-22.5 -36t-20 -43.5t-16.5 -41.5t-14.5 -46t-11 -42t-10.5 -43.5t-9 -36.5q-22 -109 -54.5 -188.5
t-92.5 -139.5q-67 -67 -167 -103.5t-249 -43.5l6 68q234 14 342 122q49 49 78 119t51 168q2 9 12 52t13.5 57.5t14 51.5t18.5 56t21 47t28.5 49t33.5 39q62 64 185 86q-146 41 -146 168q0 56 25 136q45 145 45 243q0 114 -62 187.5t-206 113.5z" />
    <glyph glyph-name="asciitilde" unicode="~" horiz-adv-x="995" 
d="M264 526l-63 27q48 105 96 151t113 46q40 0 70 -18.5t69 -57.5q30 -28 42 -38t29.5 -19t34.5 -9q34 0 64.5 31t68.5 102l64 -26q-48 -104 -96.5 -150.5t-110.5 -46.5q-28 0 -54 11.5t-41 24t-46 40.5q-6 5 -18.5 17t-17 16t-14 11.5t-14.5 10.5t-12.5 7t-15 5t-15.5 1
q-34 0 -63.5 -31.5t-69.5 -104.5z" />
    <glyph glyph-name="uni00A0" unicode="&#xa0;" horiz-adv-x="0" 
 />
    <glyph glyph-name="exclamdown" unicode="&#xa1;" horiz-adv-x="526" 
d="M438 1102l-223 -928l-47 -174h-100l47 174l276 928h47zM580 1491l-43 -160h-121l43 160h121z" />
    <glyph glyph-name="cent" unicode="&#xa2;" horiz-adv-x="1218" 
d="M963 1503h88l-82 -203q105 -28 176.5 -90.5t111.5 -146.5l-71 -41q-45 78 -102.5 130t-147.5 75l-375 -951q36 -8 94 -8q208 0 381 160l58 -57q-95 -88 -201.5 -135.5t-243.5 -47.5q-54 0 -114 13l-84 -213h-86l94 237q-128 52 -204.5 163.5t-76.5 260.5q0 137 54 261.5
t149 219.5q189 189 442 189q18 0 64 -4zM272 651q0 -124 58.5 -216.5t161.5 -135.5l366 938q-7 0 -20.5 1t-20.5 1q-208 0 -368 -160q-83 -83 -130 -194.5t-47 -233.5z" />
    <glyph glyph-name="sterling" unicode="&#xa3;" horiz-adv-x="1341" 
d="M6 0l12 45l195 35l156 579h-187l23 84h186l76 277q61 231 176 346q147 141 338 141q137 0 235 -62.5t156 -172.5l-76 -45q-57 98 -132 148t-187 50q-154 0 -264 -110q-104 -104 -160 -311l-72 -261h637l-22 -84h-637l-154 -577h797l-23 -82h-1073z" />
    <glyph glyph-name="yen" unicode="&#xa5;" horiz-adv-x="1511" 
d="M555 0l70 262h-445l23 80h444l64 244h-445l23 80h407l-364 825h102l350 -809l785 809h121l-811 -825h397l-23 -80h-450l-64 -244h449l-21 -80h-450l-70 -262h-92z" />
    <glyph glyph-name="section" unicode="&#xa7;" horiz-adv-x="1359" 
d="M1257 715q0 -121 -120.5 -195t-311.5 -69q176 -77 176 -213q0 -115 -106.5 -186.5t-267.5 -71.5q-141 0 -269 50t-200 122l59 65q73 -68 182.5 -113t239.5 -45q118 0 194 49t76 128q0 73 -74.5 124.5t-238.5 110.5q-197 67 -292 135.5t-95 169.5q0 121 120.5 195
t309.5 69q-174 77 -174 213q0 115 107 186.5t268 71.5q141 0 266 -49.5t203 -122.5l-60 -65q-73 68 -183.5 113t-238.5 45q-118 0 -195 -49t-77 -128q0 -73 74.5 -124t238.5 -111q198 -67 293.5 -135.5t95.5 -169.5zM301 784q0 -67 66 -118.5t229 -106.5q122 -45 248 -45
q144 0 232.5 56t88.5 137q0 67 -66 118.5t-229 106.5q-128 45 -247 45q-144 0 -233 -56t-89 -137z" />
    <glyph glyph-name="dieresis" unicode="&#xa8;" horiz-adv-x="1093" 
d="M500 1280l41 152h127l-41 -152h-127zM825 1280l41 152h127l-41 -152h-127z" />
    <glyph glyph-name="copyright" unicode="&#xa9;" horiz-adv-x="1796" 
d="M893 352q-135 0 -225 85.5t-90 230.5q0 211 147 358q135 135 309 135q101 0 176 -46t115 -124l-68 -35q-72 134 -223 134q-146 0 -252 -109q-127 -127 -127 -309q0 -118 68.5 -184t173.5 -66q79 0 138.5 30.5t113.5 84.5l51 -50q-135 -135 -307 -135zM1718 838
q0 -173 -66 -334t-188 -283q-246 -246 -594 -246q-204 0 -361 89.5t-240 243.5t-83 345q0 173 66 334t188 283q246 246 594 246q204 0 361 -89.5t240 -243.5t83 -345zM246 651q0 -127 43 -240t121.5 -198.5t199.5 -135.5t267 -50q315 0 542 227q116 116 178 266t62 320
q0 127 -43 240t-121.5 198.5t-199.5 135.5t-267 50q-316 0 -543 -227q-116 -116 -177.5 -265.5t-61.5 -320.5z" />
    <glyph glyph-name="ordfeminine" unicode="&#xaa;" horiz-adv-x="878" 
d="M446 877q-77 0 -130.5 43.5t-53.5 115.5q0 102 76.5 161.5t200.5 59.5q98 0 217 -34l4 16q10 33 10 61q0 132 -178 132q-80 0 -168 -31l-12 61q88 37 192 37q110 0 174 -50t64 -138q0 -21 -13 -80l-92 -342h-71l30 115q-98 -127 -250 -127zM463 934q91 0 168 58.5
t102 144.5l10 34q-107 29 -206 29q-91 0 -145 -43t-54 -115q0 -50 35 -79t90 -29zM158 641l16 68h522l-18 -68h-520z" />
    <glyph glyph-name="guillemotleft" unicode="&#xab;" horiz-adv-x="1091" 
d="M340 92l-231 443l4 16l467 442l61 -49l-426 -414l195 -399zM754 92l-234 443l4 16l469 442l62 -49l-426 -414l194 -399z" />
    <glyph glyph-name="registered" unicode="&#xae;" horiz-adv-x="915" 
d="M657 1511q148 0 239 -93.5t91 -231.5q0 -176 -121 -297q-117 -123 -286 -123q-149 0 -240.5 94t-91.5 234q0 174 123 297q117 120 286 120zM582 805q148 0 252 104q114 114 114 275q0 125 -79 208t-216 83q-145 0 -252 -107q-112 -112 -112 -272q0 -125 79 -208t214 -83z
M522 1100l-37 -139h-55l100 372h136q70 0 102.5 -30t32.5 -76t-31 -80.5t-94 -44.5l65 -141h-55l-63 139h-101zM535 1145h92q69 0 98 29q20 17 20 51q0 59 -86 59h-88z" />
    <glyph glyph-name="macron" unicode="&#xaf;" horiz-adv-x="1093" 
d="M446 1323l23 82h618l-22 -82h-619z" />
    <glyph glyph-name="degree" unicode="&#xb0;" horiz-adv-x="849" 
d="M575 1501q116 0 191.5 -75.5t75.5 -188.5q0 -71 -29 -137t-80 -117q-104 -104 -241 -104q-116 0 -191.5 75.5t-75.5 188.5q0 71 29 137t80 117q99 104 241 104zM498 952q102 0 178 76q84 84 84 203q0 88 -52.5 142t-138.5 54q-101 0 -178 -77q-86 -83 -86 -201
q0 -88 53.5 -142.5t139.5 -54.5z" />
    <glyph glyph-name="plusminus" unicode="&#xb1;" horiz-adv-x="1337" 
d="M569 334l119 438h-448l20 84h449l116 438h88l-116 -438h448l-22 -84h-449l-119 -438h-86zM35 0l20 84h983l-22 -84h-981z" />
    <glyph glyph-name="two.sup" unicode="&#xb2;" 
d="M240 907l14 62l467 350q82 61 121 111t39 112q0 66 -48 105t-126 39q-127 0 -242 -125l-47 38q131 152 297 152q105 0 170 -56t67 -147q0 -73 -44.5 -135.5t-143.5 -136.5l-404 -301h478l-19 -68h-579z" />
    <glyph glyph-name="three.sup" unicode="&#xb3;" 
d="M553 887q-203 0 -285 155l60 33q73 -125 225 -125q104 0 176 56t72 141q0 77 -56.5 117.5t-156.5 40.5h-43l-21 41l373 317h-438l18 66h535l-17 -58l-368 -311q109 -5 178 -57.5t69 -147.5q0 -113 -95.5 -190.5t-225.5 -77.5z" />
    <glyph glyph-name="acute" unicode="&#xb4;" horiz-adv-x="1093" 
d="M559 1268l260 270l107 -53l-281 -217h-86z" />
    <glyph glyph-name="mu" unicode="&#xb5;" horiz-adv-x="1433" 
d="M63 -340h-88l381 1419h86l-149 -559q-23 -90 -23 -153q0 -144 83 -228t229 -84q155 0 273.5 97.5t164.5 273.5l176 653h86l-213 -796q-16 -59 -16 -109q0 -111 123 -111q46 0 90 13l-21 -80q-37 -12 -84 -12q-100 0 -151 48.5t-47 145.5q-141 -203 -388 -203
q-147 0 -242 77.5t-120 213.5h-2q-31 -168 -72 -321z" />
    <glyph glyph-name="paragraph" unicode="&#xb6;" horiz-adv-x="1046" 
d="M571 0l152 569q-261 10 -387 136q-98 98 -98 256q0 211 135 346q184 184 551 184h141l-401 -1491h-93z" />
    <glyph glyph-name="periodcentered" unicode="&#xb7;" horiz-adv-x="477" 
d="M180 551l43 160h121l-43 -160h-121z" />
    <glyph glyph-name="cedilla" unicode="&#xb8;" horiz-adv-x="1093" 
d="M256 -311l-84 47l264 282h76z" />
    <glyph glyph-name="one.sup" unicode="&#xb9;" horiz-adv-x="700" 
d="M461 907l203 758l-218 -74l-2 68l252 86h60l-224 -838h-71z" />
    <glyph glyph-name="ordmasculine" unicode="&#xba;" horiz-adv-x="878" 
d="M160 641l18 68h576l-17 -68h-577zM354 1147q0 -96 55.5 -152.5t147.5 -56.5q106 0 188 82q86 86 86 207q0 94 -55.5 151.5t-146.5 57.5q-108 0 -187 -82q-88 -82 -88 -207zM907 1231q0 -145 -106 -254q-107 -107 -250 -107q-121 0 -196.5 77t-75.5 196q0 146 108 254
q109 104 248 104q122 0 197 -76t75 -194z" />
    <glyph glyph-name="guillemotright" unicode="&#xbb;" horiz-adv-x="1091" 
d="M750 991l231 -442l-4 -17l-467 -440l-61 47l425 414l-194 399zM336 991l233 -442l-4 -17l-469 -440l-61 47l426 414l-195 399z" />
    <glyph glyph-name="onequarter" unicode="&#xbc;" horiz-adv-x="1775" 
d="M340 670l203 757l-217 -73l-2 65l251 86h62l-225 -835h-72zM113 0l723 758l688 733h90l-725 -758l-688 -733h-88zM1272 -4l53 199h-414l-8 63l572 578h88l-154 -580h121l-17 -61h-122l-52 -199h-67zM989 256h352l132 487h-3z" />
    <glyph glyph-name="onehalf" unicode="&#xbd;" horiz-adv-x="1775" 
d="M874 0l15 61l467 351q82 61 121 111t39 112q0 65 -48 104t-127 39q-126 0 -241 -125l-47 39q131 152 297 152q105 0 170 -56t67 -147q0 -73 -44.5 -135.5t-143.5 -136.5l-404 -301h478l-19 -68h-580zM340 670l203 757l-217 -73l-2 65l251 86h62l-225 -835h-72zM92 0
l723 758l688 733h90l-725 -758l-688 -733h-88z" />
    <glyph glyph-name="threequarters" unicode="&#xbe;" horiz-adv-x="1935" 
d="M438 647q-201 0 -284 156l59 35q73 -125 225 -125q104 0 176 55.5t72 140.5q0 77 -56.5 116.5t-156.5 39.5h-43l-20 43l372 315h-438l18 68h535l-16 -59l-369 -310q109 -5 178.5 -57t69.5 -147q0 -114 -96 -192.5t-226 -78.5zM262 0l723 758l688 733h90l-725 -758
l-688 -733h-88zM1432 -4l53 199h-414l-8 63l571 578h88l-153 -580h121l-17 -61h-123l-51 -199h-67zM1149 256h352l131 487h-2z" />
    <glyph glyph-name="questiondown" unicode="&#xbf;" horiz-adv-x="1144" 
d="M823 1102l-65 -342l-13 -10q-157 -14 -276.5 -61t-192.5 -134t-73 -203q0 -133 94 -211t246 -78q233 0 426 193l57 -59q-219 -215 -491 -215q-196 0 -311 104t-115 264q0 83 30 153.5t82 123t124.5 93t155 65.5t175.5 38l94 279h53zM963 1491l-43 -160h-123l45 160h121z
" />
    <glyph glyph-name="Agrave" unicode="&#xc0;" horiz-adv-x="1650" 
d="M-53 0l1104 1501h88l297 -1501h-95l-79 426h-900l-311 -426h-104zM422 510h821l-170 889zM1071 1649l-176 188l102 49l140 -237h-66z" />
    <glyph glyph-name="Aacute" unicode="&#xc1;" horiz-adv-x="1650" 
d="M-53 0l1104 1501h88l297 -1501h-95l-79 426h-900l-311 -426h-104zM422 510h821l-170 889zM1081 1649l267 237l102 -49l-276 -188h-93z" />
    <glyph glyph-name="Acircumflex" unicode="&#xc2;" horiz-adv-x="1650" 
d="M-53 0l1104 1501h88l297 -1501h-95l-79 426h-900l-311 -426h-104zM422 510h821l-170 889zM860 1645l281 221h80l161 -221h-86l-131 137l-207 -137h-98z" />
    <glyph glyph-name="Atilde" unicode="&#xc3;" horiz-adv-x="1650" 
d="M-53 0l1104 1501h88l297 -1501h-95l-79 426h-900l-311 -426h-104zM422 510h821l-170 889zM901 1638l-61 17q42 96 88.5 137t107.5 41q49 0 133 -45l15 -7.5t15.5 -7.5t14.5 -6.5t14.5 -6.5t13 -5.5t14 -5t12 -3.5t12.5 -2.5t12 -0.5q38 0 67 23t64 83l62 -18
q-43 -95 -90.5 -135.5t-108.5 -40.5q-49 0 -133 45l-15 7.5t-15.5 7.5t-14.5 6.5t-14.5 6.5t-13 5.5t-14 5t-12 3.5t-12.5 2.5t-12 0.5q-38 0 -65.5 -23t-63.5 -84z" />
    <glyph glyph-name="Adieresis" unicode="&#xc4;" horiz-adv-x="1650" 
d="M-53 0l1104 1501h88l297 -1501h-95l-79 426h-900l-311 -426h-104zM422 510h821l-170 889zM899 1661l39 143h135l-41 -143h-133zM1249 1661l41 143h133l-41 -143h-133z" />
    <glyph glyph-name="Aring" unicode="&#xc5;" horiz-adv-x="1650" 
d="M-53 0l1052 1432q-50 20 -77 60.5t-27 94.5q0 94 77 157.5t177 63.5q91 0 145 -48.5t54 -123.5q0 -79 -56.5 -139t-138.5 -78l283 -1419h-95l-79 426h-900l-311 -426h-104zM422 510h821l-170 889zM1102 1473q69 0 122.5 45t53.5 112q0 53 -36.5 87t-100.5 34
q-69 0 -122.5 -45.5t-53.5 -112.5q0 -55 37 -87.5t100 -32.5z" />
    <glyph glyph-name="AE" unicode="&#xc6;" horiz-adv-x="2250" 
d="M-70 0l1317 1491h1125l-23 -84h-932l-164 -614h836l-23 -84h-835l-168 -625h942l-23 -84h-1034l115 426h-647l-375 -426h-111zM489 510h596l242 899h-49z" />
    <glyph glyph-name="Ccedilla" unicode="&#xc7;" horiz-adv-x="1595" 
d="M584 -311l-84 47l227 244q-109 15 -202.5 61.5t-163.5 121t-110 180.5t-40 232q0 192 75.5 368.5t211.5 313.5q122 122 277.5 190.5t324.5 68.5q191 0 331.5 -87.5t210.5 -234.5l-77 -41q-154 281 -469 281q-149 0 -284 -60t-243 -166q-124 -124 -194 -288.5t-70 -339.5
q0 -238 146 -380.5t372 -142.5q163 0 287 59t236 171l61 -56q-251 -258 -592 -258h-10z" />
    <glyph glyph-name="Egrave" unicode="&#xc8;" horiz-adv-x="1419" 
d="M975 1630l-176 189l102 49l139 -238h-65zM92 0l400 1491h1048l-24 -84h-955l-166 -614h862l-22 -84h-862l-168 -625h966l-22 -84h-1057z" />
    <glyph glyph-name="Eacute" unicode="&#xc9;" horiz-adv-x="1419" 
d="M985 1630l266 238l103 -49l-277 -189h-92zM92 0l400 1491h1048l-24 -84h-955l-166 -614h862l-22 -84h-862l-168 -625h966l-22 -84h-1057z" />
    <glyph glyph-name="Ecircumflex" unicode="&#xca;" horiz-adv-x="1419" 
d="M92 0l400 1491h1048l-24 -84h-955l-166 -614h862l-22 -84h-862l-168 -625h966l-22 -84h-1057zM764 1630l280 221h80l162 -221h-86l-131 137l-207 -137h-98z" />
    <glyph glyph-name="Edieresis" unicode="&#xcb;" horiz-adv-x="1419" 
d="M801 1642l39 144h135l-41 -144h-133zM1151 1642l41 144h133l-41 -144h-133zM92 0l400 1491h1048l-24 -84h-955l-166 -614h862l-22 -84h-862l-168 -625h966l-22 -84h-1057z" />
    <glyph glyph-name="Igrave" unicode="&#xcc;" horiz-adv-x="593" 
d="M106 0l400 1491h92l-401 -1491h-91zM524 1630l-176 189l103 49l139 -238h-66z" />
    <glyph glyph-name="Iacute" unicode="&#xcd;" horiz-adv-x="593" 
d="M106 0l400 1491h92l-401 -1491h-91zM535 1630l266 238l102 -49l-276 -189h-92z" />
    <glyph glyph-name="Icircumflex" unicode="&#xce;" horiz-adv-x="593" 
d="M106 0l400 1491h92l-401 -1491h-91zM315 1630l281 221h80l162 -221h-86l-131 137l-207 -137h-99z" />
    <glyph glyph-name="Idieresis" unicode="&#xcf;" horiz-adv-x="593" 
d="M106 0l400 1491h92l-401 -1491h-91zM352 1642l39 144h135l-41 -144h-133zM702 1642l41 144h134l-41 -144h-134z" />
    <glyph glyph-name="Eth" unicode="&#xd0;" horiz-adv-x="1730" 
d="M156 0l188 707h-160l23 86h160l188 698h324q183 0 335 -51.5t250 -149.5q164 -164 164 -426q0 -343 -231 -579q-136 -136 -332.5 -210.5t-427.5 -74.5h-481zM942 707h-506l-166 -623h379q207 0 379.5 67t298.5 193q100 100 153.5 231t53.5 283q0 235 -141 373
q-173 176 -514 176h-254l-166 -614h506z" />
    <glyph glyph-name="Ntilde" unicode="&#xd1;" horiz-adv-x="1699" 
d="M905 1612l-61 16q42 96 88.5 137t107.5 41q50 0 134 -45l19 -9.5l20 -10t17 -8t18.5 -7.5t16 -5t17 -4t14.5 -1q38 0 67 23.5t64 83.5l62 -19q-43 -95 -90.5 -135.5t-108.5 -40.5q-49 0 -133 45l-15 7.5t-15.5 7.5t-14.5 6.5t-14.5 6.5t-13 5.5t-14 5t-12 3.5t-12.5 2.5
t-12 0.5q-38 0 -66 -23t-63 -83zM92 0l400 1491h83l697 -1341l360 1341h88l-401 -1491h-70l-704 1362l-365 -1362h-88z" />
    <glyph glyph-name="Ograve" unicode="&#xd2;" horiz-adv-x="1824" 
d="M1118 1649l-176 188l102 49l140 -237h-66zM1073 1516q186 0 333.5 -85t228.5 -231.5t81 -325.5q0 -182 -72.5 -352t-201.5 -299q-118 -118 -267 -184t-313 -66q-186 0 -333.5 85.5t-228.5 231.5t-81 324q0 183 72.5 352.5t202.5 299.5q118 119 266.5 184.5t312.5 65.5z
M862 55q145 0 276 58t234 161q118 120 184 276t66 324q0 156 -68 283.5t-194.5 202t-286.5 74.5q-145 0 -276 -58.5t-234 -161.5q-118 -118 -184 -275t-66 -323q0 -158 68 -285.5t194 -201.5t287 -74z" />
    <glyph glyph-name="Oacute" unicode="&#xd3;" horiz-adv-x="1824" 
d="M1128 1649l267 237l102 -49l-276 -188h-93zM1073 1516q186 0 333.5 -85t228.5 -231.5t81 -325.5q0 -182 -72.5 -352t-201.5 -299q-118 -118 -267 -184t-313 -66q-186 0 -333.5 85.5t-228.5 231.5t-81 324q0 183 72.5 352.5t202.5 299.5q118 119 266.5 184.5t312.5 65.5z
M862 55q145 0 276 58t234 161q118 120 184 276t66 324q0 156 -68 283.5t-194.5 202t-286.5 74.5q-145 0 -276 -58.5t-234 -161.5q-118 -118 -184 -275t-66 -323q0 -158 68 -285.5t194 -201.5t287 -74z" />
    <glyph glyph-name="Ocircumflex" unicode="&#xd4;" horiz-adv-x="1824" 
d="M1073 1516q186 0 333.5 -85t228.5 -231.5t81 -325.5q0 -182 -72.5 -352t-201.5 -299q-118 -118 -267 -184t-313 -66q-186 0 -333.5 85.5t-228.5 231.5t-81 324q0 183 72.5 352.5t202.5 299.5q118 119 266.5 184.5t312.5 65.5zM862 55q145 0 276 58t234 161
q118 120 184 276t66 324q0 156 -68 283.5t-194.5 202t-286.5 74.5q-145 0 -276 -58.5t-234 -161.5q-118 -118 -184 -275t-66 -323q0 -158 68 -285.5t194 -201.5t287 -74zM909 1649l281 221h80l162 -221h-86l-132 137l-206 -137h-99z" />
    <glyph glyph-name="Otilde" unicode="&#xd5;" horiz-adv-x="1824" 
d="M948 1638l-61 17q42 96 88.5 137t107.5 41q50 0 134 -45l19 -9.5l20 -10t17 -8t18.5 -7.5t16 -5t17 -4t14.5 -1q38 0 67 23t64 83l62 -18q-43 -95 -90.5 -135.5t-108.5 -40.5q-49 0 -133 45l-15 7.5t-15.5 7.5t-14.5 6.5t-14.5 6.5t-13 5.5t-14 5t-12 3.5t-12.5 2.5
t-12 0.5q-38 0 -65.5 -23t-63.5 -84zM1073 1516q186 0 333.5 -85t228.5 -231.5t81 -325.5q0 -182 -72.5 -352t-201.5 -299q-118 -118 -267 -184t-313 -66q-186 0 -333.5 85.5t-228.5 231.5t-81 324q0 183 72.5 352.5t202.5 299.5q118 119 266.5 184.5t312.5 65.5zM862 55
q145 0 276 58t234 161q118 120 184 276t66 324q0 156 -68 283.5t-194.5 202t-286.5 74.5q-145 0 -276 -58.5t-234 -161.5q-118 -118 -184 -275t-66 -323q0 -158 68 -285.5t194 -201.5t287 -74z" />
    <glyph glyph-name="Odieresis" unicode="&#xd6;" horiz-adv-x="1824" 
d="M946 1661l39 143h135l-41 -143h-133zM1296 1661l41 143h133l-40 -143h-134zM1073 1516q186 0 333.5 -85t228.5 -231.5t81 -325.5q0 -182 -72.5 -352t-201.5 -299q-118 -118 -267 -184t-313 -66q-186 0 -333.5 85.5t-228.5 231.5t-81 324q0 183 72.5 352.5t202.5 299.5
q118 119 266.5 184.5t312.5 65.5zM862 55q145 0 276 58t234 161q118 120 184 276t66 324q0 156 -68 283.5t-194.5 202t-286.5 74.5q-145 0 -276 -58.5t-234 -161.5q-118 -118 -184 -275t-66 -323q0 -158 68 -285.5t194 -201.5t287 -74z" />
    <glyph glyph-name="multiply" unicode="&#xd7;" horiz-adv-x="1337" 
d="M213 297l-49 63l502 398l-289 389l72 55l286 -395l500 399l47 -67l-502 -394l289 -391l-72 -55l-284 395z" />
    <glyph glyph-name="Oslash" unicode="&#xd8;" horiz-adv-x="1824" 
d="M1073 1516q153 0 279.5 -57.5t214.5 -162.5l245 205h121l-319 -266q102 -161 102 -361q0 -182 -72.5 -352t-201.5 -299q-118 -118 -267 -184t-313 -66q-153 0 -279 57.5t-214 162.5l-246 -205h-121l320 266q-103 162 -103 360q0 183 72.5 352.5t202.5 299.5
q118 119 266.5 184.5t312.5 65.5zM313 616q0 -170 78 -305l1108 930q-153 193 -426 193q-145 0 -276 -58.5t-234 -161.5q-118 -118 -184 -275t-66 -323zM862 55q145 0 276 58t234 161q118 120 184 276t66 324q0 162 -78 302l-1110 -928q153 -193 428 -193z" />
    <glyph glyph-name="Ugrave" unicode="&#xd9;" horiz-adv-x="1636" 
d="M1022 1622l-176 188l102 50l139 -238h-65zM754 -23q-252 0 -393.5 127t-141.5 345q0 119 33 237l215 805h92l-225 -842q-25 -105 -25 -194q0 -183 117.5 -289.5t333.5 -106.5q219 0 381 158q139 139 217 418l229 856h90l-235 -875q-79 -295 -238 -454
q-185 -185 -450 -185z" />
    <glyph glyph-name="Uacute" unicode="&#xda;" horiz-adv-x="1636" 
d="M1032 1622l266 238l103 -50l-277 -188h-92zM754 -23q-252 0 -393.5 127t-141.5 345q0 119 33 237l215 805h92l-225 -842q-25 -105 -25 -194q0 -183 117.5 -289.5t333.5 -106.5q219 0 381 158q139 139 217 418l229 856h90l-235 -875q-79 -295 -238 -454
q-185 -185 -450 -185z" />
    <glyph glyph-name="Ucircumflex" unicode="&#xdb;" horiz-adv-x="1636" 
d="M754 -23q-252 0 -393.5 127t-141.5 345q0 119 33 237l215 805h92l-225 -842q-25 -105 -25 -194q0 -183 117.5 -289.5t333.5 -106.5q219 0 381 158q139 139 217 418l229 856h90l-235 -875q-79 -295 -238 -454q-185 -185 -450 -185zM813 1622l281 221h80l161 -221h-86
l-131 137l-207 -137h-98z" />
    <glyph glyph-name="Udieresis" unicode="&#xdc;" horiz-adv-x="1636" 
d="M850 1634l39 144h135l-41 -144h-133zM1200 1634l41 144h133l-41 -144h-133zM754 -23q-252 0 -393.5 127t-141.5 345q0 119 33 237l215 805h92l-225 -842q-25 -105 -25 -194q0 -183 117.5 -289.5t333.5 -106.5q219 0 381 158q139 139 217 418l229 856h90l-235 -875
q-79 -295 -238 -454q-185 -185 -450 -185z" />
    <glyph glyph-name="Yacute" unicode="&#xdd;" horiz-adv-x="1447" 
d="M522 0l164 610l-391 881h100l353 -809l788 809h123l-889 -901l-158 -590h-90zM928 1622l266 238l102 -50l-276 -188h-92z" />
    <glyph glyph-name="Thorn" unicode="&#xde;" horiz-adv-x="1452" 
d="M92 0l400 1491h90l-74 -277h371q280 0 413 -133q101 -101 101 -266q0 -201 -131 -332q-93 -93 -245 -142.5t-349 -49.5h-406l-80 -291h-90zM285 373h387q356 0 520 164q111 111 111 274q0 131 -80 211q-108 108 -346 108h-390z" />
    <glyph glyph-name="germandbls" unicode="&#xdf;" horiz-adv-x="1318" 
d="M469 -4l23 78q138 0 247.5 28.5t178 78t104 113.5t35.5 136q0 125 -98 199.5t-291 111.5l20 78q245 55 363 153.5t118 254.5q0 114 -79.5 188t-217.5 74q-157 0 -270 -116.5t-168 -323.5l-280 -1049h-86l288 1075q58 222 183 350q147 144 338 144q169 0 278 -96t109 -244
q0 -326 -455 -449q340 -91 340 -352q0 -190 -185 -313t-495 -119z" />
    <glyph glyph-name="agrave" unicode="&#xe0;" horiz-adv-x="1241" 
d="M416 -25q-91 0 -169 32.5t-129.5 102.5t-51.5 164q0 152 102 254q134 134 383 134q208 0 428 -62l10 35q17 66 17 115q0 129 -89.5 197.5t-254.5 68.5q-151 0 -310 -58l-18 80q168 60 336 60q196 0 308 -89t112 -249q0 -66 -21 -142l-166 -618h-84l55 207
q-177 -232 -458 -232zM432 53q173 0 316.5 107.5t187.5 273.5l25 94q-199 56 -422 56q-198 0 -303 -105q-78 -84 -78 -192t77 -171t197 -63zM727 1268l-162 217l109 53l112 -270h-59z" />
    <glyph glyph-name="aacute" unicode="&#xe1;" horiz-adv-x="1241" 
d="M416 -25q-91 0 -169 32.5t-129.5 102.5t-51.5 164q0 152 102 254q134 134 383 134q208 0 428 -62l10 35q17 66 17 115q0 129 -89.5 197.5t-254.5 68.5q-151 0 -310 -58l-18 80q168 60 336 60q196 0 308 -89t112 -249q0 -66 -21 -142l-166 -618h-84l55 207
q-177 -232 -458 -232zM432 53q173 0 316.5 107.5t187.5 273.5l25 94q-199 56 -422 56q-198 0 -303 -105q-78 -84 -78 -192t77 -171t197 -63zM727 1268l260 270l107 -53l-281 -217h-86z" />
    <glyph glyph-name="acircumflex" unicode="&#xe2;" horiz-adv-x="1241" 
d="M416 -25q-91 0 -169 32.5t-129.5 102.5t-51.5 164q0 152 102 254q134 134 383 134q208 0 428 -62l10 35q17 66 17 115q0 129 -89.5 197.5t-254.5 68.5q-151 0 -310 -58l-18 80q168 60 336 60q196 0 308 -89t112 -249q0 -66 -21 -142l-166 -618h-84l55 207
q-177 -232 -458 -232zM432 53q173 0 316.5 107.5t187.5 273.5l25 94q-199 56 -422 56q-198 0 -303 -105q-78 -84 -78 -192t77 -171t197 -63zM518 1268l287 254h67l148 -254h-76l-123 155l-217 -155h-86z" />
    <glyph glyph-name="atilde" unicode="&#xe3;" horiz-adv-x="1241" 
d="M416 -25q-91 0 -169 32.5t-129.5 102.5t-51.5 164q0 152 102 254q134 134 383 134q208 0 428 -62l10 35q17 66 17 115q0 129 -89.5 197.5t-254.5 68.5q-151 0 -310 -58l-18 80q168 60 336 60q196 0 308 -89t112 -249q0 -66 -21 -142l-166 -618h-84l55 207
q-177 -232 -458 -232zM432 53q173 0 316.5 107.5t187.5 273.5l25 94q-199 56 -422 56q-198 0 -303 -105q-78 -84 -78 -192t77 -171t197 -63zM1067 1479l61 -15q-46 -106 -92 -148t-108 -42q-22 0 -48 8.5t-40 16t-49 26.5q-77 47 -121 47q-39 0 -67.5 -25t-63.5 -90l-62 17
q46 105 92.5 146.5t108.5 41.5q22 0 48 -8.5t40 -16t49 -26.5q88 -47 121 -47q39 0 67.5 25t63.5 90z" />
    <glyph glyph-name="adieresis" unicode="&#xe4;" horiz-adv-x="1241" 
d="M416 -25q-91 0 -169 32.5t-129.5 102.5t-51.5 164q0 152 102 254q134 134 383 134q208 0 428 -62l10 35q17 66 17 115q0 129 -89.5 197.5t-254.5 68.5q-151 0 -310 -58l-18 80q168 60 336 60q196 0 308 -89t112 -249q0 -66 -21 -142l-166 -618h-84l55 207
q-177 -232 -458 -232zM432 53q173 0 316.5 107.5t187.5 273.5l25 94q-199 56 -422 56q-198 0 -303 -105q-78 -84 -78 -192t77 -171t197 -63zM555 1280l41 152h127l-41 -152h-127zM881 1280l41 152h127l-41 -152h-127z" />
    <glyph glyph-name="aring" unicode="&#xe5;" horiz-adv-x="1241" 
d="M416 -25q-91 0 -169 32.5t-129.5 102.5t-51.5 164q0 152 102 254q134 134 383 134q208 0 428 -62l10 35q17 66 17 115q0 129 -89.5 197.5t-254.5 68.5q-151 0 -310 -58l-18 80q168 60 336 60q196 0 308 -89t112 -249q0 -66 -21 -142l-166 -618h-84l55 207
q-177 -232 -458 -232zM432 53q173 0 316.5 107.5t187.5 273.5l25 94q-199 56 -422 56q-198 0 -303 -105q-78 -84 -78 -192t77 -171t197 -63zM1059 1489q0 -92 -74 -158.5t-170 -66.5q-91 0 -148 53.5t-57 136.5q0 91 74.5 159t169.5 68q92 0 148.5 -53.5t56.5 -138.5z
M676 1456q0 -59 38.5 -97t104.5 -38q68 0 121 49.5t53 116.5q0 61 -38 98t-103 37q-71 0 -123.5 -48t-52.5 -118z" />
    <glyph glyph-name="ae" unicode="&#xe6;" horiz-adv-x="2101" 
d="M1427 -25q-164 0 -278 73.5t-162 201.5q-115 -129 -258 -202t-303 -73q-95 0 -175 32.5t-132.5 102.5t-52.5 164q0 152 102 254q134 134 383 134q208 0 428 -62l10 35q17 66 17 115q0 129 -89.5 197.5t-254.5 68.5q-151 0 -310 -58l-18 80q168 60 336 60q177 0 285 -73
t128 -208q85 131 215 210t279 79q99 0 178.5 -34t129 -92t76 -132.5t26.5 -159.5t-27 -178h-913q-5 -67 -5 -80q0 -170 104.5 -272.5t276.5 -102.5q116 0 205 37t174 109l49 -60q-195 -166 -424 -166zM440 53q145 0 278.5 72.5t246.5 206.5q-15 94 0 196q-204 56 -426 56
q-198 0 -303 -105q-78 -84 -78 -192t79 -171t203 -63zM1227 874q-118 -118 -164 -286h825q10 42 10 94q0 96 -33.5 172t-108.5 124t-181 48q-199 0 -348 -152z" />
    <glyph glyph-name="ccedilla" unicode="&#xe7;" horiz-adv-x="1220" 
d="M358 -311l-84 47l232 248q-163 26 -275 148t-112 308q0 134 54 258.5t149 219.5q88 88 200 138t234 50q153 0 261 -74t163 -186l-74 -41q-126 219 -356 219q-101 0 -194 -42.5t-167 -117.5q-82 -82 -129 -190.5t-47 -227.5q0 -121 55.5 -212t141 -135t186.5 -44
q188 0 360 158l60 -55q-199 -183 -424 -183h-12z" />
    <glyph glyph-name="egrave" unicode="&#xe8;" horiz-adv-x="1271" 
d="M1130 510h-913q-4 -54 -4 -80q0 -166 103 -270.5t270 -104.5q214 0 387 146l49 -60q-94 -80 -198.5 -123t-237.5 -43q-206 0 -335.5 126t-129.5 325q0 139 55 269t154 229q182 182 418 182q99 0 178 -33.5t129 -92t76 -133t26 -159.5t-27 -178zM397 874
q-118 -118 -164 -286h826q10 42 10 94q0 96 -34 172t-109 124t-181 48q-196 0 -348 -152zM782 1268l-161 217l108 53l113 -270h-60z" />
    <glyph glyph-name="eacute" unicode="&#xe9;" horiz-adv-x="1271" 
d="M782 1268l260 270l107 -53l-281 -217h-86zM1130 510h-913q-4 -54 -4 -80q0 -166 103 -270.5t270 -104.5q214 0 387 146l49 -60q-94 -80 -198.5 -123t-237.5 -43q-206 0 -335.5 126t-129.5 325q0 139 55 269t154 229q182 182 418 182q99 0 178 -33.5t129 -92t76 -133
t26 -159.5t-27 -178zM397 874q-118 -118 -164 -286h826q10 42 10 94q0 96 -34 172t-109 124t-181 48q-196 0 -348 -152z" />
    <glyph glyph-name="ecircumflex" unicode="&#xea;" horiz-adv-x="1271" 
d="M573 1268l287 254h68l147 -254h-76l-122 155l-218 -155h-86zM1130 510h-913q-4 -54 -4 -80q0 -166 103 -270.5t270 -104.5q214 0 387 146l49 -60q-94 -80 -198.5 -123t-237.5 -43q-206 0 -335.5 126t-129.5 325q0 139 55 269t154 229q182 182 418 182q99 0 178 -33.5
t129 -92t76 -133t26 -159.5t-27 -178zM397 874q-118 -118 -164 -286h826q10 42 10 94q0 96 -34 172t-109 124t-181 48q-196 0 -348 -152z" />
    <glyph glyph-name="edieresis" unicode="&#xeb;" horiz-adv-x="1271" 
d="M610 1280l41 152h127l-41 -152h-127zM936 1280l41 152h127l-41 -152h-127zM1130 510h-913q-4 -54 -4 -80q0 -166 103 -270.5t270 -104.5q214 0 387 146l49 -60q-94 -80 -198.5 -123t-237.5 -43q-206 0 -335.5 126t-129.5 325q0 139 55 269t154 229q182 182 418 182
q99 0 178 -33.5t129 -92t76 -133t26 -159.5t-27 -178zM397 874q-118 -118 -164 -286h826q10 42 10 94q0 96 -34 172t-109 124t-181 48q-196 0 -348 -152z" />
    <glyph glyph-name="igrave" unicode="&#xec;" horiz-adv-x="542" 
d="M82 0l291 1079h86l-291 -1079h-86zM414 1268l-162 217l108 53l113 -270h-59z" />
    <glyph glyph-name="iacute" unicode="&#xed;" horiz-adv-x="542" 
d="M414 1268l260 270l106 -53l-280 -217h-86zM82 0l291 1079h86l-291 -1079h-86z" />
    <glyph glyph-name="icircumflex" unicode="&#xee;" horiz-adv-x="542" 
d="M207 1268l287 254h67l148 -254h-76l-123 155l-217 -155h-86zM82 0l291 1079h86l-291 -1079h-86z" />
    <glyph glyph-name="idieresis" unicode="&#xef;" horiz-adv-x="542" 
d="M244 1280l41 152h127l-41 -152h-127zM569 1280l41 152h127l-41 -152h-127zM82 0l291 1079h86l-291 -1079h-86z" />
    <glyph glyph-name="eth" unicode="&#xf0;" horiz-adv-x="1349" 
d="M580 1223l-35 69l289 133q-55 72 -107 129h113q40 -50 71 -94l242 111l35 -70l-230 -104q277 -395 277 -740q0 -304 -197 -501q-181 -181 -438 -181q-216 0 -347.5 137.5t-131.5 348.5q0 127 50 243.5t138 206.5q181 176 414 176q275 0 422 -247q-56 234 -262 522z
M608 55q103 0 198.5 42.5t170.5 117.5q77 77 120.5 178t43.5 209q0 175 -115 290.5t-301 115.5q-200 0 -346 -146q-78 -78 -121 -180.5t-43 -214.5q0 -187 105.5 -299.5t287.5 -112.5z" />
    <glyph glyph-name="ntilde" unicode="&#xf1;" horiz-adv-x="1327" 
d="M68 0l288 1079h86l-59 -223q181 250 428 250q166 0 262 -94.5t96 -251.5q0 -70 -24 -164l-158 -596h-86l160 602q20 67 20 150q0 127 -75.5 200.5t-214.5 73.5q-151 0 -289.5 -117.5t-186.5 -302.5l-161 -606h-86zM1141 1479l61 -15q-46 -106 -92.5 -148t-108.5 -42
q-22 0 -48 8.5t-40 16t-49 26.5q-77 47 -121 47q-39 0 -67.5 -25t-63.5 -90l-61 17q46 105 92.5 146.5t108.5 41.5q22 0 48 -8.5t40 -16t49 -26.5q88 -47 121 -47q39 0 67.5 25t63.5 90z" />
    <glyph glyph-name="ograve" unicode="&#xf2;" horiz-adv-x="1368" 
d="M762 1106q214 0 348.5 -135t134.5 -344q0 -129 -51 -249t-145 -214q-89 -89 -203 -139t-240 -50q-214 0 -349.5 135t-135.5 345q0 128 52 247.5t146 212.5q89 89 203.5 140t239.5 51zM614 55q103 0 198 43t169 117q80 82 126 188t46 220q0 182 -110 291.5t-289 109.5
q-103 0 -198 -43t-169 -117q-81 -81 -126.5 -186t-45.5 -219q0 -184 110 -294t289 -110zM813 1268l-162 217l109 53l112 -270h-59z" />
    <glyph glyph-name="oacute" unicode="&#xf3;" horiz-adv-x="1368" 
d="M813 1268l260 270l107 -53l-281 -217h-86zM762 1106q214 0 348.5 -135t134.5 -344q0 -129 -51 -249t-145 -214q-89 -89 -203 -139t-240 -50q-214 0 -349.5 135t-135.5 345q0 128 52 247.5t146 212.5q89 89 203.5 140t239.5 51zM614 55q103 0 198 43t169 117
q80 82 126 188t46 220q0 182 -110 291.5t-289 109.5q-103 0 -198 -43t-169 -117q-81 -81 -126.5 -186t-45.5 -219q0 -184 110 -294t289 -110z" />
    <glyph glyph-name="ocircumflex" unicode="&#xf4;" horiz-adv-x="1368" 
d="M604 1268l287 254h67l148 -254h-76l-123 155l-217 -155h-86zM762 1106q214 0 348.5 -135t134.5 -344q0 -129 -51 -249t-145 -214q-89 -89 -203 -139t-240 -50q-214 0 -349.5 135t-135.5 345q0 128 52 247.5t146 212.5q89 89 203.5 140t239.5 51zM614 55q103 0 198 43
t169 117q80 82 126 188t46 220q0 182 -110 291.5t-289 109.5q-103 0 -198 -43t-169 -117q-81 -81 -126.5 -186t-45.5 -219q0 -184 110 -294t289 -110z" />
    <glyph glyph-name="otilde" unicode="&#xf5;" horiz-adv-x="1368" 
d="M762 1106q214 0 348.5 -135t134.5 -344q0 -129 -51 -249t-145 -214q-89 -89 -203 -139t-240 -50q-214 0 -349.5 135t-135.5 345q0 128 52 247.5t146 212.5q89 89 203.5 140t239.5 51zM614 55q103 0 198 43t169 117q80 82 126 188t46 220q0 182 -110 291.5t-289 109.5
q-103 0 -198 -43t-169 -117q-81 -81 -126.5 -186t-45.5 -219q0 -184 110 -294t289 -110zM1155 1479l62 -15q-46 -106 -92.5 -148t-108.5 -42q-22 0 -48 8.5t-40 16t-49 26.5q-77 47 -121 47q-39 0 -67.5 -25t-63.5 -90l-62 17q46 105 92.5 146.5t108.5 41.5q22 0 48 -8.5
t40 -16t49 -26.5q88 -47 121 -47q39 0 67.5 25t63.5 90z" />
    <glyph glyph-name="odieresis" unicode="&#xf6;" horiz-adv-x="1368" 
d="M643 1280l41 152h127l-41 -152h-127zM969 1280l41 152h127l-41 -152h-127zM762 1106q214 0 348.5 -135t134.5 -344q0 -129 -51 -249t-145 -214q-89 -89 -203 -139t-240 -50q-214 0 -349.5 135t-135.5 345q0 128 52 247.5t146 212.5q89 89 203.5 140t239.5 51zM614 55
q103 0 198 43t169 117q80 82 126 188t46 220q0 182 -110 291.5t-289 109.5q-103 0 -198 -43t-169 -117q-81 -81 -126.5 -186t-45.5 -219q0 -184 110 -294t289 -110z" />
    <glyph glyph-name="divide" unicode="&#xf7;" horiz-adv-x="1337" 
d="M518 246l45 166h142l-43 -166h-144zM207 709l22 82h1014l-22 -82h-1014zM743 1090l45 165h144l-45 -165h-144z" />
    <glyph glyph-name="oslash" unicode="&#xf8;" horiz-adv-x="1368" 
d="M762 1106q225 0 366 -154l170 140h117l-244 -199q74 -120 74 -266q0 -129 -51 -249t-145 -214q-89 -89 -203 -139t-240 -50q-227 0 -366 152l-170 -139h-117l242 196q-74 120 -74 271q0 128 52 247.5t146 212.5q89 89 203.5 140t239.5 51zM754 1024q-103 0 -198 -43
t-169 -117q-81 -81 -126.5 -186t-45.5 -219q0 -129 49 -217l797 655q-112 127 -307 127zM1153 623q0 124 -51 213l-797 -656q110 -125 309 -125q103 0 198 43t169 117q80 82 126 188t46 220z" />
    <glyph glyph-name="ugrave" unicode="&#xf9;" horiz-adv-x="1323" 
d="M512 -25q-166 0 -262 93.5t-96 250.5q0 70 24 164l158 596h88l-162 -602q-20 -67 -20 -147q0 -129 76.5 -203t216.5 -74q150 0 287.5 118t185.5 304l161 604h86l-288 -1079h-86l59 223q-186 -248 -428 -248zM778 1266l-162 217l109 53l113 -270h-60z" />
    <glyph glyph-name="uacute" unicode="&#xfa;" horiz-adv-x="1323" 
d="M776 1266l260 270l107 -53l-281 -217h-86zM512 -25q-166 0 -262 93.5t-96 250.5q0 70 24 164l158 596h88l-162 -602q-20 -67 -20 -147q0 -129 76.5 -203t216.5 -74q150 0 287.5 118t185.5 304l161 604h86l-288 -1079h-86l59 223q-186 -248 -428 -248z" />
    <glyph glyph-name="ucircumflex" unicode="&#xfb;" horiz-adv-x="1323" 
d="M569 1266l287 254h68l147 -254h-76l-123 155l-217 -155h-86zM512 -25q-166 0 -262 93.5t-96 250.5q0 70 24 164l158 596h88l-162 -602q-20 -67 -20 -147q0 -129 76.5 -203t216.5 -74q150 0 287.5 118t185.5 304l161 604h86l-288 -1079h-86l59 223q-186 -248 -428 -248z
" />
    <glyph glyph-name="udieresis" unicode="&#xfc;" horiz-adv-x="1323" 
d="M606 1278l41 152h127l-41 -152h-127zM932 1278l41 152h127l-41 -152h-127zM512 -25q-166 0 -262 93.5t-96 250.5q0 70 24 164l158 596h88l-162 -602q-20 -67 -20 -147q0 -129 76.5 -203t216.5 -74q150 0 287.5 118t185.5 304l161 604h86l-288 -1079h-86l59 223
q-186 -248 -428 -248z" />
    <glyph glyph-name="yacute" unicode="&#xfd;" horiz-adv-x="1241" 
d="M432 -2l-225 1081h92l199 -989l671 989h105l-768 -1110q-128 -180 -227 -248.5t-216 -68.5q-122 0 -223 69l47 68q86 -59 185 -59q87 0 169.5 58.5t190.5 209.5zM709 1266l260 270l106 -53l-280 -217h-86z" />
    <glyph glyph-name="thorn" unicode="&#xfe;" horiz-adv-x="1419" 
d="M571 1554l-190 -704q78 108 200 182t269 74q190 0 314 -129.5t124 -327.5q0 -147 -53.5 -277.5t-151.5 -224.5q-174 -174 -405 -174q-93 0 -170.5 28t-130 76t-87.5 104.5t-54 121.5l-173 -643h-88l510 1894h86zM676 55q198 0 342 144q86 86 132 200t46 238
q0 171 -99.5 279t-254.5 108q-209 0 -377 -168q-86 -86 -134 -191t-48 -212q0 -170 109.5 -284t283.5 -114z" />
    <glyph glyph-name="ydieresis" unicode="&#xff;" horiz-adv-x="1241" 
d="M432 -2l-225 1081h92l199 -989l671 989h105l-768 -1110q-128 -180 -227 -248.5t-216 -68.5q-122 0 -223 69l47 68q86 -59 185 -59q87 0 169.5 58.5t190.5 209.5zM537 1278l41 152h127l-41 -152h-127zM862 1278l41 152h127l-41 -152h-127z" />
    <glyph glyph-name="Amacron" unicode="&#x100;" horiz-adv-x="1650" 
d="M-53 0l1104 1501h88l297 -1501h-95l-79 426h-900l-311 -426h-104zM422 510h821l-170 889zM836 1704l24 86h635l-22 -86h-637z" />
    <glyph glyph-name="amacron" unicode="&#x101;" horiz-adv-x="1241" 
d="M416 -25q-91 0 -169 32.5t-129.5 102.5t-51.5 164q0 152 102 254q134 134 383 134q208 0 428 -62l10 35q17 66 17 115q0 129 -89.5 197.5t-254.5 68.5q-151 0 -310 -58l-18 80q168 60 336 60q196 0 308 -89t112 -249q0 -66 -21 -142l-166 -618h-84l55 207
q-177 -232 -458 -232zM432 53q173 0 316.5 107.5t187.5 273.5l25 94q-199 56 -422 56q-198 0 -303 -105q-78 -84 -78 -192t77 -171t197 -63zM485 1323l23 82h618l-22 -82h-619z" />
    <glyph glyph-name="Abreve" unicode="&#x102;" horiz-adv-x="1650" 
d="M-53 0l1104 1501h88l297 -1501h-95l-79 426h-900l-311 -426h-104zM422 510h821l-170 889zM1145 1645q-122 0 -182 54t-43 148h73q2 -58 40.5 -88t127.5 -30q166 0 236 118h80q-35 -94 -123 -148t-209 -54z" />
    <glyph glyph-name="abreve" unicode="&#x103;" horiz-adv-x="1241" 
d="M416 -25q-91 0 -169 32.5t-129.5 102.5t-51.5 164q0 152 102 254q134 134 383 134q208 0 428 -62l10 35q17 66 17 115q0 129 -89.5 197.5t-254.5 68.5q-151 0 -310 -58l-18 80q168 60 336 60q196 0 308 -89t112 -249q0 -66 -21 -142l-166 -618h-84l55 207
q-177 -232 -458 -232zM432 53q173 0 316.5 107.5t187.5 273.5l25 94q-199 56 -422 56q-198 0 -303 -105q-78 -84 -78 -192t77 -171t197 -63zM786 1264q-121 0 -180.5 61.5t-40.5 167.5h68q-2 -71 38 -108t130 -37q165 0 246 145h75q-39 -105 -128.5 -167t-207.5 -62z" />
    <glyph glyph-name="Aogonek" unicode="&#x104;" horiz-adv-x="1650" 
d="M1389 -283l-17 -63h-2q-106 6 -162 41t-55 96q0 57 47 109.5t137 113.5v2l-75 410h-900l-311 -426h-104l1104 1501h88l297 -1501h-21q-172 -111 -172 -195q0 -37 34.5 -57t111.5 -31zM422 510h821l-170 889z" />
    <glyph glyph-name="aogonek" unicode="&#x105;" horiz-adv-x="1241" 
d="M868 -283l-16 -63h-2q-106 6 -162 41t-55 96q0 59 48.5 112.5t141.5 112.5v2l51 189q-177 -232 -458 -232q-91 0 -169 32.5t-129.5 102.5t-51.5 164q0 152 102 254q134 134 383 134q208 0 428 -62l10 35q17 66 17 115q0 129 -89.5 197.5t-254.5 68.5q-151 0 -310 -58
l-18 80q168 60 336 60q196 0 308 -89t112 -249q0 -66 -21 -142l-166 -618h-8q-172 -111 -172 -195q0 -37 34 -57t111 -31zM432 53q173 0 316.5 107.5t187.5 273.5l25 94q-199 56 -422 56q-198 0 -303 -105q-78 -84 -78 -192t77 -171t197 -63z" />
    <glyph glyph-name="Cacute" unicode="&#x106;" horiz-adv-x="1595" 
d="M815 -27q-123 0 -232.5 41.5t-192.5 117.5t-131 190.5t-48 252.5q0 192 75.5 368.5t211.5 313.5q122 122 277.5 190.5t324.5 68.5q191 0 331.5 -87.5t210.5 -234.5l-77 -41q-154 281 -469 281q-149 0 -284 -60t-243 -166q-124 -124 -194 -288.5t-70 -339.5
q0 -238 146 -380.5t372 -142.5q163 0 287 59t236 171l61 -56q-251 -258 -592 -258zM1087 1649l267 237l102 -49l-276 -188h-93z" />
    <glyph glyph-name="cacute" unicode="&#x107;" horiz-adv-x="1220" 
d="M764 1268l260 270l106 -53l-280 -217h-86zM592 -25q-90 0 -174.5 31.5t-151 89t-107 147t-40.5 197.5q0 134 54 258.5t149 219.5q88 88 200 138t234 50q153 0 261 -74t163 -186l-74 -41q-126 219 -356 219q-101 0 -194 -42.5t-167 -117.5q-82 -82 -129 -190.5t-47 -227.5
q0 -121 55.5 -212t141 -135t186.5 -44q188 0 360 158l60 -55q-199 -183 -424 -183z" />
    <glyph glyph-name="Cdotaccent" unicode="&#x10a;" horiz-adv-x="1595" 
d="M1079 1661l39 143h137l-38 -143h-138zM815 -27q-123 0 -232.5 41.5t-192.5 117.5t-131 190.5t-48 252.5q0 192 75.5 368.5t211.5 313.5q122 122 277.5 190.5t324.5 68.5q191 0 331.5 -87.5t210.5 -234.5l-77 -41q-154 281 -469 281q-149 0 -284 -60t-243 -166
q-124 -124 -194 -288.5t-70 -339.5q0 -238 146 -380.5t372 -142.5q163 0 287 59t236 171l61 -56q-251 -258 -592 -258z" />
    <glyph glyph-name="cdotaccent" unicode="&#x10b;" horiz-adv-x="1220" 
d="M592 -25q-90 0 -174.5 31.5t-151 89t-107 147t-40.5 197.5q0 134 54 258.5t149 219.5q88 88 200 138t234 50q153 0 261 -74t163 -186l-74 -41q-126 219 -356 219q-101 0 -194 -42.5t-167 -117.5q-82 -82 -129 -190.5t-47 -227.5q0 -121 55.5 -212t141 -135t186.5 -44
q188 0 360 158l60 -55q-199 -183 -424 -183zM760 1276l43 160h121l-43 -160h-121z" />
    <glyph glyph-name="Ccaron" unicode="&#x10c;" horiz-adv-x="1595" 
d="M815 -27q-123 0 -232.5 41.5t-192.5 117.5t-131 190.5t-48 252.5q0 192 75.5 368.5t211.5 313.5q122 122 277.5 190.5t324.5 68.5q191 0 331.5 -87.5t210.5 -234.5l-77 -41q-154 281 -469 281q-149 0 -284 -60t-243 -166q-124 -124 -194 -288.5t-70 -339.5
q0 -238 146 -380.5t372 -142.5q163 0 287 59t236 171l61 -56q-251 -258 -592 -258zM1479 1870l-281 -221h-80l-164 221h88l132 -139l206 139h99z" />
    <glyph glyph-name="ccaron" unicode="&#x10d;" horiz-adv-x="1220" 
d="M758 1268l-150 254h76l123 -158l219 158h84l-287 -254h-65zM592 -25q-90 0 -174.5 31.5t-151 89t-107 147t-40.5 197.5q0 134 54 258.5t149 219.5q88 88 200 138t234 50q153 0 261 -74t163 -186l-74 -41q-126 219 -356 219q-101 0 -194 -42.5t-167 -117.5
q-82 -82 -129 -190.5t-47 -227.5q0 -121 55.5 -212t141 -135t186.5 -44q188 0 360 158l60 -55q-199 -183 -424 -183z" />
    <glyph glyph-name="Dcaron" unicode="&#x10e;" horiz-adv-x="1665" 
d="M1384 1851l-280 -221h-80l-164 221h88l131 -139l207 139h98zM92 0l400 1491h323q182 0 333 -51t253 -150q164 -164 164 -426q0 -345 -234 -579q-136 -136 -332 -210.5t-426 -74.5h-481zM1329 1231q-176 176 -514 176h-254l-356 -1323h381q207 0 379.5 67t298.5 193
q206 206 206 514q0 235 -141 373z" />
    <glyph glyph-name="dcaron" unicode="&#x10f;" horiz-adv-x="1419" 
d="M1548 1237l119 317h107v-6l-177 -311h-49zM975 0l61 227q-79 -107 -201 -180.5t-270 -73.5q-190 0 -313 129.5t-123 327.5q0 145 53.5 274t149.5 228q174 174 405 174q93 0 170.5 -28t131 -76t89 -104.5t54.5 -121.5l209 778h86l-416 -1554h-86zM575 55q209 0 377 168
q86 86 134.5 191.5t48.5 212.5q0 169 -110 283t-284 114q-199 0 -342 -143q-86 -86 -132 -201.5t-46 -239.5q0 -170 98.5 -277.5t255.5 -107.5z" />
    <glyph glyph-name="Dcroat" unicode="&#x110;" horiz-adv-x="1730" 
d="M156 0l188 707h-160l23 86h160l188 698h324q183 0 335 -51.5t250 -149.5q164 -164 164 -426q0 -343 -231 -579q-136 -136 -332.5 -210.5t-427.5 -74.5h-481zM942 707h-506l-166 -623h379q207 0 379.5 67t298.5 193q100 100 153.5 231t53.5 283q0 235 -141 373
q-173 176 -514 176h-254l-166 -614h506z" />
    <glyph glyph-name="dcroat" unicode="&#x111;" horiz-adv-x="1419" 
d="M932 1317l20 78h396l43 159h86l-43 -159h149l-20 -78h-150l-352 -1317h-86l61 227q-79 -107 -201 -180.5t-270 -73.5q-190 0 -313 129.5t-123 327.5q0 145 53.5 274t149.5 228q174 174 405 174q93 0 170.5 -28t131 -76t89 -104.5t54.5 -121.5l145 541h-395zM575 55
q209 0 377 168q86 86 134.5 191.5t48.5 212.5q0 169 -110 283t-284 114q-199 0 -342 -143q-86 -86 -132 -201.5t-46 -239.5q0 -170 98.5 -277.5t255.5 -107.5z" />
    <glyph glyph-name="Emacron" unicode="&#x112;" horiz-adv-x="1419" 
d="M737 1686l25 86h635l-23 -86h-637zM92 0l400 1491h1048l-24 -84h-955l-166 -614h862l-22 -84h-862l-168 -625h966l-22 -84h-1057z" />
    <glyph glyph-name="emacron" unicode="&#x113;" horiz-adv-x="1271" 
d="M1130 510h-913q-4 -54 -4 -80q0 -166 103 -270.5t270 -104.5q214 0 387 146l49 -60q-94 -80 -198.5 -123t-237.5 -43q-206 0 -335.5 126t-129.5 325q0 139 55 269t154 229q182 182 418 182q99 0 178 -33.5t129 -92t76 -133t26 -159.5t-27 -178zM397 874
q-118 -118 -164 -286h826q10 42 10 94q0 96 -34 172t-109 124t-181 48q-196 0 -348 -152zM539 1323l22 82h619l-23 -82h-618z" />
    <glyph glyph-name="Ebreve" unicode="&#x114;" horiz-adv-x="1419" 
d="M1047 1626q-122 0 -182.5 54.5t-43.5 148.5h74q2 -58 40.5 -88.5t127.5 -30.5q164 0 235 119h80q-36 -95 -123 -149t-208 -54zM92 0l400 1491h1048l-24 -84h-955l-166 -614h862l-22 -84h-862l-168 -625h966l-22 -84h-1057z" />
    <glyph glyph-name="ebreve" unicode="&#x115;" horiz-adv-x="1271" 
d="M1130 510h-913q-4 -54 -4 -80q0 -166 103 -270.5t270 -104.5q214 0 387 146l49 -60q-94 -80 -198.5 -123t-237.5 -43q-206 0 -335.5 126t-129.5 325q0 139 55 269t154 229q182 182 418 182q99 0 178 -33.5t129 -92t76 -133t26 -159.5t-27 -178zM397 874
q-118 -118 -164 -286h826q10 42 10 94q0 96 -34 172t-109 124t-181 48q-196 0 -348 -152zM840 1264q-121 0 -181 61.5t-41 167.5h68q-2 -71 38 -108t130 -37q165 0 246 145h76q-39 -105 -128.5 -167t-207.5 -62z" />
    <glyph glyph-name="Edotaccent" unicode="&#x116;" horiz-adv-x="1419" 
d="M975 1642l39 144h137l-39 -144h-137zM92 0l400 1491h1048l-24 -84h-955l-166 -614h862l-22 -84h-862l-168 -625h966l-22 -84h-1057z" />
    <glyph glyph-name="edotaccent" unicode="&#x117;" horiz-adv-x="1271" 
d="M1130 510h-913q-4 -54 -4 -80q0 -166 103 -270.5t270 -104.5q214 0 387 146l49 -60q-94 -80 -198.5 -123t-237.5 -43q-206 0 -335.5 126t-129.5 325q0 139 55 269t154 229q182 182 418 182q99 0 178 -33.5t129 -92t76 -133t26 -159.5t-27 -178zM397 874
q-118 -118 -164 -286h826q10 42 10 94q0 96 -34 172t-109 124t-181 48q-196 0 -348 -152zM776 1276l43 160h121l-43 -160h-121z" />
    <glyph glyph-name="Eogonek" unicode="&#x118;" horiz-adv-x="1419" 
d="M92 0l400 1491h1048l-24 -84h-955l-166 -614h862l-22 -84h-862l-168 -625h966l-22 -84h-16q-172 -111 -172 -195q0 -37 34 -57t111 -31l-16 -63h-3q-106 6 -162 41t-55 96q0 96 164 209h-942z" />
    <glyph glyph-name="eogonek" unicode="&#x119;" horiz-adv-x="1271" 
d="M973 201l49 -60q-60 -47 -127.5 -95.5t-106.5 -78t-65 -55.5q-59 -56 -59 -107q0 -37 34 -57t111 -31l-16 -63h-2q-107 6 -163 41t-55 96q0 94 146 197q-70 -13 -133 -13q-206 0 -335.5 126t-129.5 325q0 139 55 269t154 229q182 182 418 182q99 0 178 -33.5t129 -92
t76 -133t26 -159.5t-27 -178h-913q-4 -54 -4 -80q0 -166 103 -270.5t270 -104.5q208 0 387 146zM397 874q-118 -118 -164 -286h826q10 42 10 94q0 96 -34 172t-109 124t-181 48q-196 0 -348 -152z" />
    <glyph glyph-name="Ecaron" unicode="&#x11a;" horiz-adv-x="1419" 
d="M1374 1851l-280 -221h-80l-164 221h88l131 -139l207 139h98zM92 0l400 1491h1048l-24 -84h-955l-166 -614h862l-22 -84h-862l-168 -625h966l-22 -84h-1057z" />
    <glyph glyph-name="ecaron" unicode="&#x11b;" horiz-adv-x="1271" 
d="M776 1268l-149 254h75l123 -158l219 158h84l-286 -254h-66zM1130 510h-913q-4 -54 -4 -80q0 -166 103 -270.5t270 -104.5q214 0 387 146l49 -60q-94 -80 -198.5 -123t-237.5 -43q-206 0 -335.5 126t-129.5 325q0 139 55 269t154 229q182 182 418 182q99 0 178 -33.5
t129 -92t76 -133t26 -159.5t-27 -178zM397 874q-118 -118 -164 -286h826q10 42 10 94q0 96 -34 172t-109 124t-181 48q-196 0 -348 -152z" />
    <glyph glyph-name="Gbreve" unicode="&#x11e;" horiz-adv-x="1697" 
d="M1176 1645q-122 0 -182.5 54t-43.5 148h74q2 -58 40.5 -88t127.5 -30q165 0 235 118h80q-35 -94 -122.5 -148t-208.5 -54zM854 -27q-282 0 -459.5 173.5t-177.5 453.5q0 181 73 350.5t204 300.5q265 265 630 265q363 0 541 -273l-74 -47q-36 53 -76.5 93t-97 74.5
t-132.5 52.5t-169 18q-312 0 -553 -234q-119 -119 -185.5 -276t-66.5 -322q0 -249 149.5 -398t397.5 -149q247 0 447 129l141 496h-504l23 86h596l-181 -633q-250 -160 -526 -160z" />
    <glyph glyph-name="gbreve" unicode="&#x11f;" horiz-adv-x="1417" 
d="M518 -344q-144 0 -278 53.5t-232 147.5l64 63q185 -182 450 -182q217 0 342 125q52 52 86.5 120.5t65.5 172.5l43 155q-201 -231 -467 -231q-118 0 -220 50.5t-166.5 148t-64.5 221.5q0 248 176 424q87 87 199 134.5t234 47.5q93 0 169.5 -27t127.5 -73.5t84 -99.5
t53 -115l78 288h86l-252 -944q-56 -211 -170 -325q-154 -154 -408 -154zM608 162q109 0 208 44t175 120q73 73 112.5 158t39.5 171q0 95 -47 178t-138.5 136t-209.5 53q-211 0 -361 -150q-154 -154 -154 -366q0 -105 53 -184.5t137.5 -119.5t184.5 -40zM901 1264
q-121 0 -180.5 61.5t-40.5 167.5h68q-2 -71 37.5 -108t129.5 -37q165 0 246 145h76q-39 -105 -128.5 -167t-207.5 -62z" />
    <glyph glyph-name="Gdotaccent" unicode="&#x120;" horiz-adv-x="1697" 
d="M1106 1661l39 143h137l-39 -143h-137zM854 -27q-282 0 -459.5 173.5t-177.5 453.5q0 181 73 350.5t204 300.5q265 265 630 265q363 0 541 -273l-74 -47q-36 53 -76.5 93t-97 74.5t-132.5 52.5t-169 18q-312 0 -553 -234q-119 -119 -185.5 -276t-66.5 -322
q0 -249 149.5 -398t397.5 -149q247 0 447 129l141 496h-504l23 86h596l-181 -633q-250 -160 -526 -160z" />
    <glyph glyph-name="gdotaccent" unicode="&#x121;" horiz-adv-x="1417" 
d="M518 -344q-144 0 -278 53.5t-232 147.5l64 63q185 -182 450 -182q217 0 342 125q52 52 86.5 120.5t65.5 172.5l43 155q-201 -231 -467 -231q-118 0 -220 50.5t-166.5 148t-64.5 221.5q0 248 176 424q87 87 199 134.5t234 47.5q93 0 169.5 -27t127.5 -73.5t84 -99.5
t53 -115l78 288h86l-252 -944q-56 -211 -170 -325q-154 -154 -408 -154zM608 162q109 0 208 44t175 120q73 73 112.5 158t39.5 171q0 95 -47 178t-138.5 136t-209.5 53q-211 0 -361 -150q-154 -154 -154 -366q0 -105 53 -184.5t137.5 -119.5t184.5 -40zM838 1276l43 160h120
l-43 -160h-120z" />
    <glyph glyph-name="Gcommaaccent" unicode="&#x122;" horiz-adv-x="1697" 
d="M854 -27q-282 0 -459.5 173.5t-177.5 453.5q0 181 73 350.5t204 300.5q265 265 630 265q363 0 541 -273l-74 -47q-36 53 -76.5 93t-97 74.5t-132.5 52.5t-169 18q-312 0 -553 -234q-119 -119 -185.5 -276t-66.5 -322q0 -249 149.5 -398t397.5 -149q247 0 447 129l141 496
h-504l23 86h596l-181 -633q-250 -160 -526 -160zM561 -455l-2 45q57 12 87 38.5t44 76.5h-59l37 135h129l-29 -108q-26 -91 -72.5 -132t-134.5 -55z" />
    <glyph glyph-name="gcommaaccent" unicode="&#x123;" horiz-adv-x="1417" 
d="M518 -344q-144 0 -278 53.5t-232 147.5l64 63q185 -182 450 -182q217 0 342 125q52 52 86.5 120.5t65.5 172.5l43 155q-201 -231 -467 -231q-118 0 -220 50.5t-166.5 148t-64.5 221.5q0 248 176 424q87 87 199 134.5t234 47.5q93 0 169.5 -27t127.5 -73.5t84 -99.5
t53 -115l78 288h86l-252 -944q-56 -211 -170 -325q-154 -154 -408 -154zM608 162q109 0 208 44t175 120q73 73 112.5 158t39.5 171q0 95 -47 178t-138.5 136t-209.5 53q-211 0 -361 -150q-154 -154 -154 -366q0 -105 53 -184.5t137.5 -119.5t184.5 -40zM1065 1571v-45
q-57 -12 -86 -37.5t-43 -75.5h59l-37 -137h-131l31 108q24 91 71 132t136 55z" />
    <glyph glyph-name="Hbar" unicode="&#x126;" horiz-adv-x="1636" 
d="M227 1098l21 78h158l86 315h92l-84 -315h979l84 315h92l-86 -315h162l-21 -78h-162l-293 -1098h-92l189 700h-979l-191 -700h-90l293 1098h-158zM395 784h979l84 314h-979z" />
    <glyph glyph-name="hbar" unicode="&#x127;" horiz-adv-x="1323" 
d="M272 1317l21 78h149l43 159h86l-43 -159h394l-21 -78h-395l-123 -461q181 250 428 250q166 0 262 -94.5t96 -251.5q0 -70 -24 -164l-158 -596h-86l160 602q20 67 20 150q0 127 -75.5 200.5t-214.5 73.5q-151 0 -289.5 -117.5t-186.5 -302.5l-161 -606h-86l354 1317h-150z
" />
    <glyph glyph-name="Imacron" unicode="&#x12a;" horiz-adv-x="593" 
d="M106 0l400 1491h92l-401 -1491h-91zM289 1686l24 86h635l-22 -86h-637z" />
    <glyph glyph-name="imacron" unicode="&#x12b;" horiz-adv-x="542" 
d="M82 0l291 1079h86l-291 -1079h-86zM172 1323l23 82h618l-22 -82h-619z" />
    <glyph glyph-name="Ibreve" unicode="&#x12c;" horiz-adv-x="593" 
d="M106 0l400 1491h92l-401 -1491h-91zM596 1626q-121 0 -181.5 54.5t-43.5 148.5h73q2 -58 40.5 -88.5t127.5 -30.5q165 0 236 119h80q-35 -94 -123 -148.5t-209 -54.5z" />
    <glyph glyph-name="ibreve" unicode="&#x12d;" horiz-adv-x="542" 
d="M82 0l291 1079h86l-291 -1079h-86zM473 1264q-121 0 -180.5 61.5t-40.5 167.5h67q-2 -71 38 -108t130 -37q165 0 246 145h76q-39 -105 -128.5 -167t-207.5 -62z" />
    <glyph glyph-name="Iogonek" unicode="&#x12e;" horiz-adv-x="593" 
d="M109 12l397 1479h92l-401 -1491h-7q-172 -111 -172 -195q0 -37 34.5 -57t111.5 -31l-17 -63h-2q-106 6 -162 41t-55 96q0 57 47 109.5t134 109.5v2z" />
    <glyph glyph-name="iogonek" unicode="&#x12f;" horiz-adv-x="542" 
d="M-100 -209q0 57 47.5 109t138.5 114v2l287 1063h86l-291 -1079h-6q-172 -111 -172 -195q0 -37 34 -57t111 -31l-16 -63h-2q-106 6 -162 41t-55 96zM438 1370l37 135h111l-37 -135h-111z" />
    <glyph glyph-name="Idotaccent" unicode="&#x130;" horiz-adv-x="593" 
d="M106 0l400 1491h92l-401 -1491h-91zM526 1642l39 144h137l-38 -144h-138z" />
    <glyph glyph-name="dotlessi" unicode="&#x131;" horiz-adv-x="542" 
d="M82 0l291 1079h86l-291 -1079h-86z" />
    <glyph glyph-name="Kcommaaccent" unicode="&#x136;" horiz-adv-x="1542" 
d="M92 0l400 1491h92l-265 -981l1225 981h135l-823 -655l449 -836h-107l-418 782l-493 -395l-105 -387h-90zM446 -442l-2 45q57 12 87.5 38.5t43.5 75.5h-59l37 136h129l-29 -109q-26 -91 -72.5 -131.5t-134.5 -54.5z" />
    <glyph glyph-name="kcommaaccent" unicode="&#x137;" horiz-adv-x="1210" 
d="M268 -449l-2 46q57 12 87.5 38.5t43.5 75.5h-59l37 135h129l-29 -108q-26 -91 -72.5 -132t-134.5 -55zM68 0l417 1554h86l-313 -1167l866 692h125l-604 -479l328 -600h-101l-299 547l-348 -275l-71 -272h-86z" />
    <glyph glyph-name="Lacute" unicode="&#x139;" horiz-adv-x="1296" 
d="M551 1630l266 238l103 -49l-277 -189h-92zM92 0l400 1491h92l-379 -1407h889l-23 -84h-979z" />
    <glyph glyph-name="lacute" unicode="&#x13a;" horiz-adv-x="540" 
d="M539 1671l266 238l102 -49l-276 -189h-92zM82 0l418 1554h86l-418 -1554h-86z" />
    <glyph glyph-name="Lcommaaccent" unicode="&#x13b;" horiz-adv-x="1296" 
d="M92 0l400 1491h92l-379 -1407h889l-23 -84h-979zM344 -453l-2 45q57 12 87 38.5t44 76.5h-59l37 135h129l-29 -108q-26 -91 -72.5 -132t-134.5 -55z" />
    <glyph glyph-name="lcommaaccent" unicode="&#x13c;" horiz-adv-x="540" 
d="M-72 -453l-2 45q57 12 87 38.5t44 76.5h-59l37 135h129l-29 -108q-26 -91 -72.5 -132t-134.5 -55zM82 0l418 1554h86l-418 -1554h-86z" />
    <glyph glyph-name="Lcaron" unicode="&#x13d;" horiz-adv-x="1296" 
d="M92 0l400 1491h92l-379 -1407h889l-23 -84h-979zM696 1176l119 317h107v-6l-177 -311h-49z" />
    <glyph glyph-name="lcaron" unicode="&#x13e;" horiz-adv-x="540" 
d="M659 1237l119 317h107v-6l-176 -311h-50zM82 0l418 1554h86l-418 -1554h-86z" />
    <glyph glyph-name="Ldot" unicode="&#x13f;" horiz-adv-x="1325" 
d="M950 688l43 158h127l-43 -158h-127zM94 0l400 1491h92l-379 -1407h889l-23 -84h-979z" />
    <glyph glyph-name="ldot" unicode="&#x140;" horiz-adv-x="630" 
d="M551 700l41 156h127l-41 -156h-127zM82 0l418 1554h86l-418 -1554h-86z" />
    <glyph glyph-name="Lslash" unicode="&#x141;" horiz-adv-x="1386" 
d="M180 629l21 86l186 53l195 723h92l-187 -694l531 155l-23 -86l-532 -155l-168 -627h889l-23 -84h-979l183 682z" />
    <glyph glyph-name="lslash" unicode="&#x142;" horiz-adv-x="655" 
d="M158 674l22 88l178 51l199 741h86l-192 -714l180 53l-23 -86l-180 -53l-203 -754h-86l195 725z" />
    <glyph glyph-name="Nacute" unicode="&#x143;" horiz-adv-x="1699" 
d="M1085 1622l267 238l102 -50l-276 -188h-93zM92 0l400 1491h83l697 -1341l360 1341h88l-401 -1491h-70l-704 1362l-365 -1362h-88z" />
    <glyph glyph-name="nacute" unicode="&#x144;" horiz-adv-x="1327" 
d="M801 1268l260 270l106 -53l-280 -217h-86zM68 0l288 1079h86l-59 -223q181 250 428 250q166 0 262 -94.5t96 -251.5q0 -70 -24 -164l-158 -596h-86l160 602q20 67 20 150q0 127 -75.5 200.5t-214.5 73.5q-151 0 -289.5 -117.5t-186.5 -302.5l-161 -606h-86z" />
    <glyph glyph-name="Ncommaaccent" unicode="&#x145;" horiz-adv-x="1699" 
d="M512 -442l-2 45q57 12 87.5 38.5t43.5 75.5h-59l36 136h130l-29 -109q-26 -91 -72.5 -131.5t-134.5 -54.5zM92 0l400 1491h83l697 -1341l360 1341h88l-401 -1491h-70l-704 1362l-365 -1362h-88z" />
    <glyph glyph-name="ncommaaccent" unicode="&#x146;" horiz-adv-x="1327" 
d="M315 -449l-2 46q57 12 87.5 38.5t43.5 75.5h-59l37 135h129l-29 -108q-26 -91 -72.5 -132t-134.5 -55zM68 0l288 1079h86l-59 -223q181 250 428 250q166 0 262 -94.5t96 -251.5q0 -70 -24 -164l-158 -596h-86l160 602q20 67 20 150q0 127 -75.5 200.5t-214.5 73.5
q-151 0 -289.5 -117.5t-186.5 -302.5l-161 -606h-86z" />
    <glyph glyph-name="Ncaron" unicode="&#x147;" horiz-adv-x="1699" 
d="M1475 1843l-281 -221h-80l-164 221h88l131 -139l207 139h99zM92 0l400 1491h83l697 -1341l360 1341h88l-401 -1491h-70l-704 1362l-365 -1362h-88z" />
    <glyph glyph-name="ncaron" unicode="&#x148;" horiz-adv-x="1327" 
d="M797 1268l-150 254h76l123 -158l219 158h84l-287 -254h-65zM68 0l288 1079h86l-59 -223q181 250 428 250q166 0 262 -94.5t96 -251.5q0 -70 -24 -164l-158 -596h-86l160 602q20 67 20 150q0 127 -75.5 200.5t-214.5 73.5q-151 0 -289.5 -117.5t-186.5 -302.5l-161 -606
h-86z" />
    <glyph glyph-name="Omacron" unicode="&#x14c;" horiz-adv-x="1824" 
d="M883 1704l24 86h635l-22 -86h-637zM1073 1516q186 0 333.5 -85t228.5 -231.5t81 -325.5q0 -182 -72.5 -352t-201.5 -299q-118 -118 -267 -184t-313 -66q-186 0 -333.5 85.5t-228.5 231.5t-81 324q0 183 72.5 352.5t202.5 299.5q118 119 266.5 184.5t312.5 65.5zM862 55
q145 0 276 58t234 161q118 120 184 276t66 324q0 156 -68 283.5t-194.5 202t-286.5 74.5q-145 0 -276 -58.5t-234 -161.5q-118 -118 -184 -275t-66 -323q0 -158 68 -285.5t194 -201.5t287 -74z" />
    <glyph glyph-name="omacron" unicode="&#x14d;" horiz-adv-x="1368" 
d="M571 1323l23 82h618l-22 -82h-619zM762 1106q214 0 348.5 -135t134.5 -344q0 -129 -51 -249t-145 -214q-89 -89 -203 -139t-240 -50q-214 0 -349.5 135t-135.5 345q0 128 52 247.5t146 212.5q89 89 203.5 140t239.5 51zM614 55q103 0 198 43t169 117q80 82 126 188
t46 220q0 182 -110 291.5t-289 109.5q-103 0 -198 -43t-169 -117q-81 -81 -126.5 -186t-45.5 -219q0 -184 110 -294t289 -110z" />
    <glyph glyph-name="Obreve" unicode="&#x14e;" horiz-adv-x="1824" 
d="M1190 1645q-122 0 -182 54t-43 148h73q2 -58 40.5 -88t127.5 -30q166 0 236 118h80q-35 -94 -123 -148t-209 -54zM1073 1516q186 0 333.5 -85t228.5 -231.5t81 -325.5q0 -182 -72.5 -352t-201.5 -299q-118 -118 -267 -184t-313 -66q-186 0 -333.5 85.5t-228.5 231.5
t-81 324q0 183 72.5 352.5t202.5 299.5q118 119 266.5 184.5t312.5 65.5zM862 55q145 0 276 58t234 161q118 120 184 276t66 324q0 156 -68 283.5t-194.5 202t-286.5 74.5q-145 0 -276 -58.5t-234 -161.5q-118 -118 -184 -275t-66 -323q0 -158 68 -285.5t194 -201.5t287 -74
z" />
    <glyph glyph-name="obreve" unicode="&#x14f;" horiz-adv-x="1368" 
d="M762 1106q214 0 348.5 -135t134.5 -344q0 -129 -51 -249t-145 -214q-89 -89 -203 -139t-240 -50q-214 0 -349.5 135t-135.5 345q0 128 52 247.5t146 212.5q89 89 203.5 140t239.5 51zM614 55q103 0 198 43t169 117q80 82 126 188t46 220q0 182 -110 291.5t-289 109.5
q-103 0 -198 -43t-169 -117q-81 -81 -126.5 -186t-45.5 -219q0 -184 110 -294t289 -110zM872 1264q-121 0 -180.5 61.5t-40.5 167.5h68q-2 -71 38 -108t130 -37q165 0 246 145h75q-39 -105 -128.5 -167t-207.5 -62z" />
    <glyph glyph-name="Ohungarumlaut" unicode="&#x150;" horiz-adv-x="1824" 
d="M1073 1516q186 0 333.5 -85t228.5 -231.5t81 -325.5q0 -182 -72.5 -352t-201.5 -299q-118 -118 -267 -184t-313 -66q-186 0 -333.5 85.5t-228.5 231.5t-81 324q0 183 72.5 352.5t202.5 299.5q118 119 266.5 184.5t312.5 65.5zM862 55q145 0 276 58t234 161
q118 120 184 276t66 324q0 156 -68 283.5t-194.5 202t-286.5 74.5q-145 0 -276 -58.5t-234 -161.5q-118 -118 -184 -275t-66 -323q0 -158 68 -285.5t194 -201.5t287 -74zM956 1649l265 237l104 -49l-276 -188h-93zM1241 1649l266 237l103 -49l-277 -188h-92z" />
    <glyph glyph-name="ohungarumlaut" unicode="&#x151;" horiz-adv-x="1368" 
d="M645 1268l260 270l86 -51l-272 -219h-74zM950 1268l260 270l84 -51l-270 -219h-74zM762 1106q214 0 348.5 -135t134.5 -344q0 -129 -51 -249t-145 -214q-89 -89 -203 -139t-240 -50q-214 0 -349.5 135t-135.5 345q0 128 52 247.5t146 212.5q89 89 203.5 140t239.5 51z
M614 55q103 0 198 43t169 117q80 82 126 188t46 220q0 182 -110 291.5t-289 109.5q-103 0 -198 -43t-169 -117q-81 -81 -126.5 -186t-45.5 -219q0 -184 110 -294t289 -110z" />
    <glyph glyph-name="OE" unicode="&#x152;" horiz-adv-x="2469" 
d="M2202 0h-1241q-182 0 -333 51t-253 150q-164 164 -164 426q0 346 233 579q136 136 332 210.5t426 74.5h1389l-23 -84h-930l-165 -614h835l-22 -84h-836l-168 -625h942zM449 260q85 -87 217 -131.5t295 -44.5h231l354 1323h-356q-207 0 -379.5 -67t-298.5 -193
q-100 -100 -153.5 -231t-53.5 -283q0 -232 144 -373z" />
    <glyph glyph-name="oe" unicode="&#x153;" horiz-adv-x="2279" 
d="M2138 510h-913q-4 -54 -4 -80q0 -170 104.5 -272.5t276.5 -102.5q115 0 204 37t174 109l50 -60q-195 -166 -424 -166q-181 0 -303 94.5t-152 252.5q-86 -151 -227.5 -249t-323.5 -98q-209 0 -344 135.5t-135 344.5q0 128 52 247.5t146 212.5q89 89 203.5 140t239.5 51
q184 0 304 -103t151 -264q80 161 217.5 264t318.5 103q100 0 179.5 -33.5t129.5 -92t76.5 -133t26.5 -159.5t-27 -178zM612 55q103 0 198 43t169 117q82 84 128 188.5t46 217.5q0 183 -109.5 293t-289.5 110q-103 0 -198 -43t-169 -117q-81 -81 -126.5 -186t-45.5 -219
q0 -184 109 -294t288 -110zM1405 874q-116 -116 -164 -286h825q9 34 9 94q0 96 -33.5 172t-108 124t-180.5 48q-199 0 -348 -152z" />
    <glyph glyph-name="Racute" unicode="&#x154;" horiz-adv-x="1554" 
d="M1167 0l-323 627h-53h-439l-170 -627h-90l400 1491h534q272 0 397 -131q95 -92 95 -244q0 -180 -127 -307q-147 -144 -449 -176l332 -633h-107zM373 711h467q339 0 483 151q104 101 104 248q0 119 -71 190q-107 107 -334 107h-461zM932 1630l266 238l102 -49l-276 -189
h-92z" />
    <glyph glyph-name="racute" unicode="&#x155;" horiz-adv-x="835" 
d="M559 1268l260 270l107 -53l-281 -217h-86zM68 0l288 1079h86l-84 -315q109 163 251.5 252.5t299.5 83.5l-22 -94h-8q-185 0 -359.5 -148t-238.5 -385l-127 -473h-86z" />
    <glyph glyph-name="Rcommaaccent" unicode="&#x156;" horiz-adv-x="1554" 
d="M1167 0l-323 627h-53h-439l-170 -627h-90l400 1491h534q272 0 397 -131q95 -92 95 -244q0 -180 -127 -307q-147 -144 -449 -176l332 -633h-107zM373 711h467q339 0 483 151q104 101 104 248q0 119 -71 190q-107 107 -334 107h-461zM408 -442l-2 45q57 12 87.5 38.5
t43.5 75.5h-60l37 136h129l-29 -109q-26 -91 -72 -131.5t-134 -54.5z" />
    <glyph glyph-name="rcommaaccent" unicode="&#x157;" horiz-adv-x="835" 
d="M-72 -453l-2 45q57 12 87 38.5t44 76.5h-59l37 135h129l-29 -108q-26 -91 -72.5 -132t-134.5 -55zM68 0l288 1079h86l-84 -315q109 163 251.5 252.5t299.5 83.5l-22 -94h-8q-185 0 -359.5 -148t-238.5 -385l-127 -473h-86z" />
    <glyph glyph-name="Rcaron" unicode="&#x158;" horiz-adv-x="1554" 
d="M1323 1851l-281 -221h-79l-164 221h88l131 -139l207 139h98zM1167 0l-323 627h-53h-439l-170 -627h-90l400 1491h534q272 0 397 -131q95 -92 95 -244q0 -180 -127 -307q-147 -144 -449 -176l332 -633h-107zM373 711h467q339 0 483 151q104 101 104 248q0 119 -71 190
q-107 107 -334 107h-461z" />
    <glyph glyph-name="rcaron" unicode="&#x159;" horiz-adv-x="835" 
d="M555 1268l-149 254h75l123 -158l219 158h84l-286 -254h-66zM68 0l288 1079h86l-84 -315q109 163 251.5 252.5t299.5 83.5l-22 -94h-8q-185 0 -359.5 -148t-238.5 -385l-127 -473h-86z" />
    <glyph glyph-name="Sacute" unicode="&#x15a;" horiz-adv-x="1388" 
d="M653 -20q-193 0 -345.5 74.5t-248.5 207.5l70 51q198 -252 533 -252q196 0 320 99.5t124 238.5q0 111 -79 177.5t-269 140.5q-220 84 -319 168.5t-99 218.5q0 145 109 254q153 153 421 153q160 0 292 -60t222 -163l-69 -57q-180 199 -453 199q-194 0 -311 -94t-117 -224
q0 -105 87.5 -173.5t275.5 -139.5q104 -39 174 -75.5t123.5 -82.5t78.5 -103t25 -130q0 -156 -117 -273q-155 -155 -428 -155zM905 1649l266 237l103 -49l-277 -188h-92z" />
    <glyph glyph-name="sacute" unicode="&#x15b;" horiz-adv-x="1079" 
d="M659 1268l261 270l106 -53l-281 -217h-86zM471 -23q-126 0 -245 47t-208 136l62 61q170 -164 401 -164q124 0 212.5 66t88.5 158q0 74 -55.5 124.5t-194.5 104.5q-157 56 -231 120.5t-74 166.5q0 127 110 216t288 89q103 0 208.5 -40t178.5 -104l-56 -63q-70 57 -160 92
t-180 35q-135 0 -216 -64t-81 -149q0 -70 56 -117t200 -104q159 -62 229 -127.5t70 -165.5q0 -131 -116.5 -224.5t-286.5 -93.5z" />
    <glyph glyph-name="Scedilla" unicode="&#x15e;" horiz-adv-x="1388" 
d="M395 -311l-84 47l234 250q-157 18 -281 90t-205 186l70 51q198 -252 533 -252q196 0 320 99.5t124 238.5q0 111 -79 177.5t-269 140.5q-220 84 -319 168.5t-99 218.5q0 145 109 254q153 153 421 153q160 0 292 -60t222 -163l-69 -57q-180 199 -453 199q-194 0 -311 -94
t-117 -224q0 -105 87.5 -173.5t275.5 -139.5q104 -39 174 -75.5t123.5 -82.5t78.5 -103t25 -130q0 -156 -117 -273q-155 -155 -428 -155q-5 0 -16 1t-16 1z" />
    <glyph glyph-name="scedilla" unicode="&#x15f;" horiz-adv-x="1079" 
d="M217 -311l-84 47l234 250q-219 38 -349 174l62 61q170 -164 401 -164q124 0 212.5 66t88.5 158q0 74 -55.5 124.5t-194.5 104.5q-157 56 -231 120.5t-74 166.5q0 127 110 216t288 89q103 0 208.5 -40t178.5 -104l-56 -63q-70 57 -160 92t-180 35q-135 0 -216 -64
t-81 -149q0 -70 56 -117t200 -104q159 -62 229 -127.5t70 -165.5q0 -131 -116.5 -224.5t-286.5 -93.5h-31z" />
    <glyph glyph-name="Scaron" unicode="&#x160;" horiz-adv-x="1388" 
d="M653 -20q-193 0 -345.5 74.5t-248.5 207.5l70 51q198 -252 533 -252q196 0 320 99.5t124 238.5q0 111 -79 177.5t-269 140.5q-220 84 -319 168.5t-99 218.5q0 145 109 254q153 153 421 153q160 0 292 -60t222 -163l-69 -57q-180 199 -453 199q-194 0 -311 -94t-117 -224
q0 -105 87.5 -173.5t275.5 -139.5q104 -39 174 -75.5t123.5 -82.5t78.5 -103t25 -130q0 -156 -117 -273q-155 -155 -428 -155zM1294 1870l-280 -221h-80l-164 221h88l131 -139l207 139h98z" />
    <glyph glyph-name="scaron" unicode="&#x161;" horiz-adv-x="1079" 
d="M655 1268l-149 254h76l123 -158l219 158h84l-287 -254h-66zM471 -23q-126 0 -245 47t-208 136l62 61q170 -164 401 -164q124 0 212.5 66t88.5 158q0 74 -55.5 124.5t-194.5 104.5q-157 56 -231 120.5t-74 166.5q0 127 110 216t288 89q103 0 208.5 -40t178.5 -104l-56 -63
q-70 57 -160 92t-180 35q-135 0 -216 -64t-81 -149q0 -70 56 -117t200 -104q159 -62 229 -127.5t70 -165.5q0 -131 -116.5 -224.5t-286.5 -93.5z" />
    <glyph glyph-name="Tcommaaccent" unicode="&#x162;" horiz-adv-x="1316" 
d="M459 0l377 1407h-525l23 84h1143l-23 -84h-526l-379 -1407h-90zM305 -453l-2 45q57 12 87 38.5t44 76.5h-59l37 135h129l-29 -108q-26 -91 -72.5 -132t-134.5 -55z" />
    <glyph glyph-name="Tcommaaccent" unicode="&#x21a;" horiz-adv-x="1316" 
d="M459 0l377 1407h-525l23 84h1143l-23 -84h-526l-379 -1407h-90zM305 -453l-2 45q57 12 87 38.5t44 76.5h-59l37 135h129l-29 -108q-26 -91 -72.5 -132t-134.5 -55z" />
    <glyph glyph-name="tcommaaccent" unicode="&#x163;" horiz-adv-x="856" 
d="M150 -455l-3 45q57 12 88 39t44 76h-60l37 135h129l-29 -108q-26 -91 -72 -132t-134 -55zM442 -18q-115 0 -183.5 53t-68.5 155q0 47 15 105l188 706h-160l21 78h162l94 355h86l-94 -355h381l-23 -78h-379l-190 -706q-12 -47 -12 -96q0 -138 182 -138q73 0 155 33
l-22 -86q-62 -26 -152 -26z" />
    <glyph glyph-name="tcommaaccent" unicode="&#x21b;" horiz-adv-x="856" 
d="M150 -455l-3 45q57 12 88 39t44 76h-60l37 135h129l-29 -108q-26 -91 -72 -132t-134 -55zM442 -18q-115 0 -183.5 53t-68.5 155q0 47 15 105l188 706h-160l21 78h162l94 355h86l-94 -355h381l-23 -78h-379l-190 -706q-12 -47 -12 -96q0 -138 182 -138q73 0 155 33
l-22 -86q-62 -26 -152 -26z" />
    <glyph glyph-name="Tcaron" unicode="&#x164;" horiz-adv-x="1316" 
d="M1276 1851l-281 -221h-80l-163 221h88l131 -139l207 139h98zM459 0l377 1407h-525l23 84h1143l-23 -84h-526l-379 -1407h-90z" />
    <glyph glyph-name="tcaron" unicode="&#x165;" horiz-adv-x="856" 
d="M752 1237l118 317h107v-6l-176 -311h-49zM442 -18q-115 0 -183.5 53t-68.5 155q0 47 15 105l188 706h-160l21 78h162l94 355h86l-94 -355h381l-23 -78h-379l-190 -706q-12 -47 -12 -96q0 -138 182 -138q73 0 155 33l-22 -86q-62 -26 -152 -26z" />
    <glyph glyph-name="Umacron" unicode="&#x16a;" horiz-adv-x="1636" 
d="M786 1677l25 86h635l-23 -86h-637zM754 -23q-252 0 -393.5 127t-141.5 345q0 119 33 237l215 805h92l-225 -842q-25 -105 -25 -194q0 -183 117.5 -289.5t333.5 -106.5q219 0 381 158q139 139 217 418l229 856h90l-235 -875q-79 -295 -238 -454q-185 -185 -450 -185z" />
    <glyph glyph-name="umacron" unicode="&#x16b;" horiz-adv-x="1323" 
d="M512 -25q-166 0 -262 93.5t-96 250.5q0 70 24 164l158 596h88l-162 -602q-20 -67 -20 -147q0 -129 76.5 -203t216.5 -74q150 0 287.5 118t185.5 304l161 604h86l-288 -1079h-86l59 223q-186 -248 -428 -248zM537 1321l22 82h619l-23 -82h-618z" />
    <glyph glyph-name="Ubreve" unicode="&#x16c;" horiz-adv-x="1636" 
d="M1096 1618q-122 0 -182.5 54.5t-43.5 148.5h74q2 -58 40.5 -88.5t127.5 -30.5q165 0 236 119h79q-36 -95 -123 -149t-208 -54zM754 -23q-252 0 -393.5 127t-141.5 345q0 119 33 237l215 805h92l-225 -842q-25 -105 -25 -194q0 -183 117.5 -289.5t333.5 -106.5
q219 0 381 158q139 139 217 418l229 856h90l-235 -875q-79 -295 -238 -454q-185 -185 -450 -185z" />
    <glyph glyph-name="ubreve" unicode="&#x16d;" horiz-adv-x="1323" 
d="M512 -25q-166 0 -262 93.5t-96 250.5q0 70 24 164l158 596h88l-162 -602q-20 -67 -20 -147q0 -129 76.5 -203t216.5 -74q150 0 287.5 118t185.5 304l161 604h86l-288 -1079h-86l59 223q-186 -248 -428 -248zM838 1262q-121 0 -181 61.5t-41 167.5h68q-2 -71 38 -108
t130 -37q165 0 246 145h76q-39 -105 -128.5 -167t-207.5 -62z" />
    <glyph glyph-name="Uring" unicode="&#x16e;" horiz-adv-x="1636" 
d="M754 -23q-252 0 -393.5 127t-141.5 345q0 119 33 237l215 805h92l-225 -842q-25 -105 -25 -194q0 -183 117.5 -289.5t333.5 -106.5q219 0 381 158q139 139 217 418l229 856h90l-235 -875q-79 -295 -238 -454q-185 -185 -450 -185zM1167 1991q91 0 145 -49t54 -125
q0 -94 -76 -158t-176 -64q-91 0 -146 49t-55 125q0 94 77 158t177 64zM1120 1653q69 0 122.5 45.5t53.5 113.5q0 53 -36.5 87t-100.5 34q-69 0 -122.5 -45.5t-53.5 -113.5q0 -54 37 -87.5t100 -33.5z" />
    <glyph glyph-name="uring" unicode="&#x16f;" horiz-adv-x="1323" 
d="M1106 1475q0 -92 -74.5 -159t-169.5 -67q-91 0 -148 54t-57 137q0 91 74.5 159t169.5 68q92 0 148.5 -53.5t56.5 -138.5zM723 1442q0 -59 38.5 -97t104.5 -38q68 0 121 49.5t53 116.5q0 61 -38 98t-103 37q-71 0 -123.5 -48t-52.5 -118zM512 -25q-166 0 -262 93.5
t-96 250.5q0 70 24 164l158 596h88l-162 -602q-20 -67 -20 -147q0 -129 76.5 -203t216.5 -74q150 0 287.5 118t185.5 304l161 604h86l-288 -1079h-86l59 223q-186 -248 -428 -248z" />
    <glyph glyph-name="Uhungarumlaut" unicode="&#x170;" horiz-adv-x="1636" 
d="M754 -23q-252 0 -393.5 127t-141.5 345q0 119 33 237l215 805h92l-225 -842q-25 -105 -25 -194q0 -183 117.5 -289.5t333.5 -106.5q219 0 381 158q139 139 217 418l229 856h90l-235 -875q-79 -295 -238 -454q-185 -185 -450 -185zM860 1622l264 238l105 -50l-277 -188
h-92zM1145 1622l266 238l102 -50l-276 -188h-92z" />
    <glyph glyph-name="uhungarumlaut" unicode="&#x171;" horiz-adv-x="1323" 
d="M512 -25q-166 0 -262 93.5t-96 250.5q0 70 24 164l158 596h88l-162 -602q-20 -67 -20 -147q0 -129 76.5 -203t216.5 -74q150 0 287.5 118t185.5 304l161 604h86l-288 -1079h-86l59 223q-186 -248 -428 -248zM608 1266l260 270l86 -51l-272 -219h-74zM913 1266l261 270
l83 -51l-270 -219h-74z" />
    <glyph glyph-name="Uogonek" unicode="&#x172;" horiz-adv-x="1636" 
d="M733 -283l-16 -63h-2q-106 6 -162 41t-55 96q0 51 36 97t105 98q-202 29 -311 150t-109 313q0 119 33 237l215 805h92l-225 -842q-25 -105 -25 -194q0 -183 117.5 -289.5t333.5 -106.5q219 0 381 158q139 139 217 418l229 856h90l-235 -875q-79 -295 -238 -454
q-185 -185 -450 -185h-27q-139 -95 -139 -172q0 -37 34 -57t111 -31z" />
    <glyph glyph-name="uogonek" unicode="&#x173;" horiz-adv-x="1323" 
d="M512 -25q-166 0 -262 93.5t-96 250.5q0 70 24 164l158 596h88l-162 -602q-20 -67 -20 -147q0 -129 76.5 -203t216.5 -74q150 0 287.5 118t185.5 304l161 604h86l-288 -1079h-9q-172 -111 -172 -195q0 -37 34.5 -57t111.5 -31l-17 -63h-2q-106 6 -162 41t-55 96
q0 58 48.5 112t140.5 113v2l55 205q-186 -248 -428 -248z" />
    <glyph glyph-name="Wcircumflex" unicode="&#x174;" horiz-adv-x="2299" 
d="M473 -10l-133 1501h94l113 -1360l807 1364h73l84 -1364l834 1360h102l-931 -1501h-76l-90 1335l-801 -1335h-76zM1147 1630l280 221h80l162 -221h-86l-131 137l-207 -137h-98z" />
    <glyph glyph-name="wcircumflex" unicode="&#x175;" horiz-adv-x="1802" 
d="M815 1268l287 254h67l148 -254h-76l-123 155l-217 -155h-86zM332 -8l-101 1087h88l80 -962l590 968h70l74 -968l591 962h97l-682 -1087h-74l-76 952l-586 -952h-71z" />
    <glyph glyph-name="Ycircumflex" unicode="&#x176;" horiz-adv-x="1447" 
d="M522 0l164 610l-391 881h100l353 -809l788 809h123l-889 -901l-158 -590h-90zM707 1622l280 221h80l162 -221h-86l-131 137l-207 -137h-98z" />
    <glyph glyph-name="ycircumflex" unicode="&#x177;" horiz-adv-x="1241" 
d="M432 -2l-225 1081h92l199 -989l671 989h105l-768 -1110q-128 -180 -227 -248.5t-216 -68.5q-122 0 -223 69l47 68q86 -59 185 -59q87 0 169.5 58.5t190.5 209.5zM500 1266l286 254h68l147 -254h-75l-123 155l-217 -155h-86z" />
    <glyph glyph-name="Ydieresis" unicode="&#x178;" horiz-adv-x="1447" 
d="M522 0l164 610l-391 881h100l353 -809l788 809h123l-889 -901l-158 -590h-90zM745 1634l39 144h136l-41 -144h-134zM1096 1634l41 144h133l-41 -144h-133z" />
    <glyph glyph-name="Zacute" unicode="&#x179;" horiz-adv-x="1441" 
d="M-18 0l14 51l1384 1358h-985l23 82h1128l-14 -51l-1385 -1358h1024l-22 -82h-1167zM911 1630l267 238l102 -49l-276 -189h-93z" />
    <glyph glyph-name="zacute" unicode="&#x17a;" horiz-adv-x="1153" 
d="M680 1268l260 270l107 -53l-281 -217h-86zM-31 0l13 49l1032 955h-748l21 75h889l-15 -49l-1032 -952h782l-20 -78h-922z" />
    <glyph glyph-name="Zdotaccent" unicode="&#x17b;" horiz-adv-x="1441" 
d="M901 1642l39 144h137l-39 -144h-137zM-18 0l14 51l1384 1358h-985l23 82h1128l-14 -51l-1385 -1358h1024l-22 -82h-1167z" />
    <glyph glyph-name="zdotaccent" unicode="&#x17c;" horiz-adv-x="1153" 
d="M-31 0l13 49l1032 955h-748l21 75h889l-15 -49l-1032 -952h782l-20 -78h-922zM676 1276l43 160h121l-43 -160h-121z" />
    <glyph glyph-name="Zcaron" unicode="&#x17d;" horiz-adv-x="1441" 
d="M1300 1851l-280 -221h-80l-164 221h88l131 -139l207 139h98zM-18 0l14 51l1384 1358h-985l23 82h1128l-14 -51l-1385 -1358h1024l-22 -82h-1167z" />
    <glyph glyph-name="zcaron" unicode="&#x17e;" horiz-adv-x="1153" 
d="M676 1268l-150 254h76l123 -158l219 158h84l-287 -254h-65zM-31 0l13 49l1032 955h-748l21 75h889l-15 -49l-1032 -952h782l-20 -78h-922z" />
    <glyph glyph-name="uni018F" unicode="&#x18f;" horiz-adv-x="1736" 
d="M217 539q0 121 41 249h1270q6 50 6 99q0 253 -145 400t-392 147q-277 0 -544 -207l-52 69q289 220 598 220q284 0 455.5 -170t171.5 -459q0 -184 -75.5 -362.5t-204.5 -303.5q-255 -246 -576 -246q-137 0 -244 44t-173.5 121.5t-101 178.5t-34.5 220zM1274 272
q178 178 239 435h-1183q-19 -71 -19 -172q0 -100 27.5 -184t82.5 -150.5t147.5 -104t213.5 -37.5q138 0 264 56t228 157z" />
    <glyph glyph-name="florin" unicode="&#x192;" horiz-adv-x="1099" 
d="M63 -18q-48 0 -110 16l22 76q50 -13 95 -13q76 0 136 54.5t116 179.5l233 532h-229l20 80h244l127 293q70 162 161.5 235.5t211.5 73.5q73 0 159 -28l-26 -76q-73 25 -138 25q-90 0 -160.5 -59t-129.5 -195l-117 -269h342l-23 -80h-354l-244 -553q-71 -162 -150 -227
t-186 -65z" />
    <glyph glyph-name="Aringacute" unicode="&#x1fa;" horiz-adv-x="1650" 
d="M-53 0l1052 1432q-50 20 -77 60.5t-27 94.5q0 94 77 157.5t177 63.5q91 0 145 -48.5t54 -123.5q0 -79 -56.5 -139t-138.5 -78l283 -1419h-95l-79 426h-900l-311 -426h-104zM422 510h821l-170 889zM1102 1473q69 0 122.5 45t53.5 112q0 53 -36.5 87t-100.5 34
q-69 0 -122.5 -45.5t-53.5 -112.5q0 -55 37 -87.5t100 -32.5zM1143 1874l254 215l98 -49l-258 -166h-94z" />
    <glyph glyph-name="aringacute" unicode="&#x1fb;" horiz-adv-x="1241" 
d="M416 -25q-91 0 -169 32.5t-129.5 102.5t-51.5 164q0 152 102 254q134 134 383 134q208 0 428 -62l10 35q17 66 17 115q0 129 -89.5 197.5t-254.5 68.5q-151 0 -310 -58l-18 80q168 60 336 60q196 0 308 -89t112 -249q0 -66 -21 -142l-166 -618h-84l55 207
q-177 -232 -458 -232zM432 53q173 0 316.5 107.5t187.5 273.5l25 94q-199 56 -422 56q-198 0 -303 -105q-78 -84 -78 -192t77 -171t197 -63zM1063 1489q0 -92 -74 -158.5t-170 -66.5q-91 0 -148 53.5t-57 136.5q0 91 74.5 159t169.5 68q92 0 148.5 -53.5t56.5 -138.5z
M680 1456q0 -59 38.5 -97t104.5 -38q68 0 121 49.5t53 116.5q0 61 -38 98t-103 37q-71 0 -123.5 -48t-52.5 -118zM866 1747l254 235l97 -51l-267 -184h-84z" />
    <glyph glyph-name="AEacute" unicode="&#x1fc;" horiz-adv-x="2250" 
d="M1542 1630l266 238l103 -49l-277 -189h-92zM-70 0l1317 1491h1125l-23 -84h-932l-164 -614h836l-23 -84h-835l-168 -625h942l-23 -84h-1034l115 426h-647l-375 -426h-111zM489 510h596l242 899h-49z" />
    <glyph glyph-name="aeacute" unicode="&#x1fd;" horiz-adv-x="2101" 
d="M1141 1268l260 270l106 -53l-280 -217h-86zM1427 -25q-164 0 -278 73.5t-162 201.5q-115 -129 -258 -202t-303 -73q-95 0 -175 32.5t-132.5 102.5t-52.5 164q0 152 102 254q134 134 383 134q208 0 428 -62l10 35q17 66 17 115q0 129 -89.5 197.5t-254.5 68.5
q-151 0 -310 -58l-18 80q168 60 336 60q177 0 285 -73t128 -208q85 131 215 210t279 79q99 0 178.5 -34t129 -92t76 -132.5t26.5 -159.5t-27 -178h-913q-5 -67 -5 -80q0 -170 104.5 -272.5t276.5 -102.5q116 0 205 37t174 109l49 -60q-195 -166 -424 -166zM440 53
q145 0 278.5 72.5t246.5 206.5q-15 94 0 196q-204 56 -426 56q-198 0 -303 -105q-78 -84 -78 -192t79 -171t203 -63zM1227 874q-118 -118 -164 -286h825q10 42 10 94q0 96 -33.5 172t-108.5 124t-181 48q-199 0 -348 -152z" />
    <glyph glyph-name="Oslashacute" unicode="&#x1fe;" horiz-adv-x="1824" 
d="M1073 1516q153 0 279.5 -57.5t214.5 -162.5l245 205h121l-319 -266q102 -161 102 -361q0 -182 -72.5 -352t-201.5 -299q-118 -118 -267 -184t-313 -66q-153 0 -279 57.5t-214 162.5l-246 -205h-121l320 266q-103 162 -103 360q0 183 72.5 352.5t202.5 299.5
q118 119 266.5 184.5t312.5 65.5zM313 616q0 -170 78 -305l1108 930q-153 193 -426 193q-145 0 -276 -58.5t-234 -161.5q-118 -118 -184 -275t-66 -323zM862 55q145 0 276 58t234 161q118 120 184 276t66 324q0 162 -78 302l-1110 -928q153 -193 428 -193zM1128 1649
l267 237l102 -49l-276 -188h-93z" />
    <glyph glyph-name="oslashacute" unicode="&#x1ff;" horiz-adv-x="1368" 
d="M762 1106q225 0 366 -154l170 140h117l-244 -199q74 -120 74 -266q0 -129 -51 -249t-145 -214q-89 -89 -203 -139t-240 -50q-227 0 -366 152l-170 -139h-117l242 196q-74 120 -74 271q0 128 52 247.5t146 212.5q89 89 203.5 140t239.5 51zM754 1024q-103 0 -198 -43
t-169 -117q-81 -81 -126.5 -186t-45.5 -219q0 -129 49 -217l797 655q-112 127 -307 127zM1153 623q0 124 -51 213l-797 -656q110 -125 309 -125q103 0 198 43t169 117q80 82 126 188t46 220zM813 1268l260 270l107 -53l-281 -217h-86z" />
    <glyph glyph-name="Scommaaccent" unicode="&#x218;" horiz-adv-x="1388" 
d="M653 -20q-193 0 -345.5 74.5t-248.5 207.5l70 51q198 -252 533 -252q196 0 320 99.5t124 238.5q0 111 -79 177.5t-269 140.5q-220 84 -319 168.5t-99 218.5q0 145 109 254q153 153 421 153q160 0 292 -60t222 -163l-69 -57q-180 199 -453 199q-194 0 -311 -94t-117 -224
q0 -105 87.5 -173.5t275.5 -139.5q104 -39 174 -75.5t123.5 -82.5t78.5 -103t25 -130q0 -156 -117 -273q-155 -155 -428 -155zM319 -455l-2 45q57 12 88 39t44 76h-60l37 135h129l-29 -108q-26 -91 -72.5 -132t-134.5 -55z" />
    <glyph glyph-name="scommaaccent" unicode="&#x219;" horiz-adv-x="1079" 
d="M174 -455l-2 45q57 12 87 38.5t44 76.5h-59l37 135h129l-29 -108q-26 -91 -72.5 -132t-134.5 -55zM471 -23q-126 0 -245 47t-208 136l62 61q170 -164 401 -164q124 0 212.5 66t88.5 158q0 74 -55.5 124.5t-194.5 104.5q-157 56 -231 120.5t-74 166.5q0 127 110 216
t288 89q103 0 208.5 -40t178.5 -104l-56 -63q-70 57 -160 92t-180 35q-135 0 -216 -64t-81 -149q0 -70 56 -117t200 -104q159 -62 229 -127.5t70 -165.5q0 -131 -116.5 -224.5t-286.5 -93.5z" />
    <glyph glyph-name="schwa" unicode="&#x259;" horiz-adv-x="1271" 
d="M115 393q0 87 26 176h912q6 41 6 80q0 168 -103 272.5t-270 104.5q-213 0 -387 -147l-49 61q199 166 438 166q206 0 335.5 -127t129.5 -326q0 -138 -56 -268t-155 -229q-188 -181 -416 -181q-100 0 -179.5 33t-129.5 91t-76 133t-26 161zM874 205q118 117 164 287h-825
q-8 -31 -8 -95q0 -96 33 -171.5t107.5 -123t180.5 -47.5q198 0 348 150z" />
    <glyph glyph-name="circumflex" unicode="&#x2c6;" horiz-adv-x="1093" 
d="M492 1268l286 254h68l147 -254h-75l-123 155l-217 -155h-86z" />
    <glyph glyph-name="caron" unicode="&#x2c7;" horiz-adv-x="1093" 
d="M707 1268l-150 254h76l123 -158l219 158h84l-287 -254h-65z" />
    <glyph glyph-name="breve" unicode="&#x2d8;" horiz-adv-x="1093" 
d="M741 1264q-121 0 -180.5 61.5t-40.5 167.5h68q-2 -71 38 -108t130 -37q164 0 245 145h76q-39 -105 -128.5 -167t-207.5 -62z" />
    <glyph glyph-name="dotaccent" unicode="&#x2d9;" horiz-adv-x="1093" 
d="M682 1276l43 160h121l-43 -160h-121z" />
    <glyph glyph-name="ring" unicode="&#x2da;" horiz-adv-x="1093" 
d="M1022 1489q0 -92 -74 -158.5t-170 -66.5q-91 0 -148 53.5t-57 136.5q0 91 74.5 159t169.5 68q92 0 148.5 -53.5t56.5 -138.5zM639 1456q0 -59 38.5 -97t104.5 -38q68 0 121 49.5t53 116.5q0 61 -38 98t-103 37q-71 0 -123.5 -48t-52.5 -118z" />
    <glyph glyph-name="ogonek" unicode="&#x2db;" horiz-adv-x="1093" 
d="M479 -283l-16 -63h-2q-106 6 -162 41t-55 96q0 62 54.5 119.5t156.5 120.5l55 -29q-176 -114 -176 -197q0 -37 34 -57t111 -31z" />
    <glyph glyph-name="tilde" unicode="&#x2dc;" horiz-adv-x="1093" 
d="M1028 1479l62 -15q-46 -106 -92.5 -148t-108.5 -42q-22 0 -48 8.5t-40 16t-49 26.5q-77 47 -121 47q-39 0 -67.5 -25t-63.5 -90l-62 17q46 105 92.5 146.5t108.5 41.5q22 0 48 -8.5t40 -16t49 -26.5q88 -47 121 -47q39 0 67.5 25t63.5 90z" />
    <glyph glyph-name="hungarumlaut" unicode="&#x2dd;" horiz-adv-x="1093" 
d="M440 1268l260 270l86 -51l-272 -219h-74zM745 1268l261 270l84 -51l-271 -219h-74z" />
    <glyph glyph-name="commaaccent" unicode="&#x326;" horiz-adv-x="1093" 
d="M188 -453l-2 45q57 12 87 38.5t44 76.5h-59l37 135h129l-29 -108q-26 -91 -72.5 -132t-134.5 -55z" />
    <glyph glyph-name="uni0384" unicode="&#x384;" horiz-adv-x="1093" 
d="M651 1268l219 301l111 -45l-248 -256h-82z" />
    <glyph glyph-name="uni0385" unicode="&#x385;" horiz-adv-x="1093" 
d="M907 1280l41 150h125l-39 -150h-127zM459 1280l39 150h127l-41 -150h-125zM666 1280l168 326l110 -27l-201 -299h-77z" />
    <glyph glyph-name="uni0386" unicode="&#x386;" horiz-adv-x="1650" 
d="M-53 0l1104 1501h88l297 -1501h-95l-79 426h-900l-311 -426h-104zM422 510h821l-170 889zM373 1141l143 354h121l-199 -354h-65z" />
    <glyph glyph-name="uni0387" unicode="&#x387;" horiz-adv-x="493" 
d="M289 920l43 159h123l-43 -159h-123z" />
    <glyph glyph-name="uni0388" unicode="&#x388;" horiz-adv-x="1449" 
d="M74 1137l143 354h121l-199 -354h-65zM92 0l400 1491h1048l-24 -84h-955l-166 -614h862l-22 -84h-862l-168 -625h966l-22 -84h-1057z" />
    <glyph glyph-name="uni0389" unicode="&#x389;" horiz-adv-x="1642" 
d="M92 0l400 1491h92l-189 -698h981l187 698h92l-400 -1491h-92l191 709h-981l-191 -709h-90zM74 1137l143 354h121l-199 -354h-65z" />
    <glyph glyph-name="uni038A" unicode="&#x38a;" horiz-adv-x="593" 
d="M106 0l400 1491h92l-401 -1491h-91zM74 1137l143 354h121l-199 -354h-65z" />
    <glyph glyph-name="uni038C" unicode="&#x38c;" horiz-adv-x="1830" 
d="M55 1145l144 354h120l-198 -354h-66zM1073 1516q186 0 333.5 -85t228.5 -231.5t81 -325.5q0 -182 -72.5 -352t-201.5 -299q-118 -118 -267 -184t-313 -66q-186 0 -333.5 85.5t-228.5 231.5t-81 324q0 183 72.5 352.5t202.5 299.5q118 119 266.5 184.5t312.5 65.5zM862 55
q145 0 276 58t234 161q118 120 184 276t66 324q0 156 -68 283.5t-194.5 202t-286.5 74.5q-145 0 -276 -58.5t-234 -161.5q-118 -118 -184 -275t-66 -323q0 -158 68 -285.5t194 -201.5t287 -74z" />
    <glyph glyph-name="uni038E" unicode="&#x38e;" horiz-adv-x="1447" 
d="M522 0l164 610l-391 881h100l353 -809l788 809h123l-889 -901l-158 -590h-90zM-43 1137l143 354h121l-198 -354h-66z" />
    <glyph glyph-name="uni038F" unicode="&#x38f;" horiz-adv-x="1851" 
d="M354 711q0 -181 74.5 -329.5t243.5 -305.5l-21 -76h-610l22 84l496 -4q-154 148 -226.5 300.5t-72.5 330.5q0 167 64 316t174.5 256t265.5 170t330 63q297 0 474 -168.5t177 -440.5q0 -168 -73 -317t-203.5 -272t-325.5 -238l489 4l-24 -84h-635l20 76q159 89 276 177
t204 189t131.5 215t46.5 242q2 114 -35 211.5t-107.5 169.5t-179 113t-242.5 41q-202 0 -369 -91.5t-265.5 -258t-98.5 -373.5zM43 1145l143 354h121l-198 -354h-66z" />
    <glyph glyph-name="uni0390" unicode="&#x390;" horiz-adv-x="593" 
d="M633 1280l41 150h125l-39 -150h-127zM184 1280l39 150h127l-41 -150h-125zM391 1280l168 326l111 -27l-201 -299h-78zM426 76l-20 -80q-38 -12 -84 -12q-98 0 -148.5 45.5t-50.5 132.5q0 47 24 141l207 776h86l-211 -796q-16 -59 -16 -109q0 -111 123 -111q46 0 90 13z
" />
    <glyph glyph-name="uni0391" unicode="&#x391;" horiz-adv-x="1650" 
d="M-53 0l1104 1501h88l297 -1501h-95l-79 426h-900l-311 -426h-104zM422 510h821l-170 889z" />
    <glyph glyph-name="uni0392" unicode="&#x392;" horiz-adv-x="1560" 
d="M92 0l400 1491h550q200 0 322.5 -89.5t122.5 -246.5q0 -83 -32.5 -154.5t-89 -121t-128.5 -82t-154 -45.5q136 -35 215.5 -112t79.5 -202q0 -193 -164 -315.5t-452 -122.5h-670zM205 84h563q244 0 381 96.5t137 259.5q0 130 -113 200.5t-296 70.5h-504zM397 795h482
q237 0 375.5 95t138.5 257q0 127 -96 193.5t-265 66.5h-471z" />
    <glyph glyph-name="uni0393" unicode="&#x393;" horiz-adv-x="1300" 
d="M92 0l400 1491h978l-22 -84h-887l-379 -1407h-90z" />
    <glyph glyph-name="uni0394" unicode="&#x394;" horiz-adv-x="1644" 
d="M1133 1501l305 -1431l-29 -70h-1440l8 70l1072 1431h84zM1069 1391l-973 -1307h1243z" />
    <glyph glyph-name="uni0395" unicode="&#x395;" horiz-adv-x="1419" 
d="M92 0l400 1491h1048l-24 -84h-955l-166 -614h862l-22 -84h-862l-168 -625h966l-22 -84h-1057z" />
    <glyph glyph-name="uni0396" unicode="&#x396;" horiz-adv-x="1441" 
d="M-18 0l14 51l1384 1358h-985l23 82h1128l-14 -51l-1385 -1358h1024l-22 -82h-1167z" />
    <glyph glyph-name="uni0397" unicode="&#x397;" horiz-adv-x="1636" 
d="M92 0l400 1491h92l-189 -698h981l187 698h92l-400 -1491h-92l191 709h-981l-191 -709h-90z" />
    <glyph glyph-name="uni0398" unicode="&#x398;" horiz-adv-x="1830" 
d="M1405 795l-23 -88h-850l23 88h850zM313 616q0 -158 68 -285.5t194 -201.5t287 -74q145 0 276 58t234 161q118 120 184 276t66 324q0 156 -68 283.5t-194.5 202t-286.5 74.5q-145 0 -276 -58.5t-234 -161.5q-118 -118 -184 -275t-66 -323zM219 614q0 183 72.5 352.5
t202.5 299.5q118 119 266.5 184.5t312.5 65.5q186 0 333.5 -85t228.5 -231.5t81 -325.5q0 -182 -72.5 -352t-201.5 -299q-118 -118 -267 -184t-313 -66q-186 0 -333.5 85.5t-228.5 231.5t-81 324z" />
    <glyph glyph-name="uni0399" unicode="&#x399;" horiz-adv-x="593" 
d="M106 0l400 1491h92l-401 -1491h-91z" />
    <glyph glyph-name="uni039A" unicode="&#x39a;" horiz-adv-x="1542" 
d="M92 0l400 1491h92l-265 -981l1225 981h135l-823 -655l449 -836h-107l-418 782l-493 -395l-105 -387h-90z" />
    <glyph glyph-name="uni039B" unicode="&#x39b;" horiz-adv-x="1613" 
d="M1114 1501l281 -1501h-95l-251 1386l-994 -1386h-106l1083 1501h82z" />
    <glyph glyph-name="uni039C" unicode="&#x39c;" horiz-adv-x="1873" 
d="M92 0l400 1491h77l373 -893l852 893h98l-401 -1491h-90l356 1329l-842 -876h-6l-372 876l-357 -1329h-88z" />
    <glyph glyph-name="uni039D" unicode="&#x39d;" horiz-adv-x="1699" 
d="M92 0l400 1491h83l697 -1341l360 1341h88l-401 -1491h-70l-704 1362l-365 -1362h-88z" />
    <glyph glyph-name="uni039E" unicode="&#x39e;" horiz-adv-x="1396" 
d="M1149 88l-23 -88h-1146l22 88h1147zM367 1403l24 88h1127l-25 -88h-1126zM1270 795l-23 -88h-1005l22 88h1006z" />
    <glyph glyph-name="uni039F" unicode="&#x39f;" horiz-adv-x="1830" 
d="M1073 1516q186 0 333.5 -85t228.5 -231.5t81 -325.5q0 -182 -72.5 -352t-201.5 -299q-118 -118 -267 -184t-313 -66q-186 0 -333.5 85.5t-228.5 231.5t-81 324q0 183 72.5 352.5t202.5 299.5q118 119 266.5 184.5t312.5 65.5zM862 55q145 0 276 58t234 161
q118 120 184 276t66 324q0 156 -68 283.5t-194.5 202t-286.5 74.5q-145 0 -276 -58.5t-234 -161.5q-118 -118 -184 -275t-66 -323q0 -158 68 -285.5t194 -201.5t287 -74z" />
    <glyph glyph-name="uni03A0" unicode="&#x3a0;" horiz-adv-x="1634" 
d="M92 0l400 1491h1161l-400 -1491h-92l377 1407h-977l-379 -1407h-90z" />
    <glyph glyph-name="uni03A1" unicode="&#x3a1;" horiz-adv-x="1443" 
d="M92 0l400 1491h460q279 0 414 -135q100 -93 100 -264q0 -201 -133 -334q-93 -93 -244 -142t-348 -49h-405l-154 -567h-90zM1296 1296q-111 111 -346 111h-389l-203 -758h387q359 0 521 162q110 110 110 276q0 129 -80 209z" />
    <glyph glyph-name="uni03A3" unicode="&#x3a3;" horiz-adv-x="1423" 
d="M967 737l-801 -653h1008l-23 -84h-1147l16 68l830 684l-461 671l19 68h1126l-25 -84h-1005z" />
    <glyph glyph-name="uni03A4" unicode="&#x3a4;" horiz-adv-x="1316" 
d="M459 0l377 1407h-525l23 84h1143l-23 -84h-526l-379 -1407h-90z" />
    <glyph glyph-name="uni03A5" unicode="&#x3a5;" horiz-adv-x="1447" 
d="M522 0l164 610l-391 881h100l353 -809l788 809h123l-889 -901l-158 -590h-90z" />
    <glyph glyph-name="uni03A6" unicode="&#x3a6;" horiz-adv-x="1931" 
d="M1184 1526h92l-51 -189q288 -20 454 -157t166 -357q0 -143 -66.5 -265.5t-186 -210t-296 -136.5t-387.5 -47l-53 -199h-90l53 201q-286 20 -453 158.5t-167 357.5q0 142 66.5 264.5t186 210.5t296 137t387.5 47zM293 684q0 -190 146 -306t403 -130l272 1012
q-250 0 -437.5 -74.5t-285.5 -204.5t-98 -297zM1753 821q0 188 -147 303.5t-404 132.5l-272 -1011q376 0 597 159t226 416z" />
    <glyph glyph-name="uni03A7" unicode="&#x3a7;" horiz-adv-x="1488" 
d="M-35 0l785 768l-402 723h98l369 -670l678 670h117l-752 -739l412 -752h-99l-378 700l-709 -700h-119z" />
    <glyph glyph-name="uni03A8" unicode="&#x3a8;" horiz-adv-x="1832" 
d="M1903 1491l-146 -541q-64 -236 -192 -364q-105 -105 -256.5 -150t-366.5 -45h-24l-103 -391h-92l104 393q-538 37 -538 443q0 127 45 278l102 377h90l-106 -397q-41 -149 -41 -254q0 -180 119 -265.5t352 -97.5l272 1014h92l-274 -1016h18q189 0 320.5 37.5t220.5 126.5
q117 120 170 328l141 524h93z" />
    <glyph glyph-name="uni03A9" unicode="&#x3a9;" horiz-adv-x="1851" 
d="M354 711q0 -181 74.5 -329.5t243.5 -305.5l-21 -76h-610l22 84l496 -4q-154 148 -226.5 300.5t-72.5 330.5q0 167 64 316t174.5 256t265.5 170t330 63q297 0 474 -168.5t177 -440.5q0 -168 -73 -317t-203.5 -272t-325.5 -238l489 4l-24 -84h-635l20 76q159 89 276 177
t204 189t131.5 215t46.5 242q2 114 -35 211.5t-107.5 169.5t-179 113t-242.5 41q-202 0 -369 -91.5t-265.5 -258t-98.5 -373.5z" />
    <glyph glyph-name="uni03AA" unicode="&#x3aa;" horiz-adv-x="593" 
d="M106 0l400 1491h92l-401 -1491h-91zM352 1642l39 144h135l-41 -144h-133zM702 1642l41 144h134l-41 -144h-134z" />
    <glyph glyph-name="uni03AB" unicode="&#x3ab;" horiz-adv-x="1447" 
d="M522 0l164 610l-391 881h100l353 -809l788 809h123l-889 -901l-158 -590h-90zM745 1634l39 144h136l-41 -144h-134zM1096 1634l41 144h133l-41 -144h-133z" />
    <glyph glyph-name="uni03AC" unicode="&#x3ac;" horiz-adv-x="1501" 
d="M805 1268l219 301l111 -45l-248 -256h-82zM1350 1079l-213 -796q-17 -70 -17 -109q0 -111 123 -111q45 0 92 13l-22 -80q-37 -12 -84 -12q-104 0 -157.5 58.5t-35.5 172.5q-78 -102 -204 -172t-267 -70q-190 0 -313 129.5t-123 327.5q0 145 53.5 274t149.5 228
q174 174 405 174q93 0 170.5 -28t131 -76t89 -104.5t54.5 -121.5l80 303h88zM575 55q209 0 377 168q86 86 134.5 191.5t48.5 212.5q0 169 -110 283t-284 114q-199 0 -342 -143q-86 -86 -132 -201.5t-46 -239.5q0 -170 98.5 -277.5t255.5 -107.5z" />
    <glyph glyph-name="uni03AD" unicode="&#x3ad;" horiz-adv-x="1206" 
d="M719 1268l219 301l111 -45l-248 -256h-82zM410 561q-81 30 -126.5 90.5t-45.5 145.5q0 131 121.5 220t334.5 89q269 0 471 -160l-55 -63q-180 145 -422 145q-172 0 -265 -65t-93 -168q0 -95 73 -151t211 -56h256l-20 -78h-291q-179 0 -279 -64.5t-100 -171.5
q0 -102 90 -161.5t265 -59.5q216 0 444 105l35 -72q-230 -111 -482 -111q-219 0 -331.5 82t-112.5 213q0 121 90.5 195t231.5 96z" />
    <glyph glyph-name="uni03AE" unicode="&#x3ae;" horiz-adv-x="1327" 
d="M831 1268l220 301l110 -45l-248 -256h-82zM68 0l288 1079h86l-59 -223q181 250 428 250q166 0 262 -94.5t96 -251.5q0 -70 -24 -164l-250 -936h-86l252 942q20 67 20 150q0 127 -75.5 200.5t-214.5 73.5q-151 0 -289.5 -117.5t-186.5 -302.5l-161 -606h-86z" />
    <glyph glyph-name="uni03AF" unicode="&#x3af;" horiz-adv-x="593" 
d="M385 1268l219 301l111 -45l-248 -256h-82zM426 76l-20 -80q-38 -12 -84 -12q-98 0 -148.5 45.5t-50.5 132.5q0 47 24 141l207 776h86l-211 -796q-16 -59 -16 -109q0 -111 123 -111q46 0 90 13z" />
    <glyph glyph-name="uni03B0" unicode="&#x3b0;" horiz-adv-x="1329" 
d="M1032 1278l41 149h125l-39 -149h-127zM584 1278l39 149h127l-41 -149h-125zM791 1278l167 326l111 -27l-201 -299h-77zM193 532l145 547h88l-154 -569q-24 -96 -24 -182q0 -133 82 -203t235 -70q100 0 174.5 28t139.5 93q98 98 149 297l164 606h86l-168 -630
q-60 -211 -168 -324q-150 -150 -381 -150q-184 0 -291.5 89.5t-107.5 261.5q0 79 31 206z" />
    <glyph glyph-name="uni03B1" unicode="&#x3b1;" horiz-adv-x="1501" 
d="M1350 1079l-213 -796q-17 -70 -17 -109q0 -111 123 -111q45 0 92 13l-22 -80q-37 -12 -84 -12q-104 0 -157.5 58.5t-35.5 172.5q-78 -102 -204 -172t-267 -70q-190 0 -313 129.5t-123 327.5q0 145 53.5 274t149.5 228q174 174 405 174q93 0 170.5 -28t131 -76t89 -104.5
t54.5 -121.5l80 303h88zM575 55q209 0 377 168q86 86 134.5 191.5t48.5 212.5q0 169 -110 283t-284 114q-199 0 -342 -143q-86 -86 -132 -201.5t-46 -239.5q0 -170 98.5 -277.5t255.5 -107.5z" />
    <glyph glyph-name="uni03B2" unicode="&#x3b2;" horiz-adv-x="1400" 
d="M-25 -340l377 1403q63 224 189 350q156 156 389 156q191 0 303.5 -102.5t112.5 -260.5q0 -174 -126 -291t-325 -147q153 -38 239.5 -130.5t86.5 -234.5q0 -177 -136.5 -302.5t-351.5 -125.5q-195 0 -322.5 91t-174.5 237l-173 -643h-88zM649 739h-297l-47 -174
q-20 -82 -20 -125q0 -75 30 -143.5t85.5 -122.5t142 -86.5t190.5 -32.5q177 0 286 99.5t109 244.5q0 149 -123.5 244.5t-355.5 95.5zM434 1047l-61 -230h309q268 0 419.5 104.5t151.5 280.5q0 127 -87 207t-238 80q-195 0 -326 -131q-115 -115 -168 -311z" />
    <glyph glyph-name="uni03B3" unicode="&#x3b3;" horiz-adv-x="1216" 
d="M395 -340h-86l94 350l-190 1069h94l160 -981l682 981h104l-766 -1075z" />
    <glyph glyph-name="uni03B4" unicode="&#x3b4;" horiz-adv-x="1349" 
d="M629 1477l332 -381q135 -157 195.5 -281.5t60.5 -275.5q0 -152 -73.5 -280.5t-207 -206t-297.5 -77.5q-152 0 -269 66t-179 177.5t-62 248.5q0 253 175 418t521 239l-319 369l16 61h819l-20 -77h-692zM1124 537q0 135 -57 257.5t-184 264.5q-341 -71 -501.5 -217.5
t-160.5 -374.5q0 -179 117 -295.5t301 -116.5q211 0 348 138.5t137 343.5z" />
    <glyph glyph-name="uni03B5" unicode="&#x3b5;" horiz-adv-x="1206" 
d="M410 561q-81 30 -126.5 90.5t-45.5 145.5q0 131 121.5 220t334.5 89q269 0 471 -160l-55 -63q-180 145 -422 145q-172 0 -265 -65t-93 -168q0 -95 73 -151t211 -56h256l-20 -78h-291q-179 0 -279 -64.5t-100 -171.5q0 -102 90 -161.5t265 -59.5q216 0 444 105l35 -72
q-230 -111 -482 -111q-219 0 -331.5 82t-112.5 213q0 121 90.5 195t231.5 96z" />
    <glyph glyph-name="uni03B6" unicode="&#x3b6;" horiz-adv-x="1157" 
d="M1348 1487l-697 -533q-254 -192 -346 -303.5t-92 -228.5q0 -121 87.5 -191.5t301.5 -109.5l354 -66l-88 -327h-86l70 260l-270 51q-243 44 -352 134t-109 243q0 76 24.5 140.5t86.5 137t146.5 145.5t225.5 179l602 459h-710l20 77h848z" />
    <glyph glyph-name="uni03B7" unicode="&#x3b7;" horiz-adv-x="1327" 
d="M68 0l288 1079h86l-59 -223q181 250 428 250q166 0 262 -94.5t96 -251.5q0 -70 -24 -164l-250 -936h-86l252 942q20 67 20 150q0 127 -75.5 200.5t-214.5 73.5q-151 0 -289.5 -117.5t-186.5 -302.5l-161 -606h-86z" />
    <glyph glyph-name="uni03B8" unicode="&#x3b8;" horiz-adv-x="1429" 
d="M1354 1001q0 -230 -85 -461.5t-239 -381.5q-185 -185 -414 -185q-194 0 -307.5 143t-113.5 416q0 230 84.5 462.5t238.5 381.5q185 185 414 185q194 0 308 -143.5t114 -416.5zM285 539q0 -222 84.5 -353t244.5 -131q102 0 185.5 36.5t171.5 125.5q179 174 260 512h-932
q-14 -92 -14 -190zM578 1317q-184 -179 -263 -508h932q15 94 15 186q0 223 -84 354.5t-244 131.5q-100 0 -184 -37t-172 -127z" />
    <glyph glyph-name="uni03B9" unicode="&#x3b9;" horiz-adv-x="593" 
d="M426 76l-20 -80q-38 -12 -84 -12q-98 0 -148.5 45.5t-50.5 132.5q0 47 24 141l207 776h86l-211 -796q-16 -59 -16 -109q0 -111 123 -111q46 0 90 13z" />
    <glyph glyph-name="uni03BA" unicode="&#x3ba;" horiz-adv-x="1214" 
d="M442 1079l-186 -692l872 692h127l-610 -479l334 -600h-100l-301 549l-353 -277l-71 -272h-86l288 1079h86z" />
    <glyph glyph-name="uni03BB" unicode="&#x3bb;" horiz-adv-x="1253" 
d="M932 0l-148 1008l-712 -1008h-107l799 1120l-12 84q-15 100 -30.5 154t-43.5 82q-39 39 -109 39q-49 0 -116 -19l16 82q66 17 117 17q97 0 153 -56q39 -39 59.5 -101t39.5 -175l186 -1227h-92z" />
    <glyph glyph-name="uni03BC" unicode="&#x3bc;" horiz-adv-x="1433" 
d="M63 -340h-88l381 1419h86l-149 -559q-23 -90 -23 -153q0 -144 83 -228t229 -84q155 0 273.5 97.5t164.5 273.5l176 653h86l-213 -796q-16 -59 -16 -109q0 -111 123 -111q46 0 90 13l-21 -80q-37 -12 -84 -12q-100 0 -151 48.5t-47 145.5q-141 -203 -388 -203
q-147 0 -242 77.5t-120 213.5h-2q-31 -168 -72 -321z" />
    <glyph glyph-name="uni03BD" unicode="&#x3bd;" horiz-adv-x="1216" 
d="M408 -8l-195 1087h94l160 -981l682 981h104l-774 -1087h-71z" />
    <glyph glyph-name="uni03BE" unicode="&#x3be;" horiz-adv-x="1167" 
d="M614 117l338 -62l-88 -327h-84l68 260l-254 47q-238 44 -358.5 132t-120.5 247q0 164 119.5 263.5t343.5 129.5q-99 44 -157.5 126.5t-58.5 201.5q0 85 35.5 163t99 138.5t160 96.5t209.5 36q276 0 455 -195l-66 -61q-78 85 -171.5 130.5t-219.5 45.5q-188 0 -298.5 -103
t-110.5 -249q0 -153 102 -232.5t266 -79.5h178l-22 -77h-236q-256 0 -396 -85t-140 -247q0 -124 98 -192.5t309 -106.5z" />
    <glyph glyph-name="uni03BF" unicode="&#x3bf;" horiz-adv-x="1368" 
d="M762 1106q214 0 348.5 -135t134.5 -344q0 -129 -51 -249t-145 -214q-89 -89 -203 -139t-240 -50q-214 0 -349.5 135t-135.5 345q0 128 52 247.5t146 212.5q89 89 203.5 140t239.5 51zM614 55q103 0 198 43t169 117q80 82 126 188t46 220q0 182 -110 291.5t-289 109.5
q-103 0 -198 -43t-169 -117q-81 -81 -126.5 -186t-45.5 -219q0 -184 110 -294t289 -110z" />
    <glyph glyph-name="uni03C0" unicode="&#x3c0;" horiz-adv-x="1499" 
d="M1278 76l-21 -80q-37 -12 -83 -12q-98 0 -148.5 45.5t-50.5 132.5q0 47 24 141l187 698h-656l-268 -1001h-86l268 1001h-245l20 78h1313l-23 -78h-237l-191 -718q-16 -59 -16 -109q0 -111 123 -111q46 0 90 13z" />
    <glyph glyph-name="uni03C1" unicode="&#x3c1;" horiz-adv-x="1392" 
d="M-51 -340l244 922q59 223 192 356q168 168 412 168q207 0 336 -126t129 -343q0 -141 -56.5 -270.5t-148.5 -219.5q-174 -174 -406 -174q-93 0 -171.5 28t-132 76t-88.5 105t-52 121l-172 -643h-86zM647 55q196 0 342 146q178 175 178 436q0 175 -102.5 281t-273.5 106
q-202 0 -345 -143q-86 -86 -134 -208.5t-48 -230.5q0 -169 104.5 -278t278.5 -109z" />
    <glyph glyph-name="uni03C2" unicode="&#x3c2;" horiz-adv-x="1204" 
d="M629 113l311 -58l-86 -327h-86l70 260l-240 45q-240 43 -355.5 157.5t-115.5 307.5q0 122 47.5 232.5t134.5 197.5q178 178 426 178q273 0 434 -240l-71 -51q-72 103 -161 156t-208 53q-209 0 -350 -147q-71 -70 -114.5 -167t-43.5 -208q0 -168 101.5 -260.5
t306.5 -128.5z" />
    <glyph glyph-name="uni03C3" unicode="&#x3c3;" horiz-adv-x="1429" 
d="M1243 598q0 -123 -47 -235t-133 -199q-189 -189 -457 -189q-216 0 -349.5 133.5t-133.5 344.5q0 254 188 442q187 184 480 184h643l-21 -78h-403q105 -55 169 -163t64 -240zM614 55q219 0 379 160q75 75 115.5 174t40.5 209q0 179 -106 290t-275 111q-226 0 -393 -161
q-74 -76 -117 -175t-43 -206q0 -185 109 -293.5t290 -108.5z" />
    <glyph glyph-name="uni03C4" unicode="&#x3c4;" horiz-adv-x="1191" 
d="M1245 1079l-20 -78h-484l-172 -641q-24 -94 -24 -147q0 -79 47 -116.5t129 -37.5q81 0 166 27l-21 -80q-76 -26 -155 -26q-121 0 -186.5 58.5t-65.5 164.5q0 56 28 166l168 632h-477l21 78h1046z" />
    <glyph glyph-name="uni03C5" unicode="&#x3c5;" horiz-adv-x="1329" 
d="M193 532l145 547h88l-154 -569q-24 -96 -24 -182q0 -133 82 -203t235 -70q100 0 174.5 28t139.5 93q98 98 149 297l164 606h86l-168 -630q-60 -211 -168 -324q-150 -150 -381 -150q-184 0 -291.5 89.5t-107.5 261.5q0 79 31 206z" />
    <glyph glyph-name="uni03C6" unicode="&#x3c6;" horiz-adv-x="1751" 
d="M1618 598q0 -215 -158 -379q-107 -107 -275 -166t-376 -59h-39l-88 -334h-86l90 340q-258 24 -405.5 154.5t-147.5 326.5q0 224 158 379q106 109 273.5 167t377.5 58h37l125 469h88l-129 -475q258 -24 406.5 -155.5t148.5 -325.5zM225 483q0 -168 126.5 -278t355.5 -127
l249 928h-20q-381 0 -574 -193q-137 -137 -137 -330zM1526 598q0 167 -126.5 275t-357.5 128l-249 -927h22q382 0 571 192q140 137 140 332z" />
    <glyph glyph-name="uni03C7" unicode="&#x3c7;" horiz-adv-x="1245" 
d="M348 1079l244 -604l557 604h111l-629 -676l309 -743h-92l-283 690l-628 -690h-111l704 760l-274 659h92z" />
    <glyph glyph-name="uni03C8" unicode="&#x3c8;" horiz-adv-x="1699" 
d="M1655 1079l-152 -561q-29 -116 -72 -197.5t-112 -150.5q-176 -176 -541 -176h-37l-88 -334h-88l90 338q-223 18 -352 124t-129 294q0 96 39 233l115 430h86l-125 -471q-27 -102 -27 -188q0 -152 106 -239.5t310 -104.5l397 1478h86l-397 -1480h18q171 0 284.5 37.5
t195.5 119.5q105 99 163 318l142 530h88z" />
    <glyph glyph-name="uni03C9" unicode="&#x3c9;" horiz-adv-x="1896" 
d="M915 569l82 312h86l-75 -295q-27 -94 -27 -195q0 -149 73 -242.5t210 -93.5q77 0 146.5 36.5t124 103.5t86.5 170.5t32 228.5q0 242 -142 485h101q58 -103 95.5 -235t37.5 -256q0 -141 -39.5 -258.5t-107 -194t-155.5 -118.5t-186 -42q-164 0 -253 97.5t-97 257.5
q-67 -158 -178 -256.5t-260 -98.5q-162 0 -252 110.5t-90 289.5q0 106 33.5 211.5t91 195.5t121 162.5t135.5 134.5h123q-81 -66 -149 -140t-129.5 -163.5t-96.5 -192.5t-35 -206q0 -151 65 -236.5t191 -85.5q147 0 261 133.5t177 380.5z" />
    <glyph glyph-name="uni03CA" unicode="&#x3ca;" horiz-adv-x="593" 
d="M229 1280l41 152h127l-41 -152h-127zM555 1280l41 152h127l-41 -152h-127zM426 76l-20 -80q-38 -12 -84 -12q-98 0 -148.5 45.5t-50.5 132.5q0 47 24 141l207 776h86l-211 -796q-16 -59 -16 -109q0 -111 123 -111q46 0 90 13z" />
    <glyph glyph-name="uni03CB" unicode="&#x3cb;" horiz-adv-x="1329" 
d="M627 1278l41 152h127l-41 -152h-127zM952 1278l41 152h127l-41 -152h-127zM193 532l145 547h88l-154 -569q-24 -96 -24 -182q0 -133 82 -203t235 -70q100 0 174.5 28t139.5 93q98 98 149 297l164 606h86l-168 -630q-60 -211 -168 -324q-150 -150 -381 -150
q-184 0 -291.5 89.5t-107.5 261.5q0 79 31 206z" />
    <glyph glyph-name="uni03CC" unicode="&#x3cc;" horiz-adv-x="1368" 
d="M797 1268l219 301l110 -45l-247 -256h-82zM762 1106q214 0 348.5 -135t134.5 -344q0 -129 -51 -249t-145 -214q-89 -89 -203 -139t-240 -50q-214 0 -349.5 135t-135.5 345q0 128 52 247.5t146 212.5q89 89 203.5 140t239.5 51zM614 55q103 0 198 43t169 117
q80 82 126 188t46 220q0 182 -110 291.5t-289 109.5q-103 0 -198 -43t-169 -117q-81 -81 -126.5 -186t-45.5 -219q0 -184 110 -294t289 -110z" />
    <glyph glyph-name="uni03CD" unicode="&#x3cd;" horiz-adv-x="1329" 
d="M782 1266l219 301l111 -45l-248 -256h-82zM193 532l145 547h88l-154 -569q-24 -96 -24 -182q0 -133 82 -203t235 -70q100 0 174.5 28t139.5 93q98 98 149 297l164 606h86l-168 -630q-60 -211 -168 -324q-150 -150 -381 -150q-184 0 -291.5 89.5t-107.5 261.5q0 79 31 206
z" />
    <glyph glyph-name="uni03CE" unicode="&#x3ce;" horiz-adv-x="1896" 
d="M1073 1266l219 301l111 -45l-248 -256h-82zM915 569l82 312h86l-75 -295q-27 -94 -27 -195q0 -149 73 -242.5t210 -93.5q77 0 146.5 36.5t124 103.5t86.5 170.5t32 228.5q0 242 -142 485h101q58 -103 95.5 -235t37.5 -256q0 -141 -39.5 -258.5t-107 -194t-155.5 -118.5
t-186 -42q-164 0 -253 97.5t-97 257.5q-67 -158 -178 -256.5t-260 -98.5q-162 0 -252 110.5t-90 289.5q0 106 33.5 211.5t91 195.5t121 162.5t135.5 134.5h123q-81 -66 -149 -140t-129.5 -163.5t-96.5 -192.5t-35 -206q0 -151 65 -236.5t191 -85.5q147 0 261 133.5
t177 380.5z" />
    <glyph glyph-name="uni0400" unicode="&#x400;" horiz-adv-x="1419" 
d="M975 1630l-176 189l102 49l139 -238h-65zM92 0l400 1491h1048l-24 -84h-955l-166 -614h862l-22 -84h-862l-168 -625h966l-22 -84h-1057z" />
    <glyph glyph-name="uni0401" unicode="&#x401;" horiz-adv-x="1419" 
d="M801 1642l39 144h135l-41 -144h-133zM1151 1642l41 144h133l-41 -144h-133zM92 0l400 1491h1048l-24 -84h-955l-166 -614h862l-22 -84h-862l-168 -625h966l-22 -84h-1057z" />
    <glyph glyph-name="uni0402" unicode="&#x402;" horiz-adv-x="1810" 
d="M1448 1407h-537l-141 -524q183 43 352 43q267 0 405 -104.5t138 -303.5q0 -234 -187 -378t-513 -144h-50l23 84h39q280 0 437 121t157 317q0 324 -455 324q-166 0 -368 -47l-213 -795h-93l377 1407h-506l23 84h1134z" />
    <glyph glyph-name="uni0403" unicode="&#x403;" horiz-adv-x="1300" 
d="M920 1630l266 238l102 -49l-276 -189h-92zM92 0l400 1491h978l-22 -84h-887l-379 -1407h-90z" />
    <glyph glyph-name="uni0404" unicode="&#x404;" horiz-adv-x="1615" 
d="M1096 1516q194 0 334 -85.5t215 -232.5l-78 -45q-155 281 -473 281q-155 0 -291.5 -60t-239.5 -166q-171 -174 -231 -415h905l-23 -82h-897q-8 -52 -8 -117q0 -252 143.5 -394.5t372.5 -142.5q167 0 289 58t234 170l59 -58q-243 -254 -586 -254q-169 0 -305.5 72.5
t-219.5 215.5t-83 333q0 184 72 355t204 306q119 124 276 192.5t331 68.5z" />
    <glyph glyph-name="uni0405" unicode="&#x405;" horiz-adv-x="1388" 
d="M653 -20q-193 0 -345.5 74.5t-248.5 207.5l70 51q198 -252 533 -252q196 0 320 99.5t124 238.5q0 111 -79 177.5t-269 140.5q-220 84 -319 168.5t-99 218.5q0 145 109 254q153 153 421 153q160 0 292 -60t222 -163l-69 -57q-180 199 -453 199q-194 0 -311 -94t-117 -224
q0 -105 87.5 -173.5t275.5 -139.5q104 -39 174 -75.5t123.5 -82.5t78.5 -103t25 -130q0 -156 -117 -273q-155 -155 -428 -155z" />
    <glyph glyph-name="uni0406" unicode="&#x406;" horiz-adv-x="593" 
d="M106 0l400 1491h92l-401 -1491h-91z" />
    <glyph glyph-name="uni0407" unicode="&#x407;" horiz-adv-x="593" 
d="M106 0l400 1491h92l-401 -1491h-91zM352 1642l39 144h135l-41 -144h-133zM702 1642l41 144h134l-41 -144h-134z" />
    <glyph glyph-name="uni0408" unicode="&#x408;" horiz-adv-x="1179" 
d="M422 -23q-171 0 -274.5 93.5t-143.5 246.5l82 29q82 -285 334 -285q166 0 276 113q105 105 168 330l264 987h93l-271 -1002q-63 -243 -192 -372q-67 -67 -154.5 -103.5t-181.5 -36.5z" />
    <glyph glyph-name="uni0409" unicode="&#x409;" horiz-adv-x="2240" 
d="M905 0l377 1409h-4l-1237 -1409h-111l1317 1491h150l-156 -578h342q248 0 384 -102.5t136 -292.5q0 -195 -135 -330q-188 -188 -592 -188h-471zM2011 516q0 154 -112.5 232.5t-325.5 78.5h-354l-201 -743h362q361 0 521 160q110 110 110 272z" />
    <glyph glyph-name="uni040A" unicode="&#x40a;" horiz-adv-x="2465" 
d="M1130 0l189 709h-946l-191 -709h-90l400 1491h92l-189 -698h946l189 698h92l-156 -578h344q248 0 383.5 -102.5t135.5 -292.5q0 -196 -134 -330q-194 -188 -591 -188h-474zM2236 516q0 154 -112 232.5t-324 78.5h-356l-199 -743h361q360 0 520 160q110 107 110 272z" />
    <glyph glyph-name="uni040B" unicode="&#x40b;" horiz-adv-x="1859" 
d="M1448 1407h-537l-141 -522q194 43 391 43q111 0 200 -21t157 -64.5t104.5 -115t36.5 -166.5t-33 -221l-92 -340h-92l96 352q31 111 31 205q0 143 -111 215t-307 72q-217 0 -403 -47l-213 -797h-93l377 1407h-506l23 84h1134z" />
    <glyph glyph-name="uni040C" unicode="&#x40c;" horiz-adv-x="1544" 
d="M987 1622l266 238l103 -50l-277 -188h-92zM92 0l400 1491h92l-185 -686h303l844 686h135l-905 -729l551 -762h-106l-521 721h-323l-193 -721h-92z" />
    <glyph glyph-name="uni040D" unicode="&#x40d;" horiz-adv-x="1701" 
d="M1053 1622l-176 188l102 50l139 -238h-65zM1622 1491h98l-399 -1491h-92l360 1350l-1413 -1350h-84l400 1491h92l-359 -1329z" />
    <glyph glyph-name="uni040E" unicode="&#x40e;" horiz-adv-x="1509" 
d="M1008 1618q-122 0 -182.5 54.5t-43.5 148.5h74q2 -58 40.5 -88.5t127.5 -30.5q165 0 236 119h79q-36 -95 -123 -149t-208 -54zM1679 1491l-1269 -1491h-113l446 522l-403 969h96l371 -901l762 901h110z" />
    <glyph glyph-name="uni040F" unicode="&#x40f;" horiz-adv-x="1634" 
d="M1653 1491l-400 -1491h-534l-84 -311h-90l84 311h-537l400 1491h92l-377 -1407h977l377 1407h92z" />
    <glyph glyph-name="uni0410" unicode="&#x410;" horiz-adv-x="1650" 
d="M-53 0l1104 1501h88l297 -1501h-95l-79 426h-900l-311 -426h-104zM422 510h821l-170 889z" />
    <glyph glyph-name="uni0411" unicode="&#x411;" horiz-adv-x="1546" 
d="M403 827h449q154 0 257.5 -30t168.5 -95q88 -88 88 -235q0 -174 -115 -289q-178 -178 -575 -178h-586l402 1491h1032l-25 -84h-940zM381 743l-176 -659h477q351 0 500 149q94 88 94 234q0 106 -72 178q-94 98 -354 98h-469z" />
    <glyph glyph-name="uni0412" unicode="&#x412;" horiz-adv-x="1560" 
d="M92 0l400 1491h550q200 0 322.5 -89.5t122.5 -246.5q0 -83 -32.5 -154.5t-89 -121t-128.5 -82t-154 -45.5q136 -35 215.5 -112t79.5 -202q0 -193 -164 -315.5t-452 -122.5h-670zM205 84h563q244 0 381 96.5t137 259.5q0 130 -113 200.5t-296 70.5h-504zM397 795h482
q237 0 375.5 95t138.5 257q0 127 -96 193.5t-265 66.5h-471z" />
    <glyph glyph-name="uni0413" unicode="&#x413;" horiz-adv-x="1300" 
d="M92 0l400 1491h978l-22 -84h-887l-379 -1407h-90z" />
    <glyph glyph-name="uni0414" unicode="&#x414;" horiz-adv-x="1830" 
d="M-27 84h144l1011 1417h91l254 -1417h147l-107 -395h-90l84 311h-1466l-84 -311h-90zM1153 1393l-930 -1309h1159z" />
    <glyph glyph-name="uni0415" unicode="&#x415;" horiz-adv-x="1419" 
d="M92 0l400 1491h1048l-24 -84h-955l-166 -614h862l-22 -84h-862l-168 -625h966l-22 -84h-1057z" />
    <glyph glyph-name="uni0416" unicode="&#x416;" horiz-adv-x="2340" 
d="M1481 1491l-185 -686h238l815 686h127l-877 -731l523 -760h-103l-487 721h-258l-193 -721h-92l193 721h-236l-862 -721h-127l930 770l-496 721h105l462 -686h246l187 686h90z" />
    <glyph glyph-name="uni0417" unicode="&#x417;" horiz-adv-x="1466" 
d="M383 1282l-45 72q271 162 553 162q232 0 367 -105.5t135 -269.5q0 -83 -34.5 -153t-94.5 -118t-134.5 -80t-160.5 -47q133 -38 208.5 -121t75.5 -204q0 -130 -77.5 -232t-211.5 -156.5t-300 -54.5q-358 0 -617 228l62 65q238 -211 559 -211q215 0 353 98t138 261
q0 130 -110 212.5t-326 82.5h-242l25 82h250q251 0 396.5 91.5t145.5 252.5q0 126 -108.5 212.5t-304.5 86.5q-248 0 -502 -154z" />
    <glyph glyph-name="uni0418" unicode="&#x418;" horiz-adv-x="1701" 
d="M1622 1491h98l-399 -1491h-92l360 1350l-1413 -1350h-84l400 1491h92l-359 -1329z" />
    <glyph glyph-name="uni0419" unicode="&#x419;" horiz-adv-x="1701" 
d="M1124 1618q-121 0 -181.5 54.5t-43.5 148.5h74q2 -58 40.5 -88.5t127.5 -30.5q164 0 235 119h80q-35 -94 -123 -148.5t-209 -54.5zM1622 1491h98l-399 -1491h-92l360 1350l-1413 -1350h-84l400 1491h92l-359 -1329z" />
    <glyph glyph-name="uni041A" unicode="&#x41a;" horiz-adv-x="1544" 
d="M92 0l400 1491h92l-185 -686h303l844 686h135l-905 -729l551 -762h-106l-521 721h-323l-193 -721h-92z" />
    <glyph glyph-name="uni041B" unicode="&#x41b;" horiz-adv-x="1607" 
d="M1112 1501l281 -1501h-95l-251 1386l-994 -1386h-106l1083 1501h82z" />
    <glyph glyph-name="uni041C" unicode="&#x41c;" horiz-adv-x="1873" 
d="M92 0l400 1491h77l373 -893l852 893h98l-401 -1491h-90l356 1329l-842 -876h-6l-372 876l-357 -1329h-88z" />
    <glyph glyph-name="uni041D" unicode="&#x41d;" horiz-adv-x="1636" 
d="M92 0l400 1491h92l-189 -698h981l187 698h92l-400 -1491h-92l191 709h-981l-191 -709h-90z" />
    <glyph glyph-name="uni041E" unicode="&#x41e;" horiz-adv-x="1824" 
d="M1073 1516q186 0 333.5 -85t228.5 -231.5t81 -325.5q0 -182 -72.5 -352t-201.5 -299q-118 -118 -267 -184t-313 -66q-186 0 -333.5 85.5t-228.5 231.5t-81 324q0 183 72.5 352.5t202.5 299.5q118 119 266.5 184.5t312.5 65.5zM862 55q145 0 276 58t234 161
q118 120 184 276t66 324q0 156 -68 283.5t-194.5 202t-286.5 74.5q-145 0 -276 -58.5t-234 -161.5q-118 -118 -184 -275t-66 -323q0 -158 68 -285.5t194 -201.5t287 -74z" />
    <glyph glyph-name="uni041F" unicode="&#x41f;" horiz-adv-x="1634" 
d="M92 0l400 1491h1161l-400 -1491h-92l377 1407h-977l-379 -1407h-90z" />
    <glyph glyph-name="uni0420" unicode="&#x420;" horiz-adv-x="1443" 
d="M92 0l400 1491h460q279 0 414 -135q100 -93 100 -264q0 -201 -133 -334q-93 -93 -244 -142t-348 -49h-405l-154 -567h-90zM1296 1296q-111 111 -346 111h-389l-203 -758h387q359 0 521 162q110 110 110 276q0 129 -80 209z" />
    <glyph glyph-name="uni0421" unicode="&#x421;" horiz-adv-x="1595" 
d="M815 -27q-123 0 -232.5 41.5t-192.5 117.5t-131 190.5t-48 252.5q0 192 75.5 368.5t211.5 313.5q122 122 277.5 190.5t324.5 68.5q191 0 331.5 -87.5t210.5 -234.5l-77 -41q-154 281 -469 281q-149 0 -284 -60t-243 -166q-124 -124 -194 -288.5t-70 -339.5
q0 -238 146 -380.5t372 -142.5q163 0 287 59t236 171l61 -56q-251 -258 -592 -258z" />
    <glyph glyph-name="uni0422" unicode="&#x422;" horiz-adv-x="1316" 
d="M459 0l377 1407h-525l23 84h1143l-23 -84h-526l-379 -1407h-90z" />
    <glyph glyph-name="uni0423" unicode="&#x423;" horiz-adv-x="1509" 
d="M1679 1491l-1269 -1491h-113l446 522l-403 969h96l371 -901l762 901h110z" />
    <glyph glyph-name="uni0424" unicode="&#x424;" horiz-adv-x="1931" 
d="M1184 1526h92l-51 -189q288 -20 454 -157t166 -357q0 -143 -66.5 -265.5t-186 -210t-296 -136.5t-387.5 -47l-53 -199h-90l53 201q-286 20 -453 158.5t-167 357.5q0 142 66.5 264.5t186 210.5t296 137t387.5 47zM293 684q0 -190 146 -306t403 -130l272 1012
q-250 0 -437.5 -74.5t-285.5 -204.5t-98 -297zM1753 821q0 188 -147 303.5t-404 132.5l-272 -1011q376 0 597 159t226 416z" />
    <glyph glyph-name="uni0425" unicode="&#x425;" horiz-adv-x="1488" 
d="M-35 0l785 768l-402 723h98l369 -670l678 670h117l-752 -739l412 -752h-99l-378 700l-709 -700h-119z" />
    <glyph glyph-name="uni0426" unicode="&#x426;" horiz-adv-x="1658" 
d="M1653 1491l-377 -1407h149l-106 -395h-90l84 311h-1221l400 1491h92l-377 -1407h977l377 1407h92z" />
    <glyph glyph-name="uni0427" unicode="&#x427;" horiz-adv-x="1478" 
d="M1006 0l161 604q-198 -41 -387 -41q-112 0 -201.5 21t-157 64.5t-104 115t-36.5 166.5q0 101 34 221l91 340h92l-95 -352q-30 -107 -30 -205q0 -144 110 -215.5t308 -71.5q215 0 401 47l215 797h90l-399 -1491h-92z" />
    <glyph glyph-name="uni0428" unicode="&#x428;" horiz-adv-x="2418" 
d="M2437 1491l-401 -1491h-1944l400 1491h92l-379 -1407h835l379 1407h90l-376 -1407h835l377 1407h92z" />
    <glyph glyph-name="uni0429" unicode="&#x429;" horiz-adv-x="2443" 
d="M2437 1491l-379 -1407h152l-107 -395h-90l84 311h-2005l400 1491h92l-379 -1407h835l379 1407h90l-376 -1407h835l377 1407h92z" />
    <glyph glyph-name="uni042A" unicode="&#x42a;" horiz-adv-x="1794" 
d="M438 0l377 1407h-512l23 84h604l-156 -578h365q248 0 383 -102.5t135 -292.5q0 -197 -133 -330q-194 -188 -592 -188h-494zM1567 516q0 154 -114 232.5t-327 78.5h-374l-201 -743h383q360 0 520 160q113 107 113 272z" />
    <glyph glyph-name="uni042B" unicode="&#x42b;" horiz-adv-x="1970" 
d="M1497 0l401 1491h91l-400 -1491h-92zM92 0l400 1491h92l-156 -578h365q248 0 383 -102.5t135 -292.5q0 -197 -133 -330q-194 -188 -592 -188h-494zM1221 516q0 154 -113 232.5t-326 78.5h-376l-201 -743h383q360 0 520 160q113 107 113 272z" />
    <glyph glyph-name="uni042C" unicode="&#x42c;" horiz-adv-x="1447" 
d="M92 0l400 1491h92l-156 -578h365q248 0 383 -102.5t135 -292.5q0 -197 -133 -330q-194 -188 -592 -188h-494zM1221 516q0 154 -114 232.5t-327 78.5h-374l-201 -743h383q360 0 520 160q113 107 113 272z" />
    <glyph glyph-name="uni042D" unicode="&#x42d;" horiz-adv-x="1617" 
d="M651 -27q-193 0 -336 84t-233 228l70 51q59 -89 126.5 -149t162 -96t208.5 -36q303 0 520 224q179 185 232 432h-907l24 82h895q6 46 6 96q0 248 -143 395.5t-371 147.5q-152 0 -277 -55t-243 -163l-55 62q127 116 263.5 178t313.5 62q126 0 237 -43.5t193 -123
t129 -197.5t47 -259q0 -186 -69.5 -357.5t-200.5 -306.5q-120 -122 -271.5 -189t-320.5 -67z" />
    <glyph glyph-name="uni042E" unicode="&#x42e;" horiz-adv-x="2326" 
d="M92 0l400 1491h92l-189 -698h393q62 287 254 479q244 244 564 244q136 0 251 -50t193.5 -136t122 -204t43.5 -252q0 -181 -71 -354t-201 -303q-115 -115 -258.5 -179.5t-303.5 -64.5q-136 0 -251 49.5t-193.5 135.5t-122 204t-43.5 252q0 73 4 95h-403l-191 -709h-90z
M1384 55q275 0 490 215q118 116 183 274t65 330q0 157 -62 283.5t-180.5 201.5t-273.5 75q-279 0 -492 -213q-118 -118 -183 -275.5t-65 -329.5q0 -159 62 -285.5t181 -201t275 -74.5z" />
    <glyph glyph-name="uni042F" unicode="&#x42f;" horiz-adv-x="1572" 
d="M1593 1491l-401 -1491h-90l168 627h-451q-53 0 -78 2l-620 -629h-119l639 645q-157 35 -242.5 133t-85.5 240q0 176 119 295q178 178 541 178h620zM1479 1407h-514q-152 0 -271 -37.5t-192 -107.5q-99 -102 -99 -242q0 -144 109.5 -226.5t316.5 -82.5h461z" />
    <glyph glyph-name="uni0430" unicode="&#x430;" horiz-adv-x="1239" 
d="M416 -25q-91 0 -169 32.5t-129.5 102.5t-51.5 164q0 152 102 254q134 134 383 134q208 0 428 -62l10 35q17 66 17 115q0 129 -89.5 197.5t-254.5 68.5q-151 0 -310 -58l-18 80q168 60 336 60q196 0 308 -89t112 -249q0 -66 -21 -142l-166 -618h-84l55 207
q-177 -232 -458 -232zM432 53q173 0 316.5 107.5t187.5 273.5l25 94q-199 56 -422 56q-198 0 -303 -105q-78 -84 -78 -192t77 -171t197 -63z" />
    <glyph glyph-name="uni0431" unicode="&#x431;" horiz-adv-x="1390" 
d="M1262 594q0 -120 -43.5 -232.5t-120.5 -198t-190.5 -137t-243.5 -51.5q-221 0 -355 131q-139 145 -139 404q0 211 79 434.5t224 372.5q100 100 235.5 153.5t348.5 73.5l309 33l4 -82l-305 -33q-197 -20 -319.5 -67t-206.5 -131q-80 -80 -139 -186.5t-111 -276.5
q80 127 210 195.5t279 68.5q224 0 354 -132.5t130 -338.5zM260 481q0 -194 106.5 -310t299.5 -116q145 0 261.5 75t179 198t62.5 268q0 174 -104.5 280.5t-292.5 106.5q-139 0 -255.5 -62.5t-186.5 -178t-70 -261.5z" />
    <glyph glyph-name="uni0432" unicode="&#x432;" horiz-adv-x="1298" 
d="M68 0l288 1079h475q164 0 253.5 -65.5t89.5 -182.5q0 -120 -79 -191t-202 -93q93 -23 145 -83.5t52 -146.5q0 -83 -38.5 -145.5t-106 -99t-149.5 -54.5t-178 -18h-550zM311 588h391q108 0 189.5 21t135.5 76t54 140q0 82 -65.5 129t-192.5 47h-403zM176 80h449
q73 0 135 11.5t117.5 37.5t87.5 74.5t32 115.5q0 93 -73.5 143t-214.5 50h-420z" />
    <glyph glyph-name="uni0433" unicode="&#x433;" horiz-adv-x="1058" 
d="M68 0l288 1079h772l-22 -78h-684l-268 -1001h-86z" />
    <glyph glyph-name="uni0434" unicode="&#x434;" horiz-adv-x="1398" 
d="M-51 80h125l733 1007h86l190 -1007h125l-100 -377h-82l80 297h-1096l-80 -297h-82zM829 995l-661 -915h827z" />
    <glyph glyph-name="uni0435" unicode="&#x435;" horiz-adv-x="1271" 
d="M1130 510h-913q-4 -54 -4 -80q0 -166 103 -270.5t270 -104.5q214 0 387 146l49 -60q-94 -80 -198.5 -123t-237.5 -43q-206 0 -335.5 126t-129.5 325q0 139 55 269t154 229q182 182 418 182q99 0 178 -33.5t129 -92t76 -133t26 -159.5t-27 -178zM397 874
q-118 -118 -164 -286h826q10 42 10 94q0 96 -34 172t-109 124t-181 48q-196 0 -348 -152z" />
    <glyph glyph-name="uni0436" unicode="&#x436;" horiz-adv-x="1849" 
d="M1112 1079l-133 -495h203l577 495h123l-633 -534l379 -545h-100l-348 508h-222l-135 -508h-86l135 508h-198l-600 -508h-123l659 551l-348 528h100l322 -495h209l133 495h86z" />
    <glyph glyph-name="uni0437" unicode="&#x437;" horiz-adv-x="1214" 
d="M997 303q0 -146 -134 -236t-343 -90q-282 0 -510 160l51 66q107 -75 214 -110.5t243 -35.5q172 0 279.5 67t107.5 177q0 95 -82 152t-252 57h-237l22 78h242q189 0 295 63t106 172q0 92 -83 147.5t-230 55.5q-206 0 -430 -113l-39 68q235 125 471 125q189 0 296.5 -79
t107.5 -202q0 -117 -86 -187t-226 -97q101 -27 159 -87.5t58 -150.5z" />
    <glyph glyph-name="uni0438" unicode="&#x438;" horiz-adv-x="1372" 
d="M1206 1079h99l-289 -1079h-86l252 952l-1016 -952h-98l288 1079h86l-254 -954z" />
    <glyph glyph-name="uni0439" unicode="&#x439;" horiz-adv-x="1372" 
d="M1206 1079h99l-289 -1079h-86l252 952l-1016 -952h-98l288 1079h86l-254 -954zM870 1262q-121 0 -180.5 61.5t-40.5 167.5h68q-2 -71 38 -108t130 -37q164 0 245 145h76q-39 -105 -128.5 -167t-207.5 -62z" />
    <glyph glyph-name="uni043A" unicode="&#x43a;" horiz-adv-x="1208" 
d="M68 0l288 1079h86l-133 -493h209l610 493h125l-667 -536l411 -543h-100l-383 506h-227l-133 -506h-86z" />
    <glyph glyph-name="uni043B" unicode="&#x43b;" horiz-adv-x="1257" 
d="M825 1087l209 -1087h-90l-180 977l-703 -977h-104l793 1087h75z" />
    <glyph glyph-name="uni043C" unicode="&#x43c;" horiz-adv-x="1546" 
d="M694 262l-293 674l-249 -936h-84l288 1079h76l291 -684l645 684h111l-289 -1079h-88l252 946l-654 -684h-6z" />
    <glyph glyph-name="uni043D" unicode="&#x43d;" horiz-adv-x="1361" 
d="M1294 1079l-286 -1079h-88l135 506h-766l-135 -506h-86l288 1079h86l-131 -493h766l131 493h86z" />
    <glyph glyph-name="uni043E" unicode="&#x43e;" horiz-adv-x="1368" 
d="M762 1106q214 0 348.5 -135t134.5 -344q0 -129 -51 -249t-145 -214q-89 -89 -203 -139t-240 -50q-214 0 -349.5 135t-135.5 345q0 128 52 247.5t146 212.5q89 89 203.5 140t239.5 51zM614 55q103 0 198 43t169 117q80 82 126 188t46 220q0 182 -110 291.5t-289 109.5
q-103 0 -198 -43t-169 -117q-81 -81 -126.5 -186t-45.5 -219q0 -184 110 -294t289 -110z" />
    <glyph glyph-name="uni043F" unicode="&#x43f;" horiz-adv-x="1357" 
d="M1290 1079l-289 -1079h-86l267 1001h-760l-268 -1001h-86l288 1079h934z" />
    <glyph glyph-name="uni0440" unicode="&#x440;" horiz-adv-x="1419" 
d="M678 -27q-93 0 -170.5 28t-130 76t-87.5 104.5t-54 121.5l-173 -643h-88l381 1419h86l-61 -229q78 108 200 182t269 74q190 0 314 -129.5t124 -327.5q0 -147 -53.5 -277.5t-151.5 -224.5q-174 -174 -405 -174zM676 55q198 0 342 144q86 86 132 200t46 238
q0 171 -99.5 279t-254.5 108q-209 0 -377 -168q-86 -86 -134 -191t-48 -212q0 -170 109.5 -284t283.5 -114z" />
    <glyph glyph-name="uni0441" unicode="&#x441;" horiz-adv-x="1220" 
d="M592 -25q-90 0 -174.5 31.5t-151 89t-107 147t-40.5 197.5q0 134 54 258.5t149 219.5q88 88 200 138t234 50q153 0 261 -74t163 -186l-74 -41q-126 219 -356 219q-101 0 -194 -42.5t-167 -117.5q-82 -82 -129 -190.5t-47 -227.5q0 -121 55.5 -212t141 -135t186.5 -44
q188 0 360 158l60 -55q-199 -183 -424 -183z" />
    <glyph glyph-name="uni0442" unicode="&#x442;" horiz-adv-x="1169" 
d="M213 1079h1034l-20 -78h-477l-267 -1001h-86l267 1001h-474z" />
    <glyph glyph-name="uni0443" unicode="&#x443;" horiz-adv-x="1241" 
d="M432 -2l-225 1081h92l199 -989l671 989h105l-768 -1110q-128 -180 -227 -248.5t-216 -68.5q-122 0 -223 69l47 68q86 -59 185 -59q87 0 169.5 58.5t190.5 209.5z" />
    <glyph glyph-name="uni0444" unicode="&#x444;" horiz-adv-x="1751" 
d="M1618 598q0 -215 -158 -379q-107 -107 -275 -166t-376 -59h-39l-88 -334h-86l90 340q-258 24 -405.5 154.5t-147.5 326.5q0 224 158 379q106 109 273.5 167t377.5 58h37l125 469h88l-129 -475q258 -24 406.5 -155.5t148.5 -325.5zM225 483q0 -168 126.5 -278t355.5 -127
l249 928h-20q-381 0 -574 -193q-137 -137 -137 -330zM1526 598q0 167 -126.5 275t-357.5 128l-249 -927h22q382 0 571 192q140 137 140 332z" />
    <glyph glyph-name="uni0445" unicode="&#x445;" horiz-adv-x="1198" 
d="M365 1079l249 -467l496 467h117l-574 -530l303 -549h-98l-264 496l-526 -496h-115l602 557l-289 522h99z" />
    <glyph glyph-name="uni0446" unicode="&#x446;" horiz-adv-x="1380" 
d="M68 0l288 1079h86l-266 -999h760l268 999h86l-268 -999h133l-100 -377h-82l80 297h-985z" />
    <glyph glyph-name="uni0447" unicode="&#x447;" horiz-adv-x="1241" 
d="M1174 1079l-289 -1079h-86l104 389q-172 -35 -305 -35q-405 0 -405 295q0 67 30 187l68 243h86l-70 -254q-26 -98 -26 -172q0 -219 319 -219q179 0 326 39l161 606h87z" />
    <glyph glyph-name="uni0448" unicode="&#x448;" horiz-adv-x="2017" 
d="M68 0l288 1079h86l-266 -999h666l268 999h86l-266 -999h665l269 999h86l-289 -1079h-1593z" />
    <glyph glyph-name="uni0449" unicode="&#x449;" horiz-adv-x="2041" 
d="M68 0l288 1079h86l-266 -999h666l268 999h86l-266 -999h665l269 999h86l-269 -999h134l-101 -377h-82l80 297h-1644z" />
    <glyph glyph-name="uni044A" unicode="&#x44a;" horiz-adv-x="1468" 
d="M575 678h328q199 0 301.5 -79t102.5 -218q0 -120 -69.5 -207.5t-187.5 -130.5t-270 -43h-471l269 1001h-396l21 78h481zM893 598h-338l-137 -520h373q194 0 310 79.5t116 219.5q0 221 -324 221z" />
    <glyph glyph-name="uni044B" unicode="&#x44b;" horiz-adv-x="1642" 
d="M1200 0l289 1079h86l-289 -1079h-86zM651 598h-338l-137 -520h373q194 0 310 79.5t116 219.5q0 221 -324 221zM334 678h328q199 0 301 -79t102 -218q0 -120 -69 -207.5t-187 -130.5t-270 -43h-471l288 1079h86z" />
    <glyph glyph-name="uni044C" unicode="&#x44c;" horiz-adv-x="1224" 
d="M651 598h-338l-137 -520h373q194 0 310 79.5t116 219.5q0 221 -324 221zM334 678h328q199 0 301 -79t102 -218q0 -120 -69 -207.5t-187 -130.5t-270 -43h-471l288 1079h86z" />
    <glyph glyph-name="uni044D" unicode="&#x44d;" horiz-adv-x="1228" 
d="M43 225l70 49q67 -105 156 -162t218 -57q203 0 359 156q123 123 158 299h-670l22 80h658q0 7 1 21.5t1 21.5q0 123 -51.5 213t-135.5 134t-188 44q-195 0 -377 -147l-51 63q207 166 432 166q125 0 229.5 -53.5t170 -162.5t65.5 -255q0 -134 -52.5 -258.5t-146.5 -218.5
q-183 -183 -428 -183q-152 0 -261.5 69.5t-178.5 180.5z" />
    <glyph glyph-name="uni044E" unicode="&#x44e;" horiz-adv-x="1814" 
d="M68 0l288 1079h86l-131 -493h299q49 198 189 338q85 85 195 133.5t231 48.5q210 0 339.5 -135t129.5 -348q0 -128 -53 -249t-148 -216q-183 -183 -426 -183q-209 0 -339 135t-130 347q0 33 2 49h-311l-135 -506h-86zM1071 55q198 0 354 156q81 81 129 190t48 220
q0 183 -105 293t-276 110q-201 0 -355 -154q-82 -82 -129 -190.5t-47 -220.5q0 -184 105 -294t276 -110z" />
    <glyph glyph-name="uni044F" unicode="&#x44f;" horiz-adv-x="1318" 
d="M1251 1079l-286 -1079h-88l114 430h-401q-29 0 -43 2l-412 -432h-112l432 446q-110 29 -171 103t-61 178q0 166 136 259t339 93h553zM1145 1001h-451q-81 0 -148 -16t-120 -48t-83 -85.5t-30 -124.5q0 -107 78.5 -163t216.5 -56h406z" />
    <glyph glyph-name="uni0450" unicode="&#x450;" horiz-adv-x="1271" 
d="M1130 510h-913q-4 -54 -4 -80q0 -166 103 -270.5t270 -104.5q214 0 387 146l49 -60q-94 -80 -198.5 -123t-237.5 -43q-206 0 -335.5 126t-129.5 325q0 139 55 269t154 229q182 182 418 182q99 0 178 -33.5t129 -92t76 -133t26 -159.5t-27 -178zM397 874
q-118 -118 -164 -286h826q10 42 10 94q0 96 -34 172t-109 124t-181 48q-196 0 -348 -152zM782 1268l-161 217l108 53l113 -270h-60z" />
    <glyph glyph-name="uni0451" unicode="&#x451;" horiz-adv-x="1271" 
d="M610 1280l41 152h127l-41 -152h-127zM936 1280l41 152h127l-41 -152h-127zM1130 510h-913q-4 -54 -4 -80q0 -166 103 -270.5t270 -104.5q214 0 387 146l49 -60q-94 -80 -198.5 -123t-237.5 -43q-206 0 -335.5 126t-129.5 325q0 139 55 269t154 229q182 182 418 182
q99 0 178 -33.5t129 -92t76 -133t26 -159.5t-27 -178zM397 874q-118 -118 -164 -286h826q10 42 10 94q0 96 -34 172t-109 124t-181 48q-196 0 -348 -152z" />
    <glyph glyph-name="uni0452" unicode="&#x452;" horiz-adv-x="1271" 
d="M877 35l106 399q27 102 27 172q0 113 -81 165t-239 52q-165 0 -325 -37l-211 -786h-86l335 1253h-243l20 80h246l59 221h86l-59 -221h406l-21 -80h-408l-102 -383q172 35 305 35q406 0 406 -297q0 -60 -31 -184l-109 -401q-56 -202 -146 -286.5t-241 -84.5q-91 0 -172 31
l23 77q82 -28 153 -28q118 0 188 70t114 233z" />
    <glyph glyph-name="uni0453" unicode="&#x453;" horiz-adv-x="1058" 
d="M698 1268l260 270l107 -53l-281 -217h-86zM68 0l288 1079h772l-22 -78h-684l-268 -1001h-86z" />
    <glyph glyph-name="uni0454" unicode="&#x454;" horiz-adv-x="1224" 
d="M119 446q0 133 52 257.5t146 216.5q88 88 201 137t236 49q274 0 430 -238l-70 -49q-31 45 -63.5 78.5t-76.5 64t-100.5 46.5t-123.5 16q-103 0 -198 -41t-169 -115q-117 -117 -154 -278h666l-23 -80h-657q-2 -23 -2 -61q0 -184 109.5 -289t269.5 -105q202 0 375 146
l51 -64q-99 -80 -201 -121t-229 -41q-93 0 -176.5 31.5t-149 89t-104.5 148.5t-39 202z" />
    <glyph glyph-name="uni0455" unicode="&#x455;" horiz-adv-x="1079" 
d="M471 -23q-126 0 -245 47t-208 136l62 61q170 -164 401 -164q124 0 212.5 66t88.5 158q0 74 -55.5 124.5t-194.5 104.5q-157 56 -231 120.5t-74 166.5q0 127 110 216t288 89q103 0 208.5 -40t178.5 -104l-56 -63q-70 57 -160 92t-180 35q-135 0 -216 -64t-81 -149
q0 -70 56 -117t200 -104q159 -62 229 -127.5t70 -165.5q0 -131 -116.5 -224.5t-286.5 -93.5z" />
    <glyph glyph-name="uni0456" unicode="&#x456;" horiz-adv-x="540" 
d="M82 0l291 1079h86l-291 -1079h-86zM438 1370l37 135h111l-37 -135h-111z" />
    <glyph glyph-name="uni0457" unicode="&#x457;" horiz-adv-x="542" 
d="M244 1280l41 152h127l-41 -152h-127zM569 1280l41 152h127l-41 -152h-127zM82 0l291 1079h86l-291 -1079h-86z" />
    <glyph glyph-name="uni0458" unicode="&#x458;" horiz-adv-x="540" 
d="M-119 -350q-65 0 -121 20l23 78q50 -16 92 -16q132 0 178 162l320 1185h86l-322 -1194q-30 -115 -97 -175t-159 -60zM438 1370l37 135h111l-37 -135h-111z" />
    <glyph glyph-name="uni0459" unicode="&#x459;" horiz-adv-x="1783" 
d="M-96 0l977 1079h141l-107 -401h304q199 0 301 -79t102 -218q0 -120 -69 -207.5t-187 -130.5t-270 -43h-449l271 1006h-3l-905 -1006h-106zM1210 598h-315l-139 -520h350q196 0 311 79.5t115 219.5q0 221 -322 221z" />
    <glyph glyph-name="uni045A" unicode="&#x45a;" horiz-adv-x="2037" 
d="M1169 678h304q199 0 301 -79t102 -218q0 -120 -69 -207.5t-187 -130.5t-270 -43h-447l133 506h-747l-135 -506h-86l288 1079h86l-131 -493h748l131 493h88zM1464 598h-315l-139 -520h350q196 0 311 79.5t115 219.5q0 221 -322 221z" />
    <glyph glyph-name="uni045B" unicode="&#x45b;" horiz-adv-x="1271" 
d="M897 1253h-408l-102 -383q172 35 305 35q406 0 406 -297q0 -60 -31 -184l-115 -424h-86l117 434q27 102 27 172q0 113 -81 165t-239 52q-165 0 -325 -37l-211 -786h-86l335 1253h-243l20 80h246l59 221h86l-59 -221h406z" />
    <glyph glyph-name="uni045C" unicode="&#x45c;" horiz-adv-x="1208" 
d="M758 1266l260 270l106 -53l-280 -217h-86zM68 0l288 1079h86l-133 -493h209l610 493h125l-667 -536l411 -543h-100l-383 506h-227l-133 -506h-86z" />
    <glyph glyph-name="uni045D" unicode="&#x45d;" horiz-adv-x="1372" 
d="M813 1266l-162 217l109 53l112 -270h-59zM1206 1079h99l-289 -1079h-86l252 952l-1016 -952h-98l288 1079h86l-254 -954z" />
    <glyph glyph-name="uni045E" unicode="&#x45e;" horiz-adv-x="1241" 
d="M432 -2l-225 1081h92l199 -989l671 989h105l-768 -1110q-128 -180 -227 -248.5t-216 -68.5q-122 0 -223 69l47 68q86 -59 185 -59q87 0 169.5 58.5t190.5 209.5zM766 1262q-121 0 -180.5 61.5t-40.5 167.5h67q-2 -71 38 -108t130 -37q165 0 246 145h76
q-39 -105 -128.5 -167t-207.5 -62z" />
    <glyph glyph-name="uni045F" unicode="&#x45f;" horiz-adv-x="1357" 
d="M68 0l288 1079h86l-266 -999h760l268 999h86l-289 -1079h-432l-77 -297h-82l79 297h-421z" />
    <glyph glyph-name="uni0462" unicode="&#x462;" horiz-adv-x="1798" 
d="M1413 1153h-575l-95 -354h447q217 0 334.5 -90t117.5 -256q0 -174 -116 -287q-163 -166 -518 -166h-570l307 1153h-509l22 84h510l78 289h92l-78 -289h576zM1552 451q0 132 -95 198t-277 66h-459l-168 -631h467q303 0 438 135q94 94 94 232z" />
    <glyph glyph-name="uni0463" unicode="&#x463;" horiz-adv-x="1468" 
d="M578 678h325q199 0 301.5 -79t102.5 -218q0 -120 -69.5 -207.5t-187.5 -130.5t-270 -43h-471l269 1001h-398l21 78h397l129 475h88l-129 -475h471l-20 -78h-473zM895 598h-338l-139 -520h373q196 0 311 79.5t115 219.5q0 221 -322 221z" />
    <glyph glyph-name="uni0472" unicode="&#x472;" horiz-adv-x="1824" 
d="M1073 1516q186 0 333.5 -85t228.5 -231.5t81 -325.5q0 -184 -72 -353t-202 -298q-118 -119 -266.5 -184.5t-313.5 -65.5q-186 0 -333.5 85t-228.5 231t-81 325q0 184 72.5 354t202.5 300q118 118 266.5 183t312.5 65zM1374 274q182 189 232 435h-1289q-4 -62 -4 -93
q0 -242 151.5 -401.5t397.5 -159.5q286 0 512 219zM1622 874q0 157 -66.5 284t-193 201.5t-289.5 74.5q-292 0 -512 -220q-176 -176 -229 -421h1286q4 54 4 81z" />
    <glyph glyph-name="uni0473" unicode="&#x473;" horiz-adv-x="1370" 
d="M762 1106q214 0 348.5 -135t134.5 -344q0 -129 -51 -249t-145 -214q-89 -89 -203 -139t-240 -50q-214 0 -349.5 135t-135.5 345q0 128 52 247.5t146 212.5q89 89 203.5 140t239.5 51zM614 55q103 0 198 43t169 117q121 121 160 291h-928q-2 -16 -2 -47
q0 -183 111.5 -293.5t291.5 -110.5zM387 864q-123 -120 -162 -278h928q2 14 2 37q0 182 -110 291.5t-291 109.5q-103 0 -198 -43t-169 -117z" />
    <glyph glyph-name="uni0474" unicode="&#x474;" horiz-adv-x="1665" 
d="M1323 999l-676 -1009h-80l-241 1501h94l211 -1393l633 959q64 95 107.5 154t90.5 113.5t84.5 83.5t84 51.5t95 30t111.5 7.5h45l-20 -82h-27q-56 0 -97 -6.5t-82.5 -27.5t-73 -47t-75.5 -79t-82.5 -107.5t-101.5 -148.5z" />
    <glyph glyph-name="uni0475" unicode="&#x475;" horiz-adv-x="1261" 
d="M467 -8h-72l-182 1087h94l148 -981l458 703q107 167 196.5 226.5t240.5 59.5h28l-22 -79h-21q-109 0 -179 -50t-167 -192z" />
    <glyph glyph-name="uni0490" unicode="&#x490;" horiz-adv-x="1300" 
d="M1448 1407h-887l-379 -1407h-90l400 1491h890l78 297h90z" />
    <glyph glyph-name="uni0491" unicode="&#x491;" horiz-adv-x="1058" 
d="M1106 1001h-684l-268 -1001h-86l288 1079h688l78 289h82z" />
    <glyph glyph-name="uni0492" unicode="&#x492;" horiz-adv-x="1363" 
d="M156 0l186 694h-158l23 84h158l190 713h979l-23 -84h-886l-170 -629h460l-22 -84h-461l-186 -694h-90z" />
    <glyph glyph-name="uni0493" unicode="&#x493;" horiz-adv-x="1099" 
d="M109 0l129 485h-148l23 80h147l137 514h772l-22 -78h-684l-117 -436h320l-21 -80h-321l-129 -485h-86z" />
    <glyph glyph-name="uni0496" unicode="&#x496;" horiz-adv-x="2381" 
d="M2476 1491l-877 -731l465 -676h162l-106 -395h-90l84 311h-95l-487 721h-258l-193 -721h-92l193 721h-236l-862 -721h-127l930 770l-496 721h105l462 -686h246l187 686h90l-185 -686h238l815 686h127z" />
    <glyph glyph-name="uni0497" unicode="&#x497;" horiz-adv-x="1875" 
d="M1882 1079l-633 -534l324 -465h135l-100 -377h-82l80 297h-78l-348 508h-222l-135 -508h-86l135 508h-198l-600 -508h-123l659 551l-348 528h100l322 -495h209l133 495h86l-133 -495h203l577 495h123z" />
    <glyph glyph-name="uni0498" unicode="&#x498;" horiz-adv-x="1466" 
d="M383 1282l-45 72q271 162 553 162q232 0 367 -105.5t135 -269.5q0 -83 -34.5 -153t-94.5 -118t-134.5 -80t-160.5 -47q133 -38 208.5 -121t75.5 -204q0 -130 -77.5 -232t-211.5 -156.5t-300 -54.5h-23l-82 -286h-90l82 293q-297 33 -504 221l62 65q238 -211 559 -211
q215 0 353 98t138 261q0 130 -110 212.5t-326 82.5h-242l25 82h250q251 0 396.5 91.5t145.5 252.5q0 126 -108.5 212.5t-304.5 86.5q-248 0 -502 -154z" />
    <glyph glyph-name="uni0499" unicode="&#x499;" horiz-adv-x="1214" 
d="M997 303q0 -146 -134 -236t-345 -90l-76 -274h-82l76 279q-232 19 -426 155l51 66q107 -75 214 -110.5t243 -35.5q172 0 279.5 67t107.5 177q0 95 -82 152t-252 57h-237l22 78h242q189 0 295 63t106 172q0 92 -83 147.5t-230 55.5q-206 0 -430 -113l-39 68
q235 125 471 125q189 0 296.5 -79t107.5 -202q0 -117 -86 -187t-226 -97q101 -27 159 -87.5t58 -150.5z" />
    <glyph glyph-name="uni049A" unicode="&#x49a;" horiz-adv-x="1583" 
d="M1681 1491l-905 -729l490 -678h151l-106 -395h-90l84 311h-84l-521 721h-323l-193 -721h-92l400 1491h92l-185 -686h303l844 686h135z" />
    <glyph glyph-name="uni049B" unicode="&#x49b;" horiz-adv-x="1226" 
d="M1253 1079l-667 -536l350 -463h131l-100 -377h-82l80 297h-68l-383 506h-227l-133 -506h-86l288 1079h86l-133 -493h209l610 493h125z" />
    <glyph glyph-name="uni049C" unicode="&#x49c;" horiz-adv-x="1593" 
d="M1358 0h-105l-415 711h-29l-131 -494h-88l131 494h-346l-191 -711h-92l402 1491h90l-187 -696h346l136 499h88l-136 -499h25l746 696h129l-809 -746z" />
    <glyph glyph-name="uni049D" unicode="&#x49d;" horiz-adv-x="1314" 
d="M1061 0h-98l-273 514h-78l-94 -346h-82l92 346h-237l-137 -514h-86l290 1079h86l-131 -487h236l92 350h84l-92 -350h63l529 487h118l-577 -528z" />
    <glyph glyph-name="uni04A0" unicode="&#x4a0;" horiz-adv-x="1890" 
d="M438 0l377 1407h-512l23 84h604l-185 -686h304l843 686h136l-906 -729l551 -762h-106l-520 721h-324l-193 -721h-92z" />
    <glyph glyph-name="uni04A1" unicode="&#x4a1;" horiz-adv-x="1452" 
d="M309 0l269 1001h-396l21 78h481l-133 -493h209l610 493h125l-668 -536l412 -543h-100l-383 506h-228l-133 -506h-86z" />
    <glyph glyph-name="uni04A2" unicode="&#x4a2;" horiz-adv-x="1658" 
d="M92 0l400 1491h92l-189 -698h981l187 698h92l-377 -1407h152l-107 -395h-90l84 311h-154l191 709h-981l-191 -709h-90z" />
    <glyph glyph-name="uni04A3" unicode="&#x4a3;" horiz-adv-x="1386" 
d="M1294 1079l-266 -999h129l-100 -377h-82l80 297h-135l135 506h-766l-135 -506h-86l288 1079h86l-131 -493h766l131 493h86z" />
    <glyph glyph-name="uni04A4" unicode="&#x4a4;" horiz-adv-x="2248" 
d="M1130 0l191 709h-948l-191 -709h-90l400 1491h92l-189 -698h948l187 698h889l-23 -84h-797l-376 -1407h-93z" />
    <glyph glyph-name="uni04A5" unicode="&#x4a5;" horiz-adv-x="1861" 
d="M903 0l133 506h-747l-135 -506h-86l288 1079h86l-131 -493h748l131 493h739l-20 -78h-654l-266 -1001h-86z" />
    <glyph glyph-name="uni04AA" unicode="&#x4aa;" horiz-adv-x="1595" 
d="M641 -311l82 291q-108 15 -200.5 62.5t-162 122t-109.5 180.5t-40 230q0 192 75.5 368.5t211.5 313.5q122 122 277.5 190.5t324.5 68.5q191 0 331.5 -87.5t210.5 -234.5l-77 -41q-154 281 -469 281q-149 0 -284 -60t-243 -166q-124 -124 -194 -288.5t-70 -339.5
q0 -238 146 -380.5t372 -142.5q163 0 287 59t236 171l61 -56q-116 -120 -260 -189t-338 -69l-80 -284h-88z" />
    <glyph glyph-name="uni04AB" unicode="&#x4ab;" horiz-adv-x="1220" 
d="M420 -297l80 283q-164 31 -272.5 150.5t-108.5 303.5q0 134 54 258.5t149 219.5q88 88 200 138t234 50q153 0 261 -74t163 -186l-74 -41q-126 219 -356 219q-101 0 -194 -42.5t-167 -117.5q-82 -82 -129 -190.5t-47 -227.5q0 -121 55.5 -212t141 -135t186.5 -44
q188 0 360 158l60 -55q-207 -190 -438 -183l-76 -272h-82z" />
    <glyph glyph-name="uni04AE" unicode="&#x4ae;" horiz-adv-x="1447" 
d="M522 0l164 610l-391 881h100l353 -809l788 809h123l-889 -901l-158 -590h-90z" />
    <glyph glyph-name="uni04AF" unicode="&#x4af;" horiz-adv-x="1216" 
d="M395 -340h-86l94 350l-190 1069h94l160 -981l682 981h104l-766 -1075z" />
    <glyph glyph-name="uni04B0" unicode="&#x4b0;" horiz-adv-x="1447" 
d="M522 0l144 532h-406l23 84h399l-387 875h100l353 -809l788 809h123l-862 -875h417l-22 -84h-438l-142 -532h-90z" />
    <glyph glyph-name="uni04B1" unicode="&#x4b1;" horiz-adv-x="1216" 
d="M885 80l-23 -80h-375l-92 -340h-86l92 340h-350l21 80h319l-178 999h94l160 -981l682 981h104l-712 -999h344z" />
    <glyph glyph-name="uni04B2" unicode="&#x4b2;" horiz-adv-x="1564" 
d="M-35 0l785 768l-402 723h98l369 -670l678 670h117l-752 -739l365 -668h147l-106 -395h-90l83 311h-86l-378 700l-709 -700h-119z" />
    <glyph glyph-name="uni04B3" unicode="&#x4b3;" horiz-adv-x="1222" 
d="M365 1079l249 -467l496 467h117l-574 -530l258 -469h129l-100 -377h-82l80 297h-80l-264 496l-526 -496h-115l602 557l-289 522h99z" />
    <glyph glyph-name="uni04B6" unicode="&#x4b6;" horiz-adv-x="1505" 
d="M1006 0l161 604q-198 -41 -387 -41q-112 0 -201.5 21t-157 64.5t-104 115t-36.5 166.5q0 101 34 221l91 340h92l-95 -352q-30 -107 -30 -205q0 -144 110 -215.5t308 -71.5q215 0 401 47l215 797h90l-377 -1407h152l-107 -395h-90l84 311h-153z" />
    <glyph glyph-name="uni04B7" unicode="&#x4b7;" horiz-adv-x="1265" 
d="M1174 1079l-269 -999h131l-100 -377h-82l80 297h-135l104 389q-172 -35 -305 -35q-405 0 -405 295q0 67 30 187l68 243h86l-70 -254q-26 -98 -26 -172q0 -219 319 -219q179 0 326 39l161 606h87z" />
    <glyph glyph-name="uni04B8" unicode="&#x4b8;" horiz-adv-x="1478" 
d="M1407 1491h90l-399 -1491h-92l161 604q-198 -41 -387 -41h-26l-99 -373h-88l101 379q-180 18 -283.5 108.5t-103.5 252.5q0 101 34 221l91 340h92l-95 -352q-30 -107 -30 -205q0 -124 82.5 -194.5t234.5 -88.5l133 496h88l-135 -500h15q215 0 401 47z" />
    <glyph glyph-name="uni04B9" unicode="&#x4b9;" horiz-adv-x="1241" 
d="M1174 1079l-289 -1079h-86l104 389q-172 -35 -321 -35l-62 -237h-84l64 241q-150 18 -230 87.5t-80 203.5q0 56 31 180l70 250h86l-72 -260q-26 -117 -26 -166q0 -193 243 -215l94 353h82l-96 -355q161 0 324 39l161 604h87z" />
    <glyph glyph-name="uni04BA" unicode="&#x4ba;" horiz-adv-x="1478" 
d="M584 1491l-162 -606q201 43 387 43q150 0 259.5 -36.5t175 -120.5t65.5 -210q0 -98 -35 -221l-90 -340h-92l94 352q31 111 31 205q0 144 -110 215.5t-308 71.5q-216 0 -402 -47l-215 -797h-90l400 1491h92z" />
    <glyph glyph-name="uni04BB" unicode="&#x4bb;" horiz-adv-x="1323" 
d="M68 0l417 1554h86l-188 -698q181 250 428 250q166 0 262 -94.5t96 -251.5q0 -70 -24 -164l-158 -596h-86l160 602q20 67 20 150q0 127 -75.5 200.5t-214.5 73.5q-151 0 -289.5 -117.5t-186.5 -302.5l-161 -606h-86z" />
    <glyph glyph-name="uni04C0" unicode="&#x4c0;" horiz-adv-x="593" 
d="M106 0l400 1491h92l-401 -1491h-91z" />
    <glyph glyph-name="uni04C1" unicode="&#x4c1;" horiz-adv-x="2340" 
d="M1475 1626q-122 0 -182.5 54.5t-43.5 148.5h74q2 -58 40.5 -88.5t127.5 -30.5q164 0 235 119h80q-36 -95 -123 -149t-208 -54zM1481 1491l-185 -686h238l815 686h127l-877 -731l523 -760h-103l-487 721h-258l-193 -721h-92l193 721h-236l-862 -721h-127l930 770l-496 721
h105l462 -686h246l187 686h90z" />
    <glyph glyph-name="uni04C2" unicode="&#x4c2;" horiz-adv-x="1849" 
d="M1112 1079l-133 -495h203l577 495h123l-633 -534l379 -545h-100l-348 508h-222l-135 -508h-86l135 508h-198l-600 -508h-123l659 551l-348 528h100l322 -495h209l133 495h86zM1128 1264q-121 0 -180.5 61.5t-40.5 167.5h68q-2 -71 38 -108t130 -37q165 0 246 145h75
q-39 -105 -128.5 -167t-207.5 -62z" />
    <glyph glyph-name="uni04CF" unicode="&#x4cf;" horiz-adv-x="540" 
d="M82 0l418 1554h86l-418 -1554h-86z" />
    <glyph glyph-name="uni04D0" unicode="&#x4d0;" horiz-adv-x="1650" 
d="M-53 0l1104 1501h88l297 -1501h-95l-79 426h-900l-311 -426h-104zM422 510h821l-170 889zM1145 1645q-122 0 -182 54t-43 148h73q2 -58 40.5 -88t127.5 -30q166 0 236 118h80q-35 -94 -123 -148t-209 -54z" />
    <glyph glyph-name="uni04D1" unicode="&#x4d1;" horiz-adv-x="1241" 
d="M416 -25q-91 0 -169 32.5t-129.5 102.5t-51.5 164q0 152 102 254q134 134 383 134q208 0 428 -62l10 35q17 66 17 115q0 129 -89.5 197.5t-254.5 68.5q-151 0 -310 -58l-18 80q168 60 336 60q196 0 308 -89t112 -249q0 -66 -21 -142l-166 -618h-84l55 207
q-177 -232 -458 -232zM432 53q173 0 316.5 107.5t187.5 273.5l25 94q-199 56 -422 56q-198 0 -303 -105q-78 -84 -78 -192t77 -171t197 -63zM786 1264q-121 0 -180.5 61.5t-40.5 167.5h68q-2 -71 38 -108t130 -37q165 0 246 145h75q-39 -105 -128.5 -167t-207.5 -62z" />
    <glyph glyph-name="uni04D2" unicode="&#x4d2;" horiz-adv-x="1650" 
d="M-53 0l1104 1501h88l297 -1501h-95l-79 426h-900l-311 -426h-104zM422 510h821l-170 889zM899 1661l39 143h135l-41 -143h-133zM1249 1661l41 143h133l-41 -143h-133z" />
    <glyph glyph-name="uni04D3" unicode="&#x4d3;" horiz-adv-x="1241" 
d="M416 -25q-91 0 -169 32.5t-129.5 102.5t-51.5 164q0 152 102 254q134 134 383 134q208 0 428 -62l10 35q17 66 17 115q0 129 -89.5 197.5t-254.5 68.5q-151 0 -310 -58l-18 80q168 60 336 60q196 0 308 -89t112 -249q0 -66 -21 -142l-166 -618h-84l55 207
q-177 -232 -458 -232zM432 53q173 0 316.5 107.5t187.5 273.5l25 94q-199 56 -422 56q-198 0 -303 -105q-78 -84 -78 -192t77 -171t197 -63zM555 1280l41 152h127l-41 -152h-127zM881 1280l41 152h127l-41 -152h-127z" />
    <glyph glyph-name="uni04D4" unicode="&#x4d4;" horiz-adv-x="2250" 
d="M-70 0l1317 1491h1125l-23 -84h-932l-164 -614h836l-23 -84h-835l-168 -625h942l-23 -84h-1034l115 426h-647l-375 -426h-111zM489 510h596l242 899h-49z" />
    <glyph glyph-name="uni04D5" unicode="&#x4d5;" horiz-adv-x="2101" 
d="M1427 -25q-164 0 -278 73.5t-162 201.5q-115 -129 -258 -202t-303 -73q-95 0 -175 32.5t-132.5 102.5t-52.5 164q0 152 102 254q134 134 383 134q208 0 428 -62l10 35q17 66 17 115q0 129 -89.5 197.5t-254.5 68.5q-151 0 -310 -58l-18 80q168 60 336 60q177 0 285 -73
t128 -208q85 131 215 210t279 79q99 0 178.5 -34t129 -92t76 -132.5t26.5 -159.5t-27 -178h-913q-5 -67 -5 -80q0 -170 104.5 -272.5t276.5 -102.5q116 0 205 37t174 109l49 -60q-195 -166 -424 -166zM440 53q145 0 278.5 72.5t246.5 206.5q-15 94 0 196q-204 56 -426 56
q-198 0 -303 -105q-78 -84 -78 -192t79 -171t203 -63zM1227 874q-118 -118 -164 -286h825q10 42 10 94q0 96 -33.5 172t-108.5 124t-181 48q-199 0 -348 -152z" />
    <glyph glyph-name="uni04D6" unicode="&#x4d6;" horiz-adv-x="1419" 
d="M1047 1626q-122 0 -182.5 54.5t-43.5 148.5h74q2 -58 40.5 -88.5t127.5 -30.5q164 0 235 119h80q-36 -95 -123 -149t-208 -54zM92 0l400 1491h1048l-24 -84h-955l-166 -614h862l-22 -84h-862l-168 -625h966l-22 -84h-1057z" />
    <glyph glyph-name="uni04D7" unicode="&#x4d7;" horiz-adv-x="1271" 
d="M1130 510h-913q-4 -54 -4 -80q0 -166 103 -270.5t270 -104.5q214 0 387 146l49 -60q-94 -80 -198.5 -123t-237.5 -43q-206 0 -335.5 126t-129.5 325q0 139 55 269t154 229q182 182 418 182q99 0 178 -33.5t129 -92t76 -133t26 -159.5t-27 -178zM397 874
q-118 -118 -164 -286h826q10 42 10 94q0 96 -34 172t-109 124t-181 48q-196 0 -348 -152zM840 1264q-121 0 -181 61.5t-41 167.5h68q-2 -71 38 -108t130 -37q165 0 246 145h76q-39 -105 -128.5 -167t-207.5 -62z" />
    <glyph glyph-name="uni04D8" unicode="&#x4d8;" horiz-adv-x="1736" 
d="M217 539q0 121 41 249h1270q6 50 6 99q0 253 -145 400t-392 147q-277 0 -544 -207l-52 69q289 220 598 220q284 0 455.5 -170t171.5 -459q0 -184 -75.5 -362.5t-204.5 -303.5q-255 -246 -576 -246q-137 0 -244 44t-173.5 121.5t-101 178.5t-34.5 220zM1274 272
q178 178 239 435h-1183q-19 -71 -19 -172q0 -100 27.5 -184t82.5 -150.5t147.5 -104t213.5 -37.5q138 0 264 56t228 157z" />
    <glyph glyph-name="uni04D9" unicode="&#x4d9;" horiz-adv-x="1271" 
d="M115 393q0 87 26 176h912q6 41 6 80q0 168 -103 272.5t-270 104.5q-213 0 -387 -147l-49 61q199 166 438 166q206 0 335.5 -127t129.5 -326q0 -138 -56 -268t-155 -229q-188 -181 -416 -181q-100 0 -179.5 33t-129.5 91t-76 133t-26 161zM874 205q118 117 164 287h-825
q-8 -31 -8 -95q0 -96 33 -171.5t107.5 -123t180.5 -47.5q198 0 348 150z" />
    <glyph glyph-name="uni04DC" unicode="&#x4dc;" horiz-adv-x="2340" 
d="M1229 1642l39 144h135l-41 -144h-133zM1579 1642l41 144h133l-41 -144h-133zM1481 1491l-185 -686h238l815 686h127l-877 -731l523 -760h-103l-487 721h-258l-193 -721h-92l193 721h-236l-862 -721h-127l930 770l-496 721h105l462 -686h246l187 686h90z" />
    <glyph glyph-name="uni04DD" unicode="&#x4dd;" horiz-adv-x="1849" 
d="M897 1280l41 152h127l-41 -152h-127zM1223 1280l41 152h127l-41 -152h-127zM1112 1079l-133 -495h203l577 495h123l-633 -534l379 -545h-100l-348 508h-222l-135 -508h-86l135 508h-198l-600 -508h-123l659 551l-348 528h100l322 -495h209l133 495h86z" />
    <glyph glyph-name="uni04DE" unicode="&#x4de;" horiz-adv-x="1466" 
d="M711 1661l39 143h135l-41 -143h-133zM1061 1661l41 143h133l-41 -143h-133zM383 1282l-45 72q271 162 553 162q232 0 367 -105.5t135 -269.5q0 -83 -34.5 -153t-94.5 -118t-134.5 -80t-160.5 -47q133 -38 208.5 -121t75.5 -204q0 -130 -77.5 -232t-211.5 -156.5
t-300 -54.5q-358 0 -617 228l62 65q238 -211 559 -211q215 0 353 98t138 261q0 130 -110 212.5t-326 82.5h-242l25 82h250q251 0 396.5 91.5t145.5 252.5q0 126 -108.5 212.5t-304.5 86.5q-248 0 -502 -154z" />
    <glyph glyph-name="uni04DF" unicode="&#x4df;" horiz-adv-x="1214" 
d="M520 1280l41 152h127l-41 -152h-127zM846 1280l41 152h127l-41 -152h-127zM997 303q0 -146 -134 -236t-343 -90q-282 0 -510 160l51 66q107 -75 214 -110.5t243 -35.5q172 0 279.5 67t107.5 177q0 95 -82 152t-252 57h-237l22 78h242q189 0 295 63t106 172
q0 92 -83 147.5t-230 55.5q-206 0 -430 -113l-39 68q235 125 471 125q189 0 296.5 -79t107.5 -202q0 -117 -86 -187t-226 -97q101 -27 159 -87.5t58 -150.5z" />
    <glyph glyph-name="uni04E2" unicode="&#x4e2;" horiz-adv-x="1701" 
d="M815 1677l25 86h635l-23 -86h-637zM1622 1491h98l-399 -1491h-92l360 1350l-1413 -1350h-84l400 1491h92l-359 -1329z" />
    <glyph glyph-name="uni04E3" unicode="&#x4e3;" horiz-adv-x="1372" 
d="M571 1321l23 82h618l-22 -82h-619zM1206 1079h99l-289 -1079h-86l252 952l-1016 -952h-98l288 1079h86l-254 -954z" />
    <glyph glyph-name="uni04E4" unicode="&#x4e4;" horiz-adv-x="1701" 
d="M879 1634l39 144h135l-41 -144h-133zM1229 1634l41 144h133l-41 -144h-133zM1622 1491h98l-399 -1491h-92l360 1350l-1413 -1350h-84l400 1491h92l-359 -1329z" />
    <glyph glyph-name="uni04E5" unicode="&#x4e5;" horiz-adv-x="1372" 
d="M641 1278l41 152h127l-41 -152h-127zM967 1278l41 152h127l-41 -152h-127zM1206 1079h99l-289 -1079h-86l252 952l-1016 -952h-98l288 1079h86l-254 -954z" />
    <glyph glyph-name="uni04E6" unicode="&#x4e6;" horiz-adv-x="1824" 
d="M946 1661l39 143h135l-41 -143h-133zM1296 1661l41 143h133l-40 -143h-134zM1073 1516q186 0 333.5 -85t228.5 -231.5t81 -325.5q0 -182 -72.5 -352t-201.5 -299q-118 -118 -267 -184t-313 -66q-186 0 -333.5 85.5t-228.5 231.5t-81 324q0 183 72.5 352.5t202.5 299.5
q118 119 266.5 184.5t312.5 65.5zM862 55q145 0 276 58t234 161q118 120 184 276t66 324q0 156 -68 283.5t-194.5 202t-286.5 74.5q-145 0 -276 -58.5t-234 -161.5q-118 -118 -184 -275t-66 -323q0 -158 68 -285.5t194 -201.5t287 -74z" />
    <glyph glyph-name="uni04E7" unicode="&#x4e7;" horiz-adv-x="1368" 
d="M643 1280l41 152h127l-41 -152h-127zM969 1280l41 152h127l-41 -152h-127zM762 1106q214 0 348.5 -135t134.5 -344q0 -129 -51 -249t-145 -214q-89 -89 -203 -139t-240 -50q-214 0 -349.5 135t-135.5 345q0 128 52 247.5t146 212.5q89 89 203.5 140t239.5 51zM614 55
q103 0 198 43t169 117q80 82 126 188t46 220q0 182 -110 291.5t-289 109.5q-103 0 -198 -43t-169 -117q-81 -81 -126.5 -186t-45.5 -219q0 -184 110 -294t289 -110z" />
    <glyph glyph-name="uni04E8" unicode="&#x4e8;" horiz-adv-x="1824" 
d="M1073 1516q186 0 333.5 -85t228.5 -231.5t81 -325.5q0 -184 -72 -353t-202 -298q-118 -119 -266.5 -184.5t-313.5 -65.5q-186 0 -333.5 85t-228.5 231t-81 325q0 184 72.5 354t202.5 300q118 118 266.5 183t312.5 65zM1374 274q182 189 232 435h-1289q-4 -62 -4 -93
q0 -242 151.5 -401.5t397.5 -159.5q286 0 512 219zM1622 874q0 157 -66.5 284t-193 201.5t-289.5 74.5q-292 0 -512 -220q-176 -176 -229 -421h1286q4 54 4 81z" />
    <glyph glyph-name="uni04E9" unicode="&#x4e9;" horiz-adv-x="1370" 
d="M762 1106q214 0 348.5 -135t134.5 -344q0 -129 -51 -249t-145 -214q-89 -89 -203 -139t-240 -50q-214 0 -349.5 135t-135.5 345q0 128 52 247.5t146 212.5q89 89 203.5 140t239.5 51zM614 55q103 0 198 43t169 117q121 121 160 291h-928q-2 -16 -2 -47
q0 -183 111.5 -293.5t291.5 -110.5zM387 864q-123 -120 -162 -278h928q2 14 2 37q0 182 -110 291.5t-291 109.5q-103 0 -198 -43t-169 -117z" />
    <glyph glyph-name="uni04EE" unicode="&#x4ee;" horiz-adv-x="1509" 
d="M696 1677l25 86h635l-23 -86h-637zM1679 1491l-1269 -1491h-113l446 522l-403 969h96l371 -901l762 901h110z" />
    <glyph glyph-name="uni04EF" unicode="&#x4ef;" horiz-adv-x="1241" 
d="M432 -2l-225 1081h92l199 -989l671 989h105l-768 -1110q-128 -180 -227 -248.5t-216 -68.5q-122 0 -223 69l47 68q86 -59 185 -59q87 0 169.5 58.5t190.5 209.5zM465 1321l22 82h619l-23 -82h-618z" />
    <glyph glyph-name="uni04F0" unicode="&#x4f0;" horiz-adv-x="1509" 
d="M762 1634l39 144h135l-41 -144h-133zM1112 1634l41 144h133l-41 -144h-133zM1679 1491l-1269 -1491h-113l446 522l-403 969h96l371 -901l762 901h110z" />
    <glyph glyph-name="uni04F1" unicode="&#x4f1;" horiz-adv-x="1241" 
d="M432 -2l-225 1081h92l199 -989l671 989h105l-768 -1110q-128 -180 -227 -248.5t-216 -68.5q-122 0 -223 69l47 68q86 -59 185 -59q87 0 169.5 58.5t190.5 209.5zM537 1278l41 152h127l-41 -152h-127zM862 1278l41 152h127l-41 -152h-127z" />
    <glyph glyph-name="uni04F2" unicode="&#x4f2;" horiz-adv-x="1509" 
d="M1679 1491l-1269 -1491h-113l446 522l-403 969h96l371 -901l762 901h110zM772 1622l264 238l105 -50l-277 -188h-92zM1057 1622l266 238l102 -50l-276 -188h-92z" />
    <glyph glyph-name="uni04F3" unicode="&#x4f3;" horiz-adv-x="1241" 
d="M432 -2l-225 1081h92l199 -989l671 989h105l-768 -1110q-128 -180 -227 -248.5t-216 -68.5q-122 0 -223 69l47 68q86 -59 185 -59q87 0 169.5 58.5t190.5 209.5zM539 1266l260 270l86 -51l-273 -219h-73zM844 1266l260 270l84 -51l-270 -219h-74z" />
    <glyph glyph-name="uni04F4" unicode="&#x4f4;" horiz-adv-x="1478" 
d="M1006 0l161 604q-198 -41 -387 -41q-112 0 -201.5 21t-157 64.5t-104 115t-36.5 166.5q0 101 34 221l91 340h92l-95 -352q-30 -107 -30 -205q0 -144 110 -215.5t308 -71.5q215 0 401 47l215 797h90l-399 -1491h-92zM723 1634l39 144h135l-41 -144h-133zM1073 1634l41 144
h133l-41 -144h-133z" />
    <glyph glyph-name="uni04F5" unicode="&#x4f5;" horiz-adv-x="1241" 
d="M526 1278l41 152h127l-41 -152h-127zM852 1278l41 152h127l-41 -152h-127zM1174 1079l-289 -1079h-86l104 389q-172 -35 -305 -35q-405 0 -405 295q0 67 30 187l68 243h86l-70 -254q-26 -98 -26 -172q0 -219 319 -219q179 0 326 39l161 606h87z" />
    <glyph glyph-name="uni04F8" unicode="&#x4f8;" horiz-adv-x="1970" 
d="M1497 0l401 1491h91l-400 -1491h-92zM92 0l400 1491h92l-156 -578h365q248 0 383 -102.5t135 -292.5q0 -197 -133 -330q-194 -188 -592 -188h-494zM1221 516q0 154 -113 232.5t-326 78.5h-376l-201 -743h383q360 0 520 160q113 107 113 272zM995 1634l39 144h135
l-41 -144h-133zM1346 1634l40 144h134l-41 -144h-133z" />
    <glyph glyph-name="uni04F9" unicode="&#x4f9;" horiz-adv-x="1642" 
d="M772 1278l41 152h127l-41 -152h-127zM1098 1278l41 152h127l-41 -152h-127zM1200 0l289 1079h86l-289 -1079h-86zM651 598h-338l-137 -520h373q194 0 310 79.5t116 219.5q0 221 -324 221zM334 678h328q199 0 301 -79t102 -218q0 -120 -69 -207.5t-187 -130.5t-270 -43
h-471l288 1079h86z" />
    <glyph glyph-name="baht" unicode="&#xe3f;" horiz-adv-x="1363" 
d="M86 0l399 1491h406q51 0 98 -6l78 174h84l-86 -191q122 -32 187 -112t65 -201q0 -165 -117 -269.5t-301 -135.5q140 -27 216.5 -104.5t76.5 -207.5q0 -193 -164.5 -315.5t-452.5 -122.5h-161l-113 -252h-84l113 252h-244zM1106 440q0 133 -98 201.5t-281 73.5l-283 -635
h136q253 0 389.5 96.5t136.5 263.5zM385 791h299l272 616q-50 4 -75 4h-330zM1229 1147q0 194 -201 248l-268 -604q219 7 344 104t125 252zM195 80h174l282 635h-289z" />
    <glyph glyph-name="Wgrave" unicode="&#x1e80;" horiz-adv-x="2299" 
d="M1358 1630l-176 189l102 49l139 -238h-65zM473 -10l-133 1501h94l113 -1360l807 1364h73l84 -1364l834 1360h102l-931 -1501h-76l-90 1335l-801 -1335h-76z" />
    <glyph glyph-name="wgrave" unicode="&#x1e81;" horiz-adv-x="1802" 
d="M332 -8l-101 1087h88l80 -962l590 968h70l74 -968l591 962h97l-682 -1087h-74l-76 952l-586 -952h-71zM1022 1268l-162 217l109 53l112 -270h-59z" />
    <glyph glyph-name="Wacute" unicode="&#x1e82;" horiz-adv-x="2299" 
d="M1368 1630l266 238l103 -49l-277 -189h-92zM473 -10l-133 1501h94l113 -1360l807 1364h73l84 -1364l834 1360h102l-931 -1501h-76l-90 1335l-801 -1335h-76z" />
    <glyph glyph-name="wacute" unicode="&#x1e83;" horiz-adv-x="1802" 
d="M1024 1268l260 270l107 -53l-281 -217h-86zM332 -8l-101 1087h88l80 -962l590 968h70l74 -968l591 962h97l-682 -1087h-74l-76 952l-586 -952h-71z" />
    <glyph glyph-name="Wdieresis" unicode="&#x1e84;" horiz-adv-x="2299" 
d="M1186 1642l39 144h135l-41 -144h-133zM1536 1642l41 144h133l-41 -144h-133zM473 -10l-133 1501h94l113 -1360l807 1364h73l84 -1364l834 1360h102l-931 -1501h-76l-90 1335l-801 -1335h-76z" />
    <glyph glyph-name="wdieresis" unicode="&#x1e85;" horiz-adv-x="1802" 
d="M852 1280l41 152h127l-41 -152h-127zM1178 1280l41 152h127l-41 -152h-127zM332 -8l-101 1087h88l80 -962l590 968h70l74 -968l591 962h97l-682 -1087h-74l-76 952l-586 -952h-71z" />
    <glyph glyph-name="Ygrave" unicode="&#x1ef2;" horiz-adv-x="1447" 
d="M522 0l164 610l-391 881h100l353 -809l788 809h123l-889 -901l-158 -590h-90zM918 1622l-177 188l103 50l139 -238h-65z" />
    <glyph glyph-name="ygrave" unicode="&#x1ef3;" horiz-adv-x="1241" 
d="M432 -2l-225 1081h92l199 -989l671 989h105l-768 -1110q-128 -180 -227 -248.5t-216 -68.5q-122 0 -223 69l47 68q86 -59 185 -59q87 0 169.5 58.5t190.5 209.5zM709 1266l-162 217l108 53l113 -270h-59z" />
    <glyph glyph-name="enspace" unicode="&#x2002;" horiz-adv-x="1024" 
 />
    <glyph glyph-name="emspace" unicode="&#x2003;" horiz-adv-x="2048" 
 />
    <glyph glyph-name="threeperemspace" unicode="&#x2004;" horiz-adv-x="681" 
 />
    <glyph glyph-name="fourperemspace" unicode="&#x2005;" horiz-adv-x="512" 
 />
    <glyph glyph-name="figurespace" unicode="&#x2007;" horiz-adv-x="1290" 
 />
    <glyph glyph-name="thinspace" unicode="&#x2009;" horiz-adv-x="272" 
 />
    <glyph glyph-name="hairspace" unicode="&#x200a;" horiz-adv-x="153" 
 />
    <glyph glyph-name="endash" unicode="&#x2013;" horiz-adv-x="1159" 
d="M174 588l25 90h833l-24 -90h-834z" />
    <glyph glyph-name="emdash" unicode="&#x2014;" horiz-adv-x="1939" 
d="M174 588l25 90h1611l-24 -90h-1612z" />
    <glyph glyph-name="quoteleft" unicode="&#x2018;" horiz-adv-x="477" 
d="M328 1128l37 142q29 103 75 152.5t135 74.5l13 -43q-124 -44 -148 -166h52l-43 -160h-121z" />
    <glyph glyph-name="quoteright" unicode="&#x2019;" horiz-adv-x="477" 
d="M299 1122l-12 43q122 43 147 166h-51l43 160h121l-37 -139q-29 -105 -75.5 -155t-135.5 -75z" />
    <glyph glyph-name="quotesinglbase" unicode="&#x201a;" horiz-adv-x="477" 
d="M-49 -209l-12 43q122 43 147 166h-53l43 160h123l-39 -140q-29 -105 -74.5 -154.5t-134.5 -74.5z" />
    <glyph glyph-name="quotedblleft" unicode="&#x201c;" horiz-adv-x="802" 
d="M326 1128l36 142q29 103 75.5 152.5t135.5 74.5l13 -43q-124 -44 -148 -166h54l-46 -160h-120zM651 1128l39 142q29 104 75 153t134 74l12 -43q-122 -43 -147 -166h53l-43 -160h-123z" />
    <glyph glyph-name="quotedblright" unicode="&#x201d;" horiz-adv-x="802" 
d="M299 1122l-14 43q122 43 147 166h-51l43 160h121l-37 -139q-29 -104 -75.5 -154.5t-133.5 -75.5zM625 1122l-15 43q123 42 148 166h-51l43 160h120l-36 -139q-29 -105 -75 -155t-134 -75z" />
    <glyph glyph-name="quotedblbase" unicode="&#x201e;" horiz-adv-x="804" 
d="M-49 -209l-12 43q122 43 147 166h-53l43 160h123l-39 -140q-29 -105 -74.5 -154.5t-134.5 -74.5zM279 -209l-15 43q123 42 148 166h-52l43 160h121l-37 -140q-29 -105 -74.5 -154.5t-133.5 -74.5z" />
    <glyph glyph-name="dagger" unicode="&#x2020;" horiz-adv-x="888" 
d="M367 508l174 614l-269 -14l23 82l260 -14l72 315h88l-99 -315l269 14l-21 -82l-264 14l-154 -614h-79z" />
    <glyph glyph-name="daggerdbl" unicode="&#x2021;" horiz-adv-x="917" 
d="M242 0l98 315l-270 -14l22 82l262 -14l90 376l111 377l-268 -14l22 82l260 -14l72 315h88l-98 -315l270 14l-22 -82l-265 14l-90 -377l-112 -376l270 14l-20 -82l-261 14l-71 -315h-88z" />
    <glyph glyph-name="bullet" unicode="&#x2022;" horiz-adv-x="1005" 
d="M582 1014q94 0 153.5 -60t59.5 -161q0 -127 -93 -220q-88 -88 -198 -88q-94 0 -153.5 60.5t-59.5 161.5q0 129 92 221q86 86 199 86z" />
    <glyph glyph-name="ellipsis" unicode="&#x2026;" horiz-adv-x="1355" 
d="M33 0l43 160h123l-43 -160h-123zM473 0l43 160h121l-43 -160h-121zM911 0l43 160h123l-45 -160h-121z" />
    <glyph glyph-name="perthousand" unicode="&#x2030;" horiz-adv-x="2594" 
d="M510 737q-127 0 -209 88t-82 219q0 99 39 190.5t107 158.5q114 114 258 114q127 0 208.5 -88t81.5 -219q0 -99 -38.5 -190t-106.5 -158q-115 -115 -258 -115zM516 813q103 0 189 86q56 56 88 134t32 159q0 107 -56 173.5t-153 66.5q-102 0 -188 -86q-57 -55 -89 -133
t-32 -160q0 -107 56 -173.5t153 -66.5zM160 0l731 745l731 746h107l-732 -746l-731 -745h-106zM1264 -16q-127 0 -208 88t-81 219q0 99 38 190t105 158q115 115 260 115q127 0 208 -88.5t81 -219.5q0 -99 -38 -190t-105 -158q-114 -114 -260 -114zM1270 59q104 0 190 86
q56 56 88.5 134t32.5 159q0 107 -56 173.5t-153 66.5t-190 -86q-56 -56 -88.5 -134t-32.5 -159q0 -107 56 -173.5t153 -66.5zM2079 -16q-127 0 -208 88t-81 219q0 99 38 190t105 158q115 115 260 115q127 0 208 -88.5t81 -219.5q0 -99 -38 -190t-105 -158
q-114 -114 -260 -114zM2085 59q97 0 190 86q56 56 88.5 134t32.5 159q0 108 -56.5 174t-154.5 66q-102 0 -188 -86q-56 -56 -88.5 -134t-32.5 -159q0 -107 56 -173.5t153 -66.5z" />
    <glyph glyph-name="guilsinglleft" unicode="&#x2039;" horiz-adv-x="679" 
d="M340 92l-231 443l4 16l467 442l61 -49l-426 -414l195 -399z" />
    <glyph glyph-name="guilsinglright" unicode="&#x203a;" horiz-adv-x="679" 
d="M336 993l233 -444l-4 -14l-469 -443l-61 49l426 414l-195 399z" />
    <glyph glyph-name="fraction" unicode="&#x2044;" horiz-adv-x="241" 
d="M-629 0l723 758l688 733h90l-725 -758l-688 -733h-88z" />
    <glyph glyph-name="zero.sup" unicode="&#x2070;" 
d="M963 1481q0 -132 -52 -265.5t-143 -224.5q-104 -104 -227 -104q-105 0 -165.5 73t-60.5 195q0 130 53 265.5t142 224.5q106 106 227 106q105 0 165.5 -73t60.5 -197zM389 1161q0 -99 41.5 -155t118.5 -56q89 0 166 80q78 78 126 204.5t48 240.5q0 99 -41.5 155t-118.5 56
q-88 0 -166 -78q-77 -77 -125.5 -205t-48.5 -242z" />
    <glyph glyph-name="four.sup" unicode="&#x2074;" 
d="M659 903l54 199h-414l-8 63l571 578h88l-153 -580h121l-17 -61h-123l-51 -199h-68zM377 1163h352l131 488h-2z" />
    <glyph glyph-name="five.sup" unicode="&#x2075;" 
d="M561 887q-188 0 -280 147l59 35q74 -121 227 -121q111 0 184.5 65.5t73.5 160.5q0 77 -51 119t-139 42q-98 0 -195 -51l-49 39l137 406h465l-20 -70h-404l-102 -299q80 39 172 39q118 0 188 -61t70 -160q0 -123 -94.5 -207t-241.5 -84z" />
    <glyph glyph-name="six.sup" unicode="&#x2076;" 
d="M553 889q-119 0 -189.5 73t-70.5 212q0 130 49 253t135 209q115 115 254 115q150 0 242 -115l-53 -45q-79 95 -191 95t-203 -91q-114 -114 -155 -307q33 57 98 98t149 41q105 0 173.5 -62.5t68.5 -166.5q0 -123 -93.5 -216t-213.5 -93zM555 950q94 0 163.5 72t69.5 170
q0 79 -48 125.5t-132 46.5q-102 0 -174 -72q-65 -68 -65 -162q0 -77 48.5 -128.5t137.5 -51.5z" />
    <glyph glyph-name="seven.sup" unicode="&#x2077;" 
d="M342 903l569 756h-479l19 70h563l-13 -54l-573 -772h-86z" />
    <glyph glyph-name="eight.sup" unicode="&#x2078;" 
d="M580 887q-133 0 -215 62t-82 155q0 95 66.5 157t176.5 80q-116 54 -116 177q0 102 84.5 167.5t210.5 65.5q118 0 193 -60t75 -153q0 -86 -60.5 -144t-148.5 -77q63 -24 101 -73t38 -116q0 -106 -92.5 -173.5t-230.5 -67.5zM582 948q108 0 177.5 53t69.5 132
q0 73 -61.5 119t-163.5 46q-113 0 -182.5 -52t-69.5 -132q0 -70 64 -118t166 -48zM676 1356q101 0 163 51t62 125q0 68 -55 113t-141 45q-98 0 -161 -48.5t-63 -125.5q0 -72 53.5 -116t141.5 -44z" />
    <glyph glyph-name="nine.sup" unicode="&#x2079;" 
d="M545 887q-156 0 -250 125l51 45q47 -57 95 -82t108 -25q111 0 205 94q108 108 153 299q-33 -58 -98.5 -99.5t-149.5 -41.5q-105 0 -173 63.5t-68 170.5q0 123 89.5 218t211.5 95q120 0 192 -73t72 -214q0 -132 -48.5 -255t-131.5 -206q-114 -114 -258 -114zM670 1264
q99 0 170 71q69 66 69 166q0 81 -49.5 134t-138.5 53q-95 0 -163.5 -74.5t-68.5 -171.5q0 -80 48 -129t133 -49z" />
    <glyph glyph-name="zero.inf" unicode="&#x2080;" 
d="M645 295q0 -132 -52 -266t-142 -224q-104 -104 -228 -104q-105 0 -165 72.5t-60 195.5q0 130 53 265.5t142 224.5q106 106 227 106q105 0 165 -73t60 -197zM72 -25q0 -100 41 -155.5t118 -55.5q89 0 166 80q78 78 126 204.5t48 240.5q0 100 -41 155.5t-118 55.5
q-88 0 -166 -78q-77 -77 -125.5 -205t-48.5 -242z" />
    <glyph glyph-name="one.inf" unicode="&#x2081;" horiz-adv-x="700" 
d="M143 -279l203 758l-217 -73l-2 67l252 86h59l-223 -838h-72z" />
    <glyph glyph-name="two.inf" unicode="&#x2082;" 
d="M-78 -279l15 62l466 350q82 61 121 111t39 112q0 66 -48 105t-126 39q-127 0 -242 -125l-47 39q130 151 297 151q106 0 171 -56t67 -147q0 -73 -44.5 -135.5t-144.5 -136.5l-403 -301h477l-18 -68h-580z" />
    <glyph glyph-name="three.inf" unicode="&#x2083;" 
d="M236 -299q-202 0 -285 156l59 32q73 -125 226 -125q104 0 175.5 56t71.5 141q0 77 -56.5 117.5t-156.5 40.5h-43l-20 41l373 317h-439l19 66h534l-16 -58l-369 -311q109 -5 178.5 -57.5t69.5 -147.5q0 -113 -95.5 -190.5t-225.5 -77.5z" />
    <glyph glyph-name="four.inf" unicode="&#x2084;" 
d="M342 -283l53 199h-413l-9 64l572 577h88l-154 -580h121l-16 -61h-123l-51 -199h-68zM59 -23h353l131 488h-2z" />
    <glyph glyph-name="five.inf" unicode="&#x2085;" 
d="M244 -299q-189 0 -281 147l60 35q74 -121 227 -121q111 0 184.5 65.5t73.5 160.5q0 77 -51.5 119.5t-139.5 42.5q-95 0 -194 -52l-49 39l137 406h465l-21 -70h-403l-102 -299q80 39 172 39q118 0 188 -61t70 -160q0 -123 -94.5 -207t-241.5 -84z" />
    <glyph glyph-name="six.inf" unicode="&#x2086;" 
d="M236 -297q-119 0 -190 73t-71 212q0 130 49.5 253.5t135.5 209.5q114 114 254 114q150 0 241 -114l-53 -45q-78 94 -190 94q-113 0 -203 -90q-115 -115 -156 -308q34 57 99 98.5t149 41.5q105 0 173.5 -63t68.5 -167q0 -123 -93.5 -216t-213.5 -93zM238 -236
q94 0 163.5 72t69.5 170q0 79 -48 125.5t-132 46.5q-102 0 -174 -72q-66 -69 -66 -161q0 -77 49 -129t138 -52z" />
    <glyph glyph-name="seven.inf" unicode="&#x2087;" 
d="M47 -283l569 756h-479l19 70h563l-12 -54l-574 -772h-86z" />
    <glyph glyph-name="eight.inf" unicode="&#x2088;" 
d="M262 -299q-133 0 -215 62t-82 155q0 95 67 157.5t177 80.5q-117 55 -117 176q0 102 84.5 167.5t210.5 65.5q118 0 193 -60t75 -153q0 -86 -60.5 -144t-148.5 -77q63 -24 101.5 -73t38.5 -115q0 -106 -93 -174t-231 -68zM264 -238q108 0 178 53t70 132q0 73 -61.5 119.5
t-163.5 46.5q-113 0 -182.5 -52.5t-69.5 -132.5q0 -71 63.5 -118.5t165.5 -47.5zM358 170q102 0 164 51t62 125q0 68 -55.5 113t-141.5 45q-98 0 -160.5 -48.5t-62.5 -125.5q0 -72 53 -116t141 -44z" />
    <glyph glyph-name="nine.inf" unicode="&#x2089;" 
d="M227 -299q-156 0 -250 125l52 45q47 -57 94.5 -82t107.5 -25q110 0 205 95q109 109 154 299q-33 -58 -98.5 -100t-149.5 -42q-105 0 -173.5 63.5t-68.5 170.5q0 123 89.5 218t211.5 95q120 0 192.5 -73t72.5 -214q0 -132 -49 -254.5t-132 -205.5q-115 -115 -258 -115z
M352 78q98 0 170 72q70 67 70 165q0 81 -50 134t-139 53q-95 0 -163 -74.5t-68 -171.5q0 -80 47.5 -129t132.5 -49z" />
    <glyph glyph-name="colonmonetary" unicode="&#x20a1;" horiz-adv-x="1302" 
d="M1292 1659h82l-117 -277q54 -44 103 -104l-62 -51q-49 58 -77 82l-525 -1239q185 0 365 129l41 -62q-92 -67 -195 -105.5t-239 -37.5l-103 -246h-84l109 252q-114 18 -199 76l-139 -328h-82l158 375q-176 155 -176 442q0 211 76 400t208 321q208 208 473 211l70 162h84
l-72 -166q108 -13 201 -66zM242 565q0 -224 123 -360l514 1214q-204 -9 -377 -178q-122 -122 -193 -302t-67 -374zM954 1417l-532 -1263q86 -65 203 -80l536 1278q-90 57 -207 65z" />
    <glyph glyph-name="naira" unicode="&#x20a6;" horiz-adv-x="1771" 
d="M1640 506h-208l-136 -506h-112l-195 506h-581l-136 -506h-84l136 506h-213l22 76h211l88 336h-211l21 75h211l133 498h121l188 -498h582l133 498h84l-133 -498h213l-23 -75h-211l-88 -336h211zM518 918l-90 -336h539l-129 336h-320zM918 918l129 -336h319l90 336h-538z
M649 1409l-112 -420h274l-162 422v-2zM1235 94v2l111 414h-271z" />
    <glyph glyph-name="rupee" unicode="&#x20a8;" horiz-adv-x="2301" 
d="M2030 281q0 74 -54 124.5t-190 104.5q-76 29 -126.5 55.5t-90.5 60.5t-59 76t-19 95q0 128 107 217.5t282 89.5q97 0 200.5 -39.5t176.5 -103.5l-55 -64q-69 58 -157.5 93.5t-172.5 35.5q-134 0 -212.5 -66t-78.5 -151q0 -71 54.5 -118.5t193.5 -102.5
q155 -62 223 -127.5t68 -165.5q0 -130 -114 -224t-280 -94q-123 0 -239 47t-207 136l61 61q172 -166 394 -166q121 0 208 66.5t87 159.5zM993 0l-276 612h-414l-164 -612h-86l400 1491h407q214 0 341.5 -98t127.5 -285q0 -105 -43 -193t-116.5 -147.5t-165 -96.5t-195.5 -50
l285 -621h-101zM324 690h364q113 0 211 25.5t175.5 75t122 131.5t44.5 188q0 146 -98.5 222.5t-280.5 76.5h-344z" />
    <glyph glyph-name="won" unicode="&#x20a9;" horiz-adv-x="2367" 
d="M2251 508h-398l-284 -516h-105l-20 516h-539l-295 -516h-102l-10 516h-398l21 72h375l-7 340h-278l20 73h256l-8 498h90l6 -498h519l286 502h113l12 -502h523l274 498h96l-276 -498h260l-21 -73h-280l-187 -340h377zM1440 580l-10 340h-289l-193 -340h492zM573 920
l2 -340h289l189 340h-480zM1509 920l11 -340h286l181 340h-478zM578 80h8l237 428h-248zM1532 80h8l227 428h-245zM1409 1395l-227 -402h245l-10 402h-8z" />
    <glyph glyph-name="sheqel" unicode="&#x20aa;" horiz-adv-x="1345" 
d="M41 0l289 1079h311q140 0 213.5 -50t73.5 -163q0 -60 -21 -133l-94 -352h-82l94 354q19 82 19 113q0 80 -51.5 116.5t-153.5 36.5h-246l-268 -1001h-84zM1014 0h-266q-316 0 -283 324l39 403h80l-37 -387q-13 -139 34 -199.5t164 -60.5h205l269 999h84z" />
    <glyph glyph-name="Euro" unicode="&#x20ac;" horiz-adv-x="1501" 
d="M201 895l22 84h156q78 198 213 330q204 207 479 207q176 0 297 -95t168 -243l-80 -31q-114 287 -399 287q-221 0 -398 -177q-109 -109 -184 -278h662l-23 -84h-670q-43 -130 -49 -279h645l-22 -86h-623q8 -216 120.5 -344.5t301.5 -128.5q131 0 235 53.5t201 161.5
l64 -53q-104 -120 -226 -182t-276 -62q-219 0 -362 150t-150 405h-199l23 86h176q6 140 47 279h-149z" />
    <glyph glyph-name="peso" unicode="&#x20b1;" horiz-adv-x="1538" 
d="M1579 983h-193q-27 -146 -129 -248q-196 -196 -598 -196h-260q-5 -20 -69.5 -263.5t-73.5 -275.5h-92l262 983h-209l21 78h208l115 430h316q279 0 417 -135q111 -111 103 -295h205zM420 621h244q359 0 526 167q82 82 106 197h-780zM631 1409l-94 -350h770q3 149 -82 237
q-113 113 -351 113h-243z" />
    <glyph glyph-name="hryvnia" unicode="&#x20b4;" horiz-adv-x="1372" 
d="M258 950l27 74l669 -109q134 77 191 148t57 156q0 101 -78 158t-229 57q-199 0 -408 -121l-38 76q221 127 452 127q195 0 296 -83t101 -212q0 -187 -217 -326l271 -43l-27 -72l-348 56l-338 -187l600 -94l-27 -74l-682 109q-140 -83 -192.5 -155t-52.5 -156
q0 -101 80.5 -161.5t230.5 -60.5q217 0 455 136l41 -78q-257 -140 -498 -140q-203 0 -304.5 83.5t-101.5 215.5q0 191 218 336l-259 41l27 74l334 -53l338 184z" />
    <glyph glyph-name="numero" unicode="&#x2116;" horiz-adv-x="2402" 
d="M74 0l397 1491h82l524 -1331l357 1331h86l-400 -1491h-67l-533 1354l-362 -1354h-84zM1956 610q-146 0 -230 97.5t-84 257.5q0 113 44 220t114 179q67 66 139 100.5t164 34.5q145 0 228.5 -98t83.5 -256q0 -115 -43.5 -223t-114.5 -177q-64 -66 -136 -100.5t-165 -34.5z
M1960 682q129 0 235 106q63 63 101.5 158t38.5 197q0 126 -64 205t-174 79q-127 0 -233 -106q-63 -65 -101.5 -159t-38.5 -195q0 -127 63 -206t173 -79zM1487 336l18 72h703l-19 -72h-702z" />
    <glyph glyph-name="published" unicode="&#x2117;" horiz-adv-x="1796" 
d="M815 1147h252q125 0 200.5 -55t75.5 -166q0 -134 -105.5 -207.5t-279.5 -73.5h-198l-76 -278h-78zM1264 924q0 76 -53 112.5t-146 36.5h-191l-96 -354h189q59 0 109 9.5t94 31.5t69 64t25 100zM1034 1516q204 0 361 -89.5t240 -243.5t83 -345q0 -173 -66 -334t-188 -283
q-246 -246 -594 -246q-204 0 -361 89.5t-240 243.5t-83 345q0 173 66 334t188 283q246 246 594 246zM877 27q315 0 542 227q116 116 178 266t62 320q0 127 -43 240t-121.5 198.5t-199.5 135.5t-267 50q-316 0 -543 -227q-116 -116 -177.5 -265.5t-61.5 -320.5
q0 -127 43 -240t121.5 -198.5t199.5 -135.5t267 -50z" />
    <glyph glyph-name="servicemark" unicode="&#x2120;" horiz-adv-x="1519" 
d="M444 823q-83 0 -153.5 34.5t-112.5 92.5l47 37q86 -108 226 -108q77 0 126.5 39t49.5 96q0 42 -32 69.5t-112 57.5q-98 38 -139 74.5t-41 99.5q0 68 51 119q67 67 191 67q141 0 227 -100l-45 -41q-78 88 -192 88q-75 0 -122.5 -38.5t-47.5 -88.5q0 -42 35.5 -68.5
t119.5 -58.5q87 -33 128.5 -72t41.5 -102q0 -72 -55 -127q-70 -70 -191 -70zM813 836l186 655h56l155 -393l369 393h72l-189 -655h-61l158 544l-367 -383h-8l-154 383l-156 -544h-61z" />
    <glyph glyph-name="trademark" unicode="&#x2122;" horiz-adv-x="1476" 
d="M338 836l170 596h-221l18 59h504l-18 -59h-222l-170 -596h-61zM768 836l188 655h56l155 -393l369 393h70l-187 -655h-61l155 544l-364 -383h-8l-154 383l-156 -544h-63z" />
    <glyph glyph-name="Omega" unicode="&#x2126;" horiz-adv-x="1851" 
d="M354 711q0 -181 74.5 -329.5t243.5 -305.5l-21 -76h-610l22 84l496 -4q-154 148 -226.5 300.5t-72.5 330.5q0 167 64 316t174.5 256t265.5 170t330 63q297 0 474 -168.5t177 -440.5q0 -168 -73 -317t-203.5 -272t-325.5 -238l489 4l-24 -84h-635l20 76q159 89 276 177
t204 189t131.5 215t46.5 242q2 114 -35 211.5t-107.5 169.5t-179 113t-242.5 41q-202 0 -369 -91.5t-265.5 -258t-98.5 -373.5z" />
    <glyph glyph-name="onethird" unicode="&#x2153;" horiz-adv-x="1775" 
d="M1186 -20q-203 0 -285 155l60 33q73 -125 225 -125q104 0 176 56t72 141q0 77 -56.5 117t-156.5 40h-43l-21 41l373 318h-438l18 65h535l-17 -57l-368 -311q109 -5 178 -57.5t69 -147.5q0 -113 -95.5 -190.5t-225.5 -77.5zM340 670l203 757l-217 -73l-2 65l251 86h62
l-225 -835h-72zM61 0l723 758l689 733h90l-725 -758l-688 -733h-89z" />
    <glyph glyph-name="twothirds" unicode="&#x2154;" horiz-adv-x="1935" 
d="M1346 -20q-203 0 -285 155l59 33q73 -125 226 -125q104 0 175.5 56t71.5 141q0 77 -56.5 117t-156.5 40h-43l-20 41l373 318h-439l19 65h534l-16 -57l-369 -311q109 -5 178.5 -57.5t69.5 -147.5q0 -113 -95.5 -190.5t-225.5 -77.5zM109 670l14 59l467 350q82 60 121 112
t39 114q0 65 -48 104t-127 39q-124 0 -241 -127l-47 41q129 149 297 149q105 0 170 -56t67 -144q0 -76 -44 -138.5t-144 -136.5l-404 -301h478l-19 -65h-579zM219 0l723 758l688 733h90l-725 -758l-688 -733h-88z" />
    <glyph glyph-name="onefifth" unicode="&#x2155;" horiz-adv-x="1775" 
d="M1194 -20q-189 0 -281 147l60 35q74 -121 227 -121q111 0 184.5 65t73.5 160q0 77 -51 119.5t-139 42.5q-98 0 -195 -51l-49 39l137 405h465l-20 -69h-404l-102 -299q80 39 172 39q117 0 187.5 -61.5t70.5 -160.5q0 -123 -94.5 -206.5t-241.5 -83.5zM340 670l203 757
l-217 -73l-2 65l251 86h62l-225 -835h-72zM76 0l723 758l688 733h90l-725 -758l-688 -733h-88z" />
    <glyph glyph-name="twofifths" unicode="&#x2156;" horiz-adv-x="1935" 
d="M109 670l14 59l467 350q82 60 121 112t39 114q0 65 -48 104t-127 39q-124 0 -241 -127l-47 41q129 149 297 149q105 0 170 -56t67 -144q0 -76 -44 -138.5t-144 -136.5l-404 -301h478l-19 -65h-579zM240 0l723 758l688 733h90l-725 -758l-688 -733h-88zM1354 -20
q-189 0 -281 147l60 35q74 -121 227 -121q111 0 184.5 65t73.5 160q0 77 -51.5 119.5t-139.5 42.5q-97 0 -194 -51l-49 39l137 405h465l-21 -69h-403l-102 -299q80 39 172 39q117 0 187.5 -61.5t70.5 -160.5q0 -123 -94.5 -206.5t-241.5 -83.5z" />
    <glyph glyph-name="threefifths" unicode="&#x2157;" horiz-adv-x="1935" 
d="M1354 -20q-189 0 -281 147l60 35q74 -121 227 -121q111 0 184.5 65t73.5 160q0 77 -51.5 119.5t-139.5 42.5q-97 0 -194 -51l-49 39l137 405h465l-21 -69h-403l-102 -299q80 39 172 39q117 0 187.5 -61.5t70.5 -160.5q0 -123 -94.5 -206.5t-241.5 -83.5zM209 0l723 758
l688 733h90l-725 -758l-688 -733h-88zM420 647q-202 0 -285 156l60 35q73 -125 225 -125q104 0 176 55.5t72 140.5q0 77 -56.5 116.5t-156.5 39.5h-43l-21 43l373 315h-438l18 68h535l-17 -59l-368 -310q109 -5 178 -57t69 -147q0 -114 -95.5 -192.5t-225.5 -78.5z" />
    <glyph glyph-name="fourfifths" unicode="&#x2158;" horiz-adv-x="1935" 
d="M528 664l52 200h-412l-8 62l571 577h88l-155 -577h122l-16 -62h-123l-51 -200h-68zM246 926h350l131 487h-2zM1354 -20q-189 0 -281 147l60 35q74 -121 227 -121q111 0 184.5 65t73.5 160q0 77 -51.5 119.5t-139.5 42.5q-97 0 -194 -51l-49 39l137 405h465l-21 -69h-403
l-102 -299q80 39 172 39q117 0 187.5 -61.5t70.5 -160.5q0 -123 -94.5 -206.5t-241.5 -83.5zM240 0l723 758l688 733h90l-725 -758l-688 -733h-88z" />
    <glyph glyph-name="onesixth" unicode="&#x2159;" horiz-adv-x="1775" 
d="M1186 -18q-119 0 -189.5 72.5t-70.5 211.5q0 131 49 254t135 209q115 115 254 115q150 0 242 -115l-54 -45q-78 94 -190 94q-113 0 -203 -90q-114 -114 -155 -307q33 57 98 98t149 41q105 0 173.5 -62.5t68.5 -166.5q0 -123 -93.5 -216t-213.5 -93zM1188 43
q94 0 163.5 72t69.5 170q0 79 -48 125.5t-132 46.5q-102 0 -174 -72q-66 -69 -66 -162q0 -77 49 -128.5t138 -51.5zM340 670l203 757l-217 -73l-2 65l251 86h62l-225 -835h-72zM92 0l723 758l688 733h90l-725 -758l-688 -733h-88z" />
    <glyph glyph-name="fivesixths" unicode="&#x215a;" horiz-adv-x="1935" 
d="M1346 -18q-119 0 -190 72.5t-71 211.5q0 130 49.5 253.5t135.5 209.5q115 115 254 115q149 0 241 -115l-53 -45q-78 94 -190 94q-113 0 -203 -90q-58 -58 -98 -139.5t-58 -167.5q33 56 98.5 97.5t149.5 41.5q105 0 173.5 -62.5t68.5 -166.5q0 -123 -93.5 -216t-213.5 -93
zM1348 43q94 0 163.5 72t69.5 170q0 79 -48 125.5t-132 46.5q-102 0 -174 -72q-66 -69 -66 -162q0 -77 49 -128.5t138 -51.5zM430 647q-95 0 -166 39.5t-114 108.5l59 34q72 -118 227 -118q110 0 184 64t74 161q0 77 -52 118.5t-140 41.5q-99 0 -193 -49l-49 36l137 408h463
l-20 -70h-404l-102 -301q84 41 174 41q118 0 188 -61.5t70 -161.5q0 -122 -94.5 -206.5t-241.5 -84.5zM219 0l723 758l688 733h90l-725 -758l-688 -733h-88z" />
    <glyph glyph-name="oneeighth" unicode="&#x215b;" horiz-adv-x="1775" 
d="M1214 -20q-132 0 -214 62t-82 155q0 95 66.5 157t176.5 80q-117 55 -117 176q0 102 84.5 168t210.5 66q118 0 193.5 -60t75.5 -153q0 -86 -60.5 -144t-148.5 -77q63 -24 101 -73t38 -116q0 -106 -93 -173.5t-231 -67.5zM1217 41q108 0 177.5 52.5t69.5 131.5
q0 73 -61.5 119.5t-163.5 46.5q-113 0 -182.5 -52t-69.5 -132q0 -70 64 -118t166 -48zM1311 449q101 0 163 51t62 125q0 68 -55.5 112.5t-141.5 44.5q-98 0 -160.5 -48.5t-62.5 -125.5q0 -72 53.5 -115.5t141.5 -43.5zM340 670l203 757l-217 -73l-2 65l251 86h62l-225 -835
h-72zM90 0l723 758l688 733h90l-725 -758l-688 -733h-88z" />
    <glyph glyph-name="threeeighths" unicode="&#x215c;" horiz-adv-x="1935" 
d="M1374 -20q-133 0 -215 62t-82 155q0 95 67 157t177 80q-117 55 -117 176q0 102 84.5 168t210.5 66q118 0 193 -60t75 -153q0 -86 -60 -144t-148 -77q63 -24 101 -73t38 -116q0 -106 -93 -173.5t-231 -67.5zM1376 41q108 0 178 52.5t70 131.5q0 73 -61.5 119.5
t-163.5 46.5q-113 0 -182.5 -52t-69.5 -132q0 -71 63.5 -118.5t165.5 -47.5zM1470 449q102 0 164 51t62 125q0 68 -55.5 112.5t-141.5 44.5q-98 0 -160.5 -48.5t-62.5 -125.5q0 -72 53 -115.5t141 -43.5zM219 0l723 758l688 733h90l-725 -758l-688 -733h-88zM420 647
q-202 0 -285 156l60 35q73 -125 225 -125q104 0 176 55.5t72 140.5q0 77 -56.5 116.5t-156.5 39.5h-43l-21 43l373 315h-438l18 68h535l-17 -59l-368 -310q109 -5 178 -57t69 -147q0 -114 -95.5 -192.5t-225.5 -78.5z" />
    <glyph glyph-name="fiveeighths" unicode="&#x215d;" horiz-adv-x="1935" 
d="M1374 -20q-133 0 -215 62t-82 155q0 95 67 157t177 80q-117 55 -117 176q0 102 84.5 168t210.5 66q118 0 193 -60t75 -153q0 -86 -60 -144t-148 -77q63 -24 101 -73t38 -116q0 -106 -93 -173.5t-231 -67.5zM1376 41q108 0 178 52.5t70 131.5q0 73 -61.5 119.5
t-163.5 46.5q-113 0 -182.5 -52t-69.5 -132q0 -71 63.5 -118.5t165.5 -47.5zM1470 449q102 0 164 51t62 125q0 68 -55.5 112.5t-141.5 44.5q-98 0 -160.5 -48.5t-62.5 -125.5q0 -72 53 -115.5t141 -43.5zM430 647q-95 0 -166 39.5t-114 108.5l59 34q72 -118 227 -118
q110 0 184 64t74 161q0 77 -52 118.5t-140 41.5q-99 0 -193 -49l-49 36l137 408h463l-20 -70h-404l-102 -301q84 41 174 41q118 0 188 -61.5t70 -161.5q0 -122 -94.5 -206.5t-241.5 -84.5zM219 0l723 758l688 733h90l-725 -758l-688 -733h-88z" />
    <glyph glyph-name="seveneighths" unicode="&#x215e;" horiz-adv-x="1935" 
d="M1374 -20q-133 0 -215 62t-82 155q0 95 67 157t177 80q-117 55 -117 176q0 102 84.5 168t210.5 66q118 0 193 -60t75 -153q0 -86 -60 -144t-148 -77q63 -24 101 -73t38 -116q0 -106 -93 -173.5t-231 -67.5zM1376 41q108 0 178 52.5t70 131.5q0 73 -61.5 119.5
t-163.5 46.5q-113 0 -182.5 -52t-69.5 -132q0 -71 63.5 -118.5t165.5 -47.5zM1470 449q102 0 164 51t62 125q0 68 -55.5 112.5t-141.5 44.5q-98 0 -160.5 -48.5t-62.5 -125.5q0 -72 53 -115.5t141 -43.5zM252 664l569 757h-479l18 70h564l-13 -53l-573 -774h-86zM156 0
l723 758l688 733h90l-725 -758l-688 -733h-88z" />
    <glyph glyph-name="Delta" unicode="&#x2206;" horiz-adv-x="1644" 
d="M1133 1501l305 -1431l-29 -70h-1440l8 70l1072 1431h84zM1069 1391l-973 -1307h1243z" />
    <glyph glyph-name="minus" unicode="&#x2212;" horiz-adv-x="1337" 
d="M207 707l22 86h1014l-22 -86h-1014z" />
    <glyph glyph-name="NUL" horiz-adv-x="0" 
 />
    <glyph glyph-name="CR" horiz-adv-x="655" 
 />
    <glyph glyph-name="Q.alt" horiz-adv-x="1824" 
d="M1073 1516q186 0 333.5 -85t228.5 -231.5t81 -325.5q0 -188 -81 -369.5t-232 -318.5l156 -172l-66 -55l-154 176q-222 -162 -477 -162q-186 0 -333.5 85.5t-228.5 231.5t-81 324q0 183 72.5 352.5t202.5 299.5q118 119 266.5 184.5t312.5 65.5zM862 55q229 0 420 144
l-256 286l68 58l249 -293q134 121 206.5 286t72.5 338q0 156 -68 283.5t-194.5 202t-286.5 74.5q-145 0 -276 -58.5t-234 -161.5q-118 -118 -184 -275t-66 -323q0 -158 68 -285.5t194 -201.5t287 -74z" />
    <glyph glyph-name="a.alt" horiz-adv-x="1419" 
d="M565 -27q-190 0 -313 129.5t-123 327.5q0 145 53.5 274t149.5 228q174 174 405 174q93 0 170.5 -28t131 -76t89 -104.5t54.5 -121.5l80 303h88l-289 -1079h-86l61 227q-79 -107 -201 -180.5t-270 -73.5zM575 55q209 0 377 168q86 86 134.5 191.5t48.5 212.5
q0 169 -110 283t-284 114q-199 0 -342 -143q-86 -86 -132 -201.5t-46 -239.5q0 -170 98.5 -277.5t255.5 -107.5z" />
    <glyph glyph-name="uni039E.alt" horiz-adv-x="1558" 
d="M1432 793l-23 -84h-537l-167 -625h608l-23 -84h-1310l22 84h610l168 625h-538l22 84h539l166 614h-600l22 84h1288l-22 -84h-596l-166 -614h537z" />
    <glyph glyph-name="uni0424.bgr" horiz-adv-x="1957" 
d="M219 625q0 354 258 612q128 127 301 192.5t367 65.5q25 0 43 -2l57 211h92l-57 -217q170 -24 300 -112t199.5 -220t69.5 -289q0 -357 -258 -612q-129 -127 -300.5 -192.5t-364.5 -65.5q-29 0 -47 2l-56 -211h-92l60 217q-259 36 -415.5 208t-156.5 413zM313 625
q0 -212 135 -362t363 -179l358 1329h-30q-171 0 -324 -58t-268 -173q-234 -228 -234 -557zM1755 866q0 212 -134.5 360.5t-363.5 180.5l-356 -1329h31q171 0 323 58t267 173q233 227 233 557z" />
    <glyph glyph-name="uni0432.bgr" horiz-adv-x="1363" 
d="M164 408q0 78 33 210l118 445q63 224 189 350q156 156 389 156q192 0 304 -104t112 -259q0 -174 -126 -291t-325 -147q153 -38 239.5 -130.5t86.5 -234.5q0 -183 -143.5 -305.5t-372.5 -122.5q-241 0 -372.5 117t-131.5 316zM612 739h-297l-34 -131q-31 -109 -31 -198
q0 -159 107.5 -257t310.5 -98q190 0 307 99.5t117 244.5q0 149 -124 244.5t-356 95.5zM891 1489q-195 0 -326 -131q-115 -115 -168 -311l-61 -230h309q268 0 420 104.5t152 280.5q0 126 -88 206.5t-238 80.5z" />
    <glyph glyph-name="uni0433.bgr" horiz-adv-x="1103" 
d="M100 233q0 120 98 202t347 153q122 35 199 66t117 64t53.5 63.5t13.5 72.5q0 76 -61.5 121t-180.5 45q-163 0 -371 -100l-36 77q211 103 407 103q164 0 250 -65.5t86 -182.5q0 -81 -41.5 -138.5t-140.5 -107t-275 -98.5q-118 -34 -194.5 -67.5t-114 -68t-50.5 -65
t-13 -69.5q0 -177 258 -177q201 0 417 107l35 -76q-236 -112 -457 -112q-168 0 -257 67t-89 186z" />
    <glyph glyph-name="uni0434.bgr" horiz-adv-x="1425" 
d="M518 -344q-144 0 -278 53.5t-232 147.5l64 63q185 -182 450 -182q217 0 342 125q52 52 86.5 120.5t65.5 172.5l43 155q-201 -231 -467 -231q-118 0 -220 50.5t-166.5 148t-64.5 221.5q0 248 176 424q87 87 199 134.5t234 47.5q93 0 169.5 -27t127.5 -73.5t84 -99.5
t53 -115l78 288h86l-252 -944q-56 -211 -170 -325q-154 -154 -408 -154zM608 162q109 0 208 44t175 120q73 73 112.5 158t39.5 171q0 95 -47 178t-138.5 136t-209.5 53q-211 0 -361 -150q-154 -154 -154 -366q0 -105 53 -184.5t137.5 -119.5t184.5 -40z" />
    <glyph glyph-name="uni0436.bgr" horiz-adv-x="1849" 
d="M1239 1554l-260 -970h203l577 495h123l-633 -534l379 -545h-100l-348 508h-222l-135 -508h-86l135 508h-198l-600 -508h-123l659 551l-348 528h100l322 -495h209l260 970h86z" />
    <glyph glyph-name="uni0438.bgr" horiz-adv-x="1329" 
d="M512 -25q-166 0 -262 93.5t-96 250.5q0 70 24 164l158 596h88l-162 -602q-20 -67 -20 -147q0 -129 76.5 -203t216.5 -74q150 0 287.5 118t185.5 304l161 604h86l-288 -1079h-86l59 223q-186 -248 -428 -248z" />
    </font>
</defs>
</svg>
