<?xml version="1.0" standalone="no"?>
<!DOCTYPE svg PUBLIC "-//W3C//DTD SVG 1.1//EN" "http://www.w3.org/Graphics/SVG/1.1/DTD/svg11.dtd" >
<svg xmlns="http://www.w3.org/2000/svg" xmlns:xlink="http://www.w3.org/1999/xlink" version="1.1">
<metadata></metadata>
<defs>
<font id="louis_george_caferegular" horiz-adv-x="1173" >
<font-face units-per-em="2048" ascent="1638" descent="-410" />
<missing-glyph horiz-adv-x="508" />
<glyph horiz-adv-x="0" />
<glyph unicode="&#xd;" horiz-adv-x="508" />
<glyph unicode=" "  horiz-adv-x="508" />
<glyph unicode="&#x09;" horiz-adv-x="508" />
<glyph unicode="&#xa0;" horiz-adv-x="508" />
<glyph unicode="!" horiz-adv-x="657" d="M266 96v8q0 38 33 70q29 26 66 26h2q43 0 75 -35q24 -30 24 -61v-6q0 -43 -37 -75q-28 -23 -64 -23q-38 0 -69 28q-30 32 -30 68zM276 1463l1 1h178l1 -1l-20 -1138h-140z" />
<glyph unicode="&#x22;" horiz-adv-x="804" d="M159 1100v400h140v-400h-140zM429 1100v400h140v-400h-140z" />
<glyph unicode="#" horiz-adv-x="953" d="M36 452v138l1 1h156l40 239h-144l-1 1v138l1 1h168l61 369h1l137 -23v-1l-57 -345h229l60 359q136 -23 138 -23l-56 -336h146v-140h-170l-40 -239h157l1 -1v-138l-1 -1h-180l-70 -416l-138 23l66 393h-229l-68 -407l-138 24l64 383h-133zM335 591h229l40 239h-229z" />
<glyph unicode="$" horiz-adv-x="1057" d="M97 318l127 60q17 -39 47 -78q34 -39 55 -54q40 -29 67 -39q65 -28 132 -28h8q97 0 182 54q17 11 39 33q29 35 37 57q21 47 21 94q0 94 -78 154q-22 15 -39 23q-22 10 -52 19l-129 30q-124 31 -201 68q-31 15 -69 40q-21 15 -44 39q-73 78 -73 185v13q0 86 49 171 q14 25 44 58q36 37 52 46q29 21 61 37q19 9 54 21q54 15 64 15v103l1 1h139l1 -1v-98q65 -8 115 -29q68 -26 132 -84q36 -36 46 -51q27 -35 35 -53q-92 -46 -125 -63l-14 22q-12 16 -31 36q-88 85 -208 85h-7q-98 0 -173 -49q-61 -41 -86 -113q-9 -30 -9 -60v-1 q0 -70 49 -108q32 -25 66 -39q84 -40 284 -82q53 -14 89 -31q33 -16 70 -42q15 -12 38 -35q32 -36 44 -58q45 -77 45 -169q0 -130 -86 -236q-28 -31 -46 -45q-37 -28 -63 -42q-27 -14 -69 -29q-28 -11 -78 -20l-18 -2v-99l-1 -1h-139l-1 1v101q-40 7 -69 16q-48 16 -85 37 q-34 19 -74 51q-37 34 -56 58q-43 54 -59 88q-11 21 -11 23z" />
<glyph unicode="%" horiz-adv-x="1441" d="M93 1142v13q0 83 54 160q10 14 38 43q84 70 184 70h6q98 0 180 -67q32 -31 41 -44q56 -77 56 -167q0 -114 -85 -200l-14 -15q-82 -65 -182 -65q-98 0 -178 65q-25 22 -37 38q-21 27 -32 48q-31 63 -31 121zM184 0l916 1433h160l-916 -1433h-160zM247 1148q0 -58 50 -98 q35 -26 74 -26q60 0 100 50q26 34 26 74v4q0 47 -37 86q-38 36 -88 36q-49 0 -88 -35q-37 -39 -37 -89v-2zM790 269v7q0 97 68 179q34 37 51 45q74 52 160 52q115 0 203 -86l10 -12q67 -81 67 -181q0 -116 -86 -202q-35 -33 -57 -43q-64 -35 -133 -35h-8q-90 0 -170 62 q-30 25 -47 46q-58 79 -58 168zM944 273q0 -65 59 -107q31 -19 68 -19q59 0 101 52q23 35 23 68v9q0 52 -46 93q-37 28 -76 28h-7q-53 0 -93 -45q-29 -36 -29 -79z" />
<glyph unicode="&#x26;" horiz-adv-x="1195" d="M100 335v15q0 71 23 136q14 36 39 76q21 31 55 71q39 43 79 79q47 40 81 66q32 23 71 49q-49 79 -97 163q-20 34 -31 65q-14 47 -14 96q0 92 52 157q5 11 41 45q23 20 42 32q85 52 182 52q92 0 181 -51q82 -49 116 -139q17 -50 17 -105q0 -71 -31 -124q-13 -24 -34 -51 q-13 -17 -47 -51q-61 -54 -98 -77q-44 -32 -88 -57q119 -184 268 -402q36 36 101 106l100 -95l-30 -31q-34 -38 -92 -95l98 -143l-112 -79q-47 66 -89 129h-1q-66 -53 -121 -85q-156 -87 -303 -87h-15q-123 0 -212 67q-14 8 -48 43q-56 61 -76 156q-7 37 -7 69zM237 342 q0 -127 104 -183q36 -16 45 -16q22 -6 63 -6h2q174 0 353 149q-88 128 -195 290l-87 135h-1q-51 -33 -105 -78q-25 -20 -61 -54q-43 -43 -61 -68q-44 -62 -50 -101q-7 -35 -7 -66v-2zM444 1148q0 -45 20 -78q39 -70 99 -167l3 -5q49 30 86 56q37 25 81 64q36 37 45 53 q17 26 20 45q2 6 2 21v10q0 68 -49 109q-29 25 -85 38q-21 6 -43 6q-76 0 -138 -54q-23 -25 -27 -35q-14 -21 -14 -59v-4z" />
<glyph unicode="'" horiz-adv-x="432" d="M129 1100v400h140v-400h-140z" />
<glyph unicode="(" horiz-adv-x="754" d="M133 621v73q0 384 160 650q124 181 274 181h32l3 -3v-134l-3 -2h-30q-99 0 -192 -179q-105 -223 -105 -512v-74q0 -323 127 -554q85 -137 169 -137h31l3 -2v-134l-3 -3h-35q-150 0 -276 189q-155 265 -155 641z" />
<glyph unicode=")" horiz-adv-x="754" d="M152 -72l3 2h31q84 0 169 137q127 231 127 554v74q0 289 -105 512q-93 179 -192 179h-30l-3 2v134l3 3h32q150 0 274 -181q160 -266 160 -650v-73q0 -376 -155 -641q-126 -189 -276 -189h-35l-3 3v134z" />
<glyph unicode="*" horiz-adv-x="1025" d="M158 1207l46 131h1l234 -83v249h139l1 -1v-248l234 84q46 -129 47 -132v-1l-235 -84l145 -198l-112 -83h-1l-148 201l-148 -201h-1l-112 83l145 198q-5 2 -235 85z" />
<glyph unicode="+" horiz-adv-x="830" d="M70 420v140h285v285h140v-285h285v-140h-285v-285h-140v285h-285z" />
<glyph unicode="," horiz-adv-x="494" d="M83 -167q101 94 101 167q-36 15 -52 49q-12 20 -12 45q0 49 45 82q25 17 57 17q49 0 81 -44q18 -28 18 -73q0 -123 -146 -253q-40 -36 -52 -42z" />
<glyph unicode="-" horiz-adv-x="863" d="M76 420v140h706v-140h-706z" />
<glyph unicode="." horiz-adv-x="502" d="M151 96v8q0 38 33 70q29 26 66 26h2q43 0 75 -35q24 -30 24 -61v-6q0 -43 -37 -75q-28 -23 -64 -23q-38 0 -69 28q-30 32 -30 68z" />
<glyph unicode="/" horiz-adv-x="676" d="M1 -50l512 1423l2 1h138v-1l-512 -1423h-140z" />
<glyph unicode="0" horiz-adv-x="1347" d="M105 682v13q0 268 164 480q176 202 399 202h9q206 0 374 -173q191 -217 191 -515t-191 -516q-168 -173 -378 -173q-235 0 -409 210q-159 208 -159 472zM244 682q0 -213 128 -386q132 -157 303 -157q180 0 317 181q111 166 111 369q0 207 -115 374q-134 176 -316 176h-1 q-179 0 -316 -180q-111 -166 -111 -366v-11z" />
<glyph unicode="1" horiz-adv-x="656" d="M150 1211v137l1 1h287l1 -1v-1357l-1 -1h-137l-1 1v1219h-149z" />
<glyph unicode="2" horiz-adv-x="997" d="M98 955v4q0 65 28 156q20 55 46 97q16 25 43 55q109 115 285 115q202 0 318 -165q36 -51 57 -119q23 -68 23 -141q0 -106 -49 -191l-248 -286l-264 -304l-44 -52h604v-140h-782l-1 1v147q0 2 10 12l251 290l239 275l120 140q24 49 24 109q0 98 -59 184q-72 99 -195 99h-8 q-172 0 -234 -162q-10 -28 -19 -76q-5 -32 -5 -48h-140z" />
<glyph unicode="3" horiz-adv-x="1052" d="M91 338v6l1 1h138l1 -1v-1q0 -95 64 -175q26 -29 41 -40q80 -62 177 -62h1q100 0 181 65q32 28 43 44q59 78 59 170q0 96 -63 175q-26 30 -44 43q-26 19 -46 30q-63 31 -126 31h-102l-1 1v138l1 1h125q35 3 61 12q32 11 61 31q15 10 39 34q28 35 37 57q24 49 24 105 q0 89 -61 161q-29 29 -39 34q-62 44 -135 44h-3q-81 0 -148 -55q-86 -75 -86 -189v-3l-1 -1h-139v11q0 120 73 224q12 17 44 50q28 25 49 39q98 64 209 64q138 0 248 -93q34 -31 44 -46q31 -40 43 -66q42 -83 42 -172v-4q0 -134 -89 -244q-32 -36 -53 -52q-12 -9 -14 -10 q19 -12 56 -44q31 -31 47 -51q87 -116 87 -255q0 -146 -95 -266q-15 -17 -44 -44q-39 -34 -66 -49q-103 -60 -212 -60h-13q-98 0 -195 50q-34 19 -73 50q-39 36 -55 56q-23 30 -36 52q-15 25 -32 67q-25 72 -25 137z" />
<glyph unicode="4" horiz-adv-x="1011" d="M24 223l214 379l240 424l158 280l29 51h148l1 -1v-993h111v-139l-1 -1h-110v-231l-1 -1h-138l-1 1v231h-650zM264 363h410v725l-200 -353z" />
<glyph unicode="5" horiz-adv-x="1146" d="M81 222l127 57q16 -34 40 -68q14 -18 41 -45q38 -35 69 -52q85 -48 176 -48h7q111 0 210 70q17 12 48 43l20 23q24 32 36 56q42 81 42 166q0 132 -88 236q-23 26 -40 40q-104 85 -232 85q-102 0 -195 -57l-126 -72l101 397l78 303v1h540l1 -1v-139h-432l-11 -43l-67 -261 h1q55 12 111 12q156 0 289 -93q24 -16 63 -53q39 -41 57 -68q90 -131 90 -286q0 -158 -94 -292q-18 -25 -53 -61q-42 -40 -69 -58q-48 -32 -85 -47q-97 -41 -190 -41h-19q-87 0 -182 38q-41 17 -83 44q-28 17 -72 57q-42 44 -54 63q-26 34 -40 63q-13 23 -15 31z" />
<glyph unicode="6" horiz-adv-x="1155" d="M96 407v15q0 106 52 213q13 25 97 169l258 443l77 132l121 -70l-245 -422q61 16 120 16h7q141 0 267 -83q29 -19 65 -53q34 -34 52 -59q28 -40 42 -68q54 -109 54 -219v-13q0 -121 -63 -237q-18 -32 -49 -70q-13 -17 -47 -50q-68 -60 -146 -91q-86 -34 -179 -34 q-157 0 -290 97q-22 17 -57 51q-42 47 -61 78q-29 47 -46 95q-29 82 -29 160zM236 412q0 -112 70 -208q12 -17 42 -47q103 -91 231 -91q127 0 229 88q35 35 42 46q73 96 73 214q0 140 -100 246q-28 28 -46 40q-90 63 -197 63q-127 0 -228 -88q-31 -29 -40 -42 q-76 -98 -76 -217v-4z" />
<glyph unicode="7" horiz-adv-x="939" d="M53 1218v138l1 1h832l1 -1v-131l-168 -316l-229 -433l-208 -394l-60 -114h-1q-4 1 -123 65l250 474l188 355q1 0 151 285q34 63 36 70h-669z" />
<glyph unicode="8" horiz-adv-x="1083" d="M99 352v15q0 101 55 201q59 103 160 161q-15 11 -47 44q-27 33 -42 58q-51 88 -51 187q0 131 86 237q38 41 52 50q24 19 43 29q87 51 184 51h5q110 0 207 -66q20 -13 53 -45q38 -41 51 -66q53 -89 53 -189q0 -130 -84 -236q-33 -36 -52 -50l-3 -4q23 -12 59 -41 q37 -32 58 -58q97 -121 97 -270q0 -156 -105 -281q-37 -39 -49 -47q-43 -34 -73 -50q-103 -54 -207 -54h-16q-96 0 -194 47q-35 18 -74 47q-20 16 -44 39q-46 51 -67 91q-14 23 -25 51q-30 77 -30 149zM239 359q0 -97 63 -177q26 -31 48 -48q86 -65 188 -65h5q111 0 201 75 q31 30 38 40q61 80 61 176q0 106 -76 192q-32 33 -49 43q-81 56 -176 56h-1q-113 0 -203 -76q-34 -33 -40 -44q-21 -25 -35 -57q-24 -55 -24 -114v-1zM314 1018q0 -91 67 -161q69 -66 160 -66q96 0 166 72q61 69 61 152v5q0 83 -61 152q-71 73 -166 73q-90 0 -160 -66 q-67 -70 -67 -161z" />
<glyph unicode="9" horiz-adv-x="1150" d="M92 887v17q0 106 52 214q19 37 51 79q16 21 40 45q45 43 67 56q37 26 74 43q97 43 192 43h15q110 0 218 -56q36 -19 76 -50q46 -39 75 -75q36 -47 51 -78q19 -34 35 -86q21 -71 21 -136v-14q0 -126 -69 -246l-145 -249l-251 -432l-10 -16q-117 68 -120 71l221 380l15 25 v1h-1q-62 -16 -124 -16q-157 0 -290 98q-22 16 -51 44q-46 49 -64 80q-23 36 -37 70q-41 95 -41 188zM232 893q0 -119 78 -219q27 -32 56 -55q96 -72 209 -72q123 0 223 83q28 25 39 39q82 101 82 226v1q0 126 -83 227q-27 31 -47 46q-96 75 -213 75h-2q-121 0 -221 -83 q-33 -31 -42 -43q-79 -100 -79 -221v-4z" />
<glyph unicode=":" horiz-adv-x="538" d="M187 96v8q0 38 33 70q29 26 66 26h2q43 0 75 -35q24 -30 24 -61v-6q0 -43 -37 -75q-28 -23 -64 -23q-38 0 -69 28q-30 32 -30 68zM187 846v8q0 39 33 71q30 25 67 25q43 0 75 -34q25 -30 25 -62v-7q0 -39 -33 -71q-30 -26 -67 -26h-1q-51 0 -84 46q-15 27 -15 50z" />
<glyph unicode=";" horiz-adv-x="508" d="M119 -167q101 94 101 167q-36 15 -52 49q-12 20 -12 45q0 49 45 82q25 17 57 17q49 0 81 -44q18 -28 18 -73q0 -123 -146 -253q-40 -36 -52 -42zM157 846v8q0 39 33 71q30 25 67 25q43 0 75 -34q25 -30 25 -62v-7q0 -39 -33 -71q-30 -26 -67 -26h-1q-51 0 -84 46 q-15 27 -15 50z" />
<glyph unicode="&#x3c;" horiz-adv-x="920" d="M116 457v121q5 5 245 200l277 227l89 -109l-349 -284l-115 -95l115 -93l349 -286l-89 -108l-342 279z" />
<glyph unicode="=" horiz-adv-x="839" d="M94 269v140h650v-140h-650zM94 569v140h650v-140h-650z" />
<glyph unicode="&#x3e;" horiz-adv-x="920" d="M193 138l349 286l115 93l-115 95l-349 284l89 109l277 -227q240 -195 245 -200v-121l-180 -148l-342 -279z" />
<glyph unicode="?" horiz-adv-x="1025" d="M133 1048v42q0 101 52 202q13 23 39 58q11 16 43 47q38 34 68 51q94 55 190 55h14q99 0 195 -57q26 -15 65 -50q43 -44 55 -65q25 -34 43 -77q34 -85 34 -164v-13q0 -87 -44 -184q-18 -37 -47 -76q-13 -19 -46 -52q-38 -36 -86 -69q-37 -27 -73 -59q-43 -39 -43 -84 l1 -126v-119l-1 -1h-139l-1 158v85q0 108 84 187q43 39 94 75q39 28 67 54q35 36 42 51q17 25 30 55q22 58 22 110v1q0 107 -71 192q-31 33 -42 39q-67 49 -145 49h-2q-91 0 -167 -67q-31 -31 -40 -47q-51 -76 -51 -165v-36l-1 -1h-138zM423 100q0 49 41 81q27 19 58 19h1 q52 0 85 -47q15 -26 15 -51v-4q0 -43 -37 -75q-28 -23 -64 -23q-42 0 -73 32q-26 30 -26 68z" />
<glyph unicode="@" horiz-adv-x="2022" d="M160 568v21q0 169 65 335q28 69 75 142q28 44 70 94q24 27 60 61q53 49 91 75q56 39 119 70q52 27 128 53q144 45 284 45h20q150 0 305 -60q53 -22 102 -49q50 -28 112 -76q29 -23 61 -54q50 -53 69 -78q41 -53 63 -91q109 -191 109 -407v-7q0 -159 -51 -281 q-19 -45 -52 -95q-53 -78 -132 -131q-96 -61 -191 -61h-6q-96 0 -178 62q-55 43 -79 120q-34 -33 -65 -50q-87 -50 -172 -50h-11q-88 0 -171 52q-21 12 -53 42q-35 37 -45 53q-79 115 -79 261q0 132 66 251q15 25 45 64q32 37 55 55q106 86 226 86q110 0 202 -71 q15 -11 39 -36q35 -37 48 -61l5 -9q14 37 28 72l131 -51q-46 -115 -82 -241q-23 -84 -23 -98q-9 -34 -14 -73q-5 -43 -5 -72v-10q0 -66 23 -104q8 -13 28 -27q40 -25 85 -25q78 0 160 73q31 31 40 45q51 70 72 155q17 73 17 158q0 205 -115 377q-19 30 -56 72q-27 30 -60 59 q-53 44 -89 65q-174 106 -369 106h-5q-190 0 -360 -84q-38 -19 -81 -48q-36 -22 -90 -70q-44 -43 -55 -57q-42 -51 -62 -84q-37 -59 -64 -129q-48 -130 -48 -270v-7q0 -242 129 -441q25 -35 62 -78q42 -45 59 -58q47 -41 79 -61q188 -120 419 -120q199 0 356 83 q64 -119 66 -123q-44 -24 -108 -48q-41 -15 -104 -30q-103 -22 -189 -22h-42q-102 0 -227 32q-94 27 -158 60q-60 29 -129 79q-32 22 -81 68q-54 53 -72 78q-51 63 -80 117q-29 49 -47 96q-20 43 -44 132q-29 118 -29 229zM747 564q0 -102 56 -183q42 -57 106 -78 q27 -8 53 -8q75 0 143 59q32 30 38 42q17 22 27 41q15 27 27 62q6 16 14 59q4 21 4 54q0 102 -56 182q-10 13 -33 37q-57 48 -122 48h-6q-71 0 -139 -58q-31 -29 -39 -42q-20 -25 -36 -57q-37 -78 -37 -158z" />
<glyph unicode="A" horiz-adv-x="1351" d="M35 1l571 1463h145q4 0 32 -76l527 -1354l14 -33l-2 -1h-150q-6 7 -89 227q-44 112 -49 117h-714q-5 -7 -106 -269q-26 -69 -31 -75h-145l-2 1h-1zM374 485h608l-304 779h-1z" />
<glyph unicode="B" horiz-adv-x="1150" d="M172 3v1458l3 3h440q213 0 337 -156q63 -89 63 -204v-26q0 -180 -146 -299v-1q65 -29 129 -111q63 -89 63 -214v-47q0 -254 -225 -367q-98 -38 -159 -38l-361 -1h-141zM312 140h11l345 1q65 0 142 44q111 72 111 222v49q0 167 -179 224q-54 15 -110 15h-320v-555z M312 835h293q163 0 243 130q27 50 27 114v26q0 152 -166 206q-46 13 -92 13h-305v-489z" />
<glyph unicode="C" horiz-adv-x="1408" d="M97 727v10q0 301 210 529q201 198 450 198h12q254 0 459 -207q91 -108 113 -164q-120 -62 -124 -62q-26 50 -68 104q-167 189 -383 189h-6q-226 0 -393 -202q-130 -175 -130 -385v-10q0 -244 169 -430q157 -157 359 -157q221 0 389 195q41 56 65 102l123 -64 q-23 -60 -121 -174q-202 -199 -460 -199q-275 0 -485 230q-179 223 -179 497z" />
<glyph unicode="D" horiz-adv-x="1330" d="M172 3v1458l3 3h354q251 0 456 -173q93 -88 114 -127q138 -197 138 -432q0 -286 -201 -509q-213 -223 -527 -223h-334zM312 140h198q312 0 492 266q94 156 94 326q0 257 -195 447q-61 51 -112 79q-128 66 -260 66h-217v-1184z" />
<glyph unicode="E" horiz-adv-x="1009" d="M172 1v1462l1 1h727l1 -1v-138l-1 -1h-588v-522h470l1 -1v-138l-1 -1h-470v-522h588l1 -1v-138l-1 -1h-727z" />
<glyph unicode="F" horiz-adv-x="949" d="M172 1v1462l1 1h726l1 -1v-138l-1 -1h-587v-522h494l1 -1v-138l-1 -1h-494v-661l-1 -1h-138z" />
<glyph unicode="G" horiz-adv-x="1556" d="M91 725v12q0 286 194 508q86 89 145 122q160 97 333 97h12q259 0 466 -207q79 -88 118 -165l5 -13q-119 -62 -125 -62h-1q-22 55 -98 142q-162 165 -368 165h-8q-225 0 -397 -197q-136 -177 -136 -390v-10q0 -214 136 -389q170 -198 401 -198q195 0 351 144 q82 85 103 134q28 42 57 131q9 30 17 73h-401l-3 3v134l3 3h550l3 -3q0 -114 -30 -238q-73 -242 -258 -387q-182 -134 -392 -134q-258 0 -460 194q-83 88 -120 160q-97 178 -97 371z" />
<glyph unicode="H" horiz-adv-x="1270" d="M172 3v1458l3 3h134l3 -3v-658h646v658l2 3h135l3 -3v-1458l-3 -3h-135l-2 3v660h-646v-660l-3 -3h-134z" />
<glyph unicode="I" horiz-adv-x="484" d="M172 1v1462l1 1h138l1 -1v-1462l-1 -1h-138z" />
<glyph unicode="J" horiz-adv-x="1022" d="M7 411v78l1 1h134l1 -1v-73q0 -97 64 -183q26 -32 51 -50q64 -47 128 -47h87q75 0 146 60q31 31 38 43q60 81 60 185v1039l1 1h134l1 -1v-1046q0 -120 -66 -230q-19 -32 -55 -70q-33 -34 -48 -43q-17 -14 -41 -28q-27 -14 -50 -23q-62 -23 -114 -23h-99q-62 0 -135 32 q-138 67 -203 215q-35 84 -35 164z" />
<glyph unicode="K" horiz-adv-x="1260" d="M172 3v1458l3 3h134l3 -3v-811l705 810l5 4h182v-3l-609 -702v-1l617 -757l-2 -1h-183l-419 519l-107 132q-181 -205 -189 -218v-430l-3 -3h-134z" />
<glyph unicode="L" horiz-adv-x="957" d="M172 1v1462l1 1h138l1 -1v-1323h627v-140h-766z" />
<glyph unicode="M" horiz-adv-x="1757" d="M172 3v1458l3 3h186q3 0 52 -124l465 -1133h1l516 1257h187l3 -3v-1458l-3 -3h-142l-3 3v1193h-1l-490 -1195l-1 -1h-131q-4 0 -44 102q-3 3 -332 811q-102 244 -117 284h-1v-1194l-3 -3h-142z" />
<glyph unicode="N" horiz-adv-x="1422" d="M172 3v1458l3 3h172q8 -8 535 -872l226 -371h2v1240l2 3h135l3 -3v-1458l-3 -3h-165q-14 16 -75 120q-4 5 -535 875l-153 248v-1240l-3 -3h-141z" />
<glyph unicode="O" horiz-adv-x="1543" d="M99 725v14q0 267 177 488q71 76 102 98q184 139 395 139h6q255 0 458 -195q76 -81 101 -128q115 -187 115 -405v-8q0 -302 -213 -530q-203 -198 -465 -198q-256 0 -459 194q-90 98 -110 143q-107 182 -107 388zM239 727q0 -243 173 -431q161 -156 365 -156q239 0 411 212 q125 173 125 376v8q0 244 -173 432q-161 156 -365 156q-227 0 -396 -193q-140 -177 -140 -394v-10z" />
<glyph unicode="P" d="M172 3v1458l3 3h459q211 0 366 -168q112 -141 112 -302v-15q0 -183 -139 -329q-148 -141 -337 -141h-324v-506l-3 -3h-134zM312 650h322q165 0 277 141q61 92 61 190v12q0 152 -131 260q-95 71 -208 71h-321v-674z" />
<glyph unicode="Q" horiz-adv-x="1562" d="M99 725v13q0 268 177 489q71 76 102 98q184 139 396 139h5q255 0 458 -195q76 -82 101 -129q115 -187 115 -404v-8q0 -258 -161 -472v-1q83 -81 180 -181l-100 -98l-177 179q-190 -155 -420 -155q-256 0 -459 193q-90 99 -110 143q-107 183 -107 389zM239 727 q0 -243 173 -431q161 -156 366 -156q170 0 315 114l1 1v1l-154 156l98 98h1l154 -153q120 171 120 371v8q0 244 -173 432q-160 156 -365 156q-227 0 -396 -193q-140 -178 -140 -394v-10z" />
<glyph unicode="R" horiz-adv-x="1160" d="M172 3v1458l3 3h459q211 0 366 -168q112 -141 112 -302v-15q0 -194 -156 -347q-84 -70 -163 -95l307 -534l-1 -2h-164q-7 7 -119 209l-169 299h-335v-506l-3 -3h-134zM312 650h322q165 0 277 141q61 92 61 190v12q0 152 -131 260q-95 71 -208 71h-321v-674z" />
<glyph unicode="S" horiz-adv-x="1040" d="M71 302q4 2 129 54q21 -49 50 -90q11 -17 44 -51q41 -39 70 -53q75 -42 158 -42h5q97 0 182 57q19 12 45 39q40 46 57 103q14 46 14 89v3q0 105 -71 178q-37 32 -59 41q-14 9 -42 18q-20 7 -103 27q-166 43 -253 90q-193 102 -193 301v8q0 126 75 236q12 18 44 52 q37 35 63 50q42 28 94 46q76 24 146 24h16q102 0 202 -53q31 -18 68 -47q17 -14 44 -41q38 -44 54 -71q14 -21 22 -40v-1l-127 -58q-13 30 -52 74q-92 97 -218 97h-2q-123 0 -205 -74q-30 -30 -41 -48q-43 -69 -43 -150q0 -86 51 -133q38 -36 90 -59q90 -43 286 -89 q51 -14 86 -33q43 -21 87 -60q35 -34 45 -49q18 -24 28 -44q48 -90 48 -186v-3l1 -4l-1 -4v-3q0 -105 -55 -208q-71 -127 -215 -184q-84 -31 -163 -31h-17q-99 0 -202 49q-33 17 -71 45q-56 43 -100 101q-32 45 -53 87q-18 38 -18 40z" />
<glyph unicode="T" horiz-adv-x="955" d="M15 1325v138l1 1h923l1 -1v-138l-1 -1h-391v-1323l-1 -1h-138l-1 1v1323h-392z" />
<glyph unicode="U" horiz-adv-x="1387" d="M170 522v939l3 3h134l3 -3v-937q0 -234 168 -345q73 -39 146 -39h139q151 0 249 140q65 101 65 258v923l3 3h135l3 -3v-923q0 -324 -231 -475q-108 -63 -221 -63h-144q-169 0 -303 127q-149 157 -149 395z" />
<glyph unicode="V" horiz-adv-x="1367" d="M34 1463l1 1h155l61 -153l433 -1109h1l364 937l127 324l1 1h153l2 -1h1l-570 -1446l-9 -17h-141q-3 0 -89 223z" />
<glyph unicode="W" horiz-adv-x="1900" d="M61 1463l1 1h148q4 0 19 -65l286 -1121h2l307 961l74 225h102q3 -1 43 -130l339 -1056h2l302 1185l1 1h148l2 -1h1l-373 -1436q-7 -27 -9 -27h-129q-4 0 -29 84l-348 1083h-1l-376 -1167h-130q-3 0 -39 147z" />
<glyph unicode="X" horiz-adv-x="1303" d="M48 3l503 755l-468 705l2 1h171q297 -450 394 -602h2l395 602h173v-1q-368 -557 -467 -704l501 -756l-3 -3h-176q-6 4 -79 118l-343 525h-1l-409 -623q-12 -20 -14 -20h-178z" />
<glyph unicode="Y" horiz-adv-x="1193" d="M30 1461v3h172q18 -23 391 -597l5 -5l396 602h170l3 -3l-495 -743v-715l-3 -3h-143l-2 3v715z" />
<glyph unicode="Z" horiz-adv-x="1191" d="M59 3l528 834l307 487h-726l-3 3v134l3 3h978l2 -3l-540 -855l-295 -466h794l2 -3v-134l-2 -3h-1045z" />
<glyph unicode="[" horiz-adv-x="779" d="M190 -169v1683l1 1h367l1 -1v-139l-1 -1h-227v-1403h227l1 -1v-139l-1 -1h-367z" />
<glyph unicode="\" horiz-adv-x="676" d="M1 1373l1 1h138l1 -1l512 -1423h-140z" />
<glyph unicode="]" horiz-adv-x="779" d="M220 -30l1 1h227v1403h-227l-1 1v139l1 1h367l1 -1v-1683l-1 -1h-367l-1 1v139z" />
<glyph unicode="^" horiz-adv-x="930" d="M68 853v1l248 403l89 143h120l42 -66l212 -345l83 -135v-2l-118 -72h-1q-135 218 -173 281q-2 2 -105 170l-219 -356l-59 -96z" />
<glyph unicode="_" horiz-adv-x="1090" d="M70 -20h950v-140h-950v140z" />
<glyph unicode="`" horiz-adv-x="887" d="M242 1806l73 118l330 -203l-74 -119z" />
<glyph unicode="a" d="M92 469v12q0 188 135 336q142 143 338 143q197 0 314 -162l3 -6h1v156l2 3h135l3 -3v-945l-3 -3h-135l-2 3v154h-1q-108 -166 -326 -166v1l-2 -1q-194 0 -340 156q-122 146 -122 322zM232 474q0 -167 134 -277q84 -65 187 -65q217 0 300 213q22 62 22 124v22 q0 87 -55 182q-94 145 -251 145q-212 0 -308 -200q-29 -71 -29 -139v-5z" />
<glyph unicode="b" horiz-adv-x="1179" d="M153 2v1459l3 3h134l3 -3v-669h1q13 29 84 92q101 76 232 76q244 0 393 -210q81 -129 81 -264v-22q0 -182 -136 -333q-72 -68 -131 -95q-100 -45 -193 -45l-1 1l-5 -1q-216 0 -324 166h-1v-155l-3 -2h-134zM301 475q0 -174 134 -286q78 -57 191 -57q158 0 264 151 q54 93 54 183v16q0 150 -122 263q-88 73 -215 73q-185 0 -277 -196q-29 -74 -29 -136v-11z" />
<glyph unicode="c" horiz-adv-x="1001" d="M90 469v11q0 197 147 349q141 128 301 128h26q147 0 282 -110q65 -63 86 -99l-116 -78q-62 96 -176 134q-41 13 -82 13h-16q-120 0 -221 -103q-91 -105 -91 -239v-5q0 -143 108 -252q96 -87 213 -87q146 0 251 129l15 21l118 -76q-87 -136 -246 -192q-72 -22 -138 -22 q-174 0 -313 128q-148 152 -148 350z" />
<glyph unicode="d" horiz-adv-x="1179" d="M96 469v12q0 188 135 336q142 143 338 143q197 0 314 -162l3 -6h1v669l2 3h135l3 -3v-1459l-3 -2h-135l-2 2v155h-1q-108 -166 -326 -166v1l-2 -1q-194 0 -340 156q-122 146 -122 322zM236 474q0 -167 134 -277q84 -65 187 -65q217 0 300 213q22 62 22 124v22 q0 87 -55 182q-94 145 -251 145q-212 0 -308 -200q-29 -71 -29 -139v-5z" />
<glyph unicode="e" horiz-adv-x="1054" d="M67 469v9q0 200 143 350q134 131 313 131q206 0 353 -182q97 -143 97 -279v-12q0 -46 -6 -46h-759q0 -48 40 -135q60 -112 173 -156q55 -18 99 -18q137 0 237 119q35 48 46 77h2q81 -32 127 -54q-22 -63 -98 -147q-138 -135 -313 -135q-209 0 -357 183q-97 139 -97 295z M222 578h598q-42 131 -142 193q-73 47 -159 47q-146 0 -249 -136q-32 -47 -48 -104z" />
<glyph unicode="f" horiz-adv-x="564" d="M27 811v138l1 1h170v19q0 222 100 359q11 16 39 43q34 32 59 46q27 16 56 26q57 21 111 21h29l1 -1v-138l-1 -1h-22q-125 0 -189 -129q-43 -91 -43 -238v-7h254l1 -1v-138l-1 -1h-254v-809l-1 -1h-138l-1 1v809h-170z" />
<glyph unicode="g" horiz-adv-x="1081" d="M96 -108q0 81 65 169q25 30 49 47l6 5q-50 48 -50 124v3q0 69 44 128q2 2 2 4q-22 24 -39 51q-51 85 -51 180q0 130 92 233q34 35 45 42q31 23 65 40q83 39 170 39q121 0 223 -69q22 24 34 32q36 24 67 30q26 7 50 7h31l1 -1v-138l-1 -1h-25q-31 0 -48 -18q-8 -10 -8 -18 q17 -26 32 -68q18 -55 18 -110q0 -135 -98 -240q-41 -39 -61 -50q-29 -20 -67 -36q-71 -28 -144 -28h-6q-85 0 -167 38q-19 -23 -19 -49q0 -24 15 -30q40 -28 184 -28l70 1q195 0 302 -91q28 -27 39 -42q49 -71 49 -151t-52 -157q-12 -19 -46 -52q-36 -32 -58 -45 q-28 -18 -61 -32q-42 -17 -80 -27q-69 -15 -121 -15h-34q-88 0 -183 31q-47 18 -84 40q-26 16 -56 42q-27 27 -39 43q-55 77 -55 156v11zM236 -113v-2q0 -64 70 -117q88 -59 224 -59q124 0 213 58q16 10 39 34q43 48 43 95v3q0 46 -39 84q-30 27 -79 42q-62 16 -119 16h-95 q-75 0 -133 9q-25 -15 -64 -50q-60 -62 -60 -113zM262 598q0 -63 46 -123q24 -27 37 -36q67 -50 151 -50q91 0 162 61q70 66 70 153q0 81 -63 146q-33 31 -70 47q-49 21 -98 21h-5q-66 0 -127 -36q-18 -10 -46 -38q-29 -32 -40 -60q-17 -39 -17 -76v-9z" />
<glyph unicode="h" horiz-adv-x="1131" d="M153 3v1458l3 3h134l3 -3v-619q113 110 276 110q292 0 387 -211q27 -64 27 -139v-599l-2 -3h-135l-3 3v598q0 165 -183 204q-25 6 -75 6h-40q-168 0 -234 -117q-18 -47 -18 -102v-589l-3 -3h-134z" />
<glyph unicode="i" horiz-adv-x="466" d="M133 1360v8q0 38 32 70q31 26 64 26h8q37 0 70 -32q26 -31 26 -65v-5q0 -43 -36 -75q-29 -23 -61 -23h-6q-44 0 -76 39q-21 28 -21 57zM163 1v948l1 1h138l1 -1v-948l-1 -1h-138z" />
<glyph unicode="j" horiz-adv-x="493" d="M-43 -293l1 1q102 0 165 88q22 34 39 81q26 84 26 182v890l1 1h139l1 -1v-868q0 -151 -35 -249q-18 -52 -39 -86q-15 -30 -51 -70q-28 -30 -39 -36q-90 -71 -208 -71v138zM159 1360v8q0 38 32 70q31 26 64 26h8q37 0 70 -32q26 -31 26 -65v-5q0 -43 -36 -75 q-29 -23 -61 -23h-6q-44 0 -76 39q-21 28 -21 57z" />
<glyph unicode="k" horiz-adv-x="1009" d="M153 3v1458l3 3h134l3 -3v-966l475 456h199v-2l-424 -409l427 -539l-1 -1h-181q-10 10 -302 385l-46 56q-145 -140 -147 -140v-298l-3 -3h-134z" />
<glyph unicode="l" horiz-adv-x="445" d="M153 1v1462l1 1h138l1 -1v-1462l-1 -1h-138z" />
<glyph unicode="m" horiz-adv-x="1820" d="M153 3v930l3 3h134l3 -3v-93q110 110 270 110h17q222 0 333 -137q110 137 329 137h28q269 0 370 -196q32 -70 32 -144v-607l-2 -3h-135l-3 3v605q0 120 -120 178q-59 24 -136 24h-34q-188 0 -244 -127q-15 -35 -15 -93v-587l-3 -3h-135l-2 3v598q0 147 -151 196 q-35 13 -137 13q-125 0 -187 -52q-75 -49 -75 -165v-590l-3 -3h-134z" />
<glyph unicode="n" horiz-adv-x="1131" d="M153 3v930l3 3h134l3 -3v-93q110 110 270 110h17q281 0 378 -215q25 -64 25 -134v-598l-3 -3h-135l-2 3v598q0 147 -151 196q-35 13 -137 13q-125 0 -187 -52q-75 -49 -75 -165v-590l-3 -3h-134z" />
<glyph unicode="o" horiz-adv-x="1103" d="M90 469v12q0 196 147 348q141 128 301 128h26q154 0 292 -119q157 -153 157 -364q0 -214 -165 -370q-136 -113 -297 -113q-173 0 -313 128q-148 153 -148 350zM230 470q0 -141 106 -250q97 -89 215 -89q151 0 258 138q64 98 64 206q0 151 -114 261q-93 81 -202 81h-15 q-119 0 -222 -103q-90 -105 -90 -239v-5z" />
<glyph unicode="p" horiz-adv-x="1179" d="M153 -428v1363l3 2h134l3 -2v-142q111 167 326 167l1 -2h2l1 2q173 0 313 -129q73 -76 102 -142q46 -105 46 -202v-22q0 -184 -139 -337q-142 -137 -334 -137q-197 0 -314 162l-3 5h-1v-586l-3 -3h-134zM301 465q0 -122 88 -232q89 -101 220 -101q200 0 298 183 q37 77 37 154v15q0 137 -106 246q-94 88 -214 88q-217 0 -299 -209q-24 -64 -24 -134v-10z" />
<glyph unicode="q" horiz-adv-x="1179" d="M96 470v12q0 208 162 363q136 115 300 115v-2l2 2h1q217 0 325 -167h1v142l3 3h135l2 -3v-1363l-2 -3h-135l-3 3v586h-1q-12 -27 -76 -85q-103 -82 -240 -82q-243 0 -391 208q-83 128 -83 271zM236 471q0 -146 111 -255q89 -84 227 -84q155 0 249 144q56 95 56 184v22 q0 141 -102 253q-84 83 -223 83q-157 0 -263 -149q-55 -91 -55 -192v-6z" />
<glyph unicode="r" horiz-adv-x="773" d="M153 3v932l3 3h134l3 -3v-81h1q44 61 129 86q66 17 129 17q107 0 186 -47l-31 -149h-1q-89 52 -164 52q-167 0 -234 -154q-15 -37 -15 -76v-580l-3 -3h-134z" />
<glyph unicode="s" horiz-adv-x="903" d="M81 197q1 2 58 33l64 35q46 -80 134 -115q55 -20 116 -20q88 0 158 41q14 7 36 28q33 39 33 82q0 66 -83 105q-20 9 -58 18q-160 28 -251 61q-185 68 -185 219v3q0 91 69 168q33 33 46 40q44 32 104 50q66 20 131 20h14q102 0 194 -49q30 -15 64 -43q31 -27 49 -50 q15 -20 15 -23q-91 -52 -120 -71h-1q-18 27 -54 52q-65 44 -155 44q-105 0 -171 -52q-45 -40 -45 -88q0 -36 29 -55q11 -10 31 -19q44 -23 150 -48q50 -10 127 -25q49 -12 82 -28q30 -14 61 -37q9 -6 37 -35q60 -71 60 -154v-6q0 -89 -65 -168q-26 -28 -41 -39 q-32 -23 -58 -36q-96 -45 -197 -45h-13q-111 0 -213 54q-98 56 -152 153z" />
<glyph unicode="t" horiz-adv-x="681" d="M33 810v139l1 1h157v514h139l1 -1v-513h258l1 -1v-139l-1 -1h-258v-549q0 -41 21 -76q21 -28 57 -39q16 -5 28 -5h6q37 0 104 26l12 6q51 -112 57 -128q-14 -8 -57 -23q-70 -21 -110 -21h-17q-53 0 -112 31q-79 43 -110 125q-19 52 -19 113v540h-157z" />
<glyph unicode="u" horiz-adv-x="1130" d="M148 345v602l3 3h134l3 -3v-598q0 -156 168 -200q33 -9 113 -9q102 0 153 27q77 37 103 103q13 46 13 90v587l2 3h135l3 -3v-930l-3 -3h-135l-2 3v93q-110 -110 -277 -110q-179 0 -278 76q-135 103 -135 269z" />
<glyph unicode="v" horiz-adv-x="1035" d="M34 949l1 1h157q3 -1 325 -752q2 1 148 341l178 411h155l3 -3l-415 -947h-135q-4 1 -35 77z" />
<glyph unicode="w" horiz-adv-x="1506" d="M53 948l1 2h152q3 0 31 -89l220 -646h2l242 733l1 2h102q4 0 35 -102q39 -114 209 -633h3l249 735h151l3 -3l-328 -947h-152q-4 0 -55 162l-165 499h-1l-219 -661h-151q-7 11 -41 114z" />
<glyph unicode="x" horiz-adv-x="1053" d="M41 3l383 490v2l-354 454v1h182l274 -356q13 19 239 312q28 38 35 44h181v-3l-355 -454v-1q19 -21 383 -491l-1 -1h-181l-302 393l-302 -393h-179z" />
<glyph unicode="y" horiz-adv-x="1021" d="M34 949l1 1h156q4 0 46 -105l272 -648q4 5 117 267q206 485 209 486h151v-1l-532 -1240l-61 -140h-151v1l191 449z" />
<glyph unicode="z" horiz-adv-x="981" d="M89 0v3l546 807h-491l-3 2v135l3 3h755v-1l-547 -809h522l3 -2v-135l-3 -3h-785z" />
<glyph unicode="{" horiz-adv-x="822" d="M156 584v94l1 2q50 18 79 38q46 36 46 72v473q0 75 38 142q88 128 268 128l48 -1l2 -3v-136l-2 -1l-51 1q-46 0 -95 -20q-68 -31 -68 -114v-471q0 -84 -72 -157q72 -73 72 -157v-471q0 -83 68 -114q49 -20 95 -20l51 1l2 -1v-136l-2 -3l-48 -1q-180 0 -268 128 q-38 67 -38 142v473q0 36 -46 72q-29 20 -79 38z" />
<glyph unicode="|" horiz-adv-x="440" d="M150 1v1399h140v-1399h-140z" />
<glyph unicode="}" horiz-adv-x="822" d="M184 -131l2 1l51 -1q46 0 95 20q68 31 68 114v471q0 84 72 157q-72 73 -72 157v471q0 83 -68 114q-49 20 -95 20l-51 -1l-2 1v136l2 3l48 1q180 0 268 -128q38 -67 38 -142v-473q0 -36 46 -72q29 -20 79 -38l1 -2v-94l-1 -2q-50 -18 -79 -38q-46 -36 -46 -72v-473 q0 -75 -38 -142q-88 -128 -268 -128l-48 1l-2 3v136z" />
<glyph unicode="~" horiz-adv-x="705" d="M61 412v154q31 35 61 51q47 26 90 26q52 0 145.5 -49.5t137.5 -49.5q41 0 86 28q30 19 67 63v-154q-31 -34 -61 -51q-47 -25 -92 -25q-48 0 -141.5 48.5t-141.5 48.5q-40 0 -85 -28q-30 -19 -66 -62z" />
<glyph unicode="&#xa1;" horiz-adv-x="657" d="M191 1360v6q0 43 37 75q28 23 64 23q38 0 69 -28q30 -32 30 -68v-8q0 -38 -33 -70q-29 -26 -66 -26h-2q-43 0 -75 35q-24 30 -24 61zM201 1l20 1138h140l20 -1138l-1 -1h-178z" />
<glyph unicode="&#xa2;" horiz-adv-x="1001" d="M90 695v11q0 197 147 349q98 89 206 116v124l1 1h138l1 -1v-112q137 -7 263 -110q65 -63 86 -99l-116 -78q-62 96 -176 134q-29 9 -57 12v-683q126 12 219 127l15 21l118 -76q-87 -136 -246 -192q-55 -17 -106 -21v-114h-140v126q-111 28 -205 115q-148 152 -148 350z M230 696q0 -143 108 -252q50 -45 105 -67v647q-64 -25 -122 -84q-91 -105 -91 -239v-5z" />
<glyph unicode="&#xa3;" horiz-adv-x="1215" d="M53 144q58 50 102 91q84 79 112 112q149 164 149 278v6l-1 15h-228l-1 1v138l1 1h179q-28 56 -43 96q-31 87 -31 160v13q0 96 52 177q11 18 43 51q128 113 279 113q120 0 228 -69q21 -14 49 -40l3 -3v-1l-99 -98q-39 36 -81 51q-51 20 -99 20q-97 0 -183 -75 q-52 -50 -52 -131v-2q0 -82 52 -183q23 -48 36 -79h328l1 -1v-138l-1 -1h-293l1 -1v-18q0 -163 -166 -353h10q136 0 230 -93q79 -66 154 -66q105 0 229 131h1l101 -97q-163 -174 -333 -174q-128 0 -249 105q-35 32 -56 39q-34 15 -76 15q-100 0 -234 -81l-27 -18z" />
<glyph unicode="&#xa4;" horiz-adv-x="1339" d="M63 258l121 126q-43 60 -59 99q-58 122 -58 258q0 178 101 333l22 32l-127 133q100 97 101 97l124 -129q38 31 66 47q148 90 317 90q195 0 359 -118l24 -19l124 128v1h1l100 -97l-128 -133q41 -55 64 -104q60 -126 60 -261q0 -182 -103 -338l-14 -19q31 -32 121 -126 l-100 -97l-117 120q-60 -50 -118 -80q-132 -64 -266 -64h-15q-136 0 -269 66q-35 19 -78 49l-37 29l-115 -120zM208 735q0 -132 78 -253q18 -26 45 -57q42 -42 59 -53q44 -34 90 -54q91 -41 191 -41q164 0 297 107q44 40 61 63q22 27 36 49q69 115 69 239v10q0 131 -76 250 q-18 28 -54 67q-41 40 -61 53q-36 27 -82 48q-93 41 -191 41q-150 0 -277 -93q-20 -14 -54 -48q-37 -39 -55 -68q-18 -28 -29 -50q-47 -99 -47 -199v-11z" />
<glyph unicode="&#xa5;" horiz-adv-x="1171" d="M63 1261l106 91q8 -8 231 -272l187 -221l202 239l215 254l107 -91l-286 -338l-168 -198v-66h338v-139l-1 -1h-337v-69h337l1 -1v-138l-1 -1h-337v-308h-140v308h-337l-1 1v138l1 1h337v69h-337l-1 1v139h338v65l-303 358z" />
<glyph unicode="&#xa6;" horiz-adv-x="540" d="M200 150h140v-650h-140v650zM200 850v650h140v-650h-140z" />
<glyph unicode="&#xa7;" horiz-adv-x="877" d="M118 723v13q0 73 44 148q13 22 38 50q30 29 51 43q-120 77 -120 208q0 104 75 184q41 39 73 53q77 40 170 40q142 0 241 -106q38 -44 51 -75q-125 -61 -127 -61q-8 19 -26 39q-56 63 -140 63q-63 0 -115 -30q-61 -41 -61 -106v-1q0 -52 44 -82q26 -21 89 -44 q55 -19 128 -35q98 -29 161 -101q27 -35 40 -59q32 -67 32 -128v-14q0 -77 -48 -155q-36 -53 -85 -86q23 -15 50 -40q69 -70 69 -163v-11q0 -74 -46 -143q-10 -16 -38 -44q-51 -45 -112 -65q-61 -19 -112 -19h-16q-87 0 -168 49q-80 54 -118 133l127 60q8 -18 25 -38 q56 -63 139 -63h5q62 0 113 30q61 40 61 105v1q0 50 -41 79q-15 12 -29 19q-40 23 -112 44q-32 9 -76 18q-41 12 -66 26q-29 13 -72 50q-30 29 -41 46q-57 81 -57 168zM258 728q0 -72 64 -126q55 -40 117 -40h5q74 0 132 53q50 50 50 113v2q0 66 -55 117q-56 49 -130 49 t-131 -51q-52 -51 -52 -115v-2z" />
<glyph unicode="&#xa8;" horiz-adv-x="1024" d="M242 1721v8q0 39 33 71q30 25 67 25q43 0 75 -34q25 -30 25 -62v-7q0 -39 -33 -71q-30 -26 -67 -26h-1q-51 0 -84 46q-15 27 -15 50zM582 1721v8q0 39 33 71q30 25 67 25q43 0 75 -34q25 -30 25 -62v-7q0 -39 -33 -71q-30 -26 -67 -26h-1q-51 0 -84 46q-15 27 -15 50z " />
<glyph unicode="&#xa9;" horiz-adv-x="1913" d="M175 672v21q0 148 63 300q27 59 69 126q26 37 67 84q52 56 74 72q56 48 102 75q190 114 406 114q242 0 447 -140q38 -25 88 -72q52 -50 63 -65q38 -46 59 -79q125 -198 125 -426q0 -223 -120 -417q-26 -43 -73 -98q-49 -53 -81 -80q-50 -41 -85 -64q-198 -123 -423 -123 q-227 0 -426 126q-42 28 -95 74q-56 53 -68 68q-53 65 -77 105q-30 47 -53 102q-62 149 -62 297zM313 679q0 -196 115 -366q22 -31 58 -70q40 -41 57 -54q44 -36 86 -62q154 -88 325 -88h5q186 0 349 105q25 14 59 43q17 12 65 59l18 24q39 46 62 87q88 153 88 324 q0 203 -121 376q-22 31 -66 78q-54 52 -90 75q-169 115 -367 115q-200 0 -372 -118q-28 -19 -80 -69q-48 -48 -67 -77q-25 -36 -45 -72q-79 -145 -79 -306v-4zM534 677v12q0 196 147 348q141 128 301 128h26q147 0 282 -110q65 -62 86 -99l-116 -78q-62 96 -176 134 q-41 13 -82 13h-16q-120 0 -221 -103q-91 -105 -91 -239v-5q0 -143 108 -251q96 -88 213 -88q146 0 252 130l14 20l118 -75q-86 -136 -246 -193q-72 -22 -138 -22q-174 0 -313 128q-148 152 -148 350z" />
<glyph unicode="&#xaa;" horiz-adv-x="648" />
<glyph unicode="&#xab;" horiz-adv-x="1243" d="M117 387v107l278 182l111 73q77 -115 77 -117l-292 -192q280 -183 292 -192l-76 -116q-2 0 -44 28l-223 146zM603 387v107l278 182l111 73q77 -115 77 -117l-292 -192q280 -183 292 -192l-76 -116q-2 0 -44 28l-223 146z" />
<glyph unicode="&#xac;" horiz-adv-x="1000" d="M150 670v140h700v-460h-140v320h-560z" />
<glyph unicode="&#xad;" horiz-adv-x="863" d="M76 420v140h706v-140h-706z" />
<glyph unicode="&#xae;" horiz-adv-x="1214" d="M175 1026v12q0 81 35 166q15 32 38 69q14 21 37 47q29 31 41 39q31 27 56 42q105 63 225 63q134 0 247 -77q21 -14 49 -40q29 -28 35 -36q21 -26 32 -44q69 -109 69 -235q0 -124 -66 -231q-14 -24 -40 -54q-27 -30 -45 -45q-28 -22 -47 -35q-110 -68 -234 -68 q-126 0 -236 70q-23 15 -52 41q-31 29 -38 37q-29 36 -42 58q-17 26 -30 57q-34 82 -34 164zM228 1030q0 -116 68 -216q13 -18 34 -41q24 -24 34 -32q26 -21 50 -36q91 -52 192 -52h3q109 0 205 62q15 8 35 25q10 7 38 35l11 14q23 27 36 51q52 90 52 191q0 119 -71 221 q-13 19 -39 46q-32 31 -53 44q-99 68 -216 68q-118 0 -219 -69q-17 -12 -47 -41q-28 -28 -40 -45q-14 -22 -26 -43q-47 -85 -47 -180v-2zM463 750v562h158q40 0 79 -20q15 -7 30 -20q15 -14 19 -20q13 -16 19 -28q7 -13 10 -27q7 -21 7 -52v-2q0 -42 -14 -74q-5 -13 -14 -27 q-30 -44 -77 -64l88 -180l23 -49h-62q-1 1 -7 15q-4 9 -48 101l-47 101l-9 -1h-102v-215h-53zM520 1019h98q27 0 46 9q40 17 60 58q11 25 11 51v14q0 37 -23 67q-11 13 -18 17q-31 23 -71 23h-103v-239z" />
<glyph unicode="&#xaf;" horiz-adv-x="670" />
<glyph unicode="&#xb0;" horiz-adv-x="876" d="M99 1135v12q0 81 51 158q32 45 78 77q75 47 153 47h12q78 0 152 -46q21 -14 52 -43q78 -86 78 -200q0 -120 -91 -211q-87 -76 -196 -76q-117 0 -205 85q-36 36 -46 58q-38 70 -38 139zM253 1140q0 -66 58 -109q36 -24 77 -24q63 0 107 52q26 39 26 81q0 66 -56 111 q-36 24 -77 24h-2q-60 0 -104 -52q-29 -38 -29 -81v-2z" />
<glyph unicode="&#xb1;" horiz-adv-x="862" d="M76 0h710v-140h-710v140zM76 420v140h285v285h140v-285h285v-140h-285v-285h-140v285h-285z" />
<glyph unicode="&#xb2;" horiz-adv-x="1014" />
<glyph unicode="&#xb3;" horiz-adv-x="1014" />
<glyph unicode="&#xb4;" horiz-adv-x="887" d="M242 1721l330 203l73 -118l-329 -204z" />
<glyph unicode="&#xb5;" horiz-adv-x="1152" d="M160 -399v1349h2l1 1h134l1 -1h2v-601q0 -156 168 -200q33 -9 113 -9q102 0 153 27q77 37 103 103q13 46 13 90v587l2 3h135l3 -3v-930l-3 -3h-135l-2 3v93q-110 -110 -277 -110q-175 0 -273 72v-471l-1 -1h-138z" />
<glyph unicode="&#xb6;" horiz-adv-x="1121" d="M107 1006q0 157 107.5 253t285.5 96h443v-140h-69v-1115h-140v1115h-166v-1115h-140v563q-135 19 -219 98q-102 94 -102 245z" />
<glyph unicode="&#xb7;" horiz-adv-x="684" d="M242 796v8q0 38 33 70q29 26 66 26h2q43 0 75 -35q24 -30 24 -61v-6q0 -43 -37 -75q-28 -23 -64 -23q-38 0 -69 28q-30 32 -30 68z" />
<glyph unicode="&#xb8;" horiz-adv-x="766" d="M245 -264l82 60h1q21 -27 45 -27q21 0 36 17q9 12 9 24q0 13 -7 21.5t-21 12.5q-17 3 -42 -7l-69 -24v1l37 186h106l-13 -59q16 -2 30 -7q42 -15 64 -54q18 -35 18 -70q0 -60 -48 -105q-45 -39 -100 -39q-70 0 -120 60q-8 8 -8 10z" />
<glyph unicode="&#xb9;" horiz-adv-x="1014" />
<glyph unicode="&#xba;" horiz-adv-x="718" />
<glyph unicode="&#xbb;" horiz-adv-x="1243" d="M174 248q12 9 292 192l-292 192q0 2 77 117l111 -73l278 -182v-107l-123 -81l-223 -146q-42 -28 -44 -28zM660 248q12 9 292 192l-292 192q0 2 77 117l111 -73l278 -182v-107l-123 -81l-223 -146q-42 -28 -44 -28z" />
<glyph unicode="&#xbc;" horiz-adv-x="1708" />
<glyph unicode="&#xbd;" horiz-adv-x="1964" />
<glyph unicode="&#xbe;" horiz-adv-x="1708" />
<glyph unicode="&#xbf;" horiz-adv-x="1025" d="M94 413v13q0 87 44 184q18 37 47 76q13 19 46 52q38 36 86 69q37 27 73 59q43 39 43 84l-1 126v119l1 1h139l1 -158v-85q0 -108 -84 -187q-43 -39 -94 -75q-39 -28 -67 -54q-35 -36 -42 -51q-17 -25 -30 -55q-22 -58 -22 -110v-1q0 -107 71 -192q31 -33 42 -39 q67 -49 145 -49h2q91 0 167 67q31 31 40 47q51 76 51 165v36l1 1h138l1 -1v-42q0 -101 -52 -202q-13 -23 -39 -58q-11 -16 -43 -47q-38 -34 -68 -51q-94 -55 -190 -55h-14q-99 0 -195 57q-26 15 -65 50q-43 44 -55 65q-25 34 -43 77q-34 85 -34 164zM402 1401v4q0 43 37 75 q28 23 64 23q42 0 73 -32q26 -30 26 -68q0 -49 -41 -81q-27 -19 -58 -19h-1q-52 0 -85 47q-15 26 -15 51z" />
<glyph unicode="&#xc0;" horiz-adv-x="1351" d="M35 1l571 1463h145q4 0 32 -76l527 -1354l14 -33l-2 -1h-150q-6 7 -89 227q-44 112 -49 117h-714q-5 -7 -106 -269q-26 -69 -31 -75h-145l-2 1h-1zM374 485h608l-304 779h-1zM478 1806l73 118l330 -203l-74 -119z" />
<glyph unicode="&#xc1;" horiz-adv-x="1351" d="M35 1l571 1463h145q4 0 32 -76l527 -1354l14 -33l-2 -1h-150q-6 7 -89 227q-44 112 -49 117h-714q-5 -7 -106 -269q-26 -69 -31 -75h-145l-2 1h-1zM374 485h608l-304 779h-1zM478 1720l329 204l74 -119l-330 -203z" />
<glyph unicode="&#xc2;" horiz-adv-x="1351" d="M35 1l571 1463h145q4 0 32 -76l527 -1354l14 -33l-2 -1h-150q-6 7 -89 227q-44 112 -49 117h-714q-5 -7 -106 -269q-26 -69 -31 -75h-145l-2 1h-1zM374 485h608l-304 779h-1zM429 1692v1l206 243h89q3 -2 103 -121l103 -123l-106 -90q-3 2 -49 58q-93 109 -95 112 l-144 -170h-1z" />
<glyph unicode="&#xc3;" horiz-adv-x="1351" d="M35 1l571 1463h145q4 0 32 -76l527 -1354l14 -33l-2 -1h-150q-6 7 -89 227q-44 112 -49 117h-714q-5 -7 -106 -269q-26 -69 -31 -75h-145l-2 1h-1zM374 485h608l-304 779h-1zM386 1629v154q31 35 61 51q47 26 90 26q52 0 145 -49.5t138 -49.5q41 0 86 28q30 19 67 63 v-154q-31 -34 -61 -51q-47 -25 -92 -25q-49 0 -142 48.5t-141 48.5q-40 0 -85 -28q-30 -19 -66 -62z" />
<glyph unicode="&#xc4;" horiz-adv-x="1351" d="M35 1l571 1463h145q4 0 32 -76l527 -1354l14 -33l-2 -1h-150q-6 7 -89 227q-44 112 -49 117h-714q-5 -7 -106 -269q-26 -69 -31 -75h-145l-2 1h-1zM374 485h608l-304 779h-1zM410 1731v8q0 39 33 71q30 25 67 25q43 0 75 -34q25 -30 25 -62v-7q0 -39 -33 -71 q-30 -26 -67 -26h-1q-51 0 -84 46q-15 27 -15 50zM750 1731v8q0 39 33 71q30 25 67 25q43 0 75 -34q25 -30 25 -62v-7q0 -39 -33 -71q-30 -26 -67 -26h-1q-51 0 -84 46q-15 27 -15 50z" />
<glyph unicode="&#xc5;" horiz-adv-x="1351" d="M35 1l571 1463q-16 9 -31 20q-14 13 -21 21q-12 17 -19 29q-17 36 -17 69v9q0 47 31 91q6 9 22 25q49 41 107 41h2q57 0 105 -39q18 -18 23 -25q33 -45 33 -97q0 -65 -48 -115l-9 -9q-15 -12 -32 -21q6 -7 31 -75l527 -1354l14 -33l-2 -1h-150q-6 7 -89 227 q-44 112 -49 117h-714q-5 -7 -106 -269q-26 -69 -31 -75h-145l-2 1h-1zM374 485h608l-304 779h-1zM619 1608q0 -28 24 -48q17 -13 36 -13q29 0 49 24q12 18 12 37v2q0 23 -17 41q-19 18 -44 18q-24 0 -42 -17q-18 -19 -18 -43v-1z" />
<glyph unicode="&#xc6;" horiz-adv-x="1698" d="M35 0l231 399l215 369l253 436l147 253l4 7h705v-140h-563v-522h449l1 -1v-139h-450v-522h563v-140h-709v432h-449q-2 -3 -25 -43l-214 -367l-13 -22h-145zM513 572h368v633l-175 -301z" />
<glyph unicode="&#xc7;" horiz-adv-x="1408" d="M97 727v10q0 301 210 529q201 198 450 198h12q254 0 459 -207q91 -108 113 -164q-120 -62 -124 -62q-26 50 -68 104q-167 189 -383 189h-6q-226 0 -393 -202q-130 -175 -130 -385v-10q0 -244 169 -430q157 -157 359 -157q221 0 389 195q41 56 65 102l123 -64 q-23 -60 -121 -174q-202 -199 -460 -199h-1l-14 -59q16 -2 30 -7q42 -15 64 -54q18 -35 18 -70q0 -60 -48 -105q-45 -39 -100 -39q-70 0 -120 60q-8 8 -8 10l82 60h1q21 -27 45 -27q21 0 36 17q9 12 9 24q0 13 -7 21.5t-21 12.5q-17 1 -42 -7l-69 -24v1l38 195 q-210 37 -378 221q-179 223 -179 497z" />
<glyph unicode="&#xc8;" horiz-adv-x="1009" d="M172 1v1462l1 1h727l1 -1v-138l-1 -1h-588v-522h470l1 -1v-138l-1 -1h-470v-522h588l1 -1v-138l-1 -1h-727zM335 1806l73 118l330 -203l-74 -119z" />
<glyph unicode="&#xc9;" horiz-adv-x="1009" d="M172 1v1462l1 1h727l1 -1v-138l-1 -1h-588v-522h470l1 -1v-138l-1 -1h-470v-522h588l1 -1v-138l-1 -1h-727zM335 1721l330 203l73 -118l-329 -204z" />
<glyph unicode="&#xca;" horiz-adv-x="1009" d="M172 1v1462l1 1h727l1 -1v-138l-1 -1h-588v-522h470l1 -1v-138l-1 -1h-470v-522h588l1 -1v-138l-1 -1h-727zM286 1692v1l206 243h89q3 -2 103 -121l103 -123l-106 -90q-3 2 -49 58q-93 109 -95 112l-144 -170h-1z" />
<glyph unicode="&#xcb;" horiz-adv-x="1009" d="M172 1v1462l1 1h727l1 -1v-138l-1 -1h-588v-522h470l1 -1v-138l-1 -1h-470v-522h588l1 -1v-138l-1 -1h-727zM267 1731v8q0 39 33 71q30 25 67 25q43 0 75 -34q25 -30 25 -62v-7q0 -39 -33 -71q-30 -26 -67 -26h-1q-51 0 -84 46q-15 27 -15 50zM607 1731v8q0 39 33 71 q30 25 67 25q43 0 75 -34q25 -30 25 -62v-7q0 -39 -33 -71q-30 -26 -67 -26h-1q-51 0 -84 46q-15 27 -15 50z" />
<glyph unicode="&#xcc;" horiz-adv-x="484" d="M57 1786l73 118l297 -183l-74 -119zM172 1v1462l1 1h138l1 -1v-1462l-1 -1h-138z" />
<glyph unicode="&#xcd;" horiz-adv-x="484" d="M57 1721l297 183l73 -118l-296 -184zM172 1v1462l1 1h138l1 -1v-1462l-1 -1h-138z" />
<glyph unicode="&#xce;" horiz-adv-x="484" d="M-9 1692v1l206 243h89q3 -2 103 -121l103 -123l-106 -90q-3 2 -49 58q-93 109 -95 112l-144 -170h-1zM172 1v1462l1 1h138l1 -1v-1462l-1 -1h-138z" />
<glyph unicode="&#xcf;" horiz-adv-x="484" d="M-28 1731v8q0 39 33 71q30 25 67 25q43 0 75 -34q25 -30 25 -62v-7q0 -39 -33 -71q-30 -26 -67 -26h-1q-51 0 -84 46q-15 27 -15 50zM172 1v1462l1 1h138l1 -1v-1462l-1 -1h-138zM312 1731v8q0 39 33 71q30 25 67 25q43 0 75 -34q25 -30 25 -62v-7q0 -39 -33 -71 q-30 -26 -67 -26h-1q-51 0 -84 46q-15 27 -15 50z" />
<glyph unicode="&#xd0;" horiz-adv-x="1383" d="M112 662v140h113v659l3 3h354q251 0 456 -173q93 -88 114 -127q138 -197 138 -432q0 -286 -201 -509q-213 -223 -527 -223h-334l-3 3v659h-113zM365 140h198q312 0 492 266q94 156 94 326q0 257 -195 447q-61 51 -112 79q-128 66 -260 66h-217v-522h188v-140h-188v-522z " />
<glyph unicode="&#xd1;" horiz-adv-x="1422" d="M172 3v1458l3 3h172q8 -8 535 -872l226 -371h2v1240l2 3h135l3 -3v-1458l-3 -3h-165q-14 16 -75 120q-4 5 -535 875l-153 248v-1240l-3 -3h-141zM417 1629v154q31 35 61 51q47 26 90 26q52 0 145 -49.5t138 -49.5q41 0 86 28q30 19 67 63v-154q-31 -34 -61 -51 q-47 -25 -92 -25q-49 0 -142 48.5t-141 48.5q-40 0 -85 -28q-30 -19 -66 -62z" />
<glyph unicode="&#xd2;" horiz-adv-x="1543" d="M99 725v14q0 267 177 488q71 76 102 98q184 139 395 139h6q255 0 458 -195q76 -81 101 -128q115 -187 115 -405v-8q0 -302 -213 -530q-203 -198 -465 -198q-256 0 -459 194q-90 98 -110 143q-107 182 -107 388zM239 727q0 -243 173 -431q161 -156 365 -156q239 0 411 212 q125 173 125 376v8q0 244 -173 432q-161 156 -365 156q-227 0 -396 -193q-140 -177 -140 -394v-10zM575 1806l73 118l330 -203l-74 -119z" />
<glyph unicode="&#xd3;" horiz-adv-x="1543" d="M99 725v14q0 267 177 488q71 76 102 98q184 139 395 139h6q255 0 458 -195q76 -81 101 -128q115 -187 115 -405v-8q0 -302 -213 -530q-203 -198 -465 -198q-256 0 -459 194q-90 98 -110 143q-107 182 -107 388zM239 727q0 -243 173 -431q161 -156 365 -156q239 0 411 212 q125 173 125 376v8q0 244 -173 432q-161 156 -365 156q-227 0 -396 -193q-140 -177 -140 -394v-10zM575 1721l330 203l73 -118l-329 -204z" />
<glyph unicode="&#xd4;" horiz-adv-x="1543" d="M99 725v14q0 267 177 488q71 76 102 98q184 139 395 139h6q255 0 458 -195q76 -81 101 -128q115 -187 115 -405v-8q0 -302 -213 -530q-203 -198 -465 -198q-256 0 -459 194q-90 98 -110 143q-107 182 -107 388zM239 727q0 -243 173 -431q161 -156 365 -156q239 0 411 212 q125 173 125 376v8q0 244 -173 432q-161 156 -365 156q-227 0 -396 -193q-140 -177 -140 -394v-10zM526 1692v1l206 243h89q3 -2 103 -121l103 -123l-106 -90q-3 2 -49 58q-93 109 -95 112l-144 -170h-1z" />
<glyph unicode="&#xd5;" horiz-adv-x="1543" d="M99 725v14q0 267 177 488q71 76 102 98q184 139 395 139h6q255 0 458 -195q76 -81 101 -128q115 -187 115 -405v-8q0 -302 -213 -530q-203 -198 -465 -198q-256 0 -459 194q-90 98 -110 143q-107 182 -107 388zM239 727q0 -243 173 -431q161 -156 365 -156q239 0 411 212 q125 173 125 376v8q0 244 -173 432q-161 156 -365 156q-227 0 -396 -193q-140 -177 -140 -394v-10zM483 1629v154q31 35 61 51q47 26 90 26q52 0 145 -49.5t138 -49.5q41 0 86 28q30 19 67 63v-154q-31 -34 -61 -51q-47 -25 -92 -25q-49 0 -142 48.5t-141 48.5 q-40 0 -85 -28q-30 -19 -66 -62z" />
<glyph unicode="&#xd6;" horiz-adv-x="1543" d="M99 725v14q0 267 177 488q71 76 102 98q184 139 395 139h6q255 0 458 -195q76 -81 101 -128q115 -187 115 -405v-8q0 -302 -213 -530q-203 -198 -465 -198q-256 0 -459 194q-90 98 -110 143q-107 182 -107 388zM239 727q0 -243 173 -431q161 -156 365 -156q239 0 411 212 q125 173 125 376v8q0 244 -173 432q-161 156 -365 156q-227 0 -396 -193q-140 -177 -140 -394v-10zM506 1731v8q0 39 33 71q30 25 67 25q43 0 75 -34q25 -30 25 -62v-7q0 -39 -33 -71q-30 -26 -67 -26h-1q-51 0 -84 46q-15 27 -15 50zM846 1731v8q0 39 33 71q30 25 67 25 q43 0 75 -34q25 -30 25 -62v-7q0 -39 -33 -71q-30 -26 -67 -26h-1q-51 0 -84 46q-15 27 -15 50z" />
<glyph unicode="&#xd7;" horiz-adv-x="793" d="M96 285l202 202l-202 202l99 99l202 -202l201 202l99 -99l-201 -202l201 -202l-99 -99l-201 202l-202 -202z" />
<glyph unicode="&#xd8;" horiz-adv-x="1543" d="M99 725v14q0 267 177 488q71 76 102 98q184 139 395 139h6q173 0 322 -90l114 184l1 1l117 -69v-2l-121 -196q12 -11 25 -23q76 -81 101 -128q115 -187 115 -405v-8q0 -302 -213 -530q-203 -198 -465 -198q-168 0 -313 83l-94 -152h-1l-117 69v1l100 162q-17 15 -34 31 q-90 98 -110 143q-107 182 -107 388zM239 727q0 -243 173 -431q7 -6 13 -12l602 971q-116 69 -252 69q-227 0 -396 -193q-140 -177 -140 -394v-10zM536 202q112 -62 241 -62q239 0 411 212q125 173 125 376v8q0 244 -173 432l-3 3z" />
<glyph unicode="&#xd9;" horiz-adv-x="1387" d="M170 522v939l3 3h134l3 -3v-937q0 -234 168 -345q73 -39 146 -39h139q151 0 249 140q65 101 65 258v923l3 3h135l3 -3v-923q0 -324 -231 -475q-108 -63 -221 -63h-144q-169 0 -303 127q-149 157 -149 395zM492 1806l73 118l330 -203l-74 -119z" />
<glyph unicode="&#xda;" horiz-adv-x="1387" d="M170 522v939l3 3h134l3 -3v-937q0 -234 168 -345q73 -39 146 -39h139q151 0 249 140q65 101 65 258v923l3 3h135l3 -3v-923q0 -324 -231 -475q-108 -63 -221 -63h-144q-169 0 -303 127q-149 157 -149 395zM492 1721l330 203l73 -118l-329 -204z" />
<glyph unicode="&#xdb;" horiz-adv-x="1387" d="M170 522v939l3 3h134l3 -3v-937q0 -234 168 -345q73 -39 146 -39h139q151 0 249 140q65 101 65 258v923l3 3h135l3 -3v-923q0 -324 -231 -475q-108 -63 -221 -63h-144q-169 0 -303 127q-149 157 -149 395zM443 1692v1l206 243h89q3 -2 103 -121l103 -123l-106 -90 q-3 2 -49 58q-93 109 -95 112l-144 -170h-1z" />
<glyph unicode="&#xdc;" horiz-adv-x="1387" d="M170 522v939l3 3h134l3 -3v-937q0 -234 168 -345q73 -39 146 -39h139q151 0 249 140q65 101 65 258v923l3 3h135l3 -3v-923q0 -324 -231 -475q-108 -63 -221 -63h-144q-169 0 -303 127q-149 157 -149 395zM424 1731v8q0 39 33 71q30 25 67 25q43 0 75 -34q25 -30 25 -62 v-7q0 -39 -33 -71q-30 -26 -67 -26h-1q-51 0 -84 46q-15 27 -15 50zM764 1731v8q0 39 33 71q30 25 67 25q43 0 75 -34q25 -30 25 -62v-7q0 -39 -33 -71q-30 -26 -67 -26h-1q-51 0 -84 46q-15 27 -15 50z" />
<glyph unicode="&#xdd;" horiz-adv-x="1193" d="M30 1461v3h172q18 -23 391 -597l5 -5l396 602h170l3 -3l-495 -743v-715l-3 -3h-143l-2 3v715zM397 1721l330 203l73 -118l-329 -204z" />
<glyph unicode="&#xde;" horiz-adv-x="1307" d="M153 1v1462l1 1h138l1 -1v-273h438q245 0 381 -130q35 -38 45 -56q23 -34 34 -64q27 -69 27 -138v-140q0 -100 -53 -192q-65 -106 -201 -159q-104 -37 -222 -37h-449v-273l-1 -1h-138zM293 412h442q177 0 273 84q72 68 72 171v129q0 114 -86 183q-22 17 -38 26 q-26 14 -70 27q-66 20 -167 20h-426v-640z" />
<glyph unicode="&#xdf;" horiz-adv-x="1303" d="M153 3v1136q0 63 60 163q117 161 339 161h12q198 0 322 -95q92 -82 92 -198q0 -125 -112 -267q-62 -94 -62 -136v-6q0 -67 156 -141q76 -43 153 -115q96 -103 96 -203v-20q0 -102 -100 -205q-127 -114 -289 -114h-2q-223 0 -367 227l-1 4l117 71q104 -162 253 -162 q114 0 202 85q47 57 47 97v12q0 111 -249 239q-156 96 -156 222v9q0 108 131 278q43 70 43 126q0 127 -234 151l-43 1h-8q-183 0 -246 -141q-14 -35 -14 -51v-1128l-3 -3h-134z" />
<glyph unicode="&#xe0;" d="M92 469v12q0 188 135 336q142 143 338 143q197 0 314 -162l3 -6h1v156l2 3h135l3 -3v-945l-3 -3h-135l-2 3v154h-1q-108 -166 -326 -166v1l-2 -1q-194 0 -340 156q-122 146 -122 322zM232 474q0 -167 134 -277q84 -65 187 -65q217 0 300 213q22 62 22 124v22 q0 87 -55 182q-94 145 -251 145q-212 0 -308 -200q-29 -71 -29 -139v-5zM356 1292l73 118l330 -203l-74 -119z" />
<glyph unicode="&#xe1;" d="M92 469v12q0 188 135 336q142 143 338 143q197 0 314 -162l3 -6h1v156l2 3h135l3 -3v-945l-3 -3h-135l-2 3v154h-1q-108 -166 -326 -166v1l-2 -1q-194 0 -340 156q-122 146 -122 322zM232 474q0 -167 134 -277q84 -65 187 -65q217 0 300 213q22 62 22 124v22 q0 87 -55 182q-94 145 -251 145q-212 0 -308 -200q-29 -71 -29 -139v-5zM356 1206l329 204l74 -119l-330 -203z" />
<glyph unicode="&#xe2;" d="M92 469v12q0 188 135 336q142 143 338 143q197 0 314 -162l3 -6h1v156l2 3h135l3 -3v-945l-3 -3h-135l-2 3v154h-1q-108 -166 -326 -166v1l-2 -1q-194 0 -340 156q-122 146 -122 322zM232 474q0 -167 134 -277q84 -65 187 -65q217 0 300 213q22 62 22 124v22 q0 87 -55 182q-94 145 -251 145q-212 0 -308 -200q-29 -71 -29 -139v-5zM305 1177v1l206 243h89q3 -2 103 -121l103 -123l-106 -90q-3 2 -49 58q-93 109 -95 112l-144 -170h-1z" />
<glyph unicode="&#xe3;" d="M92 469v12q0 188 135 336q142 143 338 143q197 0 314 -162l3 -6h1v156l2 3h135l3 -3v-945l-3 -3h-135l-2 3v154h-1q-108 -166 -326 -166v1l-2 -1q-194 0 -340 156q-122 146 -122 322zM232 474q0 -167 134 -277q84 -65 187 -65q217 0 300 213q22 62 22 124v22 q0 87 -55 182q-94 145 -251 145q-212 0 -308 -200q-29 -71 -29 -139v-5zM265 1115v154q31 35 61 51q47 26 90 26q52 0 145.5 -49.5t138.5 -49.5q41 0 86 28q30 19 67 63v-154q-31 -34 -61 -51q-47 -25 -92 -25q-49 0 -142.5 48.5t-141.5 48.5q-40 0 -85 -28q-30 -19 -66 -62 z" />
<glyph unicode="&#xe4;" d="M92 469v12q0 188 135 336q142 143 338 143q197 0 314 -162l3 -6h1v156l2 3h135l3 -3v-945l-3 -3h-135l-2 3v154h-1q-108 -166 -326 -166v1l-2 -1q-194 0 -340 156q-122 146 -122 322zM232 474q0 -167 134 -277q84 -65 187 -65q217 0 300 213q22 62 22 124v22 q0 87 -55 182q-94 145 -251 145q-212 0 -308 -200q-29 -71 -29 -139v-5zM288 1215v8q0 39 33 71q30 25 67 25q43 0 75 -34q25 -30 25 -62v-7q0 -39 -33 -71q-30 -26 -67 -26h-1q-51 0 -84 46q-15 27 -15 50zM628 1215v8q0 39 33 71q30 25 67 25q43 0 75 -34q25 -30 25 -62 v-7q0 -39 -33 -71q-30 -26 -67 -26h-1q-51 0 -84 46q-15 27 -15 50z" />
<glyph unicode="&#xe5;" d="M92 469v12q0 188 135 336q142 143 338 143q197 0 314 -162l3 -6h1v156l2 3h135l3 -3v-945l-3 -3h-135l-2 3v154h-1q-108 -166 -326 -166v1l-2 -1q-194 0 -340 156q-122 146 -122 322zM232 474q0 -167 134 -277q84 -65 187 -65q217 0 300 213q22 62 22 124v22 q0 87 -55 182q-94 145 -251 145q-212 0 -308 -200q-29 -71 -29 -139v-5zM397 1234v9q0 47 31 91q6 9 22 25q49 41 107 41h2q57 0 105 -39q19 -18 24 -25q32 -45 32 -97q0 -65 -49 -115l-8 -9q-47 -37 -105 -37q-57 0 -104 37q-14 13 -20 22q-13 16 -19 28q-18 36 -18 69z M505 1239q0 -25 21 -42q15 -12 33 -12q26 0 42 21q11 16 11 33v2q0 20 -15 36q-17 16 -38 16q-22 0 -38 -15q-16 -17 -16 -38v-1z" />
<glyph unicode="&#xe6;" horiz-adv-x="1904" d="M92 469v12q0 188 135 336q142 143 338 143q197 0 314 -162l3 -6h1v156l2 3h135l3 -3v-163q17 22 37 43q134 131 313 131q206 0 353 -182q97 -143 97 -279v-12q0 -46 -6 -46h-759q0 -48 40 -135q60 -112 173 -156q55 -18 99 -18q137 0 237 119q35 48 46 77h2 q81 -32 127 -54q-22 -63 -98 -147q-138 -135 -313 -135q-203 0 -348 172v-160l-3 -3h-135l-2 3v154h-1q-108 -166 -326 -166v1l-2 -1q-194 0 -340 156q-122 146 -122 322zM232 474q0 -167 134 -277q84 -65 187 -65q217 0 300 213q22 62 22 124v22q0 87 -55 182 q-94 145 -251 145q-212 0 -308 -200q-29 -71 -29 -139v-5zM1071 578h598q-42 131 -141 193q-74 47 -160 47q-146 0 -249 -136q-32 -47 -48 -104z" />
<glyph unicode="&#xe7;" horiz-adv-x="1001" d="M90 469v11q0 197 147 349q141 128 301 128h26q147 0 282 -110q65 -63 86 -99l-116 -78q-62 96 -176 134q-41 13 -82 13h-16q-120 0 -221 -103q-91 -105 -91 -239v-5q0 -143 108 -252q96 -87 213 -87q146 0 251 129l15 21l118 -76q-87 -136 -246 -192q-72 -22 -138 -22 h-20l-12 -50q16 -2 30 -7q42 -15 64 -54q18 -35 18 -70q0 -60 -48 -105q-45 -39 -100 -39q-70 0 -120 60q-8 8 -8 10l82 60h1q21 -27 45 -27q21 0 36 17q9 12 9 24q0 13 -7 21.5t-21 12.5q-17 1 -42 -7l-69 -24v1l39 194q-102 30 -190 111q-148 152 -148 350z" />
<glyph unicode="&#xe8;" horiz-adv-x="1054" d="M67 469v9q0 200 143 350q134 131 313 131q206 0 353 -182q97 -143 97 -279v-12q0 -46 -6 -46h-759q0 -48 40 -135q60 -112 173 -156q55 -18 99 -18q137 0 237 119q35 48 46 77h2q81 -32 127 -54q-22 -63 -98 -147q-138 -135 -313 -135q-209 0 -357 183q-97 139 -97 295z M221 578h598q-42 131 -141 193q-74 47 -160 47q-146 0 -249 -136q-32 -47 -48 -104zM319 1292l73 118l330 -203l-74 -119z" />
<glyph unicode="&#xe9;" horiz-adv-x="1054" d="M67 469v9q0 200 143 350q134 131 313 131q206 0 353 -182q97 -143 97 -279v-12q0 -46 -6 -46h-759q0 -48 40 -135q60 -112 173 -156q55 -18 99 -18q137 0 237 119q35 48 46 77h2q81 -32 127 -54q-22 -63 -98 -147q-138 -135 -313 -135q-209 0 -357 183q-97 139 -97 295z M221 578h598q-42 131 -141 193q-74 47 -160 47q-146 0 -249 -136q-32 -47 -48 -104zM319 1207l330 203l73 -118l-329 -204z" />
<glyph unicode="&#xea;" horiz-adv-x="1054" d="M67 469v9q0 200 143 350q134 131 313 131q206 0 353 -182q97 -143 97 -279v-12q0 -46 -6 -46h-759q0 -48 40 -135q60 -112 173 -156q55 -18 99 -18q137 0 237 119q35 48 46 77h2q81 -32 127 -54q-22 -63 -98 -147q-138 -135 -313 -135q-209 0 -357 183q-97 139 -97 295z M221 578h598q-42 131 -141 193q-74 47 -160 47q-146 0 -249 -136q-32 -47 -48 -104zM270 1178v1l206 243h89q3 -2 103 -121l103 -123l-106 -90q-3 2 -49 58q-93 109 -95 112l-144 -170h-1z" />
<glyph unicode="&#xeb;" horiz-adv-x="1054" d="M67 469v9q0 200 143 350q134 131 313 131q206 0 353 -182q97 -143 97 -279v-12q0 -46 -6 -46h-759q0 -48 40 -135q60 -112 173 -156q55 -18 99 -18q137 0 237 119q35 48 46 77h2q81 -32 127 -54q-22 -63 -98 -147q-138 -135 -313 -135q-209 0 -357 183q-97 139 -97 295z M221 578h598q-42 131 -141 193q-74 47 -160 47q-146 0 -249 -136q-32 -47 -48 -104zM250 1215v8q0 39 33 71q30 25 67 25q43 0 75 -34q25 -30 25 -62v-7q0 -39 -33 -71q-30 -26 -67 -26h-1q-51 0 -84 46q-15 27 -15 50zM590 1215v8q0 39 33 71q30 25 67 25q43 0 75 -34 q25 -30 25 -62v-7q0 -39 -33 -71q-30 -26 -67 -26h-1q-51 0 -84 46q-15 27 -15 50z" />
<glyph unicode="&#xec;" horiz-adv-x="466" d="M31 1292l73 118l330 -203l-74 -119zM163 1v948l1 1h138l1 -1v-948l-1 -1h-138z" />
<glyph unicode="&#xed;" horiz-adv-x="466" d="M31 1207l330 203l73 -118l-329 -204zM163 1v948l1 1h138l1 -1v-948l-1 -1h-138z" />
<glyph unicode="&#xee;" horiz-adv-x="466" d="M-18 1178v1l206 243h89q3 -2 103 -121l103 -123l-106 -90q-3 2 -49 58q-93 109 -95 112l-144 -170h-1zM163 1v948l1 1h138l1 -1v-948l-1 -1h-138z" />
<glyph unicode="&#xef;" horiz-adv-x="466" d="M-17 1215v8q0 39 33 71q30 25 67 25q43 0 75 -34q25 -30 25 -62v-7q0 -39 -33 -71q-30 -26 -67 -26h-1q-51 0 -84 46q-15 27 -15 50zM163 1v948l1 1h138l1 -1v-948l-1 -1h-138zM283 1215v8q0 39 33 71q30 25 67 25q43 0 75 -34q25 -30 25 -62v-7q0 -39 -33 -71 q-30 -26 -67 -26h-1q-51 0 -84 46q-15 27 -15 50z" />
<glyph unicode="&#xf0;" horiz-adv-x="1139" />
<glyph unicode="&#xf1;" horiz-adv-x="1131" d="M153 3v930l3 3h134l3 -3v-93q110 110 270 110h17q281 0 378 -215q25 -64 25 -134v-598l-3 -3h-135l-2 3v598q0 147 -151 196q-35 13 -137 13q-125 0 -187 -52q-75 -49 -75 -165v-590l-3 -3h-134zM274 1115v154q31 35 61 51q47 26 90 26q52 0 145.5 -49.5t138.5 -49.5 q41 0 86 28q30 19 67 63v-154q-31 -34 -61 -51q-47 -25 -92 -25q-49 0 -142.5 48.5t-141.5 48.5q-40 0 -85 -28q-30 -19 -66 -62z" />
<glyph unicode="&#xf2;" horiz-adv-x="1103" d="M90 469v12q0 196 147 348q141 128 301 128h26q154 0 292 -119q157 -153 157 -364q0 -214 -165 -370q-136 -113 -297 -113q-173 0 -313 128q-148 153 -148 350zM230 470q0 -141 106 -250q97 -89 215 -89q151 0 258 138q64 98 64 206q0 151 -114 261q-93 81 -202 81h-15 q-119 0 -222 -103q-90 -105 -90 -239v-5zM350 1292l73 118l330 -203l-74 -119z" />
<glyph unicode="&#xf3;" horiz-adv-x="1103" d="M90 469v12q0 196 147 348q141 128 301 128h26q154 0 292 -119q157 -153 157 -364q0 -214 -165 -370q-136 -113 -297 -113q-173 0 -313 128q-148 153 -148 350zM230 470q0 -141 106 -250q97 -89 215 -89q151 0 258 138q64 98 64 206q0 151 -114 261q-93 81 -202 81h-15 q-119 0 -222 -103q-90 -105 -90 -239v-5zM328 1207l330 203l73 -118l-329 -204z" />
<glyph unicode="&#xf4;" horiz-adv-x="1103" d="M90 469v12q0 196 147 348q141 128 301 128h26q154 0 292 -119q157 -153 157 -364q0 -214 -165 -370q-136 -113 -297 -113q-173 0 -313 128q-148 153 -148 350zM230 470q0 -141 106 -250q97 -89 215 -89q151 0 258 138q64 98 64 206q0 151 -114 261q-93 81 -202 81h-15 q-119 0 -222 -103q-90 -105 -90 -239v-5zM301 1178v1l206 243h89q3 -2 103 -121l103 -123l-106 -90q-3 2 -49 58q-93 109 -95 112l-144 -170h-1z" />
<glyph unicode="&#xf5;" horiz-adv-x="1103" d="M90 469v12q0 196 147 348q141 128 301 128h26q154 0 292 -119q157 -153 157 -364q0 -214 -165 -370q-136 -113 -297 -113q-173 0 -313 128q-148 153 -148 350zM230 470q0 -141 106 -250q97 -89 215 -89q151 0 258 138q64 98 64 206q0 151 -114 261q-93 81 -202 81h-15 q-119 0 -222 -103q-90 -105 -90 -239v-5zM258 1115v154q31 35 61 51q47 26 90 26q52 0 145.5 -49.5t138.5 -49.5q41 0 86 28q30 19 67 63v-154q-31 -34 -61 -51q-47 -25 -92 -25q-49 0 -142.5 48.5t-141.5 48.5q-40 0 -85 -28q-30 -19 -66 -62z" />
<glyph unicode="&#xf6;" horiz-adv-x="1103" d="M90 469v12q0 196 147 348q141 128 301 128h26q154 0 292 -119q157 -153 157 -364q0 -214 -165 -370q-136 -113 -297 -113q-173 0 -313 128q-148 153 -148 350zM230 470q0 -141 106 -250q97 -89 215 -89q151 0 258 138q64 98 64 206q0 151 -114 261q-93 81 -202 81h-15 q-119 0 -222 -103q-90 -105 -90 -239v-5zM282 1215v8q0 39 33 71q30 25 67 25q43 0 75 -34q25 -30 25 -62v-7q0 -39 -33 -71q-30 -26 -67 -26h-1q-51 0 -84 46q-15 27 -15 50zM622 1215v8q0 39 33 71q30 25 67 25q43 0 75 -34q25 -30 25 -62v-7q0 -39 -33 -71 q-30 -26 -67 -26h-1q-51 0 -84 46q-15 27 -15 50z" />
<glyph unicode="&#xf7;" horiz-adv-x="865" d="M96 420v140h673v-140h-673zM333 191v8q0 38 33 70q29 26 66 26h2q43 0 75 -35q24 -30 24 -61v-6q0 -43 -37 -75q-28 -23 -64 -23q-38 0 -69 28q-30 32 -30 68zM333 781v8q0 38 33 70q29 26 66 26h2q43 0 75 -35q24 -30 24 -61v-6q0 -43 -37 -75q-28 -23 -64 -23 q-38 0 -69 28q-30 32 -30 68z" />
<glyph unicode="&#xf8;" horiz-adv-x="1103" d="M90 469v12q0 196 147 348q141 128 301 128h26q91 0 177 -42l77 134l1 1l120 -69v-2l-82 -142q156 -153 156 -363q0 -214 -165 -370q-136 -113 -297 -113q-87 0 -165 32l-69 -119h-1l-120 69v1l70 121q-14 11 -28 24q-148 153 -148 350zM230 470q0 -141 106 -250 q1 -1 2 -1l332 574q-54 24 -113 24h-15q-119 0 -222 -103q-90 -105 -90 -239v-5zM457 146q45 -15 94 -15q151 0 258 138q64 98 64 206q0 134 -89 235z" />
<glyph unicode="&#xf9;" horiz-adv-x="1130" d="M148 345v602l3 3h134l3 -3v-598q0 -156 168 -200q33 -9 113 -9q102 0 153 27q77 37 103 103q13 46 13 90v587l2 3h135l3 -3v-930l-3 -3h-135l-2 3v93q-110 -110 -277 -110q-179 0 -278 76q-135 103 -135 269zM362 1292l73 118l330 -203l-74 -119z" />
<glyph unicode="&#xfa;" horiz-adv-x="1130" d="M148 345v602l3 3h134l3 -3v-598q0 -156 168 -200q33 -9 113 -9q102 0 153 27q77 37 103 103q13 46 13 90v587l2 3h135l3 -3v-930l-3 -3h-135l-2 3v93q-110 -110 -277 -110q-179 0 -278 76q-135 103 -135 269zM362 1207l330 203l73 -118l-329 -204z" />
<glyph unicode="&#xfb;" horiz-adv-x="1130" d="M148 345v602l3 3h134l3 -3v-598q0 -156 168 -200q33 -9 113 -9q102 0 153 27q77 37 103 103q13 46 13 90v587l2 3h135l3 -3v-930l-3 -3h-135l-2 3v93q-110 -110 -277 -110q-179 0 -278 76q-135 103 -135 269zM313 1178v1l206 243h89q3 -2 103 -121l103 -123l-106 -90 q-3 2 -49 58q-93 109 -95 112l-144 -170h-1z" />
<glyph unicode="&#xfc;" horiz-adv-x="1130" d="M148 345v602l3 3h134l3 -3v-598q0 -156 168 -200q33 -9 113 -9q102 0 153 27q77 37 103 103q13 46 13 90v587l2 3h135l3 -3v-930l-3 -3h-135l-2 3v93q-110 -110 -277 -110q-179 0 -278 76q-135 103 -135 269zM293 1215v8q0 39 33 71q30 25 67 25q43 0 75 -34 q25 -30 25 -62v-7q0 -39 -33 -71q-30 -26 -67 -26h-1q-51 0 -84 46q-15 27 -15 50zM633 1215v8q0 39 33 71q30 25 67 25q43 0 75 -34q25 -30 25 -62v-7q0 -39 -33 -71q-30 -26 -67 -26h-1q-51 0 -84 46q-15 27 -15 50z" />
<glyph unicode="&#xfd;" horiz-adv-x="1021" d="M34 949l1 1h156q4 0 46 -105l272 -648q4 5 117 267q206 485 209 486h151v-1l-532 -1240l-61 -140h-151v1l191 449zM308 1207l330 203l73 -118l-329 -204z" />
<glyph unicode="&#xfe;" horiz-adv-x="1179" d="M153 -399v1862l1 1h138l1 -1v-670q111 167 326 167l1 -2h2l1 2q173 0 313 -129q73 -76 102 -142q46 -105 46 -202v-22q0 -184 -139 -337q-142 -137 -334 -137q-197 0 -314 162l-3 5h-1v-558h-139zM301 465q0 -122 88 -232q89 -101 220 -101q200 0 298 183q37 77 37 154 v15q0 137 -106 246q-94 88 -214 88q-217 0 -299 -209q-24 -64 -24 -134v-10z" />
<glyph unicode="&#xff;" horiz-adv-x="1021" d="M34 949l1 1h156q4 0 46 -105l272 -648q4 5 117 267q206 485 209 486h151v-1l-532 -1240l-61 -140h-151v1l191 449zM240 1215v8q0 39 33 71q30 25 67 25q43 0 75 -34q25 -30 25 -62v-7q0 -39 -33 -71q-30 -26 -67 -26h-1q-51 0 -84 46q-15 27 -15 50zM580 1215v8 q0 39 33 71q30 25 67 25q43 0 75 -34q25 -30 25 -62v-7q0 -39 -33 -71q-30 -26 -67 -26h-1q-51 0 -84 46q-15 27 -15 50z" />
<glyph unicode="&#x152;" horiz-adv-x="1929" d="M99 725v14q0 267 177 488q71 76 102 98q184 139 395 139h6q167 0 313 -85v84l1 1h727l1 -1v-138l-1 -1h-588v-522h470l1 -1v-138l-1 -1h-470v-522h588l1 -1v-138l-1 -1h-727l-1 1v84q-146 -85 -317 -85q-256 0 -459 194q-90 98 -110 143q-107 182 -107 388zM239 727 q0 -243 173 -431q161 -156 365 -156q176 0 315 115v955q-143 114 -317 114q-227 0 -396 -193q-140 -177 -140 -394v-10z" />
<glyph unicode="&#x153;" horiz-adv-x="1894" d="M90 469v12q0 196 147 348q141 128 301 128h26q154 0 292 -119q65 -63 103 -137q34 68 91 127q134 131 313 131q206 0 353 -182q97 -143 97 -279v-12q0 -46 -6 -46h-759q0 -48 40 -135q60 -112 173 -156q55 -18 99 -18q137 0 237 119q35 48 46 77h2q81 -32 127 -54 q-22 -63 -98 -147q-138 -135 -313 -135q-209 0 -357 183q-26 37 -45 75q-40 -78 -111 -145q-136 -113 -297 -113q-173 0 -313 128q-148 153 -148 350zM230 470q0 -141 106 -250q97 -89 215 -89q151 0 258 138q64 98 64 206q0 151 -114 261q-93 81 -202 81h-15 q-119 0 -222 -103q-90 -105 -90 -239v-5zM1062 578h598q-42 131 -142 193q-73 47 -159 47q-146 0 -249 -136q-32 -47 -48 -104z" />
<glyph unicode="&#x2c6;" horiz-adv-x="985" d="M242 1692v1l206 243h89q3 -2 103 -121l103 -123l-106 -90q-3 2 -49 58q-93 109 -95 112l-144 -170h-1z" />
<glyph unicode="&#x2dc;" horiz-adv-x="1071" d="M242 1629v154q31 35 61 51q47 26 90 26q52 0 145 -49.5t138 -49.5q41 0 86 28q30 19 67 63v-154q-31 -34 -61 -51q-47 -25 -92 -25q-49 0 -142 48.5t-141 48.5q-40 0 -85 -28q-30 -19 -66 -62z" />
<glyph unicode="&#x2000;" horiz-adv-x="968" />
<glyph unicode="&#x2001;" horiz-adv-x="1936" />
<glyph unicode="&#x2002;" horiz-adv-x="968" />
<glyph unicode="&#x2003;" horiz-adv-x="1936" />
<glyph unicode="&#x2004;" horiz-adv-x="645" />
<glyph unicode="&#x2005;" horiz-adv-x="484" />
<glyph unicode="&#x2006;" horiz-adv-x="322" />
<glyph unicode="&#x2007;" horiz-adv-x="322" />
<glyph unicode="&#x2008;" horiz-adv-x="242" />
<glyph unicode="&#x2009;" horiz-adv-x="387" />
<glyph unicode="&#x200a;" horiz-adv-x="107" />
<glyph unicode="&#x2010;" horiz-adv-x="863" d="M76 420v140h706v-140h-706z" />
<glyph unicode="&#x2011;" horiz-adv-x="863" d="M76 420v140h706v-140h-706z" />
<glyph unicode="&#x2012;" horiz-adv-x="863" d="M76 420v140h706v-140h-706z" />
<glyph unicode="&#x2013;" horiz-adv-x="990" d="M70 449v120h850v-120h-850z" />
<glyph unicode="&#x2014;" horiz-adv-x="1350" d="M100 399v140h1150v-140h-1150z" />
<glyph unicode="&#x2018;" horiz-adv-x="530" d="M129 1361q0 122 146 253q40 35 52 42l40 -52q-101 -94 -101 -168q36 -15 52 -48q12 -20 12 -45q0 -49 -45 -83q-25 -16 -57 -16q-49 0 -81 43q-18 29 -18 74z" />
<glyph unicode="&#x2019;" horiz-adv-x="530" d="M163 1296q101 94 101 167q-36 15 -52 49q-12 20 -12 45q0 49 45 82q25 17 57 17q49 0 81 -44q18 -28 18 -73q0 -123 -146 -253q-40 -36 -52 -42z" />
<glyph unicode="&#x201a;" horiz-adv-x="494" d="M83 -167q101 94 101 167q-36 15 -52 49q-12 20 -12 45q0 49 45 82q25 17 57 17q49 0 81 -44q18 -28 18 -73q0 -123 -146 -253q-40 -36 -52 -42z" />
<glyph unicode="&#x201c;" horiz-adv-x="922" d="M159 1361q0 122 146 253q40 35 52 42l40 -52q-101 -94 -101 -168q36 -15 52 -48q12 -20 12 -45q0 -49 -45 -83q-25 -16 -57 -16q-49 0 -81 43q-18 29 -18 74zM449 1361q0 122 146 253q40 35 52 42l40 -52q-101 -94 -101 -168q36 -15 52 -48q12 -20 12 -45q0 -49 -45 -83 q-25 -16 -57 -16q-49 0 -81 43q-18 29 -18 74z" />
<glyph unicode="&#x201d;" horiz-adv-x="922" d="M235 1296q101 94 101 167q-36 15 -52 49q-12 20 -12 45q0 49 45 82q25 17 57 17q49 0 81 -44q18 -28 18 -73q0 -123 -146 -253q-40 -36 -52 -42zM525 1296q101 94 101 167q-36 15 -52 49q-12 20 -12 45q0 49 45 82q25 17 57 17q49 0 81 -44q18 -28 18 -73 q0 -123 -146 -253q-40 -36 -52 -42z" />
<glyph unicode="&#x201e;" horiz-adv-x="784" d="M83 -167q101 94 101 167q-36 15 -52 49q-12 20 -12 45q0 49 45 82q25 17 57 17q49 0 81 -44q18 -28 18 -73q0 -123 -146 -253q-40 -36 -52 -42zM373 -167q101 94 101 167q-36 15 -52 49q-12 20 -12 45q0 49 45 82q25 17 57 17q49 0 81 -44q18 -28 18 -73 q0 -123 -146 -253q-40 -36 -52 -42z" />
<glyph unicode="&#x2022;" horiz-adv-x="898" d="M300 950q0 -66 58 -109q36 -24 77 -24q63 0 107 52q26 39 26 81q0 66 -56 111q-36 24 -77 24h-2q-60 0 -104 -52q-29 -38 -29 -81v-2z" />
<glyph unicode="&#x2026;" horiz-adv-x="1200" d="M100 96v8q0 38 33 70q29 26 66 26h2q43 0 75 -35q24 -30 24 -61v-6q0 -43 -37 -75q-28 -23 -64 -23q-38 0 -69 28q-30 32 -30 68zM500 96v8q0 38 33 70q29 26 66 26h2q43 0 75 -35q24 -30 24 -61v-6q0 -43 -37 -75q-28 -23 -64 -23q-38 0 -69 28q-30 32 -30 68zM900 96v8 q0 38 33 70q29 26 66 26h2q43 0 75 -35q24 -30 24 -61v-6q0 -43 -37 -75q-28 -23 -64 -23q-38 0 -69 28q-30 32 -30 68z" />
<glyph unicode="&#x202f;" horiz-adv-x="387" />
<glyph unicode="&#x2039;" horiz-adv-x="636" d="M69 417v107l278 182l111 73q77 -115 77 -117l-292 -192q280 -183 292 -192l-76 -116q-2 0 -44 28l-223 146z" />
<glyph unicode="&#x203a;" horiz-adv-x="636" d="M101 279l292 192q-280 183 -292 192l76 116q2 0 44 -28l223 -146l123 -81v-107l-278 -182l-111 -73q-77 115 -77 117z" />
<glyph unicode="&#x205f;" horiz-adv-x="484" />
<glyph unicode="&#x20ac;" horiz-adv-x="1353" d="M53 464v138l1 1h87q-4 32 -4 60v27l1 10h-84l-1 1v139l1 1h105q16 61 36 105q22 47 57 101q21 32 58 74q43 44 58 56q53 44 87 64q49 30 115 56q115 42 230 42h9q178 0 342 -96q38 -23 85 -62q14 -12 17 -15l-94 -104q-77 70 -174 105q-88 32 -181 32q-179 0 -328 -114 q-20 -16 -54 -50q-49 -54 -72 -95q-19 -32 -38 -78l-7 -21h863l1 -1v-139l-1 -1h-890v-1l-1 -26v-3q0 -35 5 -67h886l1 -1v-138l-1 -1h-848q81 -182 261 -269q108 -49 223 -49q158 0 294 89q26 18 60 47l1 1l94 -103v-1q-45 -40 -83 -65q-170 -108 -364 -108h-4 q-179 0 -340 94q-34 20 -72 50q-21 15 -66 60q-48 51 -67 81q-33 47 -59 103q-15 33 -27 70h-117z" />
<glyph unicode="&#x2122;" horiz-adv-x="2439" d="M15 1325v138l1 1h923l1 -1v-138l-1 -1h-391v-1024h-140v1024h-392zM1040 300v1164h175q1 -2 115 -206l211 -379l112 -202q4 5 48 86l219 392q1 0 148 267l25 42h173l1 -1v-1163h-147v925l-210 -378l-196 -349q-1 -5 -2 -5h-116q-3 3 -34 60l-223 400l-151 272h-1v-925 h-147z" />
<glyph unicode="&#x25fc;" horiz-adv-x="950" d="M0 0v950h950v-950h-950z" />
<glyph unicode="&#xfb02;" horiz-adv-x="997" d="M27 811v138l1 1h170v19q0 222 100 359q11 16 39 43q34 32 59 46q27 16 56 26q57 21 111 21h29l1 -1v-138l-1 -1h-22q-125 0 -189 -129q-43 -91 -43 -238v-7h254l1 -1v-138l-1 -1h-254v-809l-1 -1h-138l-1 1v809h-170zM705 2v1460l1 2h138l1 -2v-1460l-1 -2h-138z" />
</font>
</defs>
</svg>
