<?xml version="1.0" standalone="no"?>
<!DOCTYPE svg PUBLIC "-//W3C//DTD SVG 1.1//EN" "http://www.w3.org/Graphics/SVG/1.1/DTD/svg11.dtd" >
<svg xmlns="http://www.w3.org/2000/svg" xmlns:xlink="http://www.w3.org/1999/xlink" version="1.1">
<metadata></metadata>
<defs>
<font id="louis_george_cafebold" horiz-adv-x="1432" >
<font-face units-per-em="2048" ascent="1638" descent="-410" />
<missing-glyph horiz-adv-x="508" />
<glyph horiz-adv-x="0" />
<glyph unicode="&#xd;" horiz-adv-x="508" />
<glyph unicode=" "  horiz-adv-x="508" />
<glyph unicode="&#x09;" horiz-adv-x="508" />
<glyph unicode="&#xa0;" horiz-adv-x="508" />
<glyph unicode="!" horiz-adv-x="711" d="M266 1463l1 1h252l1 -1l-30 -1157l-1 -1h-192l-1 1zM267 122v8q0 47 38 87q38 35 89 35q60 0 101 -52q24 -35 24 -70v-8q0 -48 -39 -88q-29 -25 -57 -31q-15 -3 -23 -3h-14q-32 0 -67 23q-34 25 -47 66q-5 18 -5 33z" />
<glyph unicode="&#x22;" horiz-adv-x="957" d="M179 1101v399h193v-399l-1 -1h-191zM509 1101v399h193v-399l-1 -1h-191z" />
<glyph unicode="#" horiz-adv-x="997" d="M36 425v192l1 1h145l33 185h-123l-1 1v192l1 1h157l60 346l2 1q183 -32 189 -34l-55 -313h193l60 337q188 -33 190 -34l-53 -303h125v-194h-159l-33 -185h136l1 -1v-192l-1 -1h-170l-69 -394h-1l-189 33v1l63 360h-193l-68 -385l-191 34l62 351h-111zM379 618h193l32 185 h-193z" />
<glyph unicode="$" horiz-adv-x="1143" d="M97 325q158 79 173 85q60 -120 181 -164q57 -20 120 -20q109 0 193 57q29 21 47 48q34 50 34 106q0 86 -81 138q-20 12 -41 20q-26 11 -99 25q-199 43 -292 88q-207 96 -207 293v1q0 131 90 238q28 30 45 44q29 23 54 38q34 20 65 32q31 13 81 24l6 1v113l1 1h191l1 -1 v-107q0 -1 23 -4q104 -20 194 -84q25 -18 61 -55q39 -42 48 -59q9 -13 15 -25v-1q-123 -64 -170 -90q-7 13 -37 46q-86 84 -213 84q-106 0 -181 -50q-13 -9 -34 -30q-47 -53 -47 -115q0 -54 35 -81q17 -14 33 -23q40 -24 116 -48q87 -26 222 -53q59 -15 99 -34 q41 -20 83 -51q15 -12 40 -38q48 -53 71 -115q21 -60 21 -117v-10q0 -105 -63 -205q-16 -24 -44 -55q-28 -28 -51 -44q-36 -25 -69 -41q-35 -18 -81 -32q-28 -9 -71 -16v-109l-1 -1h-191l-1 1v112q0 1 -23 5q-115 27 -212 105q-48 43 -67 69q-37 46 -53 78q-14 24 -14 26z " />
<glyph unicode="%" horiz-adv-x="1664" d="M93 1133v15q0 79 48 158q14 21 44 52q43 38 71 51q74 40 155 40q128 0 227 -90q34 -35 46 -58q46 -76 46 -160q0 -117 -84 -209q-34 -34 -56 -47q-83 -53 -172 -53h-13q-83 0 -163 47q-25 15 -55 43q-31 31 -44 52q-50 79 -50 159zM250 -13l947 1477l1 1h201l1 -1 l-947 -1477l-2 -1h-201v1zM298 1140q0 -48 46 -81q30 -21 68 -21q59 0 97 49q16 26 16 55q0 55 -58 89q-27 12 -54 12h-3q-52 0 -90 -41q-22 -27 -22 -62zM934 300q0 116 84 208q33 32 44 38q25 19 50 31q68 31 136 31h9q99 0 189 -62q16 -12 44 -38q41 -47 60 -97 q22 -54 22 -107v-9q0 -88 -57 -171q-10 -16 -40 -46q-46 -42 -97 -62q-60 -25 -125 -25q-119 0 -213 79q-37 35 -45 50q-61 82 -61 180zM1139 299q0 -48 46 -81q31 -21 69 -21q58 0 96 49q17 26 17 55q0 55 -58 89q-27 12 -54 12h-4q-52 0 -89 -41q-23 -27 -23 -62z" />
<glyph unicode="&#x26;" horiz-adv-x="1305" d="M100 313v14q0 60 18 125q14 40 31 70q20 36 54 79q53 64 123 122q67 54 115 86l21 13q-72 112 -109 179q-32 65 -32 137v12q0 149 143 248q103 65 219 65q99 0 197 -50q28 -15 53 -35q110 -93 110 -243q0 -73 -29 -126q-61 -124 -278 -250q113 -165 246 -353l9 -11l90 90 l137 -136q-92 -94 -113 -113l90 -124v-1q-6 -6 -150 -111q-4 -3 -5 -3l-83 113q-225 -167 -459 -167q-101 0 -171 31q-140 59 -198 194q-29 72 -29 145zM293 319q0 -124 116 -170q34 -13 90 -13q170 0 345 131q-155 218 -275 394q-51 -32 -112 -81q-24 -19 -73 -66l-19 -21 q-44 -51 -58 -87q-14 -37 -14 -87zM515 1143q0 -42 20 -71q33 -57 82 -132q11 -19 12 -20q64 36 127 84q23 18 53 48q41 43 41 75v8q0 86 -81 116q-44 18 -85 18h-2q-72 0 -131 -48q-27 -26 -30 -39q-6 -10 -6 -39z" />
<glyph unicode="'" horiz-adv-x="515" d="M139 1100v400h193v-400l-1 -1h-191z" />
<glyph unicode="(" horiz-adv-x="783" d="M133 624q0 412 135 670q136 241 341 241h19l3 -3v-187l-3 -3h-23q-119 0 -217 -248q-62 -189 -62 -474q0 -321 131 -541q73 -107 145 -107h26l3 -3v-187l-3 -3h-25q-222 0 -365 301q-105 241 -105 544z" />
<glyph unicode=")" horiz-adv-x="783" d="M152 -31l3 3h26q72 0 145 107q131 220 131 541q0 285 -62 474q-98 248 -217 248h-23l-3 3v187l3 3h19q205 0 341 -241q135 -258 135 -670q0 -303 -105 -544q-143 -301 -365 -301h-25l-3 3v187z" />
<glyph unicode="*" horiz-adv-x="1071" d="M158 1174l65 181q207 -74 212 -76v226l1 1h192l1 -1v-226l212 76l65 -181q-1 -2 -216 -78v-1l133 -180l-156 -114q-5 5 -57 77q-73 99 -78 106q-7 -8 -123 -166l-13 -17l-156 114v1l133 180l-214 77z" />
<glyph unicode="+" horiz-adv-x="830" d="M70 414v193h259v257l1 1h191l1 -1v-257h257l1 -1v-191l-1 -1h-257v-259h-193v259h-259z" />
<glyph unicode="," horiz-adv-x="598" d="M103 -212q128 119 128 212q-45 19 -66 62q-15 26 -15 57q0 63 57 104q32 22 72 22q63 0 103 -56q23 -35 23 -93q0 -156 -185 -321q-51 -46 -66 -53z" />
<glyph unicode="-" horiz-adv-x="863" d="M76 414v193h705l1 -1v-191l-1 -1h-705z" />
<glyph unicode="." horiz-adv-x="554" d="M151 122v8q0 47 38 87q38 35 89 35q60 0 101 -52q24 -35 24 -70v-8q0 -48 -39 -88q-29 -25 -57 -31q-15 -3 -23 -3h-14q-32 0 -67 23q-34 25 -47 66q-5 18 -5 33z" />
<glyph unicode="/" horiz-adv-x="715" d="M1 -49l498 1422l1 1h191l1 -1l-498 -1422l-1 -1h-191z" />
<glyph unicode="0" horiz-adv-x="1412" d="M105 681q0 291 179 516q185 205 421 205h2q256 0 443 -234q157 -213 157 -490q0 -293 -180 -517q-183 -204 -422 -204q-252 0 -442 231q-158 218 -158 493zM298 678q0 -235 146 -405q118 -124 262 -124q186 0 318 198q91 151 91 332q0 260 -172 433q-111 98 -233 98h-5 q-182 0 -314 -194q-93 -153 -93 -338z" />
<glyph unicode="1" horiz-adv-x="713" d="M150 1185v190h346v-1374l-1 -1h-190l-1 1v1183h-153z" />
<glyph unicode="2" horiz-adv-x="1083" d="M98 970v4q0 64 27 153q19 56 42 94q67 116 190 168q84 35 186 35q149 0 256 -78q20 -13 57 -50q42 -45 63 -82q65 -115 65 -241q0 -116 -57 -209l-316 -347l-228 -250v-1l206 1h388l1 -1v-192l-1 -1h-861l-1 1v186l309 339l199 219l147 162q20 41 20 90v6q0 77 -45 150 q-12 19 -34 42q-26 24 -47 35q-48 27 -117 27h-8q-178 0 -231 -166q-17 -58 -17 -94h-193z" />
<glyph unicode="3" horiz-adv-x="1140" d="M91 338v7l1 1h191l1 -1q0 -87 62 -159q24 -25 36 -34q33 -24 58 -34q58 -25 117 -25q115 0 201 79q74 77 74 173q0 85 -59 156q-86 97 -220 97h-99v192v1h111l18 -1q19 0 58 10q24 8 44 19q18 9 47 34q64 65 64 150q0 86 -67 152q-69 60 -157 60q-96 0 -167 -70 q-25 -27 -38 -53q-20 -42 -20 -97l-1 -1h-192l-1 1v8q0 142 96 258q35 39 51 50q36 30 73 49q94 49 198 49h1q149 0 269 -95q40 -34 65 -67q23 -30 38 -60q46 -88 46 -179v-11q0 -94 -50 -187q-15 -28 -40 -59q-16 -20 -54 -55q17 -11 56 -49q42 -46 59 -76q64 -106 64 -222 v-8q0 -123 -73 -236q-20 -29 -47 -59q-37 -37 -56 -49q-37 -28 -73 -46q-28 -15 -76 -30q-71 -21 -129 -21h-28q-72 0 -161 32q-48 19 -94 49q-29 20 -63 51q-33 33 -51 59q-28 41 -42 70q-41 90 -41 177z" />
<glyph unicode="4" horiz-adv-x="1126" d="M24 196v1l243 409l237 399l206 347l19 31h191l1 -1v-992h118l1 -1v-191l-1 -1h-117v-212l-1 -1h-192l-1 1v211h-704zM364 389h306l58 1v612h-1l-175 -296q-168 -283 -174 -294q-3 -2 -14 -23z" />
<glyph unicode="5" horiz-adv-x="1237" d="M81 210q163 77 175 82q58 -121 190 -174q66 -25 134 -25q133 0 238 86q30 28 44 45q72 92 72 199v5q0 112 -79 207q-28 31 -43 42q-103 81 -233 81q-100 0 -191 -53l-183 -99l125 465q73 271 73 274l11 38h573l1 -1v-191l-1 -1h-425l-66 -244h1q40 5 75 5h16 q121 0 241 -57q44 -21 93 -57q17 -13 41 -36q44 -43 55 -60q27 -34 42 -61q68 -121 68 -255q0 -169 -107 -312q-16 -22 -55 -61q-40 -37 -75 -60q-144 -92 -309 -92h-5q-160 0 -301 88q-32 20 -72 55q-40 38 -51 53q-37 47 -53 77q-19 34 -19 37z" />
<glyph unicode="6" horiz-adv-x="1250" d="M96 406v17q0 114 58 227q16 28 140 229l213 352l94 151q162 -97 165 -101l-218 -356q39 5 79 5q173 0 319 -104q26 -18 61 -52q39 -40 50 -59q24 -32 43 -65q58 -112 58 -234v-2q0 -157 -95 -294q-17 -24 -54 -62q-46 -45 -74 -63q-36 -23 -61 -36q-36 -18 -67 -29 q-89 -30 -170 -30h-21q-95 0 -198 42q-41 16 -86 45q-143 92 -204 251q-32 87 -32 168zM289 415q0 -130 101 -230q32 -26 33 -26q93 -66 201 -66h5q125 0 225 85q30 26 42 42q69 89 69 194q0 99 -60 185q-13 18 -44 47q-26 23 -44 35q-89 55 -186 55h-8q-110 0 -207 -69 q-17 -14 -42 -39q-85 -94 -85 -213z" />
<glyph unicode="7" horiz-adv-x="976" d="M53 47l218 392l204 369l213 382h-630l-1 1v192l1 1h865l1 -1v-165q-2 -5 -52 -94l-266 -480l-261 -470l-123 -221h-1z" />
<glyph unicode="8" horiz-adv-x="1174" d="M99 355v15q0 103 56 207q21 37 58 81q37 38 51 49q24 19 40 29q-35 34 -48 53q-79 106 -79 231q0 144 100 259q39 39 51 47q34 26 61 39q94 49 197 49q147 0 266 -94q40 -35 56 -57q57 -71 78 -159q9 -42 9 -77v-12q0 -101 -59 -198q-17 -26 -42 -54q-5 -7 -26 -27 q25 -16 60 -47q43 -41 48 -52q25 -30 45 -67q53 -99 53 -207q0 -158 -108 -288q-28 -32 -54 -54q-32 -25 -55 -39q-125 -77 -269 -77h-4q-158 0 -291 92q-29 20 -61 52q-32 33 -48 54q-30 42 -44 77q-41 88 -41 175zM292 363q0 -106 86 -187q34 -28 56 -39q70 -39 152 -39 q117 0 208 77q36 36 42 49q44 66 44 134v10q0 76 -54 148q-29 34 -53 50q-85 61 -187 61q-112 0 -200 -71q-24 -21 -40 -40q-54 -71 -54 -153zM371 1020q0 -78 62 -140q66 -60 153 -60q88 0 155 62q60 61 60 139q0 80 -62 140q-35 32 -73 46q-39 13 -77 13h-6 q-82 0 -148 -57q-64 -62 -64 -143z" />
<glyph unicode="9" horiz-adv-x="1245" d="M92 887v17q0 118 64 237q21 37 55 80q21 26 56 57q76 66 163 98q93 35 194 35q168 0 310 -97q25 -18 63 -52q44 -45 57 -65q26 -35 45 -72q55 -110 55 -228v-5q0 -146 -87 -280l-263 -431q-148 -243 -153 -250h-1l-163 99v1q0 1 64 105l152 249q-40 -5 -72 -5h-15 q-123 0 -243 61q-37 19 -80 50q-23 18 -56 50q-41 44 -62 78q-27 42 -44 82q-39 96 -39 186zM286 895q0 -112 75 -202q26 -30 45 -45q98 -74 217 -74q125 0 223 79q27 25 45 47q70 89 70 195q0 116 -79 208q-34 34 -49 45q-95 70 -209 70q-129 0 -229 -86q-38 -36 -42 -43 q-67 -88 -67 -194z" />
<glyph unicode=":" horiz-adv-x="590" d="M187 122v8q0 47 38 87q38 35 89 35q60 0 101 -52q24 -35 24 -70v-8q0 -48 -39 -88q-29 -25 -57 -31q-15 -3 -23 -3h-14q-32 0 -67 23q-34 25 -47 66q-5 18 -5 33zM187 828v9q0 43 34 82q40 39 88 39h8q46 0 86 -37q36 -39 36 -85v-7q0 -50 -42 -91q-38 -32 -80 -32h-8 q-48 0 -88 39q-34 39 -34 83z" />
<glyph unicode=";" horiz-adv-x="572" d="M119 -212q128 119 128 212q-45 19 -66 62q-15 26 -15 57q0 63 57 104q32 22 72 22q63 0 103 -56q23 -35 23 -93q0 -156 -185 -321q-51 -46 -66 -53zM169 832q0 49 35 88q40 38 87 38h8q46 0 86 -37q36 -39 36 -85v-7q0 -50 -41 -91q-39 -32 -81 -32h-8q-50 0 -91 43 q-31 38 -31 83z" />
<glyph unicode="&#x3c;" horiz-adv-x="986" d="M116 441v150l288 225l270 210h1l118 -152q0 -2 -281 -220l-177 -138l196 -153l262 -205l-118 -152h-1l-340 265q-213 165 -218 170z" />
<glyph unicode="=" horiz-adv-x="839" d="M94 201v193h649l1 -1v-191l-1 -1h-649zM94 587v193h649l1 -1v-191l-1 -1h-649z" />
<glyph unicode="&#x3e;" horiz-adv-x="986" d="M193 158l262 205l196 153l-177 138q-281 218 -281 220l118 152h1l270 -210l288 -225v-150q-5 -5 -218 -170l-340 -265h-1z" />
<glyph unicode="?" horiz-adv-x="1111" d="M133 1030v43q0 98 50 199q17 34 47 73q13 17 45 48q28 26 49 40q38 26 78 44q85 35 167 35h14q87 0 178 -41q39 -18 81 -49q22 -17 47 -42q38 -40 56 -70q72 -114 72 -246q0 -118 -67 -233q-18 -30 -46 -63q-33 -38 -59 -59q-36 -28 -116 -84q-20 -15 -44 -37 q-12 -15 -18 -25q-5 -14 -5 -26v-231l-1 -1h-191l-1 1l-1 228q0 135 128 232q31 25 109 79q43 32 71 72q32 48 44 107q4 24 4 40q0 100 -69 177q-77 78 -180 78q-99 0 -176 -74q-73 -78 -73 -181v-34h-193zM439 126q0 57 47 98q35 28 80 28q57 0 97 -47q28 -36 28 -76v-6 q0 -51 -41 -91q-38 -32 -79 -32h-13q-31 0 -66 23q-35 24 -49 70q-4 18 -4 33z" />
<glyph unicode="@" horiz-adv-x="2184" d="M160 510v21q0 166 65 336q25 63 59 122q29 52 79 117q24 31 77 86l14 13q63 58 97 81q56 40 108 68q59 32 136 59q154 52 302 52h22q186 0 367 -64q250 -94 401 -295q36 -49 63 -99q105 -196 105 -429q0 -102 -35 -235q-18 -54 -40 -97q-23 -44 -59 -91q-36 -42 -64 -63 q-111 -86 -230 -86q-60 0 -125 20q-102 34 -160 115q-20 29 -29 51l-3 6q-31 -30 -54 -45q-98 -67 -206 -67q-112 0 -208 71q-40 33 -65 66t-37 57q-54 103 -54 221q0 148 81 276q56 82 134 131q90 54 186 54q117 0 215 -77q33 -29 53 -54q14 -17 27 -37h1q11 30 25 65h1 l179 -69v-1q-34 -86 -55 -149q-59 -174 -59 -283q0 -93 48 -127q20 -17 65 -26q24 -4 39 -4h1q63 0 129 60q32 36 49 70q20 37 30 71q10 33 17 80q10 50 10 95v4q0 239 -137 419q-60 75 -123 121q-46 34 -88 56q-180 96 -406 96h-1q-229 0 -425 -131q-37 -25 -82 -64 q-43 -41 -62 -63q-48 -58 -69 -93q-116 -185 -116 -401q0 -218 119 -408q22 -35 58 -79q18 -22 64 -67q60 -55 98 -78q83 -56 181 -88q114 -37 230 -37h8q211 0 401 117l104 -163q-50 -31 -100 -55q-43 -22 -115 -47q-146 -46 -280 -46h-28q-144 0 -301 54q-90 33 -163 76 q-59 35 -117 82q-24 17 -88 80q-69 76 -102 127q-35 52 -62 106q-28 56 -54 132q-46 147 -46 284zM879 498q0 -72 36 -134q8 -16 33 -42q45 -43 102 -43h1q73 0 138 72q69 85 69 197q0 88 -49 156q-52 64 -122 64h-1q-67 0 -129 -62q-41 -46 -61 -102q-17 -52 -17 -100v-6z " />
<glyph unicode="A" d="M35 0v1l506 1249l88 214h181q3 0 87 -215l508 -1248l-2 -1h-209q-4 0 -29 67l-101 248h-695l-127 -315h-207zM449 509h536l-267 660q-3 0 -110 -270z" />
<glyph unicode="B" horiz-adv-x="1240" d="M172 3v1458l3 3h484q233 0 371 -157q74 -93 74 -220v-21q0 -167 -128 -284v-2q29 -14 80 -64q95 -105 95 -238v-72q0 -206 -185 -334q-94 -50 -117 -50q-62 -22 -179 -22h-495zM364 194h333q172 0 242 126q20 42 20 106v35q0 131 -134 179q-65 28 -159 28h-299l-3 -3 v-471zM366 860h279q176 0 249 125q17 36 17 69v45q0 110 -154 159q-45 14 -127 14h-264v-412z" />
<glyph unicode="C" horiz-adv-x="1458" d="M97 729v6q0 277 186 497q216 232 505 232h2q283 0 495 -220q75 -86 106 -148q-8 -7 -169 -93q-27 49 -81 113q-155 156 -351 156q-199 0 -353 -158q-148 -167 -148 -381q0 -248 189 -423q143 -116 303 -116h21q176 0 329 145q65 72 92 125l169 -89v-4q-34 -63 -90 -133 q-218 -238 -512 -238q-292 0 -510 234q-183 221 -183 495z" />
<glyph unicode="D" horiz-adv-x="1382" d="M172 3v1457l3 3h381q264 0 479 -178q83 -78 106 -113q148 -201 148 -435v-11q0 -292 -222 -520q-122 -110 -239 -154q-134 -52 -263 -52h-390zM365 193h176q256 0 425 188q131 157 131 350q0 196 -134 353q-79 83 -123 104q-39 28 -124 58q-75 24 -196 24h-153l-2 -2 v-1075z" />
<glyph unicode="E" horiz-adv-x="1068" d="M172 1v1462l1 1h786l1 -1v-192h-595v-443h471l1 -1v-190l-1 -1h-471v-443h595v-192l-1 -1h-786z" />
<glyph unicode="F" horiz-adv-x="1009" d="M172 1v1462l1 1h786l1 -1v-191l-1 -1h-594v-443h483v-192h-483v-635l-1 -1h-191z" />
<glyph unicode="G" horiz-adv-x="1611" d="M91 731v4q0 310 232 542q56 48 70 56q182 131 400 131h3q279 0 492 -210q76 -81 115 -153l11 -22q-145 -76 -172 -88q-25 52 -75 109q-62 65 -93 82q-131 90 -278 90q-231 0 -396 -197q-117 -158 -117 -342q0 -237 180 -411q148 -128 333 -128q212 0 371 170 q94 111 122 233h-368l-2 3v187l1 1v2l399 1h181l3 -3q-7 -153 -19 -201q-33 -155 -101 -256q-127 -202 -357 -290q-118 -41 -232 -41q-258 0 -469 186q-234 231 -234 545z" />
<glyph unicode="H" horiz-adv-x="1364" d="M172 3v1458l3 3h187l2 -3v-632h634v632l3 3h188l3 -3v-1458l-3 -3h-187l-2 3v632h-636v-632l-2 -3h-187z" />
<glyph unicode="I" horiz-adv-x="537" d="M172 1v1462l1 1h191l1 -1v-1462l-1 -1h-191z" />
<glyph unicode="J" horiz-adv-x="1136" d="M7 435v77l1 1h191l1 -1v-70q0 -90 67 -167q29 -30 43 -37q63 -45 134 -45h88q75 0 144 53q31 26 47 48q51 70 51 151v1018l1 1h192v-1028q0 -101 -55 -205q-18 -33 -48 -70q-40 -47 -67 -66q-42 -33 -81 -52q-92 -43 -178 -43h-102q-94 0 -192 51q-36 19 -76 51 q-19 16 -44 43q-39 45 -55 74q-13 20 -32 65q-30 79 -30 151z" />
<glyph unicode="K" horiz-adv-x="1327" d="M172 3v1458l3 3h187l2 -3v-751q18 18 650 750l5 4h250l3 -3l-608 -702l615 -756v-2h-256l-488 609l-171 -198v-409l-2 -3h-187z" />
<glyph unicode="L" horiz-adv-x="1019" d="M172 1v1462l1 1h191l1 -1v-1270h635l1 -1v-191l-1 -1h-827z" />
<glyph unicode="M" horiz-adv-x="1880" d="M172 3v1458l3 3h234q6 -6 261 -579l269 -600h2l529 1179h235l3 -3v-1458l-3 -3h-199l-2 3v1066h-2l-476 -1064l-4 -4h-164q-3 0 -30 64l-450 1004h-2v-1066l-2 -3h-199z" />
<glyph unicode="N" horiz-adv-x="1516" d="M172 3v1458l3 3h208l702 -1046l64 -97h1v1140l3 3h188l3 -3v-1458l-3 -3h-208q-54 76 -399 596l-370 548v-1141l-2 -3h-187z" />
<glyph unicode="O" horiz-adv-x="1597" d="M99 731v4q0 310 232 542l67 55q187 132 403 132h3q290 0 509 -227q194 -222 194 -505q0 -310 -229 -541q-213 -191 -474 -191q-262 0 -472 187q-93 96 -120 148q-113 183 -113 396zM291 733q0 -237 180 -411q148 -128 333 -128q240 0 405 212q104 152 104 318v13 q0 205 -143 370q-160 165 -366 165q-231 0 -396 -197q-117 -158 -117 -342z" />
<glyph unicode="P" horiz-adv-x="1227" d="M172 3v1458l3 3h482q232 0 394 -174q115 -140 115 -308q0 -218 -185 -373q-145 -109 -327 -109h-290v-497l-2 -3h-187zM364 694h302q144 0 248 119q58 80 58 163v13q0 131 -126 225q-78 58 -217 58h-262l-3 -3v-575z" />
<glyph unicode="Q" horiz-adv-x="1574" d="M99 747v4q0 303 227 530l65 54q183 129 395 129h2q284 0 498 -222q190 -218 190 -494q0 -250 -156 -453l164 -159v-2l-131 -134l-169 163q-185 -131 -396 -131q-256 0 -461 183q-91 94 -118 145q-110 179 -110 387zM287 749q0 -232 176 -402q145 -125 325 -125 q134 0 256 74v1l-114 112l131 135l122 -116q103 145 103 312v13q0 201 -139 361q-157 162 -359 162q-225 0 -387 -192q-114 -155 -114 -335z" />
<glyph unicode="R" horiz-adv-x="1214" d="M172 3v1458l3 3h482q232 0 394 -174q115 -140 115 -308q0 -206 -165 -356q-89 -72 -156 -92q0 -5 196 -339l112 -192l-2 -2h-227q-4 0 -55 96q-212 372 -227 403h-278v-497l-2 -3h-187zM364 694h302q144 0 248 119q58 80 58 163v13q0 131 -126 225q-78 58 -217 58h-262 l-3 -3v-575z" />
<glyph unicode="S" horiz-adv-x="1127" d="M71 305l175 81q16 -36 44 -74q13 -19 40 -45q39 -35 63 -48q81 -45 170 -45h7q89 0 170 44q22 13 46 34q27 27 40 49q34 59 34 122q0 102 -86 164q-25 16 -45 24q-35 16 -109 30q-210 48 -306 98q-212 105 -212 318q0 142 93 258q30 36 64 63q41 31 72 47q34 18 82 33 q78 23 156 23h17q114 0 224 -55q35 -19 69 -44q17 -12 54 -46q39 -42 56 -68q15 -22 27 -44l-174 -86q-8 18 -38 52q-92 98 -228 98q-134 0 -217 -79q-31 -34 -39 -54q-24 -46 -24 -95v-7q0 -69 51 -107q23 -18 44 -29q52 -28 154 -57q76 -22 183 -45q60 -17 100 -36 q39 -19 81 -51q37 -31 65 -66q79 -107 79 -237v-5q0 -128 -77 -243q-13 -21 -47 -57q-46 -42 -76 -60q-32 -20 -70 -36q-105 -44 -217 -44q-173 0 -317 102q-26 20 -54 46q-40 40 -56 62q-31 42 -48 74q-18 34 -20 41z" />
<glyph unicode="T" horiz-adv-x="1002" d="M15 1272v191l1 1h970l1 -1v-191l-1 -1h-388v-1270l-1 -1h-192l-1 1v1270h-388z" />
<glyph unicode="U" horiz-adv-x="1485" d="M170 532v929l3 3h187l2 -3v-891q0 -161 55 -238q50 -87 168 -127q45 -11 86 -11h143q171 0 265 155q43 83 43 194v918l3 3h188l3 -3v-868q0 -174 -31 -252q-61 -173 -200 -263q-121 -78 -294 -78h-96q-228 0 -367 137q-61 61 -93 122q-65 128 -65 273z" />
<glyph unicode="V" horiz-adv-x="1453" d="M34 1463v1h216q3 -2 92 -223l384 -946h1l467 1152q6 17 9 17h214l1 -1h1l-592 -1434q-9 -28 -13 -29h-174q-5 1 -20 43q-416 1003 -439 1065q-11 19 -147 355z" />
<glyph unicode="W" horiz-adv-x="2065" d="M61 1463l1 1h207q5 0 20 -64q17 -54 261 -935l27 -94h2l359 1017q25 72 29 76h131q3 0 25 -66l364 -1027h1l304 1092l2 1h207l1 -1h1l-406 -1418q-11 -45 -14 -45h-168q-5 6 -119 334q-28 73 -262 741q-7 -10 -36 -97l-347 -978h-169q-3 0 -26 88z" />
<glyph unicode="X" horiz-adv-x="1469" d="M48 3l532 728l18 24l-516 708l1 1h245l405 -566q39 50 405 565l2 1h246v-3l-515 -705l549 -753v-3h-245q-9 10 -325 453q-111 154 -114 160h-1l-441 -613h-243z" />
<glyph unicode="Y" horiz-adv-x="1360" d="M30 1463v1h245q11 -11 202 -280l206 -286q385 541 406 566h245v-1l-550 -757v-703l-3 -3h-198l-3 3v701q0 6 -65 94z" />
<glyph unicode="Z" horiz-adv-x="1286" d="M59 0v3l828 1269h-726l-2 2v187l2 3h1082v-3l-828 -1267h823l2 -3v-188l-2 -3h-1179z" />
<glyph unicode="[" horiz-adv-x="827" d="M190 -170v1684l1 1h415l1 -1v-191l-1 -1h-223v-1300h223l1 -1v-191l-1 -1h-415z" />
<glyph unicode="\" horiz-adv-x="715" d="M1 1373l1 1h191l1 -1l498 -1422l-1 -1h-191l-1 1z" />
<glyph unicode="]" horiz-adv-x="827" d="M220 21l1 1h223v1300h-223l-1 1v191l1 1h415l1 -1v-1684l-1 -1h-415l-1 1v191z" />
<glyph unicode="^" horiz-adv-x="1008" d="M68 842l262 405q96 149 99 153h149q4 -4 45 -69q26 -39 189 -292l128 -197l-162 -105h-1l-177 274l-96 149l-261 -404l-13 -19q-157 101 -162 105z" />
<glyph unicode="_" horiz-adv-x="1090" d="M70 7h948l2 -1v-191l-2 -1h-948v193z" />
<glyph unicode="`" horiz-adv-x="968" d="M242 1868l101 164l383 -234v-2l-100 -162l-1 -1z" />
<glyph unicode="a" horiz-adv-x="1211" d="M92 474v1q0 220 170 380q141 118 319 118q167 0 286 -127v110l3 2h189l2 -2v-954l-2 -2h-189l-3 2v97q-112 -123 -288 -123h-1q-219 0 -372 177q-114 143 -114 321zM285 475q0 -158 136 -259q76 -46 144 -46h22q96 0 186 78q94 96 94 226v1q0 160 -136 258 q-75 46 -148 46h-16q-120 0 -217 -111q-65 -92 -65 -193z" />
<glyph unicode="b" horiz-adv-x="1217" d="M153 0v1463l1 1h191l1 -1v-618h1q15 20 41 41q109 87 249 87h1q162 0 297 -105q18 -14 53 -49q69 -79 99 -159q35 -90 35 -186q0 -127 -62 -243q-20 -38 -56 -83q-39 -44 -63 -63q-28 -22 -52 -36q-118 -73 -247 -73h-13q-53 0 -129 21q-38 13 -68 31q-23 14 -53 39 q-16 15 -33 33v-100h-193zM346 471q0 -98 59 -181q13 -18 37 -42l18 -16q32 -24 55 -35q61 -28 121 -28q122 0 212 94q34 40 51 77q29 64 29 132v4q0 113 -75 204q-90 100 -220 100q-58 0 -125 -32q-30 -15 -60 -42q-28 -27 -35 -37q-67 -85 -67 -193v-5z" />
<glyph unicode="c" horiz-adv-x="1043" d="M90 466v16q0 112 55 225q17 31 39 64q17 23 51 60q40 38 69 58q125 84 270 84h2q150 0 280 -92q24 -18 54 -47q37 -38 49 -57q15 -20 15 -22l-160 -106h-1q-11 18 -39 47q-88 84 -200 84q-107 0 -194 -78q-32 -32 -39 -46q-58 -82 -58 -182q0 -108 69 -197q22 -26 46 -46 q80 -62 177 -62q88 0 164 54q17 11 47 41q17 20 29 39h1l161 -106q-17 -27 -46 -60q-34 -37 -48 -47q-33 -27 -57 -42q-119 -72 -247 -72h-9q-137 0 -261 81q-24 17 -44 33q-37 34 -55 56q-40 49 -57 82q-19 32 -37 85q-26 81 -26 153z" />
<glyph unicode="d" horiz-adv-x="1217" d="M96 474q0 96 35 186q30 80 99 159q35 35 53 49q135 105 297 105h1q140 0 249 -87q26 -21 41 -41h1v618l1 1h191l1 -1v-1463h-193v100q-17 -18 -33 -33q-30 -25 -53 -39q-30 -18 -68 -31q-76 -21 -129 -21h-13q-129 0 -247 73q-24 14 -52 36q-24 19 -63 63q-36 45 -56 83 q-62 116 -62 243zM290 472q0 -68 29 -132q17 -37 51 -77q90 -94 212 -94q60 0 121 28q23 11 55 35l18 16q24 24 37 42q59 83 59 181v5q0 108 -67 193q-7 10 -35 37q-30 27 -60 42q-67 32 -125 32q-130 0 -220 -100q-75 -91 -75 -204v-4z" />
<glyph unicode="e" horiz-adv-x="1066" d="M67 472v4q0 234 179 396q132 101 265 101h29q146 0 281 -117q66 -65 91 -112q73 -129 73 -270v-30q0 -28 -4 -28h-716q23 -107 76 -160q81 -87 184 -87q130 0 218 131q17 33 20 34q172 -78 174 -80q-14 -35 -63 -105q-147 -173 -347 -173h-4q-206 0 -354 183 q-102 143 -102 313zM283 598h485v1q-17 51 -78 116q-76 65 -166 65q-137 0 -225 -145z" />
<glyph unicode="f" horiz-adv-x="649" d="M27 766v191l1 1h185v4q0 261 144 398q54 50 110 73q77 31 153 31h57l1 -1v-192l-1 -1h-50q-129 0 -186 -120q-35 -74 -35 -192h271l1 -1v-191l-1 -1h-271v-764l-1 -1h-192v765h-185z" />
<glyph unicode="g" horiz-adv-x="1172" d="M96 -90q0 35 16 83q12 31 31 60q12 18 39 46l18 17q-29 44 -29 94v7q0 66 55 153q-38 42 -49 64q-11 15 -27 53q-21 59 -21 111v13q0 90 57 179q14 21 36 45q36 36 50 45q35 26 76 45q92 41 186 41h11q113 0 217 -57q23 21 39 30q58 33 132 33h38l1 -1v-192l-1 -1h-44 q-13 0 -24 -5q47 -79 47 -169q0 -107 -67 -198q-11 -17 -45 -51q-63 -56 -129 -81q-82 -32 -170 -32q-92 0 -179 36q-20 -16 -20 -27v-1q0 -25 72 -36q49 -7 126 -7l85 1q195 0 310 -77q18 -11 48 -41q27 -29 41 -54q34 -62 34 -126q0 -99 -77 -188q-34 -36 -51 -47 q-36 -26 -64 -41q-24 -13 -58 -26q-30 -11 -72 -22q-77 -17 -144 -17h-29q-116 0 -226 39q-46 18 -81 39q-26 15 -57 41q-36 35 -42 45q-21 28 -30 48q-29 58 -29 113v16zM289 -98v-3q0 -45 65 -86q88 -51 216 -51h11q113 0 200 47q21 11 44 32q37 37 37 69q0 45 -66 76 q-22 10 -57 18q-59 11 -103 11l-112 -1q-76 0 -140 9q-19 -9 -40 -24q-55 -44 -55 -97zM322 604q0 -66 63 -118q67 -51 152 -51h4q75 0 139 41q52 35 71 90q6 20 6 38q0 67 -64 119q-66 50 -154 50q-85 0 -152 -49q-65 -52 -65 -120z" />
<glyph unicode="h" horiz-adv-x="1154" d="M153 0v1464h193v-568h1q51 28 134 52q43 10 107 10h9q258 0 370 -195q39 -77 39 -181v-579l-2 -3h-188l-2 3v581q0 123 -103 162q-43 19 -110 19h-16q-122 0 -173 -38q-66 -40 -66 -148v-579h-193z" />
<glyph unicode="i" horiz-adv-x="518" d="M133 1334v8q0 46 37 86l15 13q35 23 70 23h8q44 0 83 -34q39 -40 39 -89v-6q0 -45 -34 -84q-40 -39 -89 -39h-6q-46 0 -84 35q-21 22 -28 39q-11 25 -11 48zM162 1v957h194v-957l-1 -1h-192z" />
<glyph unicode="j" horiz-adv-x="545" d="M-43 -238q134 0 191 115q41 88 41 212v870h192l1 -1v-848q0 -150 -32 -249q-43 -130 -130 -204q-29 -24 -50 -36q-88 -52 -190 -52h-23v193zM160 1337q0 64 54 105q35 22 67 22h9q47 0 88 -40q26 -32 31 -61q2 -8 2 -18v-14q0 -33 -25 -69q-19 -23 -27 -27 q-35 -23 -70 -23h-8q-40 0 -76 29q-45 40 -45 96z" />
<glyph unicode="k" horiz-adv-x="1073" d="M153 3v1458l3 3h187l3 -3v-891h1l409 388h278v-1l-442 -421l423 -535l-1 -1h-242q-26 28 -319 402h-1q-88 -81 -106 -101v-298l-3 -3h-187z" />
<glyph unicode="l" horiz-adv-x="498" d="M153 1v1462l1 1h191l1 -1v-1462l-1 -1h-191z" />
<glyph unicode="m" horiz-adv-x="1813" d="M153 3v947l3 3h187l3 -3v-54h1q51 28 134 52q43 10 107 10h9q194 0 313 -117q114 117 314 117h31q264 0 374 -199q36 -78 36 -154v-602l-2 -3h-188l-2 3v600q0 108 -120 149q-37 13 -94 13h-39q-156 0 -202 -104q-12 -28 -12 -63v-595l-2 -3h-188l-2 3v578q0 107 -69 146 q-53 38 -144 38h-16q-122 0 -173 -38q-66 -40 -66 -148v-576l-3 -3h-187z" />
<glyph unicode="n" horiz-adv-x="1154" d="M153 3v947l3 3h187l3 -3v-54h1q51 28 134 52q43 10 107 10h9q258 0 370 -195q39 -77 39 -181v-579l-2 -3h-188l-2 3v581q0 123 -103 162q-43 19 -110 19h-16q-122 0 -173 -38q-66 -40 -66 -148v-576l-3 -3h-187z" />
<glyph unicode="o" horiz-adv-x="1149" d="M90 467v15q0 112 56 225q16 31 38 63q17 24 51 61q49 45 70 58q123 84 269 84q163 0 298 -105q19 -14 54 -50q69 -77 98 -158q35 -90 35 -187q0 -126 -61 -242q-21 -38 -57 -83q-39 -45 -63 -63q-27 -22 -51 -37q-119 -72 -248 -72h-9q-136 0 -261 80q-24 18 -43 34 q-39 33 -56 56q-21 24 -39 52q-20 32 -34 62q-47 104 -47 207zM283 473q0 -109 71 -198q31 -35 48 -46q79 -60 172 -60q114 0 202 86q35 37 49 64q41 74 41 153v3q0 115 -79 207q-34 36 -46 41q-17 14 -32 22q-65 35 -135 35q-106 0 -194 -79q-31 -31 -39 -46 q-58 -81 -58 -182z" />
<glyph unicode="p" horiz-adv-x="1216" d="M153 -430v1383l1 1h192v-105q36 38 45 43q30 23 52 35q31 17 62 26q23 7 80 17q18 1 43 2q145 0 260 -71q31 -18 75 -58q37 -37 47 -51q24 -31 43 -61q68 -120 68 -259q0 -165 -102 -305q-13 -19 -52 -60l-18 -15q-140 -117 -313 -117q-126 0 -228 72q-19 13 -52 44 l-10 11v-533h-192zM346 453q0 -28 15 -81q12 -33 26 -59q15 -22 43 -54q31 -31 43 -38q24 -16 42 -26q63 -27 113 -27h13q89 0 168 60q14 10 40 37q48 56 65 116q14 46 14 93q0 114 -75 204q-32 34 -39 38q-80 63 -177 63h-8q-53 0 -116 -28q-31 -14 -69 -48 q-36 -36 -44 -51q-15 -23 -24 -41q-9 -19 -20 -50q-10 -46 -10 -68v-40z" />
<glyph unicode="q" horiz-adv-x="1216" d="M96 472q0 139 68 259q19 30 43 61q10 14 47 51q44 40 75 58q115 71 260 71q25 -1 43 -2q57 -10 80 -17q31 -9 62 -26q22 -12 52 -35q9 -5 45 -43v105h192l1 -1v-1383l-1 -1h-192v533l-10 -11q-33 -31 -52 -44q-102 -72 -228 -72q-173 0 -313 117l-18 15q-39 41 -52 60 q-102 140 -102 305zM289 474q0 -47 14 -93q17 -60 65 -116q26 -27 40 -37q79 -60 168 -60h13q50 0 113 27q18 10 42 26q12 7 43 38q28 32 43 54q14 26 26 59q15 53 15 81v40q0 22 -10 68q-11 31 -20 50q-9 18 -24 41q-8 15 -44 51q-38 34 -69 48q-63 28 -116 28h-8 q-97 0 -177 -63q-7 -4 -39 -38q-75 -90 -75 -204z" />
<glyph unicode="r" horiz-adv-x="836" d="M153 4v939l3 2h187l2 -2v-72q110 93 226 93h25q99 0 205 -58v-1q-42 -190 -46 -199q-96 63 -170 63h-16q-96 0 -169 -71q-55 -67 -55 -254v-440l-2 -3h-187z" />
<glyph unicode="s" horiz-adv-x="983" d="M81 197l167 96h1l8 -14q11 -17 35 -40q45 -42 112 -60q44 -10 88 -10q88 0 157 39q13 7 32 25q26 31 26 62q0 55 -85 87q-28 10 -103 22q-161 31 -240 65q-34 14 -67 36q-76 49 -100 125q-12 34 -12 72v6q0 95 71 178q30 31 43 40q34 25 64 40q100 47 221 47 q183 0 311 -114q29 -28 41 -44l12 -19q-2 -3 -54 -34q-51 -31 -109 -69q-18 22 -36 35q-67 51 -163 51h-4q-105 0 -168 -50q-35 -30 -35 -65q0 -22 19 -34q19 -16 74 -35q76 -25 236 -53q52 -12 89 -28q35 -14 70 -38q16 -11 45 -40q73 -80 73 -180v-3q0 -102 -76 -191 q-32 -33 -46 -41q-40 -28 -66 -39q-102 -47 -217 -47h-7q-150 0 -274 79q-27 18 -58 47q-29 28 -40 44q-20 25 -35 52z" />
<glyph unicode="t" horiz-adv-x="717" d="M33 766v192l1 1h142v505h192l1 -1v-504h248l1 -1v-192l-1 -1h-248v-483q0 -56 38 -75q26 -14 54 -14q39 0 111 26l8 4l72 -181q-24 -10 -78 -26q-64 -16 -112 -16h-2q-95 0 -178 58q-14 10 -37 32l-17 22q-16 21 -25 41q-27 61 -27 122v490h-142z" />
<glyph unicode="u" horiz-adv-x="1153" d="M148 376v579l3 3h187l3 -3v-581q0 -123 102 -162q43 -19 110 -19h16q122 0 173 38q67 40 67 148v576l2 3h188l2 -3v-947l-2 -3h-188l-2 3v64h-2q-51 -38 -133 -62q-44 -10 -108 -10h-9q-258 0 -370 195q-39 77 -39 181z" />
<glyph unicode="v" horiz-adv-x="1102" d="M34 958h221q3 -5 43 -100l182 -414l71 -160l141 324l153 350h223l-216 -480l-137 -305l-77 -173h-173q-1 0 -31 67l-182 405l-195 434z" />
<glyph unicode="w" horiz-adv-x="1508" d="M53 958h213q1 0 24 -70l158 -476l27 -80l141 455l53 171h171q1 0 5 -17l135 -433l54 -176q2 0 25 70l155 471l29 85h213v-1l-159 -466l-148 -431l-20 -60h-192q-2 0 -9 28q-43 133 -81 258l-91 294h-1l-136 -435l-45 -145h-193q-1 0 -18 53l-142 414l-152 442z" />
<glyph unicode="x" horiz-adv-x="1186" d="M41 0v1l321 398l87 109l-226 273l-146 177h258q10 -10 128 -158l129 -159l256 317h258v-1l-331 -399l-41 -50l202 -251l206 -257h-256l-64 81l-231 294l-294 -375h-256z" />
<glyph unicode="y" horiz-adv-x="1119" d="M34 958h221q1 -1 9 -20l142 -337l153 -359q3 6 43 100l133 303l138 313h211l-214 -489l-179 -409l-185 -423l-30 -68h-211l-1 1l190 430l-196 448l-200 454z" />
<glyph unicode="z" horiz-adv-x="1082" d="M89 0v1l539 764h-491l-2 3v187l2 3h860l3 -3l-539 -762h524l3 -3v-187l-3 -3h-896z" />
<glyph unicode="{" horiz-adv-x="848" d="M156 567v129q0 4 72 32q54 32 54 56v460q0 188 166 266q77 34 171 34h43l2 -2v-190l-1 -2h-1l-49 2q-116 -6 -133 -67q-6 -15 -6 -40v-465q0 -73 -60 -148q60 -75 60 -148v-465q0 -70 57 -92q47 -15 82 -15l50 2l1 -2v-190l-1 -2h-46q-161 0 -259 96q-76 80 -76 203v461 q0 25 -52 55z" />
<glyph unicode="|" horiz-adv-x="493" d="M150 2v1397l1 1h191l1 -1v-1397l-1 -1h-191z" />
<glyph unicode="}" horiz-adv-x="848" d="M184 -88l1 2l50 -2q35 0 82 15q57 22 57 92v465q0 73 60 148q-60 75 -60 148v465q0 25 -6 40q-17 61 -133 67l-49 -2h-1l-1 2v190l2 2h43q94 0 171 -34q166 -78 166 -266v-460q0 -24 54 -56q72 -28 72 -32v-129l-74 -32q-52 -30 -52 -55v-461q0 -123 -76 -203 q-98 -96 -259 -96h-46l-1 2v190z" />
<glyph unicode="~" horiz-adv-x="758" d="M61 370v182q34 41 67 60q51 31 98 31q56 0 158 -58.5t150 -58.5q45 0 94 33q33 23 73 75v-193q-34 -30 -67 -50q-51 -29 -100 -29q-52 0 -154 57t-154 57q-44 0 -93 -33q-33 -22 -72 -73z" />
<glyph unicode="&#xa1;" horiz-adv-x="711" d="M266 1l30 1157l1 1h192l1 -1l30 -1157l-1 -1h-252zM267 1334v8q0 48 39 88q29 25 57 31q15 3 23 3h14q32 0 67 -23q34 -25 47 -66q5 -18 5 -33v-8q0 -47 -38 -87q-38 -35 -89 -35q-60 0 -101 52q-24 35 -24 70z" />
<glyph unicode="&#xa2;" horiz-adv-x="1043" d="M90 736v16q0 112 55 225q17 31 39 64q17 23 51 60q40 38 69 58q64 43 133 64v159l1 1h191l1 -1v-142q120 -14 226 -89q24 -18 54 -47q37 -38 49 -57q15 -20 15 -22l-160 -106h-1q-11 18 -39 47q-65 62 -144 78v-599q57 11 109 48q17 11 47 41q17 20 29 39h1l161 -106 q-17 -27 -46 -60q-34 -37 -48 -47q-33 -27 -57 -42q-95 -58 -196 -69v-143l-1 -1h-191l-1 1v160q-66 20 -128 61q-24 17 -44 33q-37 34 -55 56q-40 49 -57 82q-19 32 -37 85q-26 81 -26 153zM283 744q0 -108 69 -197q22 -26 46 -46q19 -15 39 -26v539q-29 -17 -57 -42 q-32 -32 -39 -46q-58 -82 -58 -182z" />
<glyph unicode="&#xa3;" horiz-adv-x="1296" d="M53 166l69 58q52 44 118 107q66 67 87 95q37 45 55 76q42 71 42 118h-218v192l1 1h148q-61 122 -61 237q0 134 86 231q32 33 44 40q39 30 67 45q107 57 213 57h13q107 0 217 -57q35 -19 75 -52l10 -10l-134 -139q-40 35 -94 52q-42 13 -81 13q-79 0 -151 -50 q-46 -30 -60 -67q-12 -28 -12 -62v-6q0 -67 46 -156q31 -60 38 -76h330v-193h-284q0 -84 -50 -184q-21 -40 -55 -88q-19 -26 -38 -49q61 -7 105 -26q32 -14 67 -37q19 -15 42 -35q74 -59 145 -59q103 0 226 124l137 -136q-50 -50 -72 -66q-47 -38 -96 -64q-99 -51 -189 -51 h-13q-91 0 -188 53q-36 20 -78 54q-33 30 -51 35q-33 16 -76 16h-2q-97 0 -230 -75l-31 -20z" />
<glyph unicode="&#xa4;" horiz-adv-x="1436" d="M63 752v16q0 132 64 264q21 44 58 95l8 10l-103 102l136 137l107 -106q37 25 78 47q45 23 111 44q97 29 190 29h16q144 0 286 -66q48 -24 90 -53l2 -1l108 106q130 -131 136 -137v-1l-103 -101q33 -43 57 -87q72 -138 72 -288v-4q0 -183 -107 -344q-15 -20 -15 -21 l96 -95l-136 -137l-98 96q-180 -127 -396 -127q-200 0 -371 110l-26 17q-91 -91 -97 -96l-136 137l95 95q-25 35 -46 72q-23 40 -44 98q-32 98 -32 189zM256 759q0 -135 85 -251q16 -22 49 -55q43 -39 64 -50q31 -21 68 -38q96 -42 198 -42q140 0 261 77q87 56 142 145 q60 102 60 216q0 147 -100 270q-39 44 -63 62q-43 33 -75 49q-105 55 -226 55q-140 0 -261 -76q-125 -82 -177 -220q-25 -68 -25 -142z" />
<glyph unicode="&#xa5;" horiz-adv-x="1256" d="M63 1261v1q7 7 144 128l234 -262l188 -212l304 342l118 132q142 -125 145 -129l-267 -299l-203 -228v-26h332v-193l-1 -1h-331v-41h331l1 -1v-190l-1 -1h-331v-279h-194v279h-330l-1 1v190l1 1h330v41h-330l-1 1v193h331v26l-301 338z" />
<glyph unicode="&#xa6;" horiz-adv-x="593" d="M200 150h193v-649l-1 -1h-191l-1 1v649zM200 851v649h193v-649l-1 -1h-191z" />
<glyph unicode="&#xa7;" horiz-adv-x="955" d="M118 722v13q0 82 50 163q14 23 46 56l23 22q-34 25 -61 63q-44 63 -44 147q0 106 75 190q31 31 48 42q45 33 105 51q62 18 120 18h15q97 0 188 -53q28 -17 59 -45q36 -36 46 -52q17 -25 26 -44l-172 -87h-1q-25 49 -82 74q-33 14 -72 14q-65 0 -114 -30q-12 -6 -27 -23 q-21 -26 -21 -53v-7q0 -35 41 -59q24 -18 77 -36q49 -18 139 -37q37 -11 66 -24q32 -16 69 -43q40 -33 64 -65q63 -87 63 -188v-1q0 -126 -95 -225l-24 -22q33 -26 58 -60q46 -66 46 -144v-9q0 -81 -50 -156q-12 -17 -38 -45q-32 -28 -51 -39q-23 -15 -62 -31 q-74 -27 -154 -27h-1q-154 0 -264 108q-30 33 -41 50q-13 20 -22 36q145 74 174 87q25 -49 83 -74q33 -14 71 -14q60 0 109 27q53 32 53 83q0 31 -22 49q-25 22 -58 35q-52 24 -155 46q-34 8 -60 17q-41 17 -75 40q-23 14 -56 46q-35 38 -50 66q-42 75 -42 150zM311 728 q0 -54 48 -96q53 -43 122 -43q78 0 134 54q13 15 19 26q17 29 17 60q0 59 -58 104q-51 35 -107 35h-10q-59 0 -111 -38q-54 -44 -54 -102z" />
<glyph unicode="&#xa8;" horiz-adv-x="1116" d="M242 1819v8q0 47 38 87q38 35 89 35q60 0 101 -52q24 -35 24 -70v-8q0 -48 -39 -88q-29 -25 -57 -31q-15 -3 -23 -3h-14q-32 0 -67 23q-34 25 -47 66q-5 18 -5 33zM622 1819v8q0 47 38 87q38 35 89 35q60 0 101 -52q24 -35 24 -70v-8q0 -48 -39 -88q-29 -25 -57 -31 q-15 -3 -23 -3h-14q-32 0 -67 23q-34 25 -47 66q-5 18 -5 33z" />
<glyph unicode="&#xa9;" horiz-adv-x="2025" d="M175 728v23q0 158 68 321q28 63 73 135q28 40 72 90q56 60 80 77q60 52 109 81q203 122 435 122q259 0 479 -150q41 -27 94 -77q56 -54 68 -70q40 -49 63 -84q134 -213 134 -457q0 -239 -129 -447q-28 -46 -78 -105q-52 -57 -87 -86q-53 -44 -91 -68q-212 -132 -453 -132 q-243 0 -457 135q-45 30 -101 79q-60 57 -73 73q-57 70 -83 113q-32 50 -57 109q-66 160 -66 318zM365 736q0 -197 116 -368q22 -31 58 -70q41 -42 58 -55q44 -36 86 -62q155 -89 327 -89h5q187 0 351 106q25 14 59 43q17 12 66 60l18 24q39 46 62 87q89 154 89 326 q0 204 -122 378q-22 31 -67 79q-54 52 -90 75q-170 116 -369 116q-201 0 -374 -119q-28 -19 -81 -69q-48 -49 -67 -78q-25 -36 -45 -72q-80 -146 -80 -308v-4zM570 717v16q0 109 55 217q19 36 52 79q39 46 78 76q40 30 75 49q108 54 218 54h12q127 0 246 -70q33 -19 67 -48 q35 -32 54 -56q14 -16 26 -34v-1l-158 -110q-12 17 -35 41q-35 33 -61 47q-68 38 -145 38q-89 0 -165 -52q-47 -32 -80 -81q-46 -74 -46 -157q0 -113 81 -200q29 -29 49 -41q75 -49 160 -49h3q110 0 198 79q30 30 41 48l2 1l159 -108q-16 -26 -54 -67q-38 -37 -65 -56 q-30 -21 -55 -34q-35 -19 -78 -33q-75 -23 -141 -23h-18q-92 0 -191 43q-178 83 -251 264q-33 87 -33 168z" />
<glyph unicode="&#xaa;" horiz-adv-x="648" />
<glyph unicode="&#xab;" horiz-adv-x="1350" d="M117 403v134l350 242l48 33h1q5 -6 58 -83l52 -75v-1l-266 -183l266 -184q-105 -153 -110 -159l-398 274zM667 403v134l350 242l48 33h1q5 -6 58 -83l52 -75v-1l-266 -183l266 -184q-105 -153 -110 -159l-398 274z" />
<glyph unicode="&#xac;" horiz-adv-x="1053" d="M150 617v193h752l1 -1v-459h-193v267h-560z" />
<glyph unicode="&#xad;" horiz-adv-x="863" d="M76 414v193h705l1 -1v-191l-1 -1h-705z" />
<glyph unicode="&#xae;" horiz-adv-x="1303" d="M175 981v13q0 90 38 183q17 36 43 77q15 22 40 51q32 34 46 44q34 29 62 45q116 70 247 70q148 0 273 -85q23 -16 54 -44q31 -31 38 -40q23 -28 36 -48q76 -121 76 -260q0 -136 -73 -254q-16 -26 -44 -60q-30 -32 -50 -49q-30 -25 -52 -39q-120 -75 -258 -75t-259 77 q-26 17 -58 45q-35 32 -42 42q-32 39 -47 64q-18 28 -32 62q-38 91 -38 181zM255 985q0 -121 71 -226q13 -19 35 -43q25 -25 36 -33q27 -22 53 -38q95 -54 200 -54h3q115 0 215 64q16 9 37 27q10 7 40 36l11 15q24 28 38 54q54 94 54 199q0 126 -74 232q-14 19 -41 48 q-33 33 -55 47q-105 71 -227 71q-123 0 -229 -73q-17 -12 -49 -43q-30 -29 -42 -47q-15 -22 -27 -45q-49 -89 -49 -188v-3zM503 714v549h171q43 0 85 -20q14 -6 29 -18q7 -5 20 -17q20 -22 30 -46q13 -30 13 -61v-13q0 -40 -20 -78q-7 -13 -19 -28q-13 -15 -25 -25 q-19 -14 -31 -20q-7 -4 -12 -5q1 -2 41 -76l76 -142h-86q-2 4 -64 122l-41 81h-93l-2 -1v-202h-72zM575 989h95q49 0 82 34q26 29 26 68v7q0 52 -49 80q-27 13 -58 13h-96v-202z" />
<glyph unicode="&#xaf;" horiz-adv-x="670" />
<glyph unicode="&#xb0;" horiz-adv-x="989" d="M99 1078v15q0 89 54 177q62 98 176 141q58 19 107 19h15q88 0 175 -52q102 -63 144 -181q18 -57 18 -111q0 -126 -86 -228q-31 -33 -49 -46q-96 -71 -209 -71q-124 0 -225 83q-33 30 -42 44q-16 18 -31 41q-47 85 -47 169zM312 1086q0 -58 46 -101q39 -32 85 -32 q58 0 101 48q32 37 32 85q0 63 -56 106q-35 25 -77 25q-63 0 -106 -55q-25 -35 -25 -76z" />
<glyph unicode="&#xb1;" horiz-adv-x="862" d="M76 0h709l1 -1v-191l-1 -1h-709v193zM76 414v193h259v257l1 1h191l1 -1v-257h257l1 -1v-191l-1 -1h-257v-259h-193v259h-259z" />
<glyph unicode="&#xb2;" horiz-adv-x="1014" />
<glyph unicode="&#xb3;" horiz-adv-x="1014" />
<glyph unicode="&#xb4;" horiz-adv-x="968" d="M242 1796v2l383 234l101 -164l-383 -235l-1 1z" />
<glyph unicode="&#xb5;" horiz-adv-x="1175" d="M160 -400v1358l1 1h191l1 -1v-586q1 -121 102 -160q43 -19 110 -19h16q122 0 173 38q67 40 67 148v576l2 3h188l2 -3v-947l-2 -3h-188l-2 3v54h-2q-51 -28 -133 -52q-44 -10 -108 -10h-9q-125 0 -216 46v-446l-1 -1h-191z" />
<glyph unicode="&#xb6;" horiz-adv-x="1190" d="M107 1007q0 157 107.5 253t285.5 96h443v-1h68l1 -1v-191l-1 -1h-83v-1061l-1 -1h-192l-1 1v1061h-112v-1061l-1 -1h-192l-1 1v563q-135 19 -219 98q-102 94 -102 245z" />
<glyph unicode="&#xb7;" horiz-adv-x="736" d="M242 768v8q0 47 38 87q38 35 89 35q60 0 101 -52q24 -35 24 -70v-8q0 -48 -39 -88q-29 -25 -57 -31q-15 -3 -23 -3h-14q-32 0 -67 23q-34 25 -47 66q-5 18 -5 33z" />
<glyph unicode="&#xb8;" horiz-adv-x="896" d="M245 -357l127 98q27 -35 60 -35q23 0 43 16q16 14 16 29q0 11 -7 22q-8 6 -23 6h-5q-26 0 -67 -16l-103 -35v1l63 302h1l155 -32v-1l-12 -62q30 -5 45 -10q62 -26 91 -83q22 -45 22 -88v-7q0 -65 -46 -123q-22 -23 -33 -31q-64 -48 -137 -48h-5q-79 0 -149 57 q-28 27 -31 33l-5 6v1z" />
<glyph unicode="&#xb9;" horiz-adv-x="1014" />
<glyph unicode="&#xba;" horiz-adv-x="718" />
<glyph unicode="&#xbb;" horiz-adv-x="1350" d="M174 286l266 184l-266 183v1l52 75q53 77 58 83h1l48 -33l350 -242v-134l-1 -2l-398 -274q-5 6 -110 159zM724 286l266 184l-266 183v1l52 75q53 77 58 83h1l48 -33l350 -242v-134l-1 -2l-398 -274q-5 6 -110 159z" />
<glyph unicode="&#xbc;" horiz-adv-x="1708" />
<glyph unicode="&#xbd;" horiz-adv-x="1964" />
<glyph unicode="&#xbe;" horiz-adv-x="1708" />
<glyph unicode="&#xbf;" horiz-adv-x="1111" d="M94 448q0 118 67 233q18 30 46 63q33 38 59 59q36 28 116 84q20 15 44 37q12 15 18 25q5 14 5 26v231l1 1h191l1 -1l1 -228q0 -135 -128 -232q-31 -25 -109 -79q-43 -32 -71 -72q-32 -48 -44 -107q-4 -24 -4 -40q0 -100 69 -177q77 -78 180 -78q99 0 176 74q73 78 73 181 v34h193v-43q0 -98 -50 -199q-17 -34 -47 -73q-13 -17 -45 -48q-28 -26 -49 -40q-38 -26 -78 -44q-85 -35 -167 -35h-14q-87 0 -178 41q-39 18 -81 49q-22 17 -47 42q-38 40 -56 70q-72 114 -72 246zM420 1383v6q0 51 41 91q38 32 79 32h13q31 0 66 -23q35 -24 49 -70 q4 -18 4 -33q0 -57 -47 -98q-35 -28 -80 -28q-57 0 -97 47q-28 36 -28 76z" />
<glyph unicode="&#xc0;" d="M35 0v1l506 1249l88 214h181q3 0 87 -215l508 -1248l-2 -1h-209q-4 0 -29 67l-101 248h-695l-127 -315h-207zM449 509h536l-267 660q-3 0 -110 -270zM477 1864l101 164l383 -234v-2l-100 -162l-1 -1z" />
<glyph unicode="&#xc1;" d="M35 0v1l506 1249l88 214h181q3 0 87 -215l508 -1248l-2 -1h-209q-4 0 -29 67l-101 248h-695l-127 -315h-207zM449 509h536l-267 660q-3 0 -110 -270zM477 1793l383 235l1 -1l100 -162v-2l-383 -234z" />
<glyph unicode="&#xc2;" d="M35 0v1l506 1249l88 214h181q3 0 87 -215l508 -1248l-2 -1h-209q-4 0 -29 67l-101 248h-695l-127 -315h-207zM440 1757v1l223 251h113q13 -14 223 -251l-144 -129l-135 152l-135 -152h-1zM449 509h536l-267 660q-3 0 -110 -270z" />
<glyph unicode="&#xc3;" d="M35 0v1l506 1249l88 214h181q3 0 87 -215l508 -1248l-2 -1h-209q-4 0 -29 67l-101 248h-695l-127 -315h-207zM400 1657v182q34 41 67 60q51 31 98 31q57 0 159 -58.5t150 -58.5q44 0 93 33q33 23 73 75v-193q-33 -30 -66 -50q-51 -29 -100 -29q-53 0 -155 57t-154 57 q-44 0 -93 -33q-32 -22 -72 -73zM449 509h536l-267 660q-3 0 -110 -270z" />
<glyph unicode="&#xc4;" d="M35 0v1l506 1249l88 214h181q3 0 87 -215l508 -1248l-2 -1h-209q-4 0 -29 67l-101 248h-695l-127 -315h-207zM404 1781v8q0 47 38 87q38 35 89 35q60 0 101 -52q24 -35 24 -70v-8q0 -48 -39 -88q-29 -25 -57 -31q-15 -3 -23 -3h-14q-32 0 -67 23q-34 25 -47 66 q-5 18 -5 33zM449 509h536l-267 660q-3 0 -110 -270zM784 1781v8q0 47 38 87q38 35 89 35q60 0 101 -52q24 -35 24 -70v-8q0 -48 -39 -88q-29 -25 -57 -31q-15 -3 -23 -3h-14q-32 0 -67 23q-34 25 -47 66q-5 18 -5 33z" />
<glyph unicode="&#xc5;" d="M35 0v1l506 1249l88 213h-1q-15 9 -29 20q-16 15 -23 25q-15 19 -23 33q-20 42 -20 80v10q0 55 36 106q7 10 25 29q57 47 124 47h3q66 0 121 -45q21 -21 27 -29q38 -52 38 -112q0 -76 -57 -134l-9 -10q-14 -11 -29 -20h-1q8 -14 86 -214l508 -1248l-2 -1h-209 q-4 0 -29 67l-101 248h-695l-127 -315h-207zM449 509h536l-267 660q-3 0 -110 -270zM650 1627q0 -33 28 -56q19 -15 41 -15q34 0 57 28q14 21 14 43v2q0 27 -20 47q-22 21 -51 21q-27 0 -48 -19q-21 -22 -21 -50v-1z" />
<glyph unicode="&#xc6;" horiz-adv-x="1960" d="M35 3l514 730l515 731h785l3 -3v-187l-3 -3h-594v-441l3 -3h468l2 -3v-186l-2 -2h-471v-445h594l3 -2v-186l-3 -3h-783l-2 3v410l-3 2h-498q-7 -6 -192 -272q-95 -135 -103 -143h-230zM698 608h363l3 3v516h-3l-363 -518v-1z" />
<glyph unicode="&#xc7;" horiz-adv-x="1186" d="M97 729v6q0 277 186 497q216 232 505 232h2q283 0 495 -220q75 -86 106 -148q-8 -7 -169 -93q-27 49 -81 113q-155 156 -351 156q-199 0 -353 -158q-148 -167 -148 -381q0 -248 189 -423q143 -116 303 -116h21q176 0 329 145q65 72 92 125l169 -89v-4q-34 -63 -90 -133 q-214 -233 -500 -238l-13 -64q30 -5 45 -10q62 -26 91 -83q23 -45 23 -88v-7q0 -65 -47 -123q-21 -23 -33 -31q-64 -48 -137 -48h-5q-79 0 -148 57q-28 27 -32 33l-5 6v1l127 98q28 -35 61 -35q22 0 42 16q16 14 16 29q0 11 -7 22q-8 6 -25 8h-5q-24 -2 -64 -14l-104 -35v1 l60 283q-201 46 -362 218q-183 221 -183 495z" />
<glyph unicode="&#xc8;" horiz-adv-x="1068" d="M172 1v1462l1 1h786l1 -1v-192h-595v-443h471l1 -1v-190l-1 -1h-471v-443h595v-192l-1 -1h-786zM324 1864l101 164l383 -234v-2l-100 -162l-1 -1z" />
<glyph unicode="&#xc9;" horiz-adv-x="1068" d="M172 1v1462l1 1h786l1 -1v-192h-595v-443h471l1 -1v-190l-1 -1h-471v-443h595v-192l-1 -1h-786zM324 1792v2l383 234l101 -164l-383 -235l-1 1z" />
<glyph unicode="&#xca;" horiz-adv-x="1151" d="M172 1v1462l1 1h786l1 -1v-192h-595v-443h471l1 -1v-190l-1 -1h-471v-443h595v-192l-1 -1h-786zM287 1757v1l223 251h113q13 -14 223 -251l-144 -129l-135 152l-135 -152h-1z" />
<glyph unicode="&#xcb;" horiz-adv-x="1151" d="M172 1v1462l1 1h786l1 -1v-192h-595v-443h471l1 -1v-190l-1 -1h-471v-443h595v-192l-1 -1h-786zM250 1781v8q0 47 38 87q38 35 89 35q60 0 101 -52q24 -35 24 -70v-8q0 -48 -39 -88q-29 -25 -57 -31q-15 -3 -23 -3h-14q-32 0 -67 23q-34 25 -47 66q-5 18 -5 33zM630 1781 v8q0 47 38 87q38 35 89 35q60 0 101 -52q24 -35 24 -70v-8q0 -48 -39 -88q-29 -25 -57 -31q-15 -3 -23 -3h-14q-32 0 -67 23q-34 25 -47 66q-5 18 -5 33z" />
<glyph unicode="&#xcc;" horiz-adv-x="537" d="M26 1864l101 164l383 -234v-2l-100 -162l-1 -1zM172 1v1462l1 1h191l1 -1v-1462l-1 -1h-191z" />
<glyph unicode="&#xcd;" horiz-adv-x="537" d="M26 1792v2l383 234l101 -164l-383 -235l-1 1zM172 1v1462l1 1h191l1 -1v-1462l-1 -1h-191z" />
<glyph unicode="&#xce;" horiz-adv-x="537" d="M-11 1757v1l223 251h113q13 -14 223 -251l-144 -129l-135 152l-135 -152h-1zM172 1v1462l1 1h191l1 -1v-1462l-1 -1h-191z" />
<glyph unicode="&#xcf;" horiz-adv-x="537" d="M-28 1781v8q0 47 38 87q38 35 89 35q60 0 101 -52q24 -35 24 -70v-8q0 -48 -39 -88q-29 -25 -57 -31q-15 -3 -23 -3h-14q-32 0 -67 23q-34 25 -47 66q-5 18 -5 33zM172 1v1462l1 1h191l1 -1v-1462l-1 -1h-191zM312 1781v8q0 47 38 87q38 35 89 35q60 0 101 -52 q24 -35 24 -70v-8q0 -48 -39 -88q-29 -25 -57 -31q-15 -3 -23 -3h-14q-32 0 -67 23q-34 25 -47 66q-5 18 -5 33z" />
<glyph unicode="&#xd0;" horiz-adv-x="1450" d="M112 634v195h128v631l3 3h381q264 0 479 -178q83 -78 106 -113q148 -201 148 -435v-11q0 -292 -222 -520q-122 -110 -239 -154q-134 -52 -263 -52h-390l-3 3v631h-128zM433 193h176q256 0 425 188q131 157 131 350q0 196 -134 353q-79 83 -123 104q-39 28 -124 58 q-75 24 -196 24h-153l-2 -2v-439h198v-195h-198v-441z" />
<glyph unicode="&#xd1;" horiz-adv-x="1516" d="M172 3v1458l3 3h208l702 -1046l64 -97h1v1140l3 3h188l3 -3v-1458l-3 -3h-208q-54 76 -399 596l-370 548v-1141l-2 -3h-187zM438 1657v182q33 41 66 60q51 31 98 31q57 0 159 -58.5t150 -58.5q44 0 93 33q33 23 74 75v-193q-34 -30 -67 -50q-51 -29 -100 -29 q-53 0 -155 57t-154 57q-43 0 -93 -33q-32 -22 -71 -73z" />
<glyph unicode="&#xd2;" horiz-adv-x="1597" d="M99 731v4q0 310 232 542l67 55q187 132 403 132h3q290 0 509 -227q194 -222 194 -505q0 -310 -229 -541q-213 -191 -474 -191q-262 0 -472 187q-93 96 -120 148q-113 183 -113 396zM292 733q0 -237 180 -411q148 -128 332 -128q240 0 406 212q104 152 104 318v13 q0 205 -143 370q-160 165 -367 165q-230 0 -395 -197q-117 -158 -117 -342zM561 1864l101 164l383 -234v-2l-100 -162l-1 -1z" />
<glyph unicode="&#xd3;" horiz-adv-x="1597" d="M99 731v4q0 310 232 542l67 55q187 132 403 132h3q290 0 509 -227q194 -222 194 -505q0 -310 -229 -541q-213 -191 -474 -191q-262 0 -472 187q-93 96 -120 148q-113 183 -113 396zM292 733q0 -237 180 -411q148 -128 332 -128q240 0 406 212q104 152 104 318v13 q0 205 -143 370q-160 165 -367 165q-230 0 -395 -197q-117 -158 -117 -342zM561 1792v2l383 234l101 -164l-383 -235l-1 1z" />
<glyph unicode="&#xd4;" horiz-adv-x="1597" d="M99 731v4q0 310 232 542l67 55q187 132 403 132h3q290 0 509 -227q194 -222 194 -505q0 -310 -229 -541q-213 -191 -474 -191q-262 0 -472 187q-93 96 -120 148q-113 183 -113 396zM292 733q0 -237 180 -411q148 -128 332 -128q240 0 406 212q104 152 104 318v13 q0 205 -143 370q-160 165 -367 165q-230 0 -395 -197q-117 -158 -117 -342zM523 1757v1l223 251h113q13 -14 223 -251l-144 -129l-135 152l-135 -152h-1z" />
<glyph unicode="&#xd5;" horiz-adv-x="1597" d="M99 731v4q0 310 232 542l67 55q187 132 403 132h3q290 0 509 -227q194 -222 194 -505q0 -310 -229 -541q-213 -191 -474 -191q-262 0 -472 187q-93 96 -120 148q-113 183 -113 396zM292 733q0 -237 180 -411q148 -128 332 -128q240 0 406 212q104 152 104 318v13 q0 205 -143 370q-160 165 -367 165q-230 0 -395 -197q-117 -158 -117 -342zM483 1657v182q33 41 66 60q51 31 98 31q57 0 159 -58.5t150 -58.5q44 0 93 33q33 23 74 75v-193q-34 -30 -67 -50q-51 -29 -100 -29q-53 0 -155 57t-154 57q-43 0 -93 -33q-32 -22 -71 -73z" />
<glyph unicode="&#xd6;" horiz-adv-x="1597" d="M99 731v4q0 310 232 542l67 55q187 132 403 132h3q290 0 509 -227q194 -222 194 -505q0 -310 -229 -541q-213 -191 -474 -191q-262 0 -472 187q-93 96 -120 148q-113 183 -113 396zM291 733q0 -237 180 -411q148 -128 333 -128q240 0 405 212q104 152 104 318v13 q0 205 -143 370q-160 165 -366 165q-231 0 -396 -197q-117 -158 -117 -342zM485 1781v8q0 47 38 87q38 35 89 35q60 0 101 -52q24 -35 24 -70v-8q0 -48 -39 -88q-29 -25 -57 -31q-15 -3 -23 -3h-14q-32 0 -67 23q-34 25 -47 66q-5 18 -5 33zM865 1781v8q0 47 38 87 q38 35 89 35q60 0 101 -52q24 -35 24 -70v-8q0 -48 -39 -88q-29 -25 -57 -31q-15 -3 -23 -3h-14q-32 0 -67 23q-34 25 -47 66q-5 18 -5 33z" />
<glyph unicode="&#xd7;" horiz-adv-x="833" d="M96 301l184 184l-184 184v1l135 135h1l184 -184l184 184h2l135 -135v-1l-184 -184l184 -184l-137 -136l-184 184l-184 -184z" />
<glyph unicode="&#xd8;" horiz-adv-x="1212" d="M99 731v4q0 310 232 542l67 55q187 132 403 132h3q179 0 330 -86l112 182l1 1l159 -94v-1l-123 -200q15 -14 30 -29q194 -222 194 -505q0 -310 -229 -541q-213 -191 -474 -191q-140 0 -266 54l-96 -157h-1l-159 93v2l96 157q-23 18 -46 38q-93 96 -120 148 q-113 183 -113 396zM291 733q0 -237 180 -411q5 -4 9 -8l553 900q-106 58 -229 58q-231 0 -396 -197q-117 -158 -117 -342zM641 221q78 -27 163 -27q240 0 405 212q104 152 104 318v13q0 198 -134 359z" />
<glyph unicode="&#xd9;" horiz-adv-x="1485" d="M170 532v929l3 3h187l2 -3v-891q0 -161 55 -238q50 -87 168 -127q45 -11 86 -11h143q171 0 265 155q43 83 43 194v918l3 3h188l3 -3v-868q0 -174 -31 -252q-61 -173 -200 -263q-121 -78 -294 -78h-96q-228 0 -367 137q-61 61 -93 122q-65 128 -65 273zM501 1864l101 164 l383 -234v-2l-100 -162l-1 -1z" />
<glyph unicode="&#xda;" horiz-adv-x="1485" d="M170 532v929l3 3h187l2 -3v-891q0 -161 55 -238q50 -87 168 -127q45 -11 86 -11h143q171 0 265 155q43 83 43 194v918l3 3h188l3 -3v-868q0 -174 -31 -252q-61 -173 -200 -263q-121 -78 -294 -78h-96q-228 0 -367 137q-61 61 -93 122q-65 128 -65 273zM501 1792v2 l383 234l101 -164l-383 -235l-1 1z" />
<glyph unicode="&#xdb;" horiz-adv-x="1485" d="M170 532v929l3 3h187l2 -3v-891q0 -161 55 -238q50 -87 168 -127q45 -11 86 -11h143q171 0 265 155q43 83 43 194v918l3 3h188l3 -3v-868q0 -174 -31 -252q-61 -173 -200 -263q-121 -78 -294 -78h-96q-228 0 -367 137q-61 61 -93 122q-65 128 -65 273zM464 1757v1 l223 251h113q13 -14 223 -251l-144 -129l-135 152l-135 -152h-1z" />
<glyph unicode="&#xdc;" horiz-adv-x="1360" d="M170 532v929l3 3h187l2 -3v-891q0 -161 55 -238q50 -87 168 -127q45 -11 86 -11h143q171 0 265 155q43 83 43 194v918l3 3h188l3 -3v-868q0 -174 -31 -252q-61 -173 -200 -263q-121 -78 -294 -78h-96q-228 0 -367 137q-61 61 -93 122q-65 128 -65 273zM429 1781v8 q0 47 38 87q38 35 89 35q60 0 101 -52q24 -35 24 -70v-8q0 -48 -39 -88q-29 -25 -57 -31q-15 -3 -23 -3h-14q-32 0 -67 23q-34 25 -47 66q-5 18 -5 33zM809 1781v8q0 47 38 87q38 35 89 35q60 0 101 -52q24 -35 24 -70v-8q0 -48 -39 -88q-29 -25 -57 -31q-15 -3 -23 -3h-14 q-32 0 -67 23q-34 25 -47 66q-5 18 -5 33z" />
<glyph unicode="&#xdd;" horiz-adv-x="1360" d="M30 1463v1h245q11 -11 202 -280l206 -286q385 541 406 566h245v-1l-550 -757v-703l-3 -3h-198l-3 3v701q0 6 -65 94zM440 1792v2l383 234l101 -164l-383 -235l-1 1z" />
<glyph unicode="&#xde;" horiz-adv-x="1368" d="M153 1v1462l1 1h191l1 -1v-220h439q156 0 280 -66q32 -18 66 -45q12 -9 42 -41q106 -121 106 -290v-136q0 -173 -109 -294q-31 -32 -49 -46q-37 -27 -62 -40t-56 -25q-103 -38 -217 -38h-440v-221l-1 -1h-191zM346 415h431q177 0 258 95q19 25 27 42q24 47 24 124v113 q0 82 -28 132q-36 70 -127 105q-66 24 -157 24h-428v-635z" />
<glyph unicode="&#xdf;" horiz-adv-x="1360" d="M153 3v1111q0 72 63 176q124 174 370 174q177 0 305 -72q142 -92 142 -240v-8q0 -124 -109 -263q-66 -92 -66 -134q0 -46 140 -114q268 -153 268 -347q0 -145 -146 -261q-128 -91 -272 -91q-216 0 -367 200q-25 34 -25 40l161 100l29 -39q87 -108 202 -108q107 0 190 81 q35 45 35 78q0 95 -234 213q-174 102 -174 252q0 104 107 249q68 86 68 145v4q0 101 -216 121l-40 1q-168 0 -224 -118q-14 -33 -14 -48v-1102l-3 -3h-187z" />
<glyph unicode="&#xe0;" horiz-adv-x="1211" d="M92 474v1q0 220 170 380q141 118 319 118q167 0 286 -127v110l3 2h189l2 -2v-954l-2 -2h-189l-3 2v97q-112 -123 -288 -123h-1q-219 0 -372 177q-114 143 -114 321zM285 475q0 -158 136 -259q76 -46 144 -46h22q96 0 186 78q94 96 94 226v1q0 160 -136 258 q-75 46 -148 46h-16q-120 0 -217 -111q-65 -92 -65 -193zM334 1364l101 164l383 -234v-2l-100 -162l-1 -1z" />
<glyph unicode="&#xe1;" horiz-adv-x="1211" d="M92 474v1q0 220 170 380q141 118 319 118q167 0 286 -127v110l3 2h189l2 -2v-954l-2 -2h-189l-3 2v97q-112 -123 -288 -123h-1q-219 0 -372 177q-114 143 -114 321zM285 475q0 -158 136 -259q76 -46 144 -46h22q96 0 186 78q94 96 94 226v1q0 160 -136 258 q-75 46 -148 46h-16q-120 0 -217 -111q-65 -92 -65 -193zM334 1292v2l383 234l101 -164l-383 -235l-1 1z" />
<glyph unicode="&#xe2;" horiz-adv-x="1211" d="M92 474v1q0 220 170 380q141 118 319 118q167 0 286 -127v110l3 2h189l2 -2v-954l-2 -2h-189l-3 2v97q-112 -123 -288 -123h-1q-219 0 -372 177q-114 143 -114 321zM285 475q0 -158 136 -259q76 -46 144 -46h22q96 0 186 78q94 96 94 226v1q0 160 -136 258 q-75 46 -148 46h-16q-120 0 -217 -111q-65 -92 -65 -193zM296 1257v1l223 251h113q13 -14 223 -251l-144 -129l-135 152l-135 -152h-1z" />
<glyph unicode="&#xe3;" horiz-adv-x="1211" d="M92 474v1q0 220 170 380q141 118 319 118q167 0 286 -127v110l3 2h189l2 -2v-954l-2 -2h-189l-3 2v97q-112 -123 -288 -123h-1q-219 0 -372 177q-114 143 -114 321zM256 1157v182q34 41 67 60q51 31 98 31q57 0 159 -58.5t150 -58.5q44 0 93 33q33 23 73 75v-193 q-33 -30 -66 -50q-51 -29 -100 -29q-53 0 -155 57t-154 57q-44 0 -93 -33q-32 -22 -72 -73zM285 475q0 -158 136 -259q76 -46 144 -46h22q96 0 186 78q94 96 94 226v1q0 160 -136 258q-75 46 -148 46h-16q-120 0 -217 -111q-65 -92 -65 -193z" />
<glyph unicode="&#xe4;" horiz-adv-x="1211" d="M92 474v1q0 220 170 380q141 118 319 118q167 0 286 -127v110l3 2h189l2 -2v-954l-2 -2h-189l-3 2v97q-112 -123 -288 -123h-1q-219 0 -372 177q-114 143 -114 321zM260 1281v8q0 47 38 87q38 35 89 35q60 0 101 -52q24 -35 24 -70v-8q0 -48 -39 -88q-29 -25 -57 -31 q-15 -3 -23 -3h-14q-32 0 -67 23q-34 25 -47 66q-5 18 -5 33zM285 475q0 -158 136 -259q76 -46 144 -46h22q96 0 186 78q94 96 94 226v1q0 160 -136 258q-75 46 -148 46h-16q-120 0 -217 -111q-65 -92 -65 -193zM640 1281v8q0 47 38 87q38 35 89 35q60 0 101 -52 q24 -35 24 -70v-8q0 -48 -39 -88q-29 -25 -57 -31q-15 -3 -23 -3h-14q-32 0 -67 23q-34 25 -47 66q-5 18 -5 33z" />
<glyph unicode="&#xe5;" horiz-adv-x="1211" d="M92 474v1q0 220 170 380q141 118 319 118q167 0 286 -127v110l3 2h189l2 -2v-954l-2 -2h-189l-3 2v97q-112 -123 -288 -123h-1q-219 0 -372 177q-114 143 -114 321zM285 475q0 -158 136 -259q76 -46 144 -46h22q96 0 186 78q94 96 94 226v1q0 160 -136 258 q-75 46 -148 46h-16q-120 0 -217 -111q-65 -92 -65 -193zM402 1288v10q0 51 34 99q6 9 23 27q53 44 116 44h3q62 0 113 -42q20 -20 25 -27q36 -49 36 -105q0 -71 -53 -125l-9 -10q-50 -40 -114 -40q-62 0 -112 40q-15 14 -22 24q-14 17 -21 31q-19 39 -19 74zM511 1294 q0 -31 27 -52q17 -14 38 -14q32 0 53 26q14 19 14 40v2q0 25 -19 44q-21 20 -48 20q-25 0 -45 -18q-20 -21 -20 -47v-1z" />
<glyph unicode="&#xe6;" horiz-adv-x="1906" d="M92 474v1q0 220 170 380q141 118 319 118q167 0 286 -127v110l3 2h189l2 -2v-108q12 12 25 24q132 101 265 101h29q146 0 281 -117q66 -65 91 -112q73 -129 73 -270v-30q0 -28 -4 -28h-716q23 -107 76 -160q81 -87 184 -87q130 0 218 131q17 33 20 34q172 -78 174 -80 q-14 -35 -63 -105q-147 -173 -347 -173h-4q-171 0 -302 126v-100l-2 -2h-189l-3 2v97q-112 -123 -288 -123h-1q-219 0 -372 177q-114 143 -114 321zM285 475q0 -158 136 -259q76 -46 144 -46h22q96 0 186 78q94 96 94 226v1q0 160 -136 258q-75 46 -148 46h-16 q-120 0 -217 -111q-65 -92 -65 -193zM1123 598h485v1q-17 51 -78 116q-76 65 -166 65q-137 0 -225 -145z" />
<glyph unicode="&#xe7;" horiz-adv-x="1043" d="M90 466v16q0 112 55 225q17 31 39 64q17 23 51 60q40 38 69 58q125 84 270 84h2q150 0 280 -92q24 -18 54 -47q37 -38 49 -57q15 -20 15 -22l-160 -106h-1q-11 18 -39 47q-88 84 -200 84q-107 0 -194 -78q-32 -32 -39 -46q-58 -82 -58 -182q0 -108 69 -197q22 -26 46 -46 q80 -62 177 -62q88 0 164 54q17 11 47 41q17 20 29 39h1l161 -106q-17 -27 -46 -60q-34 -37 -48 -47q-33 -27 -57 -42q-96 -58 -199 -69l-9 -43q30 -5 45 -10q62 -26 91 -83q22 -45 22 -88v-7q0 -65 -46 -123q-22 -23 -33 -31q-64 -48 -137 -48h-5q-79 0 -149 57 q-28 27 -31 33l-5 6v1l127 98q27 -35 60 -35q23 0 43 16q16 14 16 29q0 11 -7 22q-8 6 -23 6h-5q-26 0 -67 -16l-103 -35v1l54 259q-80 20 -156 69q-24 17 -44 33q-37 34 -55 56q-40 49 -57 82q-19 32 -37 85q-26 81 -26 153z" />
<glyph unicode="&#xe8;" horiz-adv-x="1066" d="M67 472v4q0 234 179 396q132 101 265 101h29q146 0 281 -117q66 -65 91 -112q73 -129 73 -270v-30q0 -28 -4 -28h-716q23 -107 76 -160q81 -87 184 -87q130 0 218 131q17 33 20 34q172 -78 174 -80q-14 -35 -63 -105q-147 -173 -347 -173h-4q-206 0 -354 183 q-102 143 -102 313zM283 598h485v1q-17 51 -78 116q-76 65 -166 65q-137 0 -225 -145zM312 1364l101 164l383 -234v-2l-100 -162l-1 -1z" />
<glyph unicode="&#xe9;" horiz-adv-x="1066" d="M67 472v4q0 234 179 396q132 101 265 101h29q146 0 281 -117q66 -65 91 -112q73 -129 73 -270v-30q0 -28 -4 -28h-716q23 -107 76 -160q81 -87 184 -87q130 0 218 131q17 33 20 34q172 -78 174 -80q-14 -35 -63 -105q-147 -173 -347 -173h-4q-206 0 -354 183 q-102 143 -102 313zM283 598h485v1q-17 51 -78 116q-76 65 -166 65q-137 0 -225 -145zM312 1292v2l383 234l101 -164l-383 -235l-1 1z" />
<glyph unicode="&#xea;" horiz-adv-x="1066" d="M67 472v4q0 234 179 396q132 101 265 101h29q146 0 281 -117q66 -65 91 -112q73 -129 73 -270v-30q0 -28 -4 -28h-716q23 -107 76 -160q81 -87 184 -87q130 0 218 131q17 33 20 34q172 -78 174 -80q-14 -35 -63 -105q-147 -173 -347 -173h-4q-206 0 -354 183 q-102 143 -102 313zM274 1257v1l223 251h113q13 -14 223 -251l-144 -129l-135 152l-135 -152h-1zM283 598h485v1q-17 51 -78 116q-76 65 -166 65q-137 0 -225 -145z" />
<glyph unicode="&#xeb;" horiz-adv-x="1066" d="M67 472v4q0 234 179 396q132 101 265 101h29q146 0 281 -117q66 -65 91 -112q73 -129 73 -270v-30q0 -28 -4 -28h-716q23 -107 76 -160q81 -87 184 -87q130 0 218 131q17 33 20 34q172 -78 174 -80q-14 -35 -63 -105q-147 -173 -347 -173h-4q-206 0 -354 183 q-102 143 -102 313zM237 1281v8q0 47 38 87q38 35 89 35q60 0 101 -52q24 -35 24 -70v-8q0 -48 -39 -88q-29 -25 -57 -31q-15 -3 -23 -3h-14q-32 0 -67 23q-34 25 -47 66q-5 18 -5 33zM283 598h485v1q-17 51 -78 116q-76 65 -166 65q-137 0 -225 -145zM617 1281v8 q0 47 38 87q38 35 89 35q60 0 101 -52q24 -35 24 -70v-8q0 -48 -39 -88q-29 -25 -57 -31q-15 -3 -23 -3h-14q-32 0 -67 23q-34 25 -47 66q-5 18 -5 33z" />
<glyph unicode="&#xec;" horiz-adv-x="518" d="M17 1364l101 164l383 -234v-2l-100 -162l-1 -1zM162 1v957h194v-957l-1 -1h-192z" />
<glyph unicode="&#xed;" horiz-adv-x="514" d="M17 1292v2l383 234l101 -164l-383 -235l-1 1zM162 1v957h194v-957l-1 -1h-192z" />
<glyph unicode="&#xee;" horiz-adv-x="518" d="M-21 1257v1l223 251h113q13 -14 223 -251l-144 -129l-135 152l-135 -152h-1zM162 1v957h194v-957l-1 -1h-192z" />
<glyph unicode="&#xef;" horiz-adv-x="518" d="M-37 1281v8q0 47 38 87q38 35 89 35q60 0 101 -52q24 -35 24 -70v-8q0 -48 -39 -88q-29 -25 -57 -31q-15 -3 -23 -3h-14q-32 0 -67 23q-34 25 -47 66q-5 18 -5 33zM162 1v957h194v-957l-1 -1h-192zM303 1281v8q0 47 38 87q38 35 89 35q60 0 101 -52q24 -35 24 -70v-8 q0 -48 -39 -88q-29 -25 -57 -31q-15 -3 -23 -3h-14q-32 0 -67 23q-34 25 -47 66q-5 18 -5 33z" />
<glyph unicode="&#xf0;" horiz-adv-x="1139" />
<glyph unicode="&#xf1;" horiz-adv-x="1154" d="M153 3v947l3 3h187l3 -3v-54h1q51 28 134 52q43 10 107 10h9q258 0 370 -195q39 -77 39 -181v-579l-2 -3h-188l-2 3v581q0 123 -103 162q-43 19 -110 19h-16q-122 0 -173 -38q-66 -40 -66 -148v-576l-3 -3h-187zM260 1157v182q34 41 67 60q51 31 98 31q57 0 159 -58.5 t150 -58.5q44 0 93 33q33 23 73 75v-193q-33 -30 -66 -50q-51 -29 -100 -29q-53 0 -155 57t-154 57q-44 0 -93 -33q-32 -22 -72 -73z" />
<glyph unicode="&#xf2;" horiz-adv-x="1150" d="M90 467v15q0 112 56 225q16 31 38 63q17 24 51 61q49 45 70 58q123 84 269 84q163 0 298 -105q19 -14 54 -50q69 -77 98 -158q35 -90 35 -187q0 -126 -61 -242q-21 -38 -57 -83q-39 -45 -63 -63q-27 -22 -51 -37q-119 -72 -248 -72h-9q-136 0 -261 80q-24 18 -43 34 q-39 33 -56 56q-21 24 -39 52q-20 32 -34 62q-47 104 -47 207zM283 473q0 -109 71 -198q31 -35 48 -46q79 -60 172 -60q114 0 202 86q35 37 49 64q41 74 41 153v3q0 115 -79 207q-34 36 -46 41q-17 14 -32 22q-65 35 -135 35q-106 0 -194 -79q-31 -31 -39 -46 q-58 -81 -58 -182zM333 1364l101 164l383 -234v-2l-100 -162l-1 -1z" />
<glyph unicode="&#xf3;" horiz-adv-x="1150" d="M90 467v15q0 112 56 225q16 31 38 63q17 24 51 61q49 45 70 58q123 84 269 84q163 0 298 -105q19 -14 54 -50q69 -77 98 -158q35 -90 35 -187q0 -126 -61 -242q-21 -38 -57 -83q-39 -45 -63 -63q-27 -22 -51 -37q-119 -72 -248 -72h-9q-136 0 -261 80q-24 18 -43 34 q-39 33 -56 56q-21 24 -39 52q-20 32 -34 62q-47 104 -47 207zM283 473q0 -109 71 -198q31 -35 48 -46q79 -60 172 -60q114 0 202 86q35 37 49 64q41 74 41 153v3q0 115 -79 207q-34 36 -46 41q-17 14 -32 22q-65 35 -135 35q-106 0 -194 -79q-31 -31 -39 -46 q-58 -81 -58 -182zM333 1292v2l383 234l101 -164l-383 -235l-1 1z" />
<glyph unicode="&#xf4;" horiz-adv-x="1150" d="M90 467v15q0 112 56 225q16 31 38 63q17 24 51 61q49 45 70 58q123 84 269 84q163 0 298 -105q19 -14 54 -50q69 -77 98 -158q35 -90 35 -187q0 -126 -61 -242q-21 -38 -57 -83q-39 -45 -63 -63q-27 -22 -51 -37q-119 -72 -248 -72h-9q-136 0 -261 80q-24 18 -43 34 q-39 33 -56 56q-21 24 -39 52q-20 32 -34 62q-47 104 -47 207zM283 473q0 -109 71 -198q31 -35 48 -46q79 -60 172 -60q114 0 202 86q35 37 49 64q41 74 41 153v3q0 115 -79 207q-34 36 -46 41q-17 14 -32 22q-65 35 -135 35q-106 0 -194 -79q-31 -31 -39 -46 q-58 -81 -58 -182zM295 1257v1l223 251h113q13 -14 223 -251l-144 -129l-135 152l-135 -152h-1z" />
<glyph unicode="&#xf5;" horiz-adv-x="1150" d="M90 467v15q0 112 56 225q16 31 38 63q17 24 51 61q49 45 70 58q123 84 269 84q163 0 298 -105q19 -14 54 -50q69 -77 98 -158q35 -90 35 -187q0 -126 -61 -242q-21 -38 -57 -83q-39 -45 -63 -63q-27 -22 -51 -37q-119 -72 -248 -72h-9q-136 0 -261 80q-24 18 -43 34 q-39 33 -56 56q-21 24 -39 52q-20 32 -34 62q-47 104 -47 207zM255 1157v182q34 41 67 60q51 31 98 31q57 0 159 -58.5t150 -58.5q44 0 93 33q33 23 73 75v-193q-33 -30 -66 -50q-51 -29 -100 -29q-53 0 -155 57t-154 57q-44 0 -93 -33q-32 -22 -72 -73zM283 473 q0 -109 71 -198q31 -35 48 -46q79 -60 172 -60q114 0 202 86q35 37 49 64q41 74 41 153v3q0 115 -79 207q-34 36 -46 41q-17 14 -32 22q-65 35 -135 35q-106 0 -194 -79q-31 -31 -39 -46q-58 -81 -58 -182z" />
<glyph unicode="&#xf6;" horiz-adv-x="1150" d="M90 467v15q0 112 56 225q16 31 38 63q17 24 51 61q49 45 70 58q123 84 269 84q163 0 298 -105q19 -14 54 -50q69 -77 98 -158q35 -90 35 -187q0 -126 -61 -242q-21 -38 -57 -83q-39 -45 -63 -63q-27 -22 -51 -37q-119 -72 -248 -72h-9q-136 0 -261 80q-24 18 -43 34 q-39 33 -56 56q-21 24 -39 52q-20 32 -34 62q-47 104 -47 207zM259 1281v8q0 47 38 87q38 35 89 35q60 0 101 -52q24 -35 24 -70v-8q0 -48 -39 -88q-29 -25 -57 -31q-15 -3 -23 -3h-14q-32 0 -67 23q-34 25 -47 66q-5 18 -5 33zM283 473q0 -109 71 -198q31 -35 48 -46 q79 -60 172 -60q114 0 202 86q35 37 49 64q41 74 41 153v3q0 115 -79 207q-34 36 -46 41q-17 14 -32 22q-65 35 -135 35q-106 0 -194 -79q-31 -31 -39 -46q-58 -81 -58 -182zM639 1281v8q0 47 38 87q38 35 89 35q60 0 101 -52q24 -35 24 -70v-8q0 -48 -39 -88 q-29 -25 -57 -31q-15 -3 -23 -3h-14q-32 0 -67 23q-34 25 -47 66q-5 18 -5 33z" />
<glyph unicode="&#xf7;" horiz-adv-x="902" d="M96 414v193h709l1 -1v-191l-1 -1h-709zM326 207q0 49 35 88q40 38 87 38h8q46 0 86 -37q36 -39 36 -85v-7q0 -50 -41 -91q-39 -32 -81 -32h-8q-50 0 -91 43q-31 38 -31 83zM326 814q0 49 35 88q40 38 87 38h8q46 0 86 -37q36 -39 36 -85v-7q0 -50 -41 -91 q-39 -32 -81 -32h-8q-50 0 -91 43q-31 38 -31 83z" />
<glyph unicode="&#xf8;" horiz-adv-x="1157" d="M53 99v1l110 110q-15 26 -26 50q-47 104 -47 207v15q0 112 56 225q16 31 38 63q17 24 51 61q49 45 70 58q123 84 269 84q145 0 268 -84l103 103h2l136 -135l-1 -2l-104 -104q29 -45 46 -91q35 -90 35 -187q0 -126 -61 -242q-21 -38 -57 -83q-39 -45 -63 -63 q-27 -22 -51 -37q-119 -72 -248 -72h-9q-136 0 -261 80q-8 6 -15 11l-104 -104h-1zM283 473q0 -63 24 -119l395 395q-62 31 -128 31q-106 0 -194 -79q-31 -31 -39 -46q-58 -81 -58 -182zM434 207q66 -38 140 -38q114 0 202 86q35 37 49 64q41 74 41 153v3q0 71 -30 134z" />
<glyph unicode="&#xf9;" horiz-adv-x="1152" d="M148 376v579l3 3h187l3 -3v-581q0 -123 102 -162q43 -19 110 -19h16q122 0 173 38q67 40 67 148v576l2 3h188l2 -3v-947l-2 -3h-188l-2 3v64h-2q-51 -38 -133 -62q-44 -10 -108 -10h-9q-258 0 -370 195q-39 77 -39 181zM332 1364l101 164l383 -234v-2l-100 -162l-1 -1z " />
<glyph unicode="&#xfa;" horiz-adv-x="1153" d="M148 376v579l3 3h187l3 -3v-581q0 -123 102 -162q43 -19 110 -19h16q122 0 173 38q67 40 67 148v576l2 3h188l2 -3v-947l-2 -3h-188l-2 3v64h-2q-51 -38 -133 -62q-44 -10 -108 -10h-9q-258 0 -370 195q-39 77 -39 181zM332 1292v2l383 234l101 -164l-383 -235l-1 1z" />
<glyph unicode="&#xfb;" horiz-adv-x="1151" d="M148 376v579l3 3h187l3 -3v-581q0 -123 102 -162q43 -19 110 -19h16q122 0 173 38q67 40 67 148v576l2 3h188l2 -3v-947l-2 -3h-188l-2 3v64h-2q-51 -38 -133 -62q-44 -10 -108 -10h-9q-258 0 -370 195q-39 77 -39 181zM295 1257v1l223 251h113q13 -14 223 -251 l-144 -129l-135 152l-135 -152h-1z" />
<glyph unicode="&#xfc;" horiz-adv-x="1153" d="M148 376v579l3 3h187l3 -3v-581q0 -123 102 -162q43 -19 110 -19h16q122 0 173 38q67 40 67 148v576l2 3h188l2 -3v-947l-2 -3h-188l-2 3v64h-2q-51 -38 -133 -62q-44 -10 -108 -10h-9q-258 0 -370 195q-39 77 -39 181zM259 1281v8q0 47 38 87q38 35 89 35q60 0 101 -52 q24 -35 24 -70v-8q0 -48 -39 -88q-29 -25 -57 -31q-15 -3 -23 -3h-14q-32 0 -67 23q-34 25 -47 66q-5 18 -5 33zM639 1281v8q0 47 38 87q38 35 89 35q60 0 101 -52q24 -35 24 -70v-8q0 -48 -39 -88q-29 -25 -57 -31q-15 -3 -23 -3h-14q-32 0 -67 23q-34 25 -47 66 q-5 18 -5 33z" />
<glyph unicode="&#xfd;" horiz-adv-x="1119" d="M34 958h221q1 -1 9 -20l142 -337l153 -359q3 6 43 100l133 303l138 313h211l-214 -489l-179 -409l-185 -423l-30 -68h-211l-1 1l190 430l-196 448l-200 454zM317 1292v2l383 234l101 -164l-383 -235l-1 1z" />
<glyph unicode="&#xfe;" horiz-adv-x="1185" d="M135 -399v1862l1 1h191l1 -1v-614q36 38 45 43q30 23 52 35q31 17 62 26q23 7 80 17q18 1 43 2q145 0 260 -71q31 -18 75 -58q37 -37 47 -51q24 -31 43 -61q68 -120 68 -259q0 -165 -102 -305q-13 -19 -52 -60l-18 -15q-140 -117 -313 -117q-126 0 -228 72q-19 13 -52 44 l-10 11v-502h-192zM328 453q0 -28 15 -81q12 -33 26 -59q15 -22 43 -54q31 -31 43 -38q24 -16 42 -26q63 -27 113 -27h13q89 0 168 60q14 10 40 37q48 56 65 116q14 46 14 93q0 114 -75 204q-32 34 -39 38q-80 63 -177 63h-8q-53 0 -116 -28q-31 -14 -69 -48 q-36 -36 -44 -51q-15 -23 -24 -41q-9 -19 -20 -50q-10 -46 -10 -68v-40z" />
<glyph unicode="&#xff;" horiz-adv-x="1119" d="M34 958h221q1 -1 9 -20l142 -337l153 -359q3 6 43 100l133 303l138 313h211l-214 -489l-179 -409l-185 -423l-30 -68h-211l-1 1l190 430l-196 448l-200 454zM243 1281v8q0 47 38 87q38 35 89 35q60 0 101 -52q24 -35 24 -70v-8q0 -48 -39 -88q-29 -25 -57 -31 q-15 -3 -23 -3h-14q-32 0 -67 23q-34 25 -47 66q-5 18 -5 33zM623 1281v8q0 47 38 87q38 35 89 35q60 0 101 -52q24 -35 24 -70v-8q0 -48 -39 -88q-29 -25 -57 -31q-15 -3 -23 -3h-14q-32 0 -67 23q-34 25 -47 66q-5 18 -5 33z" />
<glyph unicode="&#x152;" horiz-adv-x="2011" d="M99 731v4q0 310 232 542l67 55q187 132 403 132h3q168 0 311 -75v74l1 1h786l1 -1v-192h-595v-443h471l1 -1v-190l-1 -1h-471v-443h595v-192l-1 -1h-786l-1 1v76q-146 -77 -311 -77q-262 0 -472 187q-93 96 -120 148q-113 183 -113 396zM291 733q0 -237 180 -411 q148 -128 333 -128q175 0 311 113v851q-140 114 -311 114q-231 0 -396 -197q-117 -158 -117 -342z" />
<glyph unicode="&#x153;" horiz-adv-x="1896" d="M90 467v15q0 112 56 225q16 31 38 63q17 24 51 61q49 45 70 58q123 84 269 84q163 0 298 -105q19 -14 54 -50q28 -31 50 -63q40 62 100 117q132 101 265 101h29q146 0 281 -117q66 -65 91 -112q73 -129 73 -270v-30q0 -28 -4 -28h-716q23 -107 76 -160q81 -87 184 -87 q130 0 218 131q17 33 20 34q172 -78 174 -80q-14 -35 -63 -105q-147 -173 -347 -173h-4q-206 0 -354 183q-13 18 -24 36q-15 -23 -34 -47q-39 -45 -63 -63q-27 -22 -51 -37q-119 -72 -248 -72h-9q-136 0 -261 80q-24 18 -43 34q-39 33 -56 56q-21 24 -39 52q-20 32 -34 62 q-47 104 -47 207zM283 473q0 -109 71 -198q31 -35 48 -46q79 -60 172 -60q114 0 202 86q35 37 49 64q41 74 41 153v3q0 115 -79 207q-34 36 -46 41q-17 14 -32 22q-65 35 -135 35q-106 0 -194 -79q-31 -31 -39 -46q-58 -81 -58 -182zM1113 598h485v1q-17 51 -78 116 q-76 65 -166 65q-137 0 -225 -145z" />
<glyph unicode="&#x2c6;" horiz-adv-x="821" d="M369 1757v1l223 251h113q13 -14 223 -251l-144 -129l-135 152l-135 -152h-1z" />
<glyph unicode="&#x2dc;" horiz-adv-x="1124" d="M242 1698v182q34 41 67 60q51 31 98 31q56 0 158 -58.5t150 -58.5q45 0 94 33q33 23 73 75v-193q-34 -30 -67 -50q-51 -29 -100 -29q-52 0 -154 57t-154 57q-44 0 -93 -33q-33 -22 -72 -73z" />
<glyph unicode="&#x2000;" horiz-adv-x="1016" />
<glyph unicode="&#x2001;" horiz-adv-x="2032" />
<glyph unicode="&#x2002;" horiz-adv-x="1016" />
<glyph unicode="&#x2003;" horiz-adv-x="2032" />
<glyph unicode="&#x2004;" horiz-adv-x="677" />
<glyph unicode="&#x2005;" horiz-adv-x="508" />
<glyph unicode="&#x2006;" horiz-adv-x="338" />
<glyph unicode="&#x2007;" horiz-adv-x="338" />
<glyph unicode="&#x2008;" horiz-adv-x="254" />
<glyph unicode="&#x2009;" horiz-adv-x="406" />
<glyph unicode="&#x200a;" horiz-adv-x="112" />
<glyph unicode="&#x2010;" horiz-adv-x="863" d="M76 414v193h705l1 -1v-191l-1 -1h-705z" />
<glyph unicode="&#x2011;" horiz-adv-x="863" d="M76 414v193h705l1 -1v-191l-1 -1h-705z" />
<glyph unicode="&#x2012;" horiz-adv-x="863" d="M76 414v193h705l1 -1v-191l-1 -1h-705z" />
<glyph unicode="&#x2013;" horiz-adv-x="990" d="M70 413v193h848l2 -1v-191l-2 -1h-848z" />
<glyph unicode="&#x2014;" horiz-adv-x="1350" d="M100 375v193h1147l3 -1v-191l-3 -1h-1147z" />
<glyph unicode="&#x2018;" horiz-adv-x="624" d="M139 1335q0 156 185 321q51 46 66 53l51 -66q-128 -119 -128 -212q45 -19 66 -62q15 -26 15 -57q0 -63 -57 -104q-32 -22 -72 -22q-63 0 -103 56q-23 35 -23 93z" />
<glyph unicode="&#x2019;" horiz-adv-x="624" d="M183 1252q128 119 128 212q-45 19 -66 62q-15 26 -15 57q0 63 57 104q32 22 72 22q63 0 103 -56q23 -35 23 -93q0 -156 -185 -321q-51 -46 -66 -53z" />
<glyph unicode="&#x201a;" horiz-adv-x="598" d="M103 -212q128 119 128 212q-45 19 -66 62q-15 26 -15 57q0 63 57 104q32 22 72 22q63 0 103 -56q23 -35 23 -93q0 -156 -185 -321q-51 -46 -66 -53z" />
<glyph unicode="&#x201c;" horiz-adv-x="1136" d="M179 1334q0 157 185 322q51 45 66 53l51 -66q-128 -119 -128 -212q46 -19 66 -62q15 -26 15 -57q0 -63 -57 -105q-32 -21 -72 -21q-63 0 -103 56q-23 35 -23 92zM579 1334q0 157 185 322q51 45 66 53l51 -66q-128 -119 -128 -212q46 -19 66 -62q15 -26 15 -57 q0 -63 -57 -105q-32 -21 -72 -21q-63 0 -103 56q-23 35 -23 92z" />
<glyph unicode="&#x201d;" horiz-adv-x="1136" d="M255 1252q128 119 128 212q-45 19 -66 62q-15 26 -15 57q0 63 57 104q32 22 72 22q63 0 103 -56q23 -35 23 -93q0 -156 -185 -321q-51 -46 -66 -53zM655 1252q128 119 128 212q-45 19 -66 62q-15 26 -15 57q0 63 57 104q32 22 72 22q63 0 103 -56q23 -35 23 -93 q0 -156 -185 -321q-51 -46 -66 -53z" />
<glyph unicode="&#x201e;" horiz-adv-x="998" d="M103 -212q128 119 128 212q-45 19 -66 62q-15 26 -15 57q0 63 57 104q32 22 72 22q63 0 103 -56q23 -35 23 -93q0 -156 -185 -321q-51 -46 -66 -53zM503 -212q128 119 128 212q-45 19 -66 62q-15 26 -15 57q0 63 57 104q32 22 72 22q63 0 103 -56q23 -35 23 -93 q0 -156 -185 -321q-51 -46 -66 -53z" />
<glyph unicode="&#x2022;" horiz-adv-x="950" d="M300 958q0 -70 56 -122q47 -39 103 -39q70 0 122 58q39 45 39 103q0 77 -68 129q-42 30 -93 30q-77 0 -129 -67q-30 -42 -30 -92z" />
<glyph unicode="&#x2026;" horiz-adv-x="1304" d="M100 122v8q0 47 38 87q38 35 89 35q60 0 101 -52q24 -35 24 -70v-8q0 -48 -39 -88q-29 -25 -57 -31q-15 -3 -23 -3h-14q-32 0 -67 23q-34 25 -47 66q-5 18 -5 33zM526 122v8q0 47 38 87q38 35 89 35q60 0 101 -52q24 -35 24 -70v-8q0 -48 -39 -88q-29 -25 -57 -31 q-15 -3 -23 -3h-14q-32 0 -67 23q-34 25 -47 66q-5 18 -5 33zM952 123v8q0 47 38 87q38 35 89 35q60 0 101 -52q24 -35 24 -70v-8q0 -48 -39 -88q-29 -25 -57 -31q-15 -3 -23 -3h-14q-32 0 -67 23q-34 25 -47 66q-5 18 -5 33z" />
<glyph unicode="&#x202f;" horiz-adv-x="406" />
<glyph unicode="&#x2039;" horiz-adv-x="679" d="M69 403v134l350 242l48 33h1q5 -6 58 -83l52 -75v-1l-266 -183l266 -184q-105 -153 -110 -159l-398 274z" />
<glyph unicode="&#x203a;" horiz-adv-x="679" d="M101 286l266 184l-266 183v1l52 75q53 77 58 83h1l48 -33l350 -242v-134l-1 -2l-398 -274q-5 6 -110 159z" />
<glyph unicode="&#x205f;" horiz-adv-x="508" />
<glyph unicode="&#x20ac;" horiz-adv-x="1424" d="M53 437v192l1 1h61q-1 20 -1 39v5h-60l-1 1v192l1 1h89q15 48 35 91q27 57 72 119q22 30 63 73q53 50 77 67q51 38 99 63q165 86 350 86q203 0 382 -105q39 -23 83 -58q8 -6 20 -16q0 -1 -127 -146q-58 48 -109 73q-119 58 -243 58h-13q-141 0 -273 -74 q-143 -86 -210 -231h875l1 -1v-192l-1 -1h-917q0 -22 3 -44h914l1 -1v-192l-1 -1h-854q89 -154 260 -224q101 -40 204 -40h9q143 0 274 74q30 18 61 42l19 15q111 -127 127 -146q-56 -47 -88 -65q-62 -40 -137 -67q-127 -47 -261 -47q-208 0 -390 109q-40 25 -91 67 q-22 18 -54 50q-49 54 -75 94q-38 57 -64 120q-6 18 -7 18h-103z" />
<glyph unicode="&#x2122;" horiz-adv-x="2628" d="M15 1272v191l1 1h970l1 -1v-191l-1 -1h-388v-971h-194v971h-388zM1115 300v1163l1 1h220l234 -388l202 -334l13 -22h1l226 374l223 370h220l1 -1v-1163h-203v818q-8 -12 -178 -294q-180 -296 -187 -309l-30 -48h-145q-1 1 -79 130l-229 379q-9 16 -86 142v-818h-204z" />
<glyph unicode="&#x25fc;" horiz-adv-x="960" d="M0 0v960h960v-960h-960z" />
<glyph unicode="&#xfb01;" horiz-adv-x="1158" d="M27 766v191l1 1h185v4q0 261 144 398q54 50 110 73q77 31 153 31h57l1 -1v-192l-1 -1h-50q-129 0 -186 -120q-35 -74 -35 -192h271l1 -1v-191l-1 -1h-271v-764l-1 -1h-192v765h-185zM773 1334v8q0 46 37 86l15 13q35 23 70 23h8q44 0 83 -34q39 -40 39 -89v-6 q0 -45 -34 -84q-40 -39 -89 -39h-6q-46 0 -84 35q-21 22 -28 39q-11 25 -11 48zM802 1v957h194v-957l-1 -1h-192z" />
<glyph unicode="&#xfb02;" horiz-adv-x="1148" d="M27 766v191l1 1h185v4q0 261 144 398q54 50 110 73q77 31 153 31h57l1 -1v-192l-1 -1h-50q-129 0 -186 -120q-35 -74 -35 -192h271l1 -1v-191l-1 -1h-271v-764l-1 -1h-192v765h-185zM802 2v1462h194v-1462l-1 -2h-192z" />
</font>
</defs>
</svg>
