<?xml version="1.0" standalone="no"?>
<!DOCTYPE svg PUBLIC "-//W3C//DTD SVG 1.1//EN" "http://www.w3.org/Graphics/SVG/1.1/DTD/svg11.dtd" >
<svg xmlns="http://www.w3.org/2000/svg" xmlns:xlink="http://www.w3.org/1999/xlink" version="1.1">
<metadata></metadata>
<defs>
<font id="louis_george_cafebold_italic" horiz-adv-x="1463" >
<font-face units-per-em="2048" ascent="1638" descent="-410" />
<missing-glyph horiz-adv-x="508" />
<glyph horiz-adv-x="0" />
<glyph unicode="&#xd;" horiz-adv-x="508" />
<glyph unicode=" "  horiz-adv-x="508" />
<glyph unicode="&#x09;" horiz-adv-x="508" />
<glyph unicode="&#xa0;" horiz-adv-x="508" />
<glyph unicode="!" horiz-adv-x="624" d="M189 122l1 8q5 47 47 87q42 35 93 35q60 0 95 -52q21 -35 17 -70l-1 -8q-6 -48 -49 -88q-32 -25 -61 -31q-15 -3 -23 -3h-14q-32 0 -64 23q-32 25 -40 66q-3 18 -1 33zM238 306l101 1157l1 1h252l1 -1l-161 -1157l-1 -1h-192z" />
<glyph unicode="&#x22;" horiz-adv-x="954" d="M227 1100l45 400h193l-45 -400h-193zM557 1100l45 400h193l-45 -400h-193z" />
<glyph unicode="#" horiz-adv-x="962" d="M111 425l21 192l1 1h145l54 185h-123l-1 1l21 192l1 1h157l98 346l2 1q180 -32 185 -34l-89 -313h193l97 337q184 -33 186 -34l-86 -303h125l-21 -194h-159l-54 -185h136l1 -1l-21 -192l-1 -1h-170l-112 -394h-1l-186 33v1l103 360h-193l-110 -385l-188 34l101 351h-111z M475 618h193l53 185h-193z" />
<glyph unicode="$" horiz-adv-x="1178" d="M223 325q167 79 183 85q47 -120 163 -164q55 -20 118 -20q108 0 199 57q31 21 52 48q39 50 45 106q10 86 -66 138q-18 12 -38 20q-25 11 -97 25q-193 43 -282 88q-196 96 -174 293v1q14 131 116 238q31 30 49 44q32 23 59 38q36 20 68 32q32 13 84 24l6 1l12 113l1 1h192 l1 -1l-12 -107q0 -1 22 -4q103 -20 185 -84q23 -18 56 -55q33 -42 41 -59q7 -13 12 -25v-1q-131 -64 -180 -90q-5 13 -32 46q-77 84 -203 84q-106 0 -187 -50q-14 -9 -38 -30q-52 -53 -59 -115q-6 -54 26 -81q15 -14 30 -23q37 -24 111 -48q84 -26 216 -53q57 -15 95 -34 q39 -20 77 -51q14 -12 37 -38q42 -53 58 -115q14 -60 8 -117l-1 -10q-12 -105 -86 -205q-18 -24 -50 -55q-30 -28 -55 -44q-39 -25 -74 -41q-37 -18 -85 -32q-28 -9 -72 -16l-12 -109l-1 -1h-192l-1 1l13 112q0 1 -22 5q-113 27 -201 105q-43 43 -60 69q-31 46 -44 78 q-11 24 -11 26z" />
<glyph unicode="%" horiz-adv-x="1584" d="M107 1133l2 15q7 79 63 158q16 21 50 52q46 38 76 51q78 40 159 40q128 0 218 -90q30 -35 40 -58q38 -76 30 -160q-12 -117 -105 -209q-37 -34 -61 -47q-88 -53 -177 -53h-13q-83 0 -158 47q-24 15 -51 43q-28 31 -39 52q-42 79 -34 159zM149 -13l1095 1477l1 1h201l1 -1 l-1095 -1477l-2 -1h-201v1zM313 1140q-5 -48 38 -81q28 -21 66 -21q59 0 101 49q19 26 22 55q5 55 -49 89q-26 12 -53 12h-3q-52 0 -94 -41q-25 -27 -28 -62zM865 300q11 116 105 208q36 32 47 38q27 19 53 31q72 31 140 31h9q99 0 182 -62q15 -12 41 -38q36 -47 50 -97 q16 -54 11 -107l-1 -9q-9 -88 -74 -171q-11 -16 -44 -46q-51 -42 -104 -62q-62 -25 -127 -25q-119 0 -205 79q-34 35 -40 50q-53 82 -43 180zM1070 299q-5 -48 38 -81q28 -21 66 -21q58 0 101 49q20 26 23 55q5 55 -49 89q-26 12 -53 12h-4q-52 0 -93 -41q-26 -27 -29 -62z " />
<glyph unicode="&#x26;" horiz-adv-x="1364" d="M197 313l2 14q6 60 31 125q19 40 39 70q24 36 63 79q60 64 136 122q73 54 125 86l22 13q-60 112 -89 179q-25 65 -17 137l1 12q16 149 170 248q111 65 227 65q99 0 191 -50q26 -15 49 -35q100 -93 83 -243q-8 -73 -42 -126q-75 -124 -306 -250q95 -165 207 -353l8 -11 l100 90l122 -136q-102 -94 -125 -113l76 -124v-1q-7 -6 -162 -111q-5 -3 -6 -3l-70 113q-244 -167 -478 -167q-101 0 -167 31q-134 59 -177 194q-21 72 -13 145zM391 319q-14 -124 97 -170q33 -13 89 -13q170 0 359 131q-131 218 -232 394q-54 -32 -121 -81q-26 -19 -80 -66 l-21 -21q-50 -51 -68 -87q-18 -37 -23 -87zM703 1143q-4 -42 13 -71q26 -57 67 -132q9 -19 10 -20q68 36 136 84q25 18 58 48q46 43 50 75v8q10 86 -68 116q-42 18 -83 18h-2q-72 0 -136 -48q-30 -26 -34 -39q-7 -10 -11 -39z" />
<glyph unicode="'" horiz-adv-x="544" d="M187 1100l45 400h193l-45 -400h-193z" />
<glyph unicode="(" horiz-adv-x="836" d="M141 624q46 412 209 670q163 241 368 241h19l2 -3l-20 -187l-4 -3h-23q-119 0 -244 -248q-83 -189 -114 -474q-35 -321 71 -541q62 -107 134 -107h26l2 -3l-20 -187l-4 -3h-25q-222 0 -332 301q-78 241 -45 544z" />
<glyph unicode=")" horiz-adv-x="1001" d="M157 -218l21 187l3 3h26q72 0 157 107q155 220 190 541q32 285 -10 474q-70 248 -189 248h-23l-3 3l21 187l3 3h19q205 0 314 -241q107 -258 62 -670q-34 -303 -165 -544q-176 -301 -398 -301h-25z" />
<glyph unicode="*" horiz-adv-x="946" d="M146 1174l85 181q199 -74 204 -76l24 226l2 1h192v-1l-24 -226l220 76l45 -181q-1 -2 -225 -78v-1l114 -180l-169 -114q-4 5 -49 77q-62 99 -66 106q-8 -8 -141 -166l-15 -17l-143 114v1l152 180l-205 77z" />
<glyph unicode="+" horiz-adv-x="865" d="M89 414l22 193h259l29 257l1 1h191l1 -1l-29 -257h257l1 -1l-22 -191l-1 -1h-257l-29 -259h-193l29 259h-259z" />
<glyph unicode="," horiz-adv-x="583" d="M64 -212q141 119 152 212q-44 19 -60 62q-12 26 -9 57q7 63 69 104q34 22 75 22q62 0 96 -56q19 -35 13 -93q-17 -156 -221 -321q-55 -46 -71 -53z" />
<glyph unicode="-" horiz-adv-x="947" d="M105 414l21 193h705l1 -1l-21 -191l-1 -1h-705z" />
<glyph unicode="." horiz-adv-x="551" d="M76 122l1 8q5 47 47 87q42 35 93 35q60 0 95 -52q20 -35 17 -70l-1 -8q-6 -48 -49 -88q-32 -25 -60 -31q-16 -3 -24 -3h-14q-32 0 -64 23q-31 25 -40 66q-3 18 -1 33z" />
<glyph unicode="/" horiz-adv-x="839" d="M102 -49l654 1422l2 1h191v-1l-654 -1422l-1 -1h-191z" />
<glyph unicode="0" horiz-adv-x="1424" d="M117 681q32 291 236 516q208 205 444 205h2q256 0 417 -234q133 -213 103 -490q-32 -293 -237 -517q-205 -204 -444 -204q-252 0 -417 231q-134 218 -104 493zM310 678q-26 -235 101 -405q105 -124 249 -124q186 0 340 198q107 151 127 332q29 260 -124 433 q-101 98 -223 98h-5q-182 0 -335 -194q-110 -153 -130 -338z" />
<glyph unicode="1" horiz-adv-x="646" d="M171 1185l22 190h346l-155 -1374l-1 -1h-190l-1 1l133 1183h-153z" />
<glyph unicode="2" horiz-adv-x="1133" d="M72 -26l20 186l347 339l223 219l165 162q24 41 30 90v6q9 77 -28 150q-10 19 -30 42q-23 24 -43 35q-45 27 -114 27h-8q-178 0 -249 -166q-23 -58 -27 -94h-193v4q7 64 44 153q25 56 52 94q80 116 209 168q88 35 190 35q149 0 247 -78q18 -13 51 -50q37 -45 54 -82 q53 -115 39 -241q-13 -116 -80 -209l-354 -347l-256 -250v-1h595l1 -1l-5 -33l-16 -158l-1 -1h-862z" />
<glyph unicode="3" horiz-adv-x="1142" d="M85 338v7l1 1h191l1 -1q-9 -87 45 -159q21 -25 32 -34q30 -24 54 -34q56 -25 115 -25q115 0 209 79q83 77 93 173q10 85 -41 156q-76 97 -210 97h-99l21 192v1h111l18 -1q19 0 59 10q25 8 46 19q19 9 51 34q71 65 81 150q9 86 -51 152q-62 60 -150 60q-96 0 -175 -70 q-28 -27 -43 -53q-25 -42 -31 -97l-1 -1h-192l-1 1l1 8q15 142 124 258q39 39 57 50q39 30 78 49q99 49 203 49h1q149 0 259 -95q36 -34 58 -67q19 -30 31 -60q36 -88 26 -179l-1 -11q-10 -94 -71 -187q-18 -28 -46 -59q-18 -20 -60 -55q16 -11 51 -49q37 -46 50 -76 q53 -106 40 -222l-1 -8q-14 -123 -99 -236q-23 -29 -54 -59q-41 -37 -61 -49q-40 -28 -78 -46q-30 -15 -79 -30q-74 -21 -132 -21h-28q-72 0 -157 32q-46 19 -89 49q-26 20 -57 51q-29 33 -45 59q-23 41 -34 70q-31 90 -21 177z" />
<glyph unicode="4" horiz-adv-x="1197" d="M64 196v1l289 409l282 399l245 347l23 31h191v-1l-111 -992h118l1 -1l-22 -191l-1 -1h-117l-24 -212l-1 -1h-192l-1 1l24 211h-704zM426 389h306l58 1l69 612h-1l-209 -296q-199 -283 -207 -294q-3 -2 -16 -23z" />
<glyph unicode="5" horiz-adv-x="1201" d="M49 210q172 77 185 82q44 -121 170 -174q63 -25 131 -25q133 0 248 86q33 28 49 45q82 92 94 199l1 5q12 112 -56 207q-24 31 -38 42q-94 81 -224 81q-100 0 -197 -53l-194 -99l177 465q104 271 104 274l15 38h573l1 -1l-21 -191l-1 -1h-425l-94 -244h1q41 5 76 5h16 q121 0 234 -57q42 -21 87 -57q15 -13 37 -36q39 -43 48 -60q23 -34 35 -61q55 -121 40 -255q-19 -169 -143 -312q-18 -22 -61 -61q-45 -37 -82 -60q-155 -92 -320 -92h-5q-160 0 -291 88q-29 20 -65 55q-36 38 -45 53q-32 47 -45 77q-15 34 -15 37z" />
<glyph unicode="6" horiz-adv-x="1226" d="M105 406l2 17q12 114 83 227q19 28 165 229l252 352l110 151q152 -97 154 -101l-257 -356q40 5 80 5q173 0 307 -104q24 -18 55 -52q35 -40 44 -59q20 -32 36 -65q45 -112 32 -234v-2q-17 -157 -128 -294q-19 -24 -60 -62q-51 -45 -81 -63q-39 -23 -65 -36 q-38 -18 -70 -29q-93 -30 -174 -30h-21q-95 0 -193 42q-39 16 -81 45q-133 92 -177 251q-22 87 -13 168zM299 415q-14 -130 76 -230q29 -26 30 -26q85 -66 193 -66h5q125 0 235 85q33 26 46 42q79 89 91 194q11 99 -40 185q-11 18 -39 47q-23 23 -40 35q-83 55 -180 55h-8 q-110 0 -214 -69q-19 -14 -47 -39q-95 -94 -108 -213z" />
<glyph unicode="7" horiz-adv-x="1075" d="M66 47l261 392l245 369l255 382h-630l-1 1l21 192l1 1h865l1 -1l-18 -165q-3 -5 -63 -94l-318 -480l-313 -470l-147 -221h-1z" />
<glyph unicode="8" horiz-adv-x="1182" d="M98 355l1 15q12 103 79 207q25 37 67 81q41 38 56 49q26 19 43 29q-31 34 -42 53q-67 106 -53 231q16 144 128 259q44 39 56 47q37 26 66 39q99 49 202 49q147 0 256 -94q36 -35 49 -57q50 -71 61 -159q4 -42 0 -77l-1 -12q-11 -101 -81 -198q-19 -26 -48 -54 q-5 -7 -29 -27q24 -16 55 -47q39 -41 43 -52q21 -30 37 -67q42 -99 30 -207q-17 -158 -139 -288q-32 -32 -60 -54q-35 -25 -59 -39q-134 -77 -278 -77h-4q-158 0 -281 92q-27 20 -55 52q-28 33 -42 54q-26 42 -36 77q-31 88 -21 175zM291 363q-11 -106 66 -187 q31 -28 52 -39q65 -39 147 -39q117 0 217 77q40 36 47 49q51 66 59 134l1 10q8 76 -38 148q-25 34 -47 50q-79 61 -181 61q-112 0 -207 -71q-27 -21 -45 -40q-62 -71 -71 -153zM443 1020q-9 -78 46 -140q60 -60 147 -60q88 0 162 62q66 61 75 139q9 80 -47 140 q-31 32 -68 46q-37 13 -75 13h-6q-82 0 -155 -57q-70 -62 -79 -143z" />
<glyph unicode="9" horiz-adv-x="1209" d="M81 887l2 17q13 118 90 237q25 37 64 80q24 26 62 57q83 66 174 98q97 35 198 35q168 0 299 -97q23 -18 57 -52q39 -45 50 -65q22 -35 37 -72q43 -110 30 -228l-1 -5q-16 -146 -117 -280l-311 -431q-174 -243 -180 -250h-1l-152 99v1q0 1 75 105l180 249q-41 -5 -73 -5 h-15q-123 0 -236 61q-35 19 -75 50q-21 18 -50 50q-36 44 -54 78q-22 42 -35 82q-28 96 -18 186zM276 895q-13 -112 53 -202q22 -30 40 -45q89 -74 208 -74q125 0 232 79q30 25 50 47q80 89 92 195q13 116 -56 208q-31 34 -44 45q-88 70 -202 70q-129 0 -238 -86 q-42 -36 -47 -43q-77 -88 -88 -194z" />
<glyph unicode=":" horiz-adv-x="522" d="M111 122l1 8q5 47 47 87q42 35 93 35q60 0 95 -52q20 -35 17 -70l-1 -8q-6 -48 -49 -88q-32 -25 -60 -31q-16 -3 -24 -3h-14q-32 0 -64 23q-31 25 -40 66q-3 18 -1 33zM187 828l1 9q5 43 43 82q45 39 93 39h8q46 0 82 -37q31 -39 26 -85v-7q-6 -50 -52 -91 q-42 -32 -84 -32h-8q-48 0 -84 39q-29 39 -25 83z" />
<glyph unicode=";" horiz-adv-x="539" d="M40 -212q141 119 152 212q-44 19 -60 62q-12 26 -9 57q7 63 69 104q34 22 75 22q62 0 96 -56q19 -35 13 -93q-17 -156 -221 -321q-55 -46 -71 -53zM204 832q6 49 45 88q44 38 91 38h8q46 0 82 -37q32 -39 27 -85l-1 -7q-6 -50 -51 -91q-43 -32 -85 -32h-8q-50 0 -86 43 q-27 38 -22 83z" />
<glyph unicode="&#x3c;" horiz-adv-x="842" d="M87 441l17 150l312 225l293 210h1l102 -152q-1 -2 -306 -220l-192 -138l179 -153l240 -205l-135 -152h-1l-311 265q-195 165 -199 170z" />
<glyph unicode="=" horiz-adv-x="818" d="M115 201l21 193h649l1 -1l-21 -191l-1 -1h-649zM157 587l22 193h649l1 -1l-21 -191l-2 -1h-649z" />
<glyph unicode="&#x3e;" horiz-adv-x="841" d="M74 158l285 205l212 153l-161 138q-257 218 -257 220l134 152h1l247 -210l264 -225l-17 -150q-5 -5 -237 -170l-369 -265h-1z" />
<glyph unicode="?" horiz-adv-x="1138" d="M250 1030l5 43q11 98 72 199q21 34 55 73q15 17 51 48q31 26 53 40q41 26 83 44q89 35 171 35h14q87 0 174 -41q37 -18 75 -49q20 -17 42 -42q34 -40 49 -70q59 -114 44 -246q-13 -118 -93 -233q-22 -30 -53 -63q-38 -38 -66 -59q-39 -28 -126 -84q-21 -15 -48 -37 q-13 -15 -21 -25q-6 -14 -7 -26l-26 -231l-2 -1h-191v1l24 228q15 135 154 232q34 25 118 79q47 32 79 72q38 48 56 107q7 24 9 40q11 100 -49 177q-68 78 -171 78q-99 0 -185 -74q-82 -78 -93 -181l-4 -34h-193zM454 126q7 57 58 98q38 28 83 28q57 0 92 -47q24 -36 20 -76 l-1 -6q-6 -51 -51 -91q-42 -32 -83 -32h-13q-31 0 -63 23q-33 24 -41 70q-2 18 -1 33z" />
<glyph unicode="@" horiz-adv-x="2229" d="M174 510l2 21q16 166 98 336q32 63 72 122q34 52 90 117q27 31 86 86l15 13q69 58 105 81q60 40 115 68q62 32 142 59q159 52 307 52h22q186 0 361 -64q240 -94 371 -295q31 -49 53 -99q86 -196 63 -429q-11 -102 -59 -235q-23 -54 -50 -97q-27 -44 -68 -91 q-40 -42 -70 -63q-120 -86 -239 -86q-60 0 -123 20q-98 34 -148 115q-17 29 -24 51l-2 6q-34 -30 -59 -45q-105 -67 -213 -67q-112 0 -201 71q-36 33 -58 66t-31 57q-44 103 -32 221q15 148 108 276q65 82 148 131q95 54 191 54q117 0 207 -77q30 -29 48 -54q12 -17 23 -37 h1q14 30 32 65h1l172 -69v-1q-43 -86 -70 -149q-77 -174 -88 -283q-9 -93 36 -127q18 -17 62 -26q24 -4 39 -4h1q63 0 135 60q35 36 56 70q23 37 37 71q13 33 25 80q15 50 19 95l1 4q24 239 -95 419q-53 75 -111 121q-43 34 -83 56q-170 96 -396 96h-1q-229 0 -438 -131 q-40 -25 -89 -64q-47 -41 -68 -63q-54 -58 -78 -93q-135 -185 -156 -401q-22 -218 78 -408q18 -35 50 -79q16 -22 57 -67q55 -55 91 -78q77 -56 172 -88q110 -37 226 -37h8q211 0 413 117l87 -163q-53 -31 -105 -55q-45 -22 -120 -47q-150 -46 -284 -46h-28q-144 0 -296 54 q-87 33 -155 76q-56 35 -109 82q-22 17 -80 80q-62 76 -89 127q-30 52 -52 106q-22 56 -41 132q-31 147 -17 284zM892 498q-8 -72 22 -134q7 -16 29 -42q41 -43 98 -43h1q73 0 145 72q77 85 89 197q8 88 -34 156q-45 64 -115 64h-1q-67 0 -136 -62q-45 -46 -71 -102 q-22 -52 -27 -100v-6z" />
<glyph unicode="A" d="M1 0v1l644 1249l111 214h181q3 0 63 -215l371 -1248l-2 -1h-209q-4 0 -22 67l-73 248h-695l-162 -315h-207zM471 509h536l-194 660q-3 0 -140 -270z" />
<glyph unicode="B" horiz-adv-x="1175" d="M89 3l164 1458l3 3h484q233 0 354 -157q52 -76 52 -175q0 -22 -3 -45l-2 -21q-19 -167 -160 -284l-1 -2q28 -14 73 -64q70 -89 70 -198q0 -20 -2 -40l-8 -72q-25 -210 -213 -335q-100 -50 -123 -50q-61 -21 -179 -21h-11h-495zM303 194h333q171 0 256 126q24 42 32 106 l4 35q1 13 1 25q0 111 -115 154q-62 28 -157 28h-298l-3 -3zM379 860h279q176 0 263 125q22 36 25 69l5 45q1 9 1 17q0 97 -137 142q-43 14 -125 14h-264z" />
<glyph unicode="C" horiz-adv-x="1470" d="M150 729l1 6q30 277 241 502q237 227 518 227h12h2q283 0 471 -220q65 -86 90 -148q-9 -7 -180 -93q-21 49 -68 113q-138 156 -334 156q-199 0 -371 -158q-166 -167 -189 -381q-4 -35 -4 -69q0 -204 146 -354q130 -116 290 -116h21q176 0 345 145q73 72 106 125l159 -89 v-4q-41 -63 -105 -133q-244 -238 -538 -238q-292 0 -484 234q-134 186 -134 409q0 43 5 86z" />
<glyph unicode="D" horiz-adv-x="1358" d="M93 3l164 1457l3 3h381q264 0 459 -178q75 -78 94 -113q103 -166 104 -355q0 -39 -5 -80l-1 -11q-29 -294 -272 -526q-134 -107 -256 -151q-149 -49 -278 -49h-391zM307 193h177q256 0 445 188q149 157 171 350q4 31 4 62q0 160 -98 291q-70 83 -112 104q-35 28 -118 58 q-72 24 -192 24h-153l-3 -2z" />
<glyph unicode="E" horiz-adv-x="992" d="M93 1l164 1462l2 1h786v-1l-21 -192h-595l-50 -443h471l1 -1l-21 -190l-2 -1h-471l-49 -443h595l-22 -192l-1 -1h-786z" />
<glyph unicode="F" horiz-adv-x="934" d="M87 1l164 1462l2 1h786v-1l-21 -191l-1 -1h-594l-50 -443h483l-22 -192h-483l-71 -635l-1 -1h-191z" />
<glyph unicode="G" horiz-adv-x="1601" d="M150 731v4q34 310 285 542q61 48 76 56q196 131 421 131h3q279 0 469 -210q67 -81 98 -153l9 -22q-154 -76 -182 -88q-19 52 -63 109q-55 65 -84 82q-121 90 -268 90q-231 0 -418 -197q-134 -158 -154 -342q-4 -33 -4 -65q0 -196 139 -346q133 -128 318 -128 q212 0 390 170q106 111 148 233h-368l-2 3l21 187l1 1v2l399 1h181l3 -3q-24 -153 -41 -201q-46 -159 -122 -254q-144 -202 -391 -293q-128 -40 -242 -40q-258 0 -448 186q-179 198 -179 457q0 43 5 88z" />
<glyph unicode="H" horiz-adv-x="1256" d="M87 3l164 1458l3 3h187l3 -3l-72 -632h634l71 632l3 3h189l2 -3l-164 -1458l-3 -3h-187l-2 3l71 632h-635l-72 -632l-2 -3h-188z" />
<glyph unicode="I" horiz-adv-x="457" d="M87 1l164 1462l2 1h191v-1l-164 -1462l-1 -1h-191z" />
<glyph unicode="J" horiz-adv-x="1029" d="M-29 435l9 77l1 1h191l1 -1l-8 -70q-1 -13 -1 -26q0 -75 49 -141q26 -30 39 -37q58 -45 129 -45h88q75 0 150 53q34 26 52 48q59 70 68 151l115 1018l1 1h192l-116 -1028q-11 -101 -78 -205q-22 -33 -56 -70q-45 -47 -74 -66q-46 -33 -87 -52q-97 -43 -183 -43h-102 q-94 0 -186 51q-34 19 -70 51q-18 16 -40 43q-33 45 -46 74q-11 20 -25 65q-15 57 -15 111q0 20 2 40z" />
<glyph unicode="K" horiz-adv-x="1249" d="M87 3l164 1458l3 3h187l3 -3l-85 -751q20 18 734 750l6 4h250l2 -3l-686 -702l529 -756l-1 -2h-255l-420 609l-192 -198l-47 -409l-2 -3h-188z" />
<glyph unicode="L" horiz-adv-x="1010" d="M93 1l164 1462l2 1h191v-1l-142 -1270h635v-1l-21 -191l-1 -1h-827z" />
<glyph unicode="M" horiz-adv-x="1792" d="M93 3l164 1458l3 3h234q6 -6 196 -579l202 -600h2l661 1179h235l3 -3l-164 -1458l-3 -3h-199l-2 3l120 1066h-2l-596 -1064l-4 -4h-164q-3 0 -23 64l-337 1004h-2l-120 -1066l-2 -3h-199z" />
<glyph unicode="N" horiz-adv-x="1420" d="M93 3l164 1458l3 3h208l585 -1046l53 -97h1l128 1140l3 3h188l3 -3l-164 -1458l-3 -3h-208q-46 76 -332 596l-309 548l-128 -1141l-2 -3h-187z" />
<glyph unicode="O" horiz-adv-x="1592" d="M122 731l1 4q28 315 285 547l74 55q194 127 407 127h16h3q290 0 484 -227q144 -188 144 -419q0 -42 -5 -86q-30 -313 -284 -544q-230 -188 -492 -188h-8q-262 0 -451 187q-83 96 -104 148q-75 147 -75 313q0 41 5 83zM315 733q-4 -33 -4 -65q0 -196 138 -346 q134 -128 319 -128q240 0 429 212q120 152 139 318l1 13q4 32 4 63q0 168 -106 307q-142 165 -348 165q-231 0 -418 -197q-134 -158 -154 -342z" />
<glyph unicode="P" horiz-adv-x="1191" d="M119 3l164 1458l3 3h482q232 0 375 -174q83 -117 83 -255q0 -26 -3 -53q-24 -218 -227 -373q-157 -109 -339 -109h-290l-56 -497l-2 -3h-187zM389 694h302q144 0 261 119q67 80 76 163l2 13q2 15 2 30q0 112 -103 195q-71 58 -210 58h-262l-4 -3z" />
<glyph unicode="Q" horiz-adv-x="1567" d="M122 747v4q28 308 280 535l71 54q190 124 399 124h16h2q284 0 473 -222q141 -185 141 -411q0 -41 -5 -83q-28 -250 -206 -453l147 -159l-1 -2l-145 -134l-151 163q-200 -131 -411 -131q-256 0 -441 183q-80 94 -102 145q-72 143 -72 304q0 41 5 83zM310 749 q-3 -32 -3 -63q0 -192 135 -339q131 -125 311 -125q134 0 264 74v1l-101 112l146 135l109 -116q119 145 137 312l2 13q3 31 3 60q0 165 -103 301q-139 162 -341 162q-225 0 -408 -192q-131 -155 -151 -335z" />
<glyph unicode="R" horiz-adv-x="1176" d="M87 3l164 1458l3 3h482q232 0 375 -174q83 -117 83 -255q0 -26 -3 -53q-23 -206 -205 -356q-97 -72 -166 -92q-1 -5 158 -339l90 -192l-2 -2h-227q-4 0 -44 96q-171 372 -182 403h-278l-56 -497l-2 -3h-187zM357 694h302q144 0 261 119q67 80 76 163l2 13q2 15 2 30 q0 112 -103 195q-71 58 -210 58h-262l-4 -3z" />
<glyph unicode="S" horiz-adv-x="1040" d="M9 305l184 81q12 -36 36 -74q11 -19 35 -45q35 -35 58 -48q76 -45 165 -45h7q89 0 174 44q24 13 50 34q30 27 46 49q40 59 47 122q1 12 1 24q0 85 -69 140q-23 16 -42 24q-34 16 -106 30q-205 48 -295 98q-180 94 -180 274q0 21 3 44q15 142 121 258q34 36 71 63 q44 31 77 47q36 18 86 33q80 23 158 23h17q114 0 218 -55q33 -19 64 -44q16 -12 49 -46q35 -42 49 -68q13 -22 22 -44l-183 -86q-6 18 -33 52q-81 98 -217 98q-134 0 -226 -79q-34 -34 -44 -54q-30 -46 -35 -95l-1 -7q-1 -9 -1 -17q0 -57 41 -90q21 -18 40 -29 q49 -28 148 -57q74 -22 178 -45q58 -17 96 -36q37 -19 76 -51q33 -31 57 -66q56 -88 56 -191q0 -23 -3 -46v-5q-14 -128 -104 -243q-15 -21 -53 -57q-51 -42 -83 -60q-34 -20 -74 -36q-110 -44 -222 -44q-173 0 -306 102q-23 20 -48 46q-36 40 -50 62q-26 42 -40 74 q-14 34 -15 41z" />
<glyph unicode="T" horiz-adv-x="992" d="M168 1272l21 191l2 1h970v-1l-21 -191l-1 -1h-388l-143 -1270l-1 -1h-192l-1 1l143 1270h-388z" />
<glyph unicode="U" horiz-adv-x="1402" d="M168 532l105 929l3 3h187l2 -3l-100 -891q-5 -46 -6 -86q0 -97 34 -152q40 -87 154 -127q43 -11 84 -11h143q171 0 283 155q52 83 65 194l103 918l3 3h188l3 -3l-98 -868q-19 -174 -59 -252q-81 -173 -230 -263q-130 -78 -303 -78h-96q-228 0 -351 137q-54 61 -79 122 q-39 97 -39 205q0 33 4 68z" />
<glyph unicode="V" horiz-adv-x="1442" d="M198 1463v1h216q3 -2 68 -223l280 -946h1l583 1152q9 17 11 17h224l1 -1h1l-750 -1434q-12 -28 -16 -29h-174q-5 1 -15 43q-306 1003 -322 1065q-9 19 -108 355z" />
<glyph unicode="W" horiz-adv-x="2062" d="M224 1463l1 1h207q5 0 13 -64q11 -54 158 -935l17 -94h2l471 1017q33 72 37 76h131q3 0 18 -66l251 -1027h1l414 1092l2 1h217l1 -1h1l-562 -1418q-16 -45 -19 -45h-168q-4 6 -82 334q-20 73 -181 741q-8 -10 -46 -97l-455 -978h-169q-3 0 -16 88z" />
<glyph unicode="X" horiz-adv-x="1334" d="M-44 3l612 728l21 24l-438 708l1 1h245l342 -566q45 50 458 565l2 1h256l-1 -3l-592 -705l466 -753v-3h-245q-8 10 -275 453q-95 154 -97 160h-1l-508 -613h-243z" />
<glyph unicode="Y" horiz-adv-x="1334" d="M196 1463v1h245q10 -11 336 -566q444 541 468 566h255v-1l-636 -757l-78 -703l-3 -3h-195l-3 3l77 701q1 6 -54 94z" />
<glyph unicode="Z" horiz-adv-x="1212" d="M-19 0v3l971 1269h-726l-2 2l21 187l3 3h1082l-1 -3l-970 -1267h823l1 -3l-21 -188l-2 -3h-1179z" />
<glyph unicode="[" horiz-adv-x="762" d="M63 -170l189 1684l2 1h415v-1l-21 -191l-1 -1h-223l-146 -1300h223v-1l-21 -191l-1 -1h-415z" />
<glyph unicode="\" horiz-adv-x="643" d="M-102 1373l1 1h191l1 -1l654 -1422v-1h-191l-2 1z" />
<glyph unicode="]" horiz-adv-x="799" d="M139 -170l21 191l2 1h223l146 1300h-223l-1 1l21 191l2 1h415v-1l-189 -1684l-1 -1h-415z" />
<glyph unicode="^" horiz-adv-x="1084" d="M129 842l307 405q112 149 115 153h149q4 -4 38 -69q22 -39 157 -292l106 -197l-174 -105h-1l-146 274l-80 149l-305 -404l-16 -19q-145 101 -150 105z" />
<glyph unicode="_" horiz-adv-x="1111" d="M70 -194l21 193h948l2 -1l-21 -191l-2 -1h-948z" />
<glyph unicode="`" horiz-adv-x="744" d="M300 1864l83 164l409 -234v-2l-82 -162l-1 -1z" />
<glyph unicode="a" horiz-adv-x="1219" d="M128 474v1q24 220 211 380q154 118 332 118q167 0 273 -127l12 110l3 2h189l2 -2l-105 -954l-3 -2h-189l-2 2l10 97q-125 -123 -301 -123h-1q-219 0 -353 177q-81 119 -81 262q0 29 3 59zM321 475q-2 -20 -2 -39q0 -132 109 -220q71 -46 139 -46h22q96 0 195 78 q104 96 119 226v1q2 19 2 37q0 134 -110 221q-70 46 -143 46h-16q-120 0 -229 -111q-75 -92 -86 -193z" />
<glyph unicode="b" horiz-adv-x="1146" d="M79 0l165 1463l1 1h191l1 -1l-70 -618h1q17 20 46 41q118 87 258 87h1q162 0 286 -105q16 -14 47 -49q60 -79 81 -159q17 -62 17 -128q0 -29 -3 -58q-14 -127 -89 -243q-24 -38 -65 -83q-44 -44 -70 -63q-31 -22 -56 -36q-127 -73 -256 -73h-13q-53 0 -126 21 q-37 13 -65 31q-21 14 -48 39q-15 15 -30 33l-11 -100h-193zM325 471q-2 -18 -2 -35q0 -78 41 -146q11 -18 32 -42l16 -16q29 -24 51 -35q58 -28 118 -28q122 0 223 94q38 40 59 77q36 64 44 132l1 4q2 18 2 35q0 92 -54 169q-79 100 -209 100q-58 0 -129 -32 q-32 -15 -65 -42q-31 -27 -39 -37q-76 -85 -88 -193z" />
<glyph unicode="c" horiz-adv-x="991" d="M89 466l2 16q12 112 79 225q21 31 46 64q20 23 58 60q44 38 75 58q135 84 280 84h2q150 0 270 -92q22 -18 48 -47q33 -38 43 -57q13 -20 13 -22l-172 -106h-1q-9 18 -34 47q-79 84 -191 84q-107 0 -202 -78q-36 -32 -44 -46q-67 -82 -78 -182q-2 -18 -2 -36 q0 -87 49 -161q19 -26 41 -46q73 -62 170 -62q88 0 170 54q18 11 52 41q19 20 33 39h1l149 -106q-20 -27 -52 -60q-38 -37 -53 -47q-36 -27 -62 -42q-127 -72 -255 -72h-9q-137 0 -252 81q-22 17 -40 33q-34 34 -49 56q-35 49 -48 82q-16 32 -28 85q-12 55 -12 106 q0 24 3 47z" />
<glyph unicode="d" horiz-adv-x="1177" d="M100 474q11 96 56 186q39 80 117 159q39 35 59 49q146 105 308 105h1q140 0 240 -87q23 -21 36 -41h1l70 618l1 1h191l1 -1l-165 -1463h-193l11 100q-19 -18 -36 -33q-33 -25 -58 -39q-32 -18 -71 -31q-79 -21 -132 -21h-13q-129 0 -239 73q-22 14 -47 36q-22 19 -56 63 q-31 45 -47 83q-38 90 -38 187q0 28 3 56zM294 472q-2 -18 -2 -36q0 -49 16 -96q13 -37 43 -77q79 -94 201 -94q60 0 124 28q24 11 59 35l20 16q27 24 42 42q68 83 79 181l1 5q2 19 2 36q0 86 -48 157q-6 10 -31 37q-27 27 -55 42q-63 32 -121 32q-130 0 -232 -100 q-85 -91 -97 -204z" />
<glyph unicode="e" horiz-adv-x="1038" d="M91 472v4q26 234 223 396q143 101 276 101h29q146 0 268 -117q59 -65 79 -112q46 -102 46 -213q0 -28 -3 -57l-3 -30q-3 -28 -7 -28h-716q11 -107 58 -160q71 -87 174 -87q130 0 233 131q20 33 24 34q163 -78 165 -80q-18 -35 -75 -105q-166 -173 -366 -173h-4 q-206 0 -334 183q-70 117 -70 252q0 30 3 61zM321 598h485v1q-12 51 -66 116q-68 65 -158 65q-137 0 -241 -145z" />
<glyph unicode="f" horiz-adv-x="651" d="M15 766l21 191l2 1h185v4q29 261 189 398q59 50 118 73q81 31 157 31h57v-1l-21 -192l-1 -1h-50q-129 0 -200 -120q-43 -74 -56 -192h271v-1l-21 -191l-1 -1h-271l-86 -764l-1 -1h-192l86 765h-185z" />
<glyph unicode="g" horiz-adv-x="1052" d="M25 -106l2 16q4 35 25 83q16 31 38 60q14 18 44 46l20 17q-19 35 -19 74q0 10 1 20l1 7q7 66 72 153q-34 42 -42 64q-9 15 -21 53q-10 43 -10 83q0 14 1 28l2 13q10 90 77 179q16 21 41 45q40 36 55 45q38 26 81 45q97 41 191 41h11q113 0 210 -57q26 21 43 30 q61 33 135 33h38l1 -1l-21 -192l-1 -1h-44q-13 0 -25 -5q30 -63 30 -132q0 -18 -2 -37q-12 -107 -89 -198q-13 -17 -51 -51q-69 -56 -138 -81q-86 -32 -174 -32q-92 0 -175 36q-21 -16 -23 -27v-1q-3 -25 68 -36q48 -7 125 -7l86 1q195 0 301 -77q17 -11 43 -41 q24 -29 35 -54q21 -49 21 -100q0 -13 -1 -26q-11 -99 -98 -188q-38 -36 -56 -47q-39 -26 -69 -41q-26 -13 -61 -26q-31 -11 -74 -22q-79 -17 -146 -17h-29q-116 0 -222 39q-44 18 -77 39q-24 15 -52 41q-32 35 -37 45q-18 28 -25 48q-17 46 -17 89q0 12 1 24zM219 -98v-3v-7 q0 -41 55 -79q82 -51 210 -51h11q113 0 206 47q22 11 47 32q41 37 45 69v7q0 40 -57 69q-21 10 -55 18q-58 11 -102 11l-112 -1q-76 0 -139 9q-20 -9 -43 -24q-60 -44 -66 -97zM331 604q-1 -7 -1 -14q0 -58 51 -104q61 -51 146 -51h4q75 0 144 41q56 35 81 90q8 20 10 38 q1 8 1 16q0 57 -52 103q-60 50 -148 50q-85 0 -157 -49q-71 -52 -79 -120z" />
<glyph unicode="h" horiz-adv-x="1043" d="M69 0l165 1464h193l-64 -568h1q54 28 140 52q44 10 108 10h9q258 0 348 -195q21 -55 22 -124q0 -28 -4 -57l-65 -579l-2 -3h-188l-2 3l66 581q2 15 2 29q0 99 -87 133q-41 19 -108 19h-16q-122 0 -177 -38q-71 -40 -83 -148l-65 -579h-193z" />
<glyph unicode="i" horiz-adv-x="527" d="M109 1l108 957h194l-108 -957l-1 -1h-192zM230 1334l1 8q5 46 47 86l16 13q38 23 73 23h8q44 0 79 -34q30 -35 30 -77q0 -6 -1 -12l-1 -6q-5 -45 -43 -84q-45 -39 -94 -39h-6q-46 0 -80 35q-18 22 -23 39q-9 25 -6 48z" />
<glyph unicode="j" horiz-adv-x="433" d="M-192 -431l22 193q134 0 204 115q51 88 65 212l97 870h192l1 -1l-95 -848q-17 -150 -60 -249q-58 -130 -153 -204q-32 -24 -54 -36q-94 -52 -196 -52h-23zM210 1337q7 64 66 105q37 22 69 22h9q47 0 84 -40q22 -32 24 -61q1 -8 0 -18l-2 -14q-3 -33 -33 -69 q-21 -23 -30 -27q-37 -23 -72 -23h-8q-40 0 -73 29q-35 35 -35 82q0 7 1 14z" />
<glyph unicode="k" horiz-adv-x="1077" d="M78 3l164 1458l3 3h187l3 -3l-100 -891h1l452 388h278v-1l-489 -421l363 -535l-1 -1h-243q-22 28 -273 402h-1q-97 -81 -118 -101l-33 -298l-3 -3h-188z" />
<glyph unicode="l" horiz-adv-x="485" d="M89 1l164 1462l2 1h191v-1l-164 -1462l-1 -1h-191z" />
<glyph unicode="m" horiz-adv-x="1711" d="M79 3l107 947l3 3h187l3 -3l-7 -54h1q55 28 140 52q44 10 108 10h9q194 0 300 -117q127 117 327 117h31q264 0 352 -199q21 -60 21 -119q0 -17 -2 -35l-68 -602l-2 -3h-188l-2 3l68 600q1 10 1 20q0 92 -105 129q-35 13 -92 13h-39q-156 0 -214 -104q-15 -28 -19 -63 l-67 -595l-2 -3h-188l-2 3l65 578q2 17 2 32q0 81 -55 114q-48 38 -139 38h-16q-122 0 -178 -38q-70 -40 -82 -148l-65 -576l-3 -3h-187z" />
<glyph unicode="n" horiz-adv-x="1053" d="M79 3l107 947l3 3h187l2 -3l-6 -54h2q54 28 139 52q45 10 109 10h9q257 0 347 -195q22 -56 23 -125q0 -27 -4 -56l-65 -579l-3 -3h-187l-2 3l65 581q2 15 2 29q0 98 -86 133q-41 19 -108 19h-16q-122 0 -177 -38q-71 -40 -83 -148l-65 -576l-3 -3h-188z" />
<glyph unicode="o" horiz-adv-x="1119" d="M94 467l2 15q12 112 80 225q20 31 45 63q21 24 58 61q55 45 77 58q132 84 278 84q163 0 287 -105q17 -14 48 -50q60 -77 81 -158q17 -62 17 -128q0 -29 -3 -59q-14 -126 -88 -242q-25 -38 -66 -83q-44 -45 -70 -63q-30 -22 -55 -37q-127 -72 -256 -72h-9q-136 0 -252 80 q-22 18 -39 34q-35 33 -50 56q-18 24 -33 52q-17 32 -27 62q-28 80 -28 159q0 24 3 48zM288 473q-2 -18 -2 -35q0 -88 51 -163q27 -35 43 -46q72 -60 166 -60q113 0 211 86q39 37 57 64q48 74 57 153v3q2 18 2 36q0 94 -58 171q-30 36 -41 41q-16 14 -30 22q-61 35 -131 35 q-107 0 -203 -79q-35 -31 -44 -46q-67 -81 -78 -182z" />
<glyph unicode="p" horiz-adv-x="1151" d="M22 -430l156 1383l1 1h192l-12 -105q40 38 50 43q32 23 56 35q33 17 65 26q23 7 82 17q18 1 43 2q145 0 252 -71q29 -18 68 -58q33 -37 41 -51q21 -31 37 -61q42 -93 42 -196q0 -31 -4 -63q-18 -165 -136 -305q-15 -19 -59 -60l-19 -15q-153 -117 -326 -117 q-126 0 -220 72q-18 13 -47 44l-9 11l-60 -533h-192zM314 453q-1 -7 -1 -16q0 -25 7 -65q9 -33 20 -59q12 -22 37 -54q27 -31 38 -38q22 -16 39 -26q60 -27 110 -27h13q89 0 175 60q15 10 44 37q54 56 78 116q19 46 25 93q2 19 2 37q0 92 -54 167q-29 34 -35 38 q-73 63 -170 63h-8q-53 0 -119 -28q-33 -14 -75 -48q-40 -36 -49 -51q-18 -23 -29 -41q-11 -19 -26 -50q-15 -46 -17 -68z" />
<glyph unicode="q" horiz-adv-x="1171" d="M105 472q15 139 97 259q22 30 50 61q11 14 52 51q49 40 82 58q123 71 268 71q25 -1 43 -2q55 -10 78 -17q30 -9 59 -26q20 -12 48 -35q8 -5 40 -43l12 105h192l1 -1l-156 -1383l-1 -1h-192l60 533l-11 -11q-37 -31 -57 -44q-110 -72 -236 -72q-173 0 -300 117l-16 15 q-35 41 -46 60q-70 115 -70 246q0 29 3 59zM298 474q-2 -18 -2 -36q0 -29 5 -57q11 -60 52 -116q23 -27 36 -37q72 -60 161 -60h13q50 0 116 27q20 10 45 26q13 7 48 38q31 32 49 54q17 26 32 59q21 53 24 81l5 40q1 7 1 17q0 20 -3 51q-8 31 -15 50q-7 18 -19 41 q-6 15 -38 51q-35 34 -64 48q-60 28 -113 28h-8q-97 0 -184 -63q-7 -4 -43 -38q-85 -90 -98 -204z" />
<glyph unicode="r" horiz-adv-x="822" d="M79 4l106 939l3 2h187l2 -2l-8 -72q120 93 236 93h25q99 0 198 -58v-1q-63 -190 -68 -199q-89 63 -163 63h-16q-96 0 -177 -71q-62 -67 -83 -254l-50 -440l-2 -3h-187z" />
<glyph unicode="s" horiz-adv-x="960" d="M64 197l178 96h1l6 -14q9 -17 31 -40q40 -42 105 -60q43 -10 87 -10q88 0 161 39q14 7 35 25q29 31 33 62v7q0 50 -76 80q-27 10 -100 22q-158 31 -233 65q-33 14 -63 36q-71 49 -86 125q-6 22 -6 45q0 13 2 27v6q11 95 91 178q33 31 47 40q37 25 69 40q105 47 226 47 q183 0 298 -114q26 -28 36 -44l10 -19q-2 -3 -57 -34t-117 -69q-16 22 -32 35q-62 51 -158 51h-4q-105 0 -173 -50q-38 -30 -42 -65q-3 -22 15 -34q17 -16 70 -35q73 -25 230 -53q51 -12 86 -28q34 -14 66 -38q15 -11 41 -40q55 -68 55 -151q0 -14 -2 -29v-3 q-12 -102 -97 -191q-36 -33 -51 -41q-43 -28 -70 -39q-107 -47 -222 -47h-7q-150 0 -266 79q-25 18 -53 47q-25 28 -35 44q-17 25 -29 52z" />
<glyph unicode="t" horiz-adv-x="769" d="M118 766l22 192l1 1h142l57 505h192v-1l-56 -504h248l1 -1l-22 -192l-1 -1h-248l-54 -483q-1 -9 -1 -17q0 -42 30 -58q25 -14 53 -14q39 0 113 26l9 4l52 -181q-26 -10 -81 -26q-66 -16 -114 -16h-2q-95 0 -172 58q-13 10 -33 32l-15 22q-13 21 -20 41q-15 45 -15 90 q0 16 2 32l55 490h-142z" />
<glyph unicode="u" horiz-adv-x="1061" d="M99 376l65 579l3 3h187l3 -3l-66 -581q-2 -15 -1 -29q0 -98 85 -133q41 -19 108 -19h16q122 0 177 38q71 40 84 148l64 576l3 3h188l2 -3l-107 -947l-2 -3h-188l-2 3l7 64h-1q-56 -38 -141 -62q-44 -10 -109 -10h-9q-257 0 -347 195q-22 56 -22 125q0 27 3 56z" />
<glyph unicode="v" horiz-adv-x="1162" d="M129 958h221q2 -5 32 -100l136 -414l54 -160l177 324l181 350h233l-269 -480l-170 -305l-96 -173h-173q-1 0 -24 67l-137 405l-148 434z" />
<glyph unicode="w" horiz-adv-x="1550" d="M148 958h213q1 0 16 -70l106 -476l18 -80l191 455l72 171h171q1 0 3 -17l88 -433l34 -176q2 0 33 70l197 471l38 85h223v-1l-210 -466l-196 -431l-26 -60h-192q-2 0 -6 28q-29 133 -53 258l-59 294h-1l-183 -435l-61 -145h-193q-1 0 -13 53l-96 414l-103 442z" />
<glyph unicode="x" horiz-adv-x="1139" d="M-42 0v1l365 398l99 109l-196 273l-127 177h258q9 -10 111 -158l112 -159l290 317h258v-1l-375 -399l-46 -50l174 -251l178 -257h-256l-55 81l-199 294l-335 -375h-256z" />
<glyph unicode="y" horiz-adv-x="1178" d="M77 958h221q1 -1 7 -20l105 -337l113 -359q4 6 219 403l162 313h244l-268 -489l-234 -409l-231 -423l-38 -68h-222l-1 1l238 430l-147 448l-150 454z" />
<glyph unicode="z" horiz-adv-x="1031" d="M10 0v1l623 764h-490l-3 3l21 187l3 3h860l2 -3l-623 -762h525l2 -3l-21 -187l-3 -3h-896z" />
<glyph unicode="{" horiz-adv-x="795" d="M102 567l15 129q0 4 75 32q58 32 60 56l52 460q21 188 196 266q81 34 175 34h43l2 -2l-22 -190l-1 -2h-1l-49 2q-116 -6 -140 -67q-8 -15 -11 -40l-52 -465q-8 -73 -77 -148q52 -75 44 -148l-53 -465q-8 -70 47 -92q45 -15 80 -15l51 2v-2l-21 -190l-1 -2h-46 q-161 0 -248 96q-67 80 -54 203l52 461q3 25 -46 55z" />
<glyph unicode="|" horiz-adv-x="310" d="M-20 2l157 1397l1 1h191l1 -1l-157 -1397l-1 -1h-191z" />
<glyph unicode="}" horiz-adv-x="842" d="M128 -278l21 190l2 2l49 -2q35 0 84 15q60 22 67 92l53 465q8 73 76 148q-51 75 -43 148l52 465q3 25 -1 40q-10 61 -126 67l-49 -2h-1l-1 2l22 190l2 2h43q94 0 167 -34q157 -78 136 -266l-52 -460q-2 -24 48 -56q69 -28 69 -32l-15 -129l-78 -32q-55 -30 -58 -55 l-52 -461q-13 -123 -98 -203q-109 -96 -270 -96h-46z" />
<glyph unicode="~" horiz-adv-x="822" d="M107 370l20 182q39 41 74 60q54 31 101 31q56 0 151.5 -58.5t143.5 -58.5q45 0 98 33q35 23 81 75l-21 -193q-37 -30 -73 -50q-54 -29 -103 -29q-52 0 -147.5 57t-147.5 57q-44 0 -97 -33q-35 -22 -80 -73z" />
<glyph unicode="&#xa1;" horiz-adv-x="624" d="M31 1l160 1157l1 1h192l1 -1l-100 -1157l-1 -1h-252zM182 1334l1 8q5 48 49 88q32 25 60 31q16 3 24 3h14q32 0 64 -23q31 -25 40 -66q3 -18 1 -33l-1 -8q-5 -47 -48 -87q-42 -35 -93 -35q-60 0 -95 52q-20 35 -16 70z" />
<glyph unicode="&#xa2;" horiz-adv-x="991" d="M89 736l2 16q12 112 79 225q21 31 46 64q20 23 58 60q44 38 75 58q69 43 140 64l18 159l1 1h191l1 -1l-16 -142q119 -14 217 -89q22 -18 48 -47q33 -38 43 -57q13 -20 13 -22l-172 -106h-1q-9 18 -34 47q-58 62 -135 78l-66 -599q58 11 114 48q18 11 52 41q19 20 33 39h1 l149 -106q-20 -27 -52 -60q-38 -37 -53 -47q-36 -27 -62 -42q-102 -58 -204 -69l-15 -143l-1 -1h-191l-1 1l17 160q-63 20 -121 61q-22 17 -40 33q-34 34 -49 56q-35 49 -48 82q-16 32 -28 85q-17 81 -9 153zM283 744q-12 -108 47 -197q19 -26 41 -46q17 -15 36 -26l59 539 q-31 -17 -61 -42q-36 -32 -44 -46q-67 -82 -78 -182z" />
<glyph unicode="&#xa3;" horiz-adv-x="1165" d="M63 166l75 58q57 44 130 107q74 67 98 95q42 45 63 76q50 71 55 118h-218l21 192l1 1h148q-47 122 -35 237q15 134 112 231q35 33 48 40q42 30 72 45q113 57 219 57h13q107 0 211 -57q33 -19 69 -52l9 -10l-149 -139q-36 35 -88 52q-41 13 -80 13q-79 0 -156 -50 q-50 -30 -68 -67q-15 -28 -19 -62v-6q-8 -67 29 -156q24 -60 29 -76h330l-21 -193h-284q-9 -84 -70 -184q-26 -40 -65 -88q-22 -26 -43 -49q60 -7 102 -26q30 -14 63 -37q17 -15 38 -35q67 -59 138 -59q103 0 240 124l122 -136q-55 -50 -79 -66q-51 -38 -103 -64 q-105 -51 -195 -51h-13q-91 0 -182 53q-34 20 -72 54q-30 30 -47 35q-31 16 -74 16h-2q-97 0 -239 -75l-33 -20z" />
<glyph unicode="&#xa4;" horiz-adv-x="1267" d="M-17 298l105 95q-22 35 -39 72q-19 40 -34 98q-23 98 -14 189l2 16q13 132 90 264q26 44 68 95l9 10l-93 102l150 137l96 -106q40 25 83 47q47 23 115 44q100 29 193 29h16q144 0 280 -66q45 -24 84 -53l2 -1l119 106q117 -131 122 -137v-1l-113 -101q29 -43 48 -87 q58 -138 43 -288v-4q-18 -183 -141 -344q-17 -20 -17 -21l86 -95l-150 -137l-88 96q-193 -127 -409 -127q-200 0 -360 110l-24 17q-100 -91 -107 -96zM195 759q-13 -135 60 -251q14 -22 44 -55q39 -39 59 -50q28 -21 64 -38q92 -42 194 -42q140 0 268 77q93 56 157 145 q70 102 81 216q15 147 -73 270q-34 44 -56 62q-40 33 -71 49q-99 55 -220 55q-140 0 -269 -76q-133 -82 -199 -220q-31 -68 -39 -142z" />
<glyph unicode="&#xa5;" horiz-adv-x="1070" d="M56 1261v1q8 7 159 128l204 -262l164 -212l343 342l133 132q127 -125 130 -129l-301 -299l-228 -228l-3 -26h332l-22 -193l-1 -1h-331l-5 -41h331l1 -1l-21 -190l-1 -1h-331l-29 -279h-194l29 279h-330l-1 1l21 190l1 1h330l5 41h-330l-1 1l22 193h331l3 26l-263 338z " />
<glyph unicode="&#xa6;" horiz-adv-x="378" d="M-20 -499l73 649h193l-73 -649l-1 -1h-191zM132 851l73 649h193l-73 -649l-1 -1h-191z" />
<glyph unicode="&#xa7;" horiz-adv-x="952" d="M69 164q153 74 184 87q19 -49 74 -74q32 -14 70 -14q60 0 112 27q56 32 62 83q3 31 -17 49q-22 22 -54 35q-49 24 -150 46q-33 8 -58 17q-39 17 -70 40q-22 14 -51 46q-31 38 -43 66q-34 75 -26 150l2 13q9 82 68 163q16 23 52 56l25 22q-31 25 -54 63q-37 63 -28 147 q12 106 96 190q35 31 53 42q49 33 111 51q64 18 122 18h15q97 0 182 -53q26 -17 54 -45q32 -36 40 -52q14 -25 21 -44l-181 -87h-1q-20 49 -74 74q-32 14 -71 14q-65 0 -117 -30q-13 -6 -30 -23q-23 -26 -26 -53l-1 -7q-4 -35 34 -59q22 -18 73 -36q47 -18 135 -37 q36 -11 64 -24q30 -16 64 -43q36 -33 57 -65q53 -87 42 -188v-1q-14 -126 -120 -225l-26 -22q30 -26 51 -60q39 -66 30 -144l-1 -9q-8 -81 -67 -156q-14 -17 -43 -45q-35 -28 -55 -39q-25 -15 -65 -31q-77 -27 -157 -27h-1q-154 0 -252 108q-27 33 -36 50q-11 20 -18 36z M296 728q-6 -54 37 -96q49 -43 118 -43q78 0 140 54q14 15 22 26q20 29 23 60q7 59 -46 104q-48 35 -104 35h-10q-59 0 -115 -38q-59 -44 -65 -102z" />
<glyph unicode="&#xa8;" horiz-adv-x="898" d="M302 1819l1 8q5 47 47 87q42 35 93 35q60 0 95 -52q20 -35 17 -70l-1 -8q-6 -48 -49 -88q-32 -25 -60 -31q-16 -3 -24 -3h-14q-32 0 -64 23q-31 25 -40 66q-3 18 -1 33zM682 1819l1 8q5 47 47 87q42 35 93 35q60 0 95 -52q20 -35 17 -70l-1 -8q-6 -48 -49 -88 q-32 -25 -60 -31q-16 -3 -24 -3h-14q-32 0 -64 23q-31 25 -40 66q-3 18 -1 33z" />
<glyph unicode="&#xa9;" horiz-adv-x="2029" d="M217 728l2 23q16 158 100 321q35 63 87 135q32 40 81 90q62 60 87 77q66 52 118 81q215 122 447 122q259 0 464 -150q38 -27 86 -77q51 -54 61 -70q35 -49 55 -84q112 -213 88 -457q-24 -239 -174 -447q-32 -46 -88 -105q-58 -57 -96 -86q-57 -44 -98 -68 q-225 -132 -466 -132q-243 0 -443 135q-42 30 -93 79q-55 57 -66 73q-50 70 -72 113q-27 50 -46 109q-50 160 -34 318zM408 736q-20 -197 79 -368q19 -31 51 -70q37 -42 52 -55q41 -36 80 -62q146 -89 318 -89h5q187 0 362 106q26 14 63 43q18 12 72 60l21 24q43 46 70 87 q105 154 122 326q20 204 -84 378q-19 31 -59 79q-49 52 -83 75q-158 116 -357 116q-201 0 -386 -119q-30 -19 -88 -69q-53 -49 -75 -78q-29 -36 -52 -72q-95 -146 -111 -308v-4zM610 717l2 16q11 109 77 217q22 36 59 79q44 46 86 76q43 30 80 49q113 54 223 54h12 q127 0 239 -70q31 -19 63 -48q31 -32 48 -56q12 -16 23 -34l-1 -1l-169 -110q-10 17 -30 41q-32 33 -57 47q-64 38 -141 38q-89 0 -170 -52q-50 -32 -88 -81q-54 -74 -62 -157q-11 -113 61 -200q26 -29 45 -41q70 -49 155 -49h3q110 0 206 79q33 30 46 48l2 1l148 -108 q-19 -26 -61 -67q-41 -37 -70 -56q-32 -21 -59 -34q-37 -19 -81 -33q-77 -23 -143 -23h-18q-92 0 -187 43q-170 83 -225 264q-24 87 -16 168z" />
<glyph unicode="&#xaa;" horiz-adv-x="648" />
<glyph unicode="&#xab;" horiz-adv-x="1303" d="M127 403l15 134l376 242l52 33h1q4 -6 49 -83l44 -75v-1l-287 -183l246 -184q-122 -153 -127 -159l-368 274zM677 403l15 134l376 242l52 33h1q4 -6 49 -83l44 -75v-1l-287 -183l246 -184q-122 -153 -127 -159l-368 274z" />
<glyph unicode="&#xac;" horiz-adv-x="919" d="M78 617l22 193h752l1 -1l-52 -459h-193l30 267h-560z" />
<glyph unicode="&#xad;" horiz-adv-x="947" d="M105 414l21 193h705l1 -1l-21 -191l-1 -1h-705z" />
<glyph unicode="&#xae;" horiz-adv-x="1290" d="M210 981l1 13q9 90 57 183q20 36 50 77q18 22 45 51q36 34 51 44q37 29 66 45q123 70 254 70q148 0 265 -85q21 -16 49 -44q28 -31 34 -40q21 -28 32 -48q64 -121 50 -260q-14 -136 -99 -254q-18 -26 -50 -60q-33 -32 -55 -49q-32 -25 -56 -39q-127 -75 -265 -75t-251 77 q-25 17 -54 45q-32 32 -38 42q-28 39 -40 64q-15 28 -26 62q-29 91 -20 181zM290 985q-12 -121 49 -226q11 -19 31 -43q22 -25 32 -33q25 -22 49 -38q90 -54 195 -54h3q115 0 221 64q17 9 40 27q11 7 44 36l12 15q27 28 44 54q63 94 74 199q12 126 -51 232q-12 19 -36 48 q-30 33 -51 47q-98 71 -220 71q-123 0 -236 -73q-18 -12 -53 -43q-33 -29 -47 -47q-17 -22 -31 -45q-58 -89 -68 -188zM511 714l55 549h171q43 0 83 -20q14 -6 27 -18q7 -5 19 -17q18 -22 25 -46q10 -30 7 -61l-1 -13q-4 -40 -28 -78q-8 -13 -22 -28t-27 -25 q-21 -14 -33 -20q-8 -4 -13 -5q1 -2 34 -76l61 -142h-86q-1 4 -51 122l-33 81h-93l-2 -1l-21 -202h-72zM611 989h95q49 0 85 34q29 29 33 68l1 7q5 52 -41 80q-26 13 -57 13h-96z" />
<glyph unicode="&#xaf;" horiz-adv-x="670" />
<glyph unicode="&#xb0;" horiz-adv-x="977" d="M104 1078l2 15q9 89 71 177q72 98 191 141q59 19 109 19h14q89 0 170 -52q96 -63 126 -181q12 -57 7 -111q-13 -126 -109 -228q-34 -33 -53 -46q-104 -71 -216 -71q-125 0 -217 83q-30 30 -38 44q-14 18 -26 41q-39 85 -31 169zM318 1086q-5 -58 36 -101q36 -32 82 -32 q58 0 106 48q35 37 40 85q6 63 -45 106q-32 25 -74 25q-63 0 -112 -55q-29 -35 -33 -76z" />
<glyph unicode="&#xb1;" horiz-adv-x="769" d="M3 -193l22 193h705l1 -1l-22 -191l-1 -1h-705zM14 414l22 193h259l29 257l1 1h191l1 -1l-29 -257h257l1 -1l-22 -191l-1 -1h-257l-29 -259h-193l29 259h-259z" />
<glyph unicode="&#xb2;" horiz-adv-x="1014" />
<glyph unicode="&#xb3;" horiz-adv-x="1014" />
<glyph unicode="&#xb4;" horiz-adv-x="752" d="M300 1792v2l409 234l83 -164l-409 -235l-1 1z" />
<glyph unicode="&#xb5;" horiz-adv-x="1116" d="M62 -400l153 1358l1 1h191l1 -1l-66 -586q-13 -121 84 -160q41 -19 108 -19h16q122 0 177 38q71 40 84 148l64 576l3 3h188l1 -3l-106 -947l-2 -3h-188l-2 3l6 54h-2q-54 -28 -139 -52q-45 -10 -109 -10h-9q-125 0 -211 46l-50 -446l-1 -1h-191z" />
<glyph unicode="&#xb6;" horiz-adv-x="1133" d="M208 1007q18 157 136 253t296 96h443v-1h68l1 -1l-21 -191l-2 -1h-83l-119 -1061l-1 -1h-192l-1 1l119 1061h-112l-119 -1061l-1 -1h-192l-1 1l63 563q-132 19 -208 98q-91 94 -74 245z" />
<glyph unicode="&#xb7;" horiz-adv-x="518" d="M302 768l1 8q5 47 47 87q42 35 93 35q60 0 95 -52q20 -35 17 -70l-1 -8q-6 -48 -49 -88q-32 -25 -60 -31q-16 -3 -24 -3h-14q-32 0 -64 23q-31 25 -40 66q-3 18 -1 33z" />
<glyph unicode="&#xb8;" horiz-adv-x="683" d="M300 -357l138 98q23 -35 56 -35q23 0 45 16q17 14 19 29q1 11 -5 22q-7 6 -22 6h-5q-26 0 -69 -16l-107 -35l1 1l96 302h1l151 -32v-1l-19 -62q30 -5 44 -10q59 -26 82 -83q17 -45 12 -88v-7q-7 -65 -60 -123q-24 -23 -36 -31q-70 -48 -143 -48h-5q-79 0 -142 57 q-25 27 -28 33l-4 6v1z" />
<glyph unicode="&#xb9;" horiz-adv-x="1014" />
<glyph unicode="&#xba;" horiz-adv-x="718" />
<glyph unicode="&#xbb;" horiz-adv-x="1304" d="M110 286l286 184l-246 183v1l61 75q61 77 67 83h1l44 -33l324 -242l-15 -134l-1 -2l-428 -274q-5 6 -93 159zM660 286l286 184l-246 183v1l61 75q61 77 67 83h1l44 -33l324 -242l-15 -134l-1 -2l-428 -274q-5 6 -93 159z" />
<glyph unicode="&#xbc;" horiz-adv-x="1708" />
<glyph unicode="&#xbd;" horiz-adv-x="1964" />
<glyph unicode="&#xbe;" horiz-adv-x="1708" />
<glyph unicode="&#xbf;" horiz-adv-x="1138" d="M0 448q13 118 93 233q21 30 53 63q37 38 66 59q39 28 125 84q22 15 48 37q14 15 21 25q7 14 8 26l26 231l1 1h191l1 -1l-25 -228q-15 -135 -154 -232q-33 -25 -118 -79q-46 -32 -79 -72q-37 -48 -56 -107q-6 -24 -8 -40q-11 -100 49 -177q68 -78 171 -78q99 0 184 74 q82 78 94 181l4 34h193l-5 -43q-11 -98 -73 -199q-20 -34 -55 -73q-15 -17 -50 -48q-31 -26 -54 -40q-41 -26 -83 -44q-89 -35 -171 -35h-14q-87 0 -173 41q-37 18 -75 49q-21 17 -43 42q-33 40 -48 70q-59 114 -44 246zM431 1383l1 6q5 51 51 91q42 32 83 32h13 q31 0 63 -23q32 -24 41 -70q2 -18 0 -33q-6 -57 -58 -98q-38 -28 -83 -28q-57 0 -92 47q-23 36 -19 76z" />
<glyph unicode="&#xc0;" d="M1 0v1l644 1249l111 214h181q3 0 63 -215l371 -1248l-2 -1h-209q-4 0 -22 67l-73 248h-695l-162 -315h-207zM471 509h536l-194 660q-3 0 -140 -270zM641 1864l83 164l408 -234l1 -2l-83 -162v-1z" />
<glyph unicode="&#xc1;" d="M1 0v1l644 1249l111 214h181q3 0 63 -215l371 -1248l-2 -1h-209q-4 0 -22 67l-73 248h-695l-162 -315h-207zM471 509h536l-194 660q-3 0 -140 -270zM641 1793l409 235v-1l83 -162l-1 -2l-408 -234z" />
<glyph unicode="&#xc2;" d="M1 0v1l644 1249l111 214h181q3 0 63 -215l371 -1248l-2 -1h-209q-4 0 -22 67l-73 248h-695l-162 -315h-207zM471 509h536l-194 660q-3 0 -140 -270zM600 1757v1l250 251h113q12 -14 196 -251l-158 -129l-119 152l-151 -152h-1z" />
<glyph unicode="&#xc3;" d="M1 0v1l644 1249l111 214h181q3 0 63 -215l371 -1248l-2 -1h-209q-4 0 -22 67l-73 248h-695l-162 -315h-207zM471 509h536l-194 660q-3 0 -140 -270zM548 1657l20 182q39 41 74 60q54 31 101 31q57 0 152.5 -58.5t143.5 -58.5q44 0 97 33q35 23 81 75l-21 -193 q-36 -30 -72 -50q-54 -29 -103 -29q-53 0 -148.5 57t-147.5 57q-44 0 -97 -33q-34 -22 -80 -73z" />
<glyph unicode="&#xc4;" d="M1 0v1l644 1249l111 214h181q3 0 63 -215l371 -1248l-2 -1h-209q-4 0 -22 67l-73 248h-695l-162 -315h-207zM471 509h536l-194 660q-3 0 -140 -270zM566 1781l1 8q5 47 47 87q42 35 93 35q60 0 95 -52q20 -35 17 -70l-1 -8q-6 -48 -49 -88q-32 -25 -60 -31q-16 -3 -24 -3 h-14q-32 0 -64 23q-31 25 -40 66q-3 18 -1 33zM946 1781l1 8q5 47 47 87q42 35 93 35q60 0 95 -52q20 -35 17 -70l-1 -8q-6 -48 -49 -88q-32 -25 -60 -31q-16 -3 -24 -3h-14q-32 0 -64 23q-31 25 -40 66q-3 18 -1 33z" />
<glyph unicode="&#xc5;" d="M1 0v1l644 1249l111 213h-1q-14 9 -27 20q-14 15 -20 25q-13 19 -19 33q-16 42 -12 80l1 10q6 55 48 106q8 10 28 29q62 47 129 47h3q66 0 116 -45q19 -21 24 -29q33 -52 26 -112q-8 -76 -72 -134l-10 -10q-15 -11 -31 -20h-1q6 -14 62 -214l371 -1248l-2 -1h-209 q-4 0 -22 67l-73 248h-695l-162 -315h-207zM471 509h536l-194 660q-3 0 -140 -270zM795 1627q-4 -33 22 -56q17 -15 39 -15q34 0 60 28q17 21 19 43v2q3 27 -15 47q-19 21 -48 21q-27 0 -50 -19q-24 -22 -27 -50v-1z" />
<glyph unicode="&#xc6;" horiz-adv-x="1925" d="M1 3l594 730l596 731h785l2 -3l-20 -187l-4 -3h-594l-48 -441l3 -3h468l1 -3l-20 -186l-2 -2h-471l-49 -445h594l2 -2l-20 -186l-3 -3h-783l-2 3l45 410l-3 2h-498q-7 -6 -222 -272q-109 -135 -118 -143h-230zM731 608h363l3 3l57 516h-3l-420 -518v-1z" />
<glyph unicode="&#xc7;" horiz-adv-x="1470" d="M150 729l1 6q30 277 235 498q242 232 536 231h2q283 0 471 -220q65 -86 90 -148q-9 -7 -180 -93q-21 49 -68 113q-138 156 -334 156q-199 0 -371 -158q-166 -167 -189 -381q-28 -248 142 -423q130 -116 290 -116h21q176 0 345 145q73 72 106 125l159 -89v-4 q-41 -63 -105 -133q-239 -233 -526 -238l-20 -64q29 -5 44 -10q59 -26 82 -83q18 -45 13 -88l-1 -7q-7 -65 -60 -123q-24 -23 -37 -31q-69 -48 -142 -48h-5q-79 0 -142 57q-25 27 -28 33l-4 6v1l137 98q25 -35 58 -35q22 0 43 16q18 14 20 29q1 11 -5 22q-7 6 -24 8h-5 q-24 -2 -66 -14l-108 -35l1 1l91 283q-196 46 -338 218q-159 221 -129 495z" />
<glyph unicode="&#xc8;" horiz-adv-x="992" d="M93 1l164 1462l2 1h786v-1l-21 -192h-595l-50 -443h471l1 -1l-21 -190l-2 -1h-471l-49 -443h595l-22 -192l-1 -1h-786zM446 1864l83 164l409 -234l1 -2l-82 -162l-1 -1z" />
<glyph unicode="&#xc9;" horiz-adv-x="992" d="M93 1l164 1462l2 1h786v-1l-21 -192h-595l-50 -443h471l1 -1l-21 -190l-2 -1h-471l-49 -443h595l-22 -192l-1 -1h-786zM446 1792l1 2l409 234l83 -164l-410 -235l-1 1z" />
<glyph unicode="&#xca;" horiz-adv-x="992" d="M93 1l164 1462l2 1h786v-1l-21 -192h-595l-50 -443h471l1 -1l-21 -190l-2 -1h-471l-49 -443h595l-22 -192l-1 -1h-786zM406 1757v1l251 251h113q11 -14 195 -251l-159 -129l-118 152l-152 -152h-1z" />
<glyph unicode="&#xcb;" horiz-adv-x="992" d="M93 1l164 1462l2 1h786v-1l-21 -192h-595l-50 -443h471l1 -1l-21 -190l-2 -1h-471l-49 -443h595l-22 -192l-1 -1h-786zM371 1781l1 8q5 47 48 87q42 35 93 35q60 0 95 -52q20 -35 16 -70l-1 -8q-5 -48 -49 -88q-31 -25 -60 -31q-15 -3 -23 -3h-14q-32 0 -65 23 q-31 25 -39 66q-3 18 -2 33zM751 1781l1 8q5 47 48 87q42 35 93 35q60 0 95 -52q20 -35 16 -70l-1 -8q-5 -48 -49 -88q-31 -25 -60 -31q-15 -3 -23 -3h-14q-32 0 -65 23q-31 25 -39 66q-3 18 -2 33z" />
<glyph unicode="&#xcc;" horiz-adv-x="457" d="M87 1l164 1462l2 1h191v-1l-164 -1462l-1 -1h-191zM142 1864l83 164l409 -234l1 -2l-82 -162l-1 -1z" />
<glyph unicode="&#xcd;" horiz-adv-x="457" d="M87 1l164 1462l2 1h191v-1l-164 -1462l-1 -1h-191zM142 1792l1 2l409 234l83 -164l-410 -235l-1 1z" />
<glyph unicode="&#xce;" horiz-adv-x="457" d="M87 1l164 1462l2 1h191v-1l-164 -1462l-1 -1h-191zM102 1757v1l251 251h113q11 -14 195 -251l-159 -129l-118 152l-152 -152h-1z" />
<glyph unicode="&#xcf;" horiz-adv-x="457" d="M87 1l164 1462l2 1h191v-1l-164 -1462l-1 -1h-191zM87 1781l1 8q5 47 47 87q42 35 93 35q60 0 95 -52q21 -35 17 -70l-1 -8q-6 -48 -49 -88q-32 -25 -61 -31q-15 -3 -23 -3h-14q-32 0 -64 23q-32 25 -40 66q-3 18 -1 33zM427 1781l1 8q5 47 47 87q42 35 93 35 q60 0 95 -52q21 -35 17 -70l-1 -8q-6 -48 -49 -88q-32 -25 -61 -31q-15 -3 -23 -3h-14q-32 0 -64 23q-32 25 -40 66q-3 18 -1 33z" />
<glyph unicode="&#xd0;" horiz-adv-x="1415" d="M93 634l22 195h128l71 631l3 3h381q264 0 459 -178q75 -78 94 -113q125 -201 99 -435l-1 -11q-29 -294 -272 -526q-134 -107 -256 -151q-149 -49 -278 -49h-391l-2 3l71 631h-128zM364 193h177q256 0 445 188q149 157 171 350q22 196 -94 353q-70 83 -112 104q-2 2 -4 3 q-36 27 -114 55q-72 24 -192 24h-153l-3 -2l-49 -439h198l-22 -195h-198z" />
<glyph unicode="&#xd1;" horiz-adv-x="1420" d="M93 3l164 1458l3 3h208l585 -1046l53 -97h1l128 1140l3 3h188l3 -3l-164 -1458l-3 -3h-208q-46 76 -332 596l-309 548l-128 -1141l-2 -3h-187zM545 1657l21 182q37 41 72 60q55 31 102 31q57 0 152.5 -58.5t143.5 -58.5q44 0 96 33q36 23 83 75l-22 -193q-37 -30 -73 -50 q-54 -29 -103 -29q-53 0 -148.5 57t-147.5 57q-43 0 -97 -33q-34 -22 -79 -73z" />
<glyph unicode="&#xd2;" horiz-adv-x="1592" d="M122 731l1 4q28 315 285 547l74 55q201 132 423 127h3q290 0 484 -227q170 -222 139 -505q-30 -313 -284 -544q-234 -191 -500 -188q-262 0 -451 187q-83 96 -104 148q-93 183 -70 396zM315 733q-26 -237 134 -411q134 -128 319 -128q240 0 429 212q120 152 139 318l1 13 q23 205 -102 370q-142 165 -348 165q-231 0 -418 -197q-134 -158 -154 -342zM701 1864l83 164l409 -234v-2l-82 -162l-1 -1z" />
<glyph unicode="&#xd3;" horiz-adv-x="1592" d="M122 731l1 4q28 315 285 547l74 55q201 132 423 127h3q290 0 484 -227q170 -222 139 -505q-30 -313 -284 -544q-234 -191 -500 -188q-262 0 -451 187q-83 96 -104 148q-93 183 -70 396zM315 733q-26 -237 134 -411q134 -128 319 -128q240 0 429 212q120 152 139 318l1 13 q23 205 -102 370q-142 165 -348 165q-231 0 -418 -197q-134 -158 -154 -342zM701 1793l409 235l1 -1l82 -162v-2l-409 -234z" />
<glyph unicode="&#xd4;" horiz-adv-x="1592" d="M122 731l1 4q28 315 285 547l74 55q201 132 423 127h3q290 0 484 -227q170 -222 139 -505q-30 -313 -284 -544q-234 -191 -500 -188q-262 0 -451 187q-83 96 -104 148q-93 183 -70 396zM315 733q-26 -237 134 -411q134 -128 319 -128q240 0 429 212q120 152 139 318l1 13 q23 205 -102 370q-142 165 -348 165q-231 0 -418 -197q-134 -158 -154 -342zM659 1757v1l251 251h113q11 -14 195 -251l-158 -129l-118 152l-152 -152h-1z" />
<glyph unicode="&#xd5;" horiz-adv-x="1592" d="M122 731l1 4q28 315 285 547l74 55q201 132 423 127h3q290 0 484 -227q170 -222 139 -505q-30 -313 -284 -544q-234 -191 -500 -188q-262 0 -451 187q-83 96 -104 148q-93 183 -70 396zM315 733q-26 -237 134 -411q134 -128 319 -128q240 0 429 212q120 152 139 318l1 13 q23 205 -102 370q-142 165 -348 165q-231 0 -418 -197q-134 -158 -154 -342zM608 1657l20 182q38 41 73 60q54 31 101 31q57 0 152.5 -58.5t143.5 -58.5q44 0 97 33q36 23 82 75l-21 -193q-37 -30 -72 -50q-55 -29 -104 -29q-53 0 -148.5 57t-147.5 57q-43 0 -97 -33 q-34 -22 -79 -73z" />
<glyph unicode="&#xd6;" horiz-adv-x="1592" d="M122 731l1 4q28 315 285 547l74 55q201 132 423 127h3q290 0 484 -227q170 -222 139 -505q-30 -313 -284 -544q-234 -191 -500 -188q-262 0 -451 187q-83 96 -104 148q-93 183 -70 396zM315 733q-26 -237 134 -411q134 -128 319 -128q240 0 429 212q120 152 139 318l1 13 q23 205 -102 370q-142 165 -348 165q-231 0 -418 -197q-134 -158 -154 -342zM624 1781l1 8q5 47 47 87q42 35 93 35q60 0 96 -52q20 -35 16 -70l-1 -8q-5 -48 -49 -88q-31 -25 -60 -31q-15 -3 -23 -3h-14q-32 0 -65 23q-31 25 -40 66q-3 18 -1 33zM1004 1781l1 8q5 47 47 87 q42 35 93 35q60 0 96 -52q20 -35 16 -70l-1 -8q-5 -48 -49 -88q-31 -25 -60 -31q-15 -3 -23 -3h-14q-32 0 -65 23q-31 25 -40 66q-3 18 -1 33z" />
<glyph unicode="&#xd7;" horiz-adv-x="741" d="M51 301l204 184l-164 184l1 1l149 135h1l164 -184l204 184h2l121 -135l-1 -1l-204 -184l164 -184l-152 -136l-164 184l-204 -184z" />
<glyph unicode="&#xd8;" horiz-adv-x="1592" d="M122 731l1 4q28 315 285 547l74 55q201 132 423 127h3q290 0 484 -227q170 -222 139 -505q-30 -313 -284 -544q-234 -191 -500 -188q-262 0 -451 187q-83 96 -104 148q-93 183 -70 396zM224 -8l113 157q-21 18 -41 38q-15 17 -28 33l124 175q25 -38 57 -73q5 -4 9 -8 l652 900q-30 18 -63 30l83 182q52 -19 99 -48l132 182l1 1l148 -94v-1l-145 -200q14 -14 27 -29q38 -49 65 -101l-172 -108q-18 35 -42 68l-635 -875q43 -15 88 -22l-71 -188q-72 13 -138 43l-113 -157h-1l-149 93v2zM315 733q-26 -237 134 -411q134 -128 319 -128 q240 0 429 212q120 152 139 318l1 13q23 205 -102 370q-142 165 -348 165q-231 0 -418 -197q-134 -158 -154 -342z" />
<glyph unicode="&#xd9;" horiz-adv-x="1402" d="M168 532l105 929l3 3h187l2 -3l-100 -891q-19 -161 28 -238q40 -87 154 -127q43 -11 84 -11h143q171 0 283 155q52 83 65 194l103 918l3 3h188l3 -3l-98 -868q-19 -174 -59 -252q-81 -173 -230 -263q-130 -78 -303 -78h-96q-228 0 -351 137q-54 61 -79 122 q-51 128 -35 273zM641 1864l83 164l409 -234v-2l-81 -162l-1 -1z" />
<glyph unicode="&#xda;" horiz-adv-x="1402" d="M168 532l105 929l3 3h187l2 -3l-100 -891q-19 -161 28 -238q40 -87 154 -127q43 -11 84 -11h143q171 0 283 155q52 83 65 194l103 918l3 3h188l3 -3l-98 -868q-19 -174 -59 -252q-81 -173 -230 -263q-130 -78 -303 -78h-96q-228 0 -351 137q-54 61 -79 122 q-51 128 -35 273zM641 1793l410 235l1 -1l81 -162v-2l-409 -234z" />
<glyph unicode="&#xdb;" horiz-adv-x="1402" d="M168 532l105 929l3 3h187l2 -3l-100 -891q-19 -161 28 -238q40 -87 154 -127q43 -11 84 -11h143q171 0 283 155q52 83 65 194l103 918l3 3h188l3 -3l-98 -868q-19 -174 -59 -252q-81 -173 -230 -263q-130 -78 -303 -78h-96q-228 0 -351 137q-54 61 -79 122 q-51 128 -35 273zM600 1757v1l251 251h113q12 -14 195 -251l-158 -129l-118 152l-152 -152h-1z" />
<glyph unicode="&#xdc;" horiz-adv-x="1402" d="M168 532l105 929l3 3h187l2 -3l-100 -891q-19 -161 28 -238q40 -87 154 -127q43 -11 84 -11h143q171 0 283 155q52 83 65 194l103 918l3 3h188l3 -3l-98 -868q-19 -174 -59 -252q-81 -173 -230 -263q-130 -78 -303 -78h-96q-228 0 -351 137q-54 61 -79 122 q-51 128 -35 273zM568 1781l1 8q5 47 48 87q41 35 92 35q60 0 96 -52q20 -35 16 -70l-1 -8q-6 -48 -49 -88q-32 -25 -61 -31q-15 -3 -23 -3h-14q-32 0 -64 23q-31 25 -40 66q-3 18 -1 33zM948 1781l1 8q5 47 48 87q41 35 92 35q60 0 96 -52q20 -35 16 -70l-1 -8 q-6 -48 -49 -88q-32 -25 -61 -31q-15 -3 -23 -3h-14q-32 0 -64 23q-31 25 -40 66q-3 18 -1 33z" />
<glyph unicode="&#xdd;" horiz-adv-x="1334" d="M196 1463v1h245q10 -11 336 -566q444 541 468 566h255v-1l-636 -757l-78 -703l-3 -3h-195l-3 3l77 701q1 6 -54 94zM642 1792v2l409 234l83 -164l-409 -235l-1 1z" />
<glyph unicode="&#xde;" horiz-adv-x="1419" d="M89 1l164 1462l2 1h191v-1l-24 -220h439q156 0 272 -66q30 -18 61 -45q11 -9 38 -41q92 -121 73 -290l-15 -136q-20 -173 -142 -294q-35 -32 -55 -46q-40 -27 -66 -40q-27 -13 -59 -25q-107 -38 -221 -38h-440l-25 -221l-1 -1h-191zM329 415h431q177 0 268 95 q22 25 32 42q29 47 38 124l13 113q9 82 -13 132q-29 70 -116 105q-63 24 -154 24h-428z" />
<glyph unicode="&#xdf;" horiz-adv-x="1369" d="M94 3l125 1111q8 72 83 176q144 174 389 174q178 0 297 -72q131 -92 115 -240l-1 -8q-14 -124 -138 -263q-76 -92 -81 -134q-5 -46 127 -114q250 -153 229 -347q-17 -145 -175 -261q-138 -91 -283 -91q-216 0 -345 200q-21 34 -20 40l173 100l24 -39q75 -108 190 -108 q107 0 199 81q40 45 44 78q11 95 -211 213q-161 102 -144 252q11 104 134 249q78 86 84 145l1 4q11 101 -203 121l-39 1q-168 0 -237 -118q-19 -33 -20 -48l-124 -1102l-3 -3h-188z" />
<glyph unicode="&#xe0;" horiz-adv-x="1219" d="M128 474v1q24 220 211 380q154 118 332 118q167 0 273 -127l12 110l3 2h189l2 -2l-105 -954l-3 -2h-189l-2 2l10 97q-125 -123 -301 -123h-1q-219 0 -353 177q-98 143 -78 321zM321 475q-18 -158 107 -259q71 -46 139 -46h22q96 0 195 78q104 96 119 226v1 q17 160 -108 258q-70 46 -143 46h-16q-120 0 -229 -111q-75 -92 -86 -193zM460 1364l83 164l408 -234l1 -2l-83 -162v-1z" />
<glyph unicode="&#xe1;" horiz-adv-x="1219" d="M128 474v1q24 220 211 380q154 118 332 118q167 0 273 -127l12 110l3 2h189l2 -2l-105 -954l-3 -2h-189l-2 2l10 97q-125 -123 -301 -123h-1q-219 0 -353 177q-98 143 -78 321zM321 475q-18 -158 107 -259q71 -46 139 -46h22q96 0 195 78q104 96 119 226v1 q17 160 -108 258q-70 46 -143 46h-16q-120 0 -229 -111q-75 -92 -86 -193zM460 1293l409 235v-1l83 -162l-1 -2l-408 -234z" />
<glyph unicode="&#xe2;" horiz-adv-x="1219" d="M128 474v1q24 220 211 380q154 118 332 118q167 0 273 -127l12 110l3 2h189l2 -2l-105 -954l-3 -2h-189l-2 2l10 97q-125 -123 -301 -123h-1q-219 0 -353 177q-98 143 -78 321zM321 475q-18 -158 107 -259q71 -46 139 -46h22q96 0 195 78q104 96 119 226v1 q17 160 -108 258q-70 46 -143 46h-16q-120 0 -229 -111q-75 -92 -86 -193zM418 1257v1l250 251h113q12 -14 196 -251l-158 -129l-119 152l-151 -152h-1z" />
<glyph unicode="&#xe3;" horiz-adv-x="1219" d="M128 474v1q24 220 211 380q154 118 332 118q167 0 273 -127l12 110l3 2h189l2 -2l-105 -954l-3 -2h-189l-2 2l10 97q-125 -123 -301 -123h-1q-219 0 -353 177q-98 143 -78 321zM321 475q-18 -158 107 -259q71 -46 139 -46h22q96 0 195 78q104 96 119 226v1 q17 160 -108 258q-70 46 -143 46h-16q-120 0 -229 -111q-75 -92 -86 -193zM367 1157l20 182q38 41 73 60q55 31 102 31q57 0 152.5 -58.5t143.5 -58.5q44 0 97 33q35 23 81 75l-21 -193q-37 -30 -72 -50q-54 -29 -103 -29q-53 0 -149 57t-148 57q-44 0 -96 -33 q-35 -22 -80 -73z" />
<glyph unicode="&#xe4;" horiz-adv-x="1219" d="M128 474v1q24 220 211 380q154 118 332 118q167 0 273 -127l12 110l3 2h189l2 -2l-105 -954l-3 -2h-189l-2 2l10 97q-125 -123 -301 -123h-1q-219 0 -353 177q-98 143 -78 321zM321 475q-18 -158 107 -259q71 -46 139 -46h22q96 0 195 78q104 96 119 226v1 q17 160 -108 258q-70 46 -143 46h-16q-120 0 -229 -111q-75 -92 -86 -193zM384 1281l1 8q5 47 48 87q42 35 93 35q60 0 95 -52q20 -35 16 -70l-1 -8q-5 -48 -48 -88q-32 -25 -61 -31q-15 -3 -23 -3h-14q-32 0 -65 23q-31 25 -39 66q-3 18 -2 33zM764 1281l1 8q5 47 48 87 q42 35 93 35q60 0 95 -52q20 -35 16 -70l-1 -8q-5 -48 -48 -88q-32 -25 -61 -31q-15 -3 -23 -3h-14q-32 0 -65 23q-31 25 -39 66q-3 18 -2 33z" />
<glyph unicode="&#xe5;" horiz-adv-x="1219" d="M128 474v1q24 220 211 380q154 118 332 118q167 0 273 -127l12 110l3 2h189l2 -2l-105 -954l-3 -2h-189l-2 2l10 97q-125 -123 -301 -123h-1q-219 0 -353 177q-98 143 -78 321zM321 475q-18 -158 107 -259q71 -46 139 -46h22q96 0 195 78q104 96 119 226v1 q17 160 -108 258q-70 46 -143 46h-16q-120 0 -229 -111q-75 -92 -86 -193zM527 1288l1 10q6 51 45 99q7 9 26 27q58 44 121 44h3q62 0 108 -42q18 -20 22 -27q31 -49 25 -105q-8 -71 -67 -125l-10 -10q-54 -40 -118 -40q-62 0 -108 40q-14 14 -19 24q-13 17 -18 31 q-15 39 -11 74zM637 1294q-4 -31 21 -52q16 -14 37 -14q32 0 55 26q16 19 19 40v2q3 25 -14 44q-19 20 -46 20q-25 0 -47 -18q-22 -21 -25 -47v-1z" />
<glyph unicode="&#xe6;" horiz-adv-x="1890" d="M128 474v1q24 220 211 380q154 118 332 118q167 0 273 -127l12 110l3 2h189l2 -2l-12 -108q13 12 27 24q143 101 276 101h29q146 0 269 -117q58 -65 78 -112q59 -129 44 -270l-4 -30q-3 -28 -7 -28h-716q11 -107 59 -160q71 -87 174 -87q130 0 232 131q21 33 24 34 q164 -78 165 -80q-17 -35 -74 -105q-166 -173 -366 -173h-4q-171 0 -288 126l-11 -100l-3 -2h-189l-2 2l10 97q-125 -123 -301 -123h-1q-219 0 -353 177q-98 143 -78 321zM321 475q-18 -158 107 -259q71 -46 139 -46h22q96 0 195 78q104 96 119 226v1q17 160 -108 258 q-70 46 -143 46h-16q-120 0 -229 -111q-75 -92 -86 -193zM1172 598h485v1q-11 51 -65 116q-69 65 -159 65q-137 0 -241 -145z" />
<glyph unicode="&#xe7;" horiz-adv-x="991" d="M89 466l2 16q12 112 79 225q21 31 46 64q20 23 58 60q44 38 75 58q135 84 280 84h2q150 0 270 -92q22 -18 48 -47q33 -38 43 -57q13 -20 13 -22l-172 -106h-1q-9 18 -34 47q-79 84 -191 84q-107 0 -202 -78q-36 -32 -44 -46q-67 -82 -78 -182q-12 -108 47 -197 q19 -26 41 -46q73 -62 170 -62q88 0 170 54q18 11 52 41q19 20 33 39h1l149 -106q-20 -27 -52 -60q-38 -37 -53 -47q-36 -27 -62 -42q-102 -58 -207 -69l-13 -43q29 -5 44 -10q59 -26 81 -83q17 -45 13 -88l-1 -7q-7 -65 -60 -123q-24 -23 -36 -31q-69 -48 -142 -48h-5 q-79 0 -143 57q-25 27 -27 33l-5 6v1l138 98q23 -35 56 -35q23 0 45 16q18 14 19 29q1 11 -4 22q-8 6 -23 6h-5q-26 0 -68 -16l-107 -35v1l82 259q-77 20 -148 69q-22 17 -40 33q-34 34 -49 56q-35 49 -48 82q-16 32 -28 85q-17 81 -9 153z" />
<glyph unicode="&#xe8;" horiz-adv-x="1038" d="M91 472v4q26 234 223 396q143 101 276 101h29q146 0 268 -117q59 -65 79 -112q58 -129 43 -270l-3 -30q-3 -28 -7 -28h-716q11 -107 58 -160q71 -87 174 -87q130 0 233 131q20 33 24 34q163 -78 165 -80q-18 -35 -75 -105q-166 -173 -366 -173h-4q-206 0 -334 183 q-86 143 -67 313zM321 598h485v1q-12 51 -66 116q-68 65 -158 65q-137 0 -241 -145zM426 1363v2l82 162l1 1l409 -235l-83 -164z" />
<glyph unicode="&#xe9;" horiz-adv-x="1038" d="M91 472v4q26 234 223 396q143 101 276 101h29q146 0 268 -117q59 -65 79 -112q58 -129 43 -270l-3 -30q-3 -28 -7 -28h-716q11 -107 58 -160q71 -87 174 -87q130 0 233 131q20 33 24 34q163 -78 165 -80q-18 -35 -75 -105q-166 -173 -366 -173h-4q-206 0 -334 183 q-86 143 -67 313zM321 598h485v1q-12 51 -66 116q-68 65 -158 65q-137 0 -241 -145zM426 1293l409 235l1 -1l82 -162v-2l-409 -234z" />
<glyph unicode="&#xea;" horiz-adv-x="1038" d="M91 472v4q26 234 223 396q143 101 276 101h29q146 0 268 -117q59 -65 79 -112q58 -129 43 -270l-3 -30q-3 -28 -7 -28h-716q11 -107 58 -160q71 -87 174 -87q130 0 233 131q20 33 24 34q163 -78 165 -80q-18 -35 -75 -105q-166 -173 -366 -173h-4q-206 0 -334 183 q-86 143 -67 313zM321 598h485v1q-12 51 -66 116q-68 65 -158 65q-137 0 -241 -145zM384 1257v1l251 251h113q11 -14 195 -251l-158 -129l-118 152l-152 -152h-1z" />
<glyph unicode="&#xeb;" horiz-adv-x="1038" d="M91 472v4q26 234 223 396q143 101 276 101h29q146 0 268 -117q59 -65 79 -112q58 -129 43 -270l-3 -30q-3 -28 -7 -28h-716q11 -107 58 -160q71 -87 174 -87q130 0 233 131q20 33 24 34q163 -78 165 -80q-18 -35 -75 -105q-166 -173 -366 -173h-4q-206 0 -334 183 q-86 143 -67 313zM321 598h485v1q-12 51 -66 116q-68 65 -158 65q-137 0 -241 -145zM350 1281l1 8q5 47 47 87q42 35 93 35q60 0 95 -52q20 -35 17 -70l-1 -8q-6 -48 -49 -88q-32 -25 -60 -31q-16 -3 -24 -3h-14q-32 0 -64 23q-31 25 -40 66q-3 18 -1 33zM730 1281l1 8 q5 47 47 87q42 35 93 35q60 0 95 -52q20 -35 17 -70l-1 -8q-6 -48 -49 -88q-32 -25 -60 -31q-16 -3 -24 -3h-14q-32 0 -64 23q-31 25 -40 66q-3 18 -1 33z" />
<glyph unicode="&#xec;" horiz-adv-x="527" d="M109 1l108 957h194l-108 -957l-1 -1h-192zM109 1364l83 164l409 -234v-2l-81 -162l-1 -1z" />
<glyph unicode="&#xed;" horiz-adv-x="527" d="M109 1l108 957h194l-108 -957l-1 -1h-192zM109 1292v2l410 234l82 -164l-409 -235l-1 1z" />
<glyph unicode="&#xee;" horiz-adv-x="527" d="M68 1257v1l251 251h113q12 -14 195 -251l-158 -129l-118 152l-152 -152h-1zM109 1l108 957h194l-108 -957l-1 -1h-192z" />
<glyph unicode="&#xef;" horiz-adv-x="527" d="M55 1281l1 8q5 47 47 87q42 35 93 35q60 0 95 -52q21 -35 17 -70l-1 -8q-6 -48 -49 -88q-32 -25 -61 -31q-15 -3 -23 -3h-14q-32 0 -64 23q-32 25 -40 66q-3 18 -1 33zM109 1l108 957h194l-108 -957l-1 -1h-192zM395 1281l1 8q5 47 47 87q42 35 93 35q60 0 95 -52 q21 -35 17 -70l-1 -8q-6 -48 -49 -88q-32 -25 -61 -31q-15 -3 -23 -3h-14q-32 0 -64 23q-32 25 -40 66q-3 18 -1 33z" />
<glyph unicode="&#xf0;" horiz-adv-x="1139" />
<glyph unicode="&#xf1;" horiz-adv-x="1053" d="M79 3l107 947l3 3h187l2 -3l-6 -54h2q54 28 139 52q45 10 109 10h9q257 0 347 -195q31 -77 19 -181l-65 -579l-3 -3h-187l-2 3l65 581q14 123 -84 162q-41 19 -108 19h-16q-122 0 -177 -38q-71 -40 -83 -148l-65 -576l-3 -3h-188zM315 1157l21 182q39 41 74 60 q54 31 101 31q57 0 152.5 -58.5t143.5 -58.5q44 0 97 33q35 23 81 75l-22 -193q-36 -30 -71 -50q-54 -29 -103 -29q-53 0 -149 57t-148 57q-44 0 -96 -33q-35 -22 -81 -73z" />
<glyph unicode="&#xf2;" horiz-adv-x="1119" d="M94 467l2 15q12 112 80 225q20 31 45 63q21 24 58 61q55 45 77 58q132 84 278 84q163 0 287 -105q17 -14 48 -50q60 -77 81 -158q25 -90 14 -187q-14 -126 -88 -242q-25 -38 -66 -83q-44 -45 -70 -63q-30 -22 -55 -37q-127 -72 -256 -72h-9q-136 0 -252 80q-22 18 -39 34 q-35 33 -50 56q-18 24 -33 52q-17 32 -27 62q-36 104 -25 207zM288 473q-12 -109 49 -198q27 -35 43 -46q72 -60 166 -60q113 0 211 86q39 37 57 64q48 74 57 153v3q13 115 -56 207q-30 36 -41 41q-16 14 -30 22q-61 35 -131 35q-107 0 -203 -79q-35 -31 -44 -46 q-67 -81 -78 -182zM426 1364l83 164l409 -234v-2l-82 -162l-1 -1z" />
<glyph unicode="&#xf3;" horiz-adv-x="1119" d="M94 467l2 15q12 112 80 225q20 31 45 63q21 24 58 61q55 45 77 58q132 84 278 84q163 0 287 -105q17 -14 48 -50q60 -77 81 -158q25 -90 14 -187q-14 -126 -88 -242q-25 -38 -66 -83q-44 -45 -70 -63q-30 -22 -55 -37q-127 -72 -256 -72h-9q-136 0 -252 80q-22 18 -39 34 q-35 33 -50 56q-18 24 -33 52q-17 32 -27 62q-36 104 -25 207zM288 473q-12 -109 49 -198q27 -35 43 -46q72 -60 166 -60q113 0 211 86q39 37 57 64q48 74 57 153v3q13 115 -56 207q-30 36 -41 41q-16 14 -30 22q-61 35 -131 35q-107 0 -203 -79q-35 -31 -44 -46 q-67 -81 -78 -182zM426 1292v2l409 234l83 -164l-409 -235l-1 1z" />
<glyph unicode="&#xf4;" horiz-adv-x="1119" d="M94 467l2 15q12 112 80 225q20 31 45 63q21 24 58 61q55 45 77 58q132 84 278 84q163 0 287 -105q17 -14 48 -50q60 -77 81 -158q25 -90 14 -187q-14 -126 -88 -242q-25 -38 -66 -83q-44 -45 -70 -63q-30 -22 -55 -37q-127 -72 -256 -72h-9q-136 0 -252 80q-22 18 -39 34 q-35 33 -50 56q-18 24 -33 52q-17 32 -27 62q-36 104 -25 207zM288 473q-12 -109 49 -198q27 -35 43 -46q72 -60 166 -60q113 0 211 86q39 37 57 64q48 74 57 153v3q13 115 -56 207q-30 36 -41 41q-16 14 -30 22q-61 35 -131 35q-107 0 -203 -79q-35 -31 -44 -46 q-67 -81 -78 -182zM385 1257v1l251 251h113q11 -14 195 -251l-158 -129l-118 152l-152 -152h-1z" />
<glyph unicode="&#xf5;" horiz-adv-x="1119" d="M94 467l2 15q12 112 80 225q20 31 45 63q21 24 58 61q55 45 77 58q132 84 278 84q163 0 287 -105q17 -14 48 -50q60 -77 81 -158q25 -90 14 -187q-14 -126 -88 -242q-25 -38 -66 -83q-44 -45 -70 -63q-30 -22 -55 -37q-127 -72 -256 -72h-9q-136 0 -252 80q-22 18 -39 34 q-35 33 -50 56q-18 24 -33 52q-17 32 -27 62q-36 104 -25 207zM288 473q-12 -109 49 -198q27 -35 43 -46q72 -60 166 -60q113 0 211 86q39 37 57 64q48 74 57 153v3q13 115 -56 207q-30 36 -41 41q-16 14 -30 22q-61 35 -131 35q-107 0 -203 -79q-35 -31 -44 -46 q-67 -81 -78 -182zM333 1157l20 182q38 41 74 60q54 31 101 31q57 0 152.5 -58.5t143.5 -58.5q44 0 97 33q35 23 81 75l-21 -193q-37 -30 -72 -50q-54 -29 -103 -29q-53 0 -148.5 57t-147.5 57q-44 0 -97 -33q-34 -22 -80 -73z" />
<glyph unicode="&#xf6;" horiz-adv-x="1119" d="M94 467l2 15q12 112 80 225q20 31 45 63q21 24 58 61q55 45 77 58q132 84 278 84q163 0 287 -105q17 -14 48 -50q60 -77 81 -158q25 -90 14 -187q-14 -126 -88 -242q-25 -38 -66 -83q-44 -45 -70 -63q-30 -22 -55 -37q-127 -72 -256 -72h-9q-136 0 -252 80q-22 18 -39 34 q-35 33 -50 56q-18 24 -33 52q-17 32 -27 62q-36 104 -25 207zM288 473q-12 -109 49 -198q27 -35 43 -46q72 -60 166 -60q113 0 211 86q39 37 57 64q48 74 57 153v3q13 115 -56 207q-30 36 -41 41q-16 14 -30 22q-61 35 -131 35q-107 0 -203 -79q-35 -31 -44 -46 q-67 -81 -78 -182zM351 1281v8q6 47 48 87q42 35 93 35q60 0 95 -52q20 -35 16 -70v-8q-6 -48 -49 -88q-32 -25 -61 -31q-15 -3 -23 -3h-14q-32 0 -64 23q-32 25 -40 66q-3 18 -1 33zM731 1281v8q6 47 48 87q42 35 93 35q60 0 95 -52q20 -35 16 -70v-8q-6 -48 -49 -88 q-32 -25 -61 -31q-15 -3 -23 -3h-14q-32 0 -64 23q-32 25 -40 66q-3 18 -1 33z" />
<glyph unicode="&#xf7;" horiz-adv-x="826" d="M60 414l21 193h709l1 -1l-21 -191l-1 -1h-709zM267 207q6 49 45 88q44 38 91 38h8q46 0 82 -37q32 -39 27 -85l-1 -7q-6 -50 -51 -91q-43 -32 -85 -32h-8q-50 0 -86 43q-27 38 -22 83zM334 814q5 49 45 88q44 38 91 38h8q46 0 82 -37q32 -39 26 -85v-7q-6 -50 -51 -91 q-43 -32 -85 -32h-8q-50 0 -86 43q-27 38 -22 83z" />
<glyph unicode="&#xf8;" horiz-adv-x="1240" d="M83 99v1l123 110q-13 26 -21 50q-36 104 -25 207l2 15q12 112 81 225q19 31 45 63q19 24 58 61q53 45 76 58q132 84 278 84t259 -84l114 103h2l121 -135l-1 -2l-115 -104q24 -45 36 -91q25 -90 14 -187q-14 -126 -87 -242q-26 -38 -67 -83q-44 -45 -70 -63 q-29 -22 -55 -37q-127 -72 -256 -72h-9q-136 0 -252 80q-7 6 -13 11l-116 -104h-1zM354 473q-7 -63 11 -119l438 395q-58 31 -124 31q-106 0 -203 -79q-34 -31 -44 -46q-67 -81 -78 -182zM476 207q61 -38 136 -38q114 0 211 86q39 37 56 64q49 74 58 153v3q8 71 -15 134z " />
<glyph unicode="&#xf9;" horiz-adv-x="1061" d="M99 376l65 579l3 3h187l3 -3l-66 -581q-14 -123 84 -162q41 -19 108 -19h16q122 0 177 38q71 40 84 148l64 576l3 3h188l2 -3l-107 -947l-2 -3h-188l-2 3l7 64h-1q-56 -38 -141 -62q-44 -10 -109 -10h-9q-257 0 -347 195q-31 77 -19 181zM386 1363v2l82 162v1l410 -235 l-83 -164z" />
<glyph unicode="&#xfa;" horiz-adv-x="1061" d="M99 376l65 579l3 3h187l3 -3l-66 -581q-14 -123 84 -162q41 -19 108 -19h16q122 0 177 38q71 40 84 148l64 576l3 3h188l2 -3l-107 -947l-2 -3h-188l-2 3l7 64h-1q-56 -38 -141 -62q-44 -10 -109 -10h-9q-257 0 -347 195q-31 77 -19 181zM386 1292v2l409 234l83 -164 l-410 -235v1z" />
<glyph unicode="&#xfb;" horiz-adv-x="1061" d="M99 376l65 579l3 3h187l3 -3l-66 -581q-14 -123 84 -162q41 -19 108 -19h16q122 0 177 38q71 40 84 148l64 576l3 3h188l2 -3l-107 -947l-2 -3h-188l-2 3l7 64h-1q-56 -38 -141 -62q-44 -10 -109 -10h-9q-257 0 -347 195q-31 77 -19 181zM345 1257v1l251 251h113 q12 -14 195 -251l-159 -129l-117 152l-153 -152h-1z" />
<glyph unicode="&#xfc;" horiz-adv-x="1061" d="M99 376l65 579l3 3h187l3 -3l-66 -581q-14 -123 84 -162q41 -19 108 -19h16q122 0 177 38q71 40 84 148l64 576l3 3h188l2 -3l-107 -947l-2 -3h-188l-2 3l7 64h-1q-56 -38 -141 -62q-44 -10 -109 -10h-9q-257 0 -347 195q-31 77 -19 181zM312 1281v8q6 47 48 87 q42 35 93 35q60 0 95 -52q20 -35 16 -70v-8q-6 -48 -49 -88q-32 -25 -61 -31q-15 -3 -23 -3h-14q-32 0 -65 23q-31 25 -39 66q-3 18 -1 33zM692 1281v8q6 47 48 87q42 35 93 35q60 0 95 -52q20 -35 16 -70v-8q-6 -48 -49 -88q-32 -25 -61 -31q-15 -3 -23 -3h-14 q-32 0 -65 23q-31 25 -39 66q-3 18 -1 33z" />
<glyph unicode="&#xfd;" horiz-adv-x="1188" d="M77 958h221q1 -1 7 -20l105 -337l113 -359q4 6 219 403l162 313h244l-268 -489l-234 -409l-231 -423l-38 -68h-222l-1 1l238 430l-147 448l-150 454zM395 1292v2l409 234l83 -164l-409 -235l-1 1z" />
<glyph unicode="&#xfe;" horiz-adv-x="1206" d="M69 -399l209 1862l2 1h191v-1l-69 -614q41 38 50 43q33 23 56 35q33 17 65 26q24 7 82 17q18 1 43 2q145 0 252 -71q29 -18 69 -58q33 -37 41 -51q21 -31 36 -61q55 -120 39 -259q-19 -165 -136 -305q-15 -19 -59 -60l-20 -15q-153 -117 -326 -117q-126 0 -220 72 q-17 13 -47 44l-9 11l-56 -502h-192zM358 453q-3 -28 6 -81q8 -33 19 -59q13 -22 37 -54q28 -31 39 -38q22 -16 39 -26q60 -27 110 -27h13q89 0 175 60q15 10 44 37q54 56 78 116q19 46 24 93q13 114 -52 204q-28 34 -35 38q-72 63 -169 63h-8q-53 0 -120 -28 q-32 -14 -74 -48q-40 -36 -50 -51q-17 -23 -28 -41q-12 -19 -26 -50q-15 -46 -18 -68z" />
<glyph unicode="&#xff;" horiz-adv-x="1188" d="M77 958h221q1 -1 7 -20l105 -337l113 -359q4 6 219 403l162 313h244l-268 -489l-234 -409l-231 -423l-38 -68h-222l-1 1l238 430l-147 448l-150 454zM319 1281l1 8q5 47 48 87q42 35 93 35q60 0 95 -52q20 -35 16 -70l-1 -8q-5 -48 -48 -88q-32 -25 -61 -31 q-15 -3 -23 -3h-14q-32 0 -64 23q-32 25 -40 66q-3 18 -2 33zM699 1281l1 8q5 47 48 87q42 35 93 35q60 0 95 -52q20 -35 16 -70l-1 -8q-5 -48 -48 -88q-32 -25 -61 -31q-15 -3 -23 -3h-14q-32 0 -64 23q-32 25 -40 66q-3 18 -2 33z" />
<glyph unicode="&#x152;" horiz-adv-x="1954" d="M122 731l1 4q34 310 291 542l74 55q201 132 417 132h3q168 0 303 -75l8 74l1 1h786l1 -1l-21 -192h-595l-49 -443h471l1 -1l-21 -190l-1 -1h-471l-49 -443h595l-21 -192l-1 -1h-786l-1 1l8 76q-154 -77 -319 -77q-262 0 -451 187q-83 96 -104 148q-93 183 -70 396z M315 733q-26 -237 134 -411q134 -128 319 -128q176 0 324 113l93 851q-127 114 -298 114q-231 0 -418 -197q-134 -158 -154 -342z" />
<glyph unicode="&#x153;" horiz-adv-x="1850" d="M94 467l2 15q12 112 81 225q19 31 45 63q19 24 57 61q54 45 77 58q132 84 278 84q163 0 286 -105q18 -14 49 -50q25 -31 43 -63q47 62 113 117q143 101 276 101h29q146 0 268 -117q59 -65 79 -112q59 -129 43 -270l-3 -30q-3 -28 -7 -28h-716q11 -107 58 -160 q72 -87 175 -87q130 0 232 131q21 33 24 34q163 -78 165 -80q-18 -35 -75 -105q-166 -173 -366 -173h-4q-206 0 -334 183q-10 18 -19 36q-18 -23 -40 -47q-44 -45 -70 -63q-29 -22 -55 -37q-127 -72 -256 -72h-9q-136 0 -252 80q-22 18 -39 34q-36 33 -50 56q-18 24 -33 52 q-17 32 -27 62q-36 104 -25 207zM288 473q-12 -109 49 -198q27 -35 43 -46q73 -60 166 -60q114 0 211 86q39 37 56 64q49 74 58 153v3q13 115 -56 207q-30 36 -42 41q-15 14 -29 22q-61 35 -131 35q-106 0 -203 -79q-34 -31 -44 -46q-67 -81 -78 -182zM1132 598h485v1 q-12 51 -65 116q-69 65 -159 65q-137 0 -241 -145z" />
<glyph unicode="&#x2c6;" horiz-adv-x="757" d="M300 1757v1l251 251h113q11 -14 195 -251l-158 -129l-118 152l-152 -152h-1z" />
<glyph unicode="&#x2dc;" horiz-adv-x="867" d="M300 1698l20 182q39 41 74 60q54 31 101 31q56 0 151.5 -58.5t143.5 -58.5q45 0 98 33q35 23 81 75l-21 -193q-37 -30 -73 -50q-54 -29 -103 -29q-52 0 -147.5 57t-147.5 57q-44 0 -97 -33q-35 -22 -80 -73z" />
<glyph unicode="&#x2000;" horiz-adv-x="1014" />
<glyph unicode="&#x2001;" horiz-adv-x="2028" />
<glyph unicode="&#x2002;" horiz-adv-x="1014" />
<glyph unicode="&#x2003;" horiz-adv-x="2028" />
<glyph unicode="&#x2004;" horiz-adv-x="676" />
<glyph unicode="&#x2005;" horiz-adv-x="507" />
<glyph unicode="&#x2006;" horiz-adv-x="338" />
<glyph unicode="&#x2007;" horiz-adv-x="338" />
<glyph unicode="&#x2008;" horiz-adv-x="253" />
<glyph unicode="&#x2009;" horiz-adv-x="405" />
<glyph unicode="&#x200a;" horiz-adv-x="112" />
<glyph unicode="&#x2010;" horiz-adv-x="947" d="M105 414l21 193h705l1 -1l-21 -191l-1 -1h-705z" />
<glyph unicode="&#x2011;" horiz-adv-x="947" d="M105 414l21 193h705l1 -1l-21 -191l-1 -1h-705z" />
<glyph unicode="&#x2012;" horiz-adv-x="947" d="M105 414l21 193h705l1 -1l-21 -191l-1 -1h-705z" />
<glyph unicode="&#x2013;" horiz-adv-x="1081" d="M95 413l21 193h848l2 -1l-21 -191l-2 -1h-848z" />
<glyph unicode="&#x2014;" horiz-adv-x="1381" d="M95 375l21 193h1147l3 -1l-21 -191l-3 -1h-1147z" />
<glyph unicode="&#x2018;" horiz-adv-x="648" d="M193 1334q17 157 221 322q56 45 72 53l43 -66q-141 -119 -151 -212q43 -19 59 -62q12 -26 9 -57q-7 -63 -69 -105q-34 -21 -74 -21q-63 0 -97 56q-19 35 -13 92z" />
<glyph unicode="&#x2019;" horiz-adv-x="648" d="M119 1252q141 119 152 212q-44 19 -60 62q-12 26 -9 57q7 63 69 104q34 22 75 22q62 0 96 -56q19 -35 13 -93q-17 -156 -221 -321q-55 -46 -71 -53z" />
<glyph unicode="&#x201a;" horiz-adv-x="583" d="M64 -212q141 119 152 212q-44 19 -60 62q-12 26 -9 57q7 63 69 104q34 22 75 22q62 0 96 -56q19 -35 13 -93q-17 -156 -221 -321q-55 -46 -71 -53z" />
<glyph unicode="&#x201c;" horiz-adv-x="1128" d="M233 1334q17 157 221 322q56 45 72 53l43 -66q-141 -119 -151 -212q43 -19 59 -62q12 -26 9 -57q-7 -63 -69 -105q-34 -21 -74 -21q-63 0 -97 56q-19 35 -13 92zM633 1334q17 157 221 322q56 45 72 53l43 -66q-141 -119 -151 -212q43 -19 59 -62q12 -26 9 -57 q-7 -63 -69 -105q-34 -21 -74 -21q-63 0 -97 56q-19 35 -13 92z" />
<glyph unicode="&#x201d;" horiz-adv-x="1128" d="M159 1252q141 119 152 212q-44 19 -60 62q-12 26 -9 57q7 63 69 104q34 22 75 22q62 0 96 -56q19 -35 13 -93q-17 -156 -221 -321q-55 -46 -71 -53zM559 1252q141 119 152 212q-44 19 -60 62q-12 26 -9 57q7 63 69 104q34 22 75 22q62 0 96 -56q19 -35 13 -93 q-17 -156 -221 -321q-55 -46 -71 -53z" />
<glyph unicode="&#x201e;" horiz-adv-x="983" d="M64 -212q141 119 152 212q-44 19 -60 62q-12 26 -9 57q7 63 69 104q34 22 75 22q62 0 96 -56q19 -35 13 -93q-17 -156 -221 -321q-55 -46 -71 -53zM464 -212q141 119 152 212q-44 19 -60 62q-12 26 -9 57q7 63 69 104q34 22 75 22q62 0 96 -56q19 -35 13 -93 q-17 -156 -221 -321q-55 -46 -71 -53z" />
<glyph unicode="&#x2022;" horiz-adv-x="966" d="M308 958q-8 -70 42 -122q43 -39 99 -39q70 0 129 58q43 45 50 103q8 77 -54 129q-39 30 -90 30q-76 0 -136 -67q-35 -42 -40 -92z" />
<glyph unicode="&#x2026;" horiz-adv-x="1340" d="M75 122l1 8q5 47 47 87q42 35 93 35q60 0 95 -52q20 -35 17 -70l-1 -8q-6 -48 -49 -88q-32 -25 -60 -31q-16 -3 -24 -3h-14q-32 0 -64 23q-31 25 -40 66q-3 18 -1 33zM501 122l1 8q5 47 47 87q42 35 93 35q60 0 95 -52q20 -35 17 -70l-1 -8q-6 -48 -49 -88 q-32 -25 -60 -31q-16 -3 -24 -3h-14q-32 0 -64 23q-31 25 -40 66q-3 18 -1 33zM927 123l1 8q5 47 47 87q42 35 93 35q60 0 95 -52q20 -35 17 -70l-1 -8q-6 -48 -49 -88q-32 -25 -60 -31q-16 -3 -24 -3h-14q-32 0 -64 23q-31 25 -40 66q-3 18 -1 33z" />
<glyph unicode="&#x202f;" horiz-adv-x="405" />
<glyph unicode="&#x2039;" horiz-adv-x="753" d="M127 403l15 134l376 242l52 33h1q4 -6 49 -83l44 -75v-1l-287 -183l246 -184q-122 -153 -127 -159l-368 274z" />
<glyph unicode="&#x203a;" horiz-adv-x="754" d="M110 286l286 184l-246 183v1l61 75q61 77 67 83h1l44 -33l324 -242l-15 -134l-1 -2l-428 -274q-5 6 -93 159z" />
<glyph unicode="&#x205f;" horiz-adv-x="507" />
<glyph unicode="&#x20ac;" horiz-adv-x="1108" d="M53 437l21 192l1 1h61q1 20 4 39v5h-60l-1 1l21 192l1 1h89q21 48 45 91q34 57 86 119q25 30 71 73q58 50 84 67q55 38 106 63q174 86 359 86q203 0 371 -105q36 -23 76 -58q8 -6 19 -16q0 -1 -143 -146q-53 48 -101 73q-113 58 -237 58h-13q-141 0 -281 -74 q-153 -86 -236 -231h875l1 -1l-21 -192l-1 -1h-917q-2 -22 -2 -44h914l1 -1l-21 -192l-1 -1h-854q72 -154 235 -224q97 -40 200 -40h9q143 0 282 74q32 18 66 42l20 15q97 -127 111 -146q-61 -47 -95 -65q-66 -40 -144 -67q-132 -47 -266 -47q-208 0 -378 109q-38 25 -84 67 q-20 18 -49 50q-43 54 -64 94q-32 57 -51 120q-4 18 -5 18h-103z" />
<glyph unicode="&#x2122;" horiz-adv-x="2606" d="M163 1272l21 191l2 1h970v-1l-21 -191l-1 -1h-388l-109 -971h-194l109 971h-388zM1154 300l130 1163l2 1h220l190 -388l164 -334l11 -22h1l268 374l265 370h220v-1l-130 -1163h-203l92 818q-10 -12 -211 -294q-214 -296 -222 -309l-36 -48h-145q0 1 -64 130l-186 379 q-7 16 -70 142l-92 -818h-204z" />
<glyph unicode="&#x25fc;" horiz-adv-x="960" d="M0 0v960h960v-960h-960z" />
<glyph unicode="&#xfb01;" horiz-adv-x="1122" d="M15 766l21 191l2 1h185v4q29 261 189 398q59 50 118 73q81 31 157 31h57v-1l-21 -192l-1 -1h-50q-129 0 -200 -120q-43 -74 -56 -192h271v-1l-21 -191l-1 -1h-271l-86 -764l-1 -1h-192l86 765h-185zM704 1l108 957h194l-108 -957l-1 -1h-192zM825 1334l1 8q5 46 46 86 l17 13q38 23 73 23h8q44 0 79 -34q34 -40 29 -89l-1 -6q-5 -45 -43 -84q-45 -39 -94 -39h-6q-46 0 -80 35q-18 22 -23 39q-9 25 -6 48z" />
<glyph unicode="&#xfb02;" horiz-adv-x="1105" d="M15 766l21 191l2 1h185v4q29 261 189 398q59 50 118 73q81 31 157 31h57v-1l-21 -192l-1 -1h-50q-129 0 -200 -120q-43 -74 -56 -192h271v-1l-21 -191l-1 -1h-271l-86 -764l-1 -1h-192l86 765h-185zM709 1l164 1462l2 1h191v-1l-164 -1462l-1 -1h-191z" />
</font>
</defs>
</svg>
