<?xml version="1.0" standalone="no"?>
<!DOCTYPE svg PUBLIC "-//W3C//DTD SVG 1.1//EN" "http://www.w3.org/Graphics/SVG/1.1/DTD/svg11.dtd" >
<svg xmlns="http://www.w3.org/2000/svg" xmlns:xlink="http://www.w3.org/1999/xlink" version="1.1">
<metadata></metadata>
<defs>
<font id="louis_george_cafeitalic" horiz-adv-x="1382" >
<font-face units-per-em="2048" ascent="1638" descent="-410" />
<missing-glyph horiz-adv-x="508" />
<glyph horiz-adv-x="0" />
<glyph unicode="&#xd;" horiz-adv-x="508" />
<glyph unicode=" "  horiz-adv-x="508" />
<glyph unicode="&#x09;" horiz-adv-x="508" />
<glyph unicode="&#xa0;" horiz-adv-x="508" />
<glyph unicode="!" horiz-adv-x="566" d="M191 96l1 8q4 38 41 70q32 26 69 26h2q43 0 71 -35q20 -30 17 -61l-1 -6q-5 -43 -45 -75q-31 -23 -67 -23q-38 0 -66 28q-26 32 -22 68zM247 325l108 1138l1 1h178l1 -1l-148 -1138h-140z" />
<glyph unicode="&#x22;" horiz-adv-x="801" d="M207 1100l45 400h140l-45 -400h-140zM477 1100l45 400h140l-45 -400h-140z" />
<glyph unicode="#" horiz-adv-x="912" d="M111 452l15 138l1 1h156l67 239h-144l-1 1l15 138l1 1h168l102 369h1l134 -23v-1l-95 -345h229l99 359q134 -23 136 -23l-93 -336h146l-15 -140h-170l-67 -239h157l1 -1l-15 -138l-1 -1h-180l-116 -416l-135 23l109 393h-229l-113 -407l-135 24l106 383h-133zM425 591 h229l67 239h-229z" />
<glyph unicode="$" horiz-adv-x="969" d="M97 318l134 60q13 -39 38 -78q30 -39 49 -54q37 -29 63 -39q62 -28 129 -28h8q97 0 188 54q18 11 43 33q32 35 43 57q26 47 31 94q10 94 -61 154q-20 15 -36 23q-21 10 -50 19l-126 30q-121 31 -194 68q-29 15 -64 40q-19 15 -40 39q-64 78 -53 185l2 13q9 86 68 171 q16 25 50 58q40 37 57 46q31 21 65 37q20 9 57 21q55 15 65 15l12 103l1 1h139l1 -1l-11 -98q64 -8 112 -29q65 -26 122 -84q32 -36 41 -51q23 -35 29 -53q-97 -46 -132 -63l-12 22q-10 16 -27 36q-78 85 -198 85h-7q-98 0 -179 -49q-65 -41 -98 -113q-12 -30 -16 -60v-1 q-8 -70 37 -108q30 -25 62 -39q80 -40 275 -82q51 -14 86 -31q31 -16 65 -42q14 -12 34 -35q28 -36 38 -58q36 -77 26 -169q-14 -130 -112 -236q-31 -31 -51 -45q-40 -28 -67 -42q-29 -14 -73 -29q-29 -11 -80 -20l-18 -2l-11 -99l-1 -1h-139l-1 1l11 101q-39 7 -67 16 q-46 16 -81 37q-32 19 -68 51q-34 34 -50 58q-37 54 -49 88q-9 21 -9 23z" />
<glyph unicode="%" horiz-adv-x="1394" d="M99 0l1059 1433h160l-1059 -1433h-160zM122 1142l2 13q8 83 70 160q11 14 42 43q91 70 191 70h6q98 0 173 -67q29 -31 37 -44q48 -77 39 -167q-11 -114 -105 -200l-15 -15q-89 -65 -189 -65q-98 0 -171 65q-23 22 -34 38q-18 27 -27 48q-25 63 -19 121zM277 1148 q-6 -58 40 -98q32 -26 71 -26q60 0 105 50q30 34 34 74v4q5 47 -28 86q-35 36 -85 36q-49 0 -91 -35q-41 -39 -46 -89v-2zM732 269l1 7q9 97 86 179q37 37 55 45q79 52 165 52q115 0 195 -86l8 -12q59 -81 49 -181q-11 -116 -106 -202q-38 -33 -61 -43q-68 -35 -137 -35h-8 q-90 0 -163 62q-28 25 -43 46q-50 79 -41 168zM886 273q-6 -65 49 -107q29 -19 66 -19q59 0 106 52q26 35 30 68l1 9q5 52 -37 93q-34 28 -73 28h-7q-53 0 -98 -45q-32 -36 -37 -79z" />
<glyph unicode="&#x26;" horiz-adv-x="1252" d="M192 266q-3 37 1 69l1 15q8 71 38 136q18 36 47 76q25 31 63 71q44 43 88 79q51 40 88 66q35 23 77 49q-41 79 -79 163q-17 34 -24 65q-9 47 -4 96q10 92 70 157q6 11 46 45q25 20 45 32q91 52 188 52q92 0 175 -51q77 -49 101 -139q11 -50 5 -105q-8 -71 -44 -124 q-16 -24 -40 -51q-15 -17 -53 -51q-67 -54 -106 -77q-48 -32 -94 -57q98 -184 223 -402q40 36 113 106l90 -95l-34 -31q-38 -38 -102 -95l82 -143l-121 -79q-39 66 -74 129h-1q-72 -53 -131 -85q-165 -87 -312 -87h-15q-123 0 -205 67q-13 8 -43 43q-50 61 -59 156zM330 342 q-14 -127 84 -183q34 -16 43 -16q22 -6 63 -6h2q174 0 369 149q-74 128 -163 290l-72 135h-1q-55 -33 -114 -78q-27 -20 -67 -54q-47 -43 -68 -68q-51 -62 -61 -101q-11 -35 -14 -66zM626 1148q-5 -45 11 -78q32 -70 81 -167l2 -5q53 30 93 56q39 25 88 64q40 37 50 53 q20 26 25 45q3 6 5 21l1 10q7 68 -37 109q-26 25 -81 38q-20 6 -42 6q-76 0 -144 -54q-26 -25 -31 -35q-16 -21 -21 -59v-4z" />
<glyph unicode="'" horiz-adv-x="451" d="M167 1100l45 400h140l-45 -400h-140z" />
<glyph unicode="(" horiz-adv-x="894" d="M174 621l8 73q43 384 232 650q144 181 294 181h32l2 -3l-14 -134l-3 -2h-30q-99 0 -212 -179q-130 -223 -161 -512l-9 -74q-35 -323 66 -554q70 -137 154 -137h31l3 -2l-15 -134l-3 -3h-35q-150 0 -255 189q-126 265 -85 641z" />
<glyph unicode=")" horiz-adv-x="975" d="M157 -206l15 134l3 2h31q84 0 184 137q152 231 188 554l8 74q32 289 -49 512q-73 179 -172 179h-30l-3 2l15 134l3 3h32q150 0 255 -181q130 -266 88 -650l-8 -73q-41 -376 -226 -641q-146 -189 -296 -189h-35z" />
<glyph unicode="*" horiz-adv-x="900" d="M146 1207l61 131l226 -83l27 249h139l1 -1l-27 -248l242 84q32 -129 33 -132v-1l-245 -84l124 -198l-121 -83h-1l-126 201l-170 -201h-1l-103 83l167 198q-5 2 -226 85z" />
<glyph unicode="+" horiz-adv-x="859" d="M89 420l16 140h285l32 285h140l-32 -285h285l-16 -140h-285l-32 -285h-140l32 285h-285z" />
<glyph unicode="," horiz-adv-x="471" d="M44 -167q111 94 119 167q-34 15 -47 49q-9 20 -6 45q5 49 54 82q27 17 59 17q48 0 75 -44q16 -28 11 -73q-14 -123 -174 -253q-44 -36 -56 -42z" />
<glyph unicode="-" horiz-adv-x="871" d="M95 420l15 140h706l-15 -140h-706z" />
<glyph unicode="." horiz-adv-x="501" d="M78 96l1 8q4 38 41 70q31 26 68 26h2q43 0 72 -35q20 -30 17 -61l-1 -6q-5 -43 -45 -75q-31 -23 -67 -23q-38 0 -66 28q-26 32 -22 68z" />
<glyph unicode="/" horiz-adv-x="801" d="M102 -50l669 1423l2 1h138v-1l-669 -1423h-140z" />
<glyph unicode="0" horiz-adv-x="1361" d="M116 682l2 13q29 268 217 480q198 202 421 202h9q206 0 355 -173q166 -217 133 -515q-32 -298 -247 -516q-187 -173 -397 -173q-235 0 -386 210q-136 208 -107 472zM255 682q-24 -213 85 -386q115 -157 286 -157q180 0 337 181q130 166 152 369q23 207 -74 374 q-115 176 -297 176h-1q-179 0 -336 -180q-129 -166 -151 -366z" />
<glyph unicode="1" horiz-adv-x="582" d="M171 1211l15 137l2 1h287v-1l-152 -1357l-1 -1h-137l-1 1l137 1219h-149z" />
<glyph unicode="2" horiz-adv-x="1039" d="M72 -15l16 147q0 2 11 12l283 290l270 275l135 140q29 49 36 109q11 98 -39 184q-61 99 -184 99h-8q-172 0 -252 -162q-13 -28 -27 -76q-9 -32 -10 -48h-140v4q7 65 45 156q26 55 57 97q19 25 49 55q122 115 298 115q202 0 300 -165q30 -51 43 -119q16 -68 8 -141 q-12 -106 -70 -191l-280 -286l-297 -304l-50 -52h604l-15 -140h-782z" />
<glyph unicode="3" horiz-adv-x="1052" d="M82 338l1 6l1 1h138l1 -1v-1q-11 -95 44 -175q23 -29 37 -40q73 -62 170 -62h1q100 0 188 65q35 28 48 44q68 78 78 170q10 96 -44 175q-23 30 -39 43q-24 19 -43 30q-59 31 -122 31h-102l-1 1l15 138l1 1h125q35 3 62 12q34 11 65 31q16 10 42 34q32 35 44 57 q29 49 35 105q10 89 -43 161q-26 29 -35 34q-57 44 -130 44h-3q-81 0 -154 -55q-95 -75 -107 -189l-1 -3l-1 -1h-139l2 11q13 120 97 224q14 17 50 50q30 25 53 39q105 64 216 64q138 0 238 -93q30 -31 39 -46q26 -40 35 -66q33 -83 24 -172l-1 -4q-15 -134 -116 -244 q-36 -36 -58 -52q-13 -9 -16 -10q18 -12 52 -44q27 -31 41 -51q74 -116 59 -255q-16 -146 -124 -266q-17 -17 -49 -44q-43 -34 -72 -49q-109 -60 -218 -60h-13q-98 0 -190 50q-32 19 -67 50q-35 36 -49 56q-20 30 -30 52q-13 25 -25 67q-17 72 -10 137z" />
<glyph unicode="4" horiz-adv-x="1076" d="M64 223l257 379l287 424l190 280l35 51h148v-1l-111 -993h111l-16 -139l-1 -1h-110l-26 -231l-1 -1h-138l-1 1l26 231h-650zM320 363h410l81 725l-239 -353z" />
<glyph unicode="5" horiz-adv-x="1110" d="M49 222l133 57q13 -34 33 -68q12 -18 36 -45q34 -35 63 -52q79 -48 170 -48h7q111 0 218 70q19 12 53 43l23 23q27 32 42 56q51 81 61 166q15 132 -62 236q-20 26 -35 40q-95 85 -223 85q-102 0 -201 -57l-134 -72l145 397l113 303v1h540l1 -1l-16 -139h-432l-16 -43 l-96 -261h1q56 12 112 12q156 0 279 -93q22 -16 57 -53q34 -41 49 -68q75 -131 58 -286q-18 -158 -127 -292q-21 -25 -60 -61q-46 -40 -75 -58q-52 -32 -91 -47q-101 -41 -194 -41h-19q-87 0 -178 38q-39 17 -78 44q-26 17 -66 57q-37 44 -47 63q-22 34 -32 63 q-11 23 -12 31z" />
<glyph unicode="6" horiz-adv-x="1130" d="M105 407l1 15q12 106 76 213q15 25 115 169l307 443l92 132l113 -70l-292 -422q63 16 122 16h7q141 0 258 -83q27 -19 59 -53q30 -34 46 -59q23 -40 34 -68q42 -109 30 -219l-1 -13q-14 -121 -89 -237q-22 -32 -57 -70q-15 -17 -53 -50q-74 -60 -156 -91 q-89 -34 -182 -34q-157 0 -280 97q-20 17 -51 51q-37 47 -52 78q-24 47 -36 95q-20 82 -11 160zM245 412q-12 -112 47 -208q10 -17 37 -47q93 -91 221 -91q127 0 239 88q39 35 47 46q83 96 96 214q16 140 -73 246q-25 28 -41 40q-83 63 -190 63q-127 0 -238 -88 q-34 -29 -45 -42q-86 -98 -99 -217z" />
<glyph unicode="7" horiz-adv-x="992" d="M66 33l302 474l227 355q1 0 183 285q40 63 43 70h-669l-1 1l16 138l1 1h832l1 -1l-15 -131l-203 -316l-276 -433l-252 -394l-72 -114h-1q-4 1 -116 65z" />
<glyph unicode="8" horiz-adv-x="1094" d="M96 352l2 15q11 101 77 201q70 103 177 161q-13 11 -42 44q-23 33 -35 58q-42 88 -31 187q15 131 112 237q43 41 58 50q26 19 46 29q93 51 190 51h5q110 0 199 -66q19 -13 48 -45q34 -41 44 -66q43 -89 32 -189q-14 -130 -110 -236q-37 -36 -57 -50l-4 -4q22 -12 55 -41 q33 -32 52 -58q83 -121 67 -270q-17 -156 -136 -281q-41 -39 -54 -47q-47 -34 -79 -50q-109 -54 -213 -54h-16q-96 0 -189 47q-33 18 -68 47q-19 16 -40 39q-40 51 -57 91q-12 23 -19 51q-22 77 -14 149zM237 359q-11 -97 43 -177q23 -31 43 -48q79 -65 181 -65h5 q111 0 209 75q34 30 42 40q70 80 81 176q11 106 -55 192q-28 33 -44 43q-75 56 -170 56h-1q-113 0 -212 -76q-37 -33 -44 -44q-24 -25 -42 -57q-30 -55 -36 -114v-1zM384 1018q-10 -91 49 -161q62 -66 153 -66q96 0 174 72q69 69 78 152v5q10 83 -44 152q-63 73 -158 73 q-90 0 -167 -66q-75 -70 -85 -161z" />
<glyph unicode="9" horiz-adv-x="1109" d="M81 887l2 17q12 106 76 214q23 37 59 79q19 21 45 45q50 43 73 56q40 26 79 43q102 43 197 43h15q110 0 212 -56q34 -19 70 -50q42 -39 67 -75q31 -47 42 -78q16 -34 26 -86q13 -71 6 -136l-2 -14q-13 -126 -96 -246l-172 -249l-299 -432l-11 -16q-110 68 -112 71 l262 380l18 25v1h-1q-64 -16 -126 -16q-157 0 -279 98q-20 16 -46 44q-41 49 -55 80q-19 36 -29 70q-31 95 -21 188zM222 893q-13 -119 54 -219q23 -32 50 -55q88 -72 201 -72q123 0 232 83q31 25 43 39q93 101 107 226v1q14 126 -58 227q-23 31 -42 46q-87 75 -204 75h-2 q-121 0 -231 -83q-36 -31 -46 -43q-90 -100 -104 -221v-4z" />
<glyph unicode=":" horiz-adv-x="463" d="M113 96l1 8q4 38 41 70q31 26 68 26h2q43 0 72 -35q20 -30 17 -61l-1 -6q-5 -43 -45 -75q-31 -23 -67 -23q-38 0 -66 28q-26 32 -22 68zM182 846l1 8q4 39 41 71q32 25 69 25q43 0 72 -34q21 -30 18 -62l-1 -7q-4 -39 -41 -71q-33 -26 -70 -26h-1q-51 0 -79 46 q-12 27 -9 50z" />
<glyph unicode=";" horiz-adv-x="457" d="M40 -167q111 94 119 167q-34 15 -47 49q-9 20 -6 45q5 49 54 82q27 17 59 17q48 0 75 -44q16 -28 11 -73q-14 -123 -174 -253q-44 -36 -56 -42zM176 846l1 8q4 39 40 71q33 25 70 25q43 0 72 -34q21 -30 18 -62l-1 -7q-4 -39 -41 -71q-33 -26 -70 -26h-1q-51 0 -79 46 q-12 27 -9 50z" />
<glyph unicode="&#x3c;" horiz-adv-x="776" d="M87 457l13 121q6 5 267 200l302 227l77 -109l-380 -284l-125 -95l104 -93l318 -286l-101 -108l-311 279z" />
<glyph unicode="=" horiz-adv-x="806" d="M115 269l15 140h650l-15 -140h-650zM151 569l16 140h650l-16 -140h-650z" />
<glyph unicode="&#x3e;" horiz-adv-x="775" d="M74 138l380 286l126 93l-105 95l-318 284l101 109l252 -227q219 -195 223 -200l-13 -121l-196 -148l-373 -279z" />
<glyph unicode="?" horiz-adv-x="1047" d="M250 1048l5 42q11 101 74 202q16 23 46 58q13 16 48 47q42 34 74 51q100 55 196 55h14q99 0 189 -57q24 -15 59 -50q38 -44 48 -65q21 -34 34 -77q25 -85 16 -164l-2 -13q-10 -87 -64 -184q-23 -37 -56 -76q-15 -19 -52 -52q-42 -36 -94 -69q-40 -27 -79 -59 q-48 -39 -53 -84l-13 -126l-13 -119l-1 -1h-139l16 158l10 85q12 108 105 187q47 39 102 75q43 28 74 54q39 36 47 51q20 25 36 55q29 58 35 110v1q12 107 -49 192q-28 33 -38 39q-62 49 -140 49h-2q-91 0 -174 -67q-35 -31 -45 -47q-60 -76 -70 -165l-4 -36l-1 -1h-138z M433 100q6 49 50 81q30 19 61 19h1q52 0 79 -47q12 -26 10 -51l-1 -4q-5 -43 -45 -75q-31 -23 -67 -23q-42 0 -69 32q-23 30 -19 68z" />
<glyph unicode="@" horiz-adv-x="2064" d="M171 568l2 21q17 169 99 335q35 69 88 142q34 44 81 94q26 27 66 61q57 49 97 75q61 39 127 70q55 27 134 53q148 45 287 45h21q150 0 299 -60q50 -22 97 -49q47 -28 104 -76q26 -23 55 -54q46 -53 62 -78q36 -53 54 -91q90 -191 68 -407v-7q-16 -159 -80 -281 q-23 -45 -61 -95q-61 -78 -145 -131q-103 -61 -197 -61h-7q-95 0 -172 62q-50 43 -66 120q-38 -33 -70 -50q-92 -50 -177 -50h-11q-88 0 -166 52q-20 12 -49 42q-31 37 -40 53q-67 115 -53 261q13 132 92 251q17 25 51 64q36 37 61 55q114 86 235 86q109 0 194 -71 q14 -11 35 -36q32 -37 42 -61l5 -9q18 37 35 72l126 -51q-58 -115 -107 -241q-31 -84 -32 -98q-12 -34 -21 -73q-10 -43 -13 -72l-1 -10q-7 -66 13 -104q6 -13 25 -27q38 -25 83 -25q78 0 167 73q34 31 44 45q59 70 88 155q24 73 32 158q21 205 -77 377q-16 30 -48 72 q-24 30 -55 59q-48 44 -82 65q-163 106 -359 106h-4q-190 0 -369 -84q-39 -19 -85 -48q-39 -22 -97 -70q-49 -43 -61 -57q-48 -51 -70 -84q-44 -59 -78 -129q-61 -130 -75 -270l-1 -7q-24 -242 86 -441q21 -35 53 -78q39 -45 54 -58q43 -41 73 -61q176 -120 406 -120 q200 0 365 83q53 -119 54 -123q-46 -24 -113 -48q-42 -15 -107 -30q-105 -22 -191 -22h-42q-102 0 -224 32q-91 27 -152 60q-57 29 -121 79q-30 22 -75 68q-48 53 -64 78q-44 63 -67 117q-25 49 -38 96q-16 43 -31 132q-17 118 -6 229zM758 564q-11 -102 37 -183 q36 -57 99 -78q26 -8 51 -8q76 0 150 59q34 30 42 42q19 22 31 41q18 27 33 62q8 16 20 59q6 21 9 54q11 102 -37 182q-9 13 -30 37q-52 48 -117 48h-6q-70 0 -145 -58q-34 -29 -43 -42q-23 -25 -42 -57q-44 -78 -52 -158z" />
<glyph unicode="A" d="M1 1l732 1463h145q4 0 24 -76l378 -1354l10 -33l-2 -1h-150q-5 7 -64 227q-32 112 -36 117h-714q-6 -7 -136 -269q-33 -69 -39 -75h-145l-2 1h-1zM393 485h608l-218 779h-1z" />
<glyph unicode="B" horiz-adv-x="1087" d="M89 3l164 1458l3 3h440q213 0 320 -156q43 -71 43 -160q0 -22 -3 -44l-3 -26q-20 -180 -180 -299v-1q62 -29 117 -111q42 -70 42 -163q0 -25 -3 -51l-5 -47q-27 -258 -261 -368q-108 -37 -169 -37l-361 -1h-142zM245 140h10l346 1q64 0 146 44q120 72 137 222l5 49 q2 17 2 32q0 141 -156 192q-52 15 -108 15h-320zM323 835h293q163 0 257 130q33 50 40 114l3 26q2 15 2 28q0 129 -145 178q-44 13 -90 13h-305z" />
<glyph unicode="C" horiz-adv-x="1419" d="M150 727l1 10q28 305 263 533q219 194 467 194h10h12q254 0 436 -207q80 -108 95 -164q-126 -62 -130 -62q-21 50 -57 104q-146 189 -362 189h-6q-226 0 -415 -202q-150 -175 -173 -385l-1 -10q-4 -37 -4 -73q0 -199 126 -357q140 -157 342 -157q221 0 410 195 q47 56 76 102l116 -64q-29 -60 -138 -177q-226 -196 -484 -196q-275 0 -460 230q-129 187 -129 409q0 43 5 88z" />
<glyph unicode="D" horiz-adv-x="1305" d="M93 3l164 1458l3 3h354q251 0 437 -173q83 -88 100 -127q94 -161 94 -347q0 -42 -5 -85q-32 -286 -254 -509q-223 -219 -556 -223h-334zM248 140h198q312 0 522 266q112 156 131 326q4 37 4 72q0 212 -149 375q-55 51 -103 79q-120 66 -252 66h-217z" />
<glyph unicode="E" horiz-adv-x="933" d="M93 1l164 1462l2 1h727v-1l-15 -138l-1 -1h-588l-59 -522h470l1 -1l-16 -138l-1 -1h-470l-58 -522h588l1 -1l-16 -138l-1 -1h-727z" />
<glyph unicode="F" horiz-adv-x="874" d="M87 1l164 1462l2 1h726v-1l-15 -138l-1 -1h-587l-59 -522h494l1 -1l-16 -138l-1 -1h-494l-74 -661l-1 -1h-138z" />
<glyph unicode="G" horiz-adv-x="1530" d="M136 725l2 12q31 286 239 508q96 89 159 122q171 97 354 97h12q259 0 443 -207q69 -88 100 -165l3 -13q-126 -62 -132 -62h-1q-16 55 -82 142q-144 165 -350 165h-8q-235 0 -429 -197q-145 -177 -168 -390l-2 -10q-4 -35 -4 -69q0 -174 98 -320q148 -198 379 -198 q205 0 367 144q91 85 117 134q33 42 72 131q12 30 25 73h-401l-3 3l15 134l3 3h550l3 -3q-13 -114 -56 -238q-96 -246 -297 -391q-191 -130 -411 -130q-258 0 -438 194q-73 88 -103 160q-60 140 -60 289q0 41 4 82z" />
<glyph unicode="H" horiz-adv-x="1162" d="M87 3l164 1458l3 3h134l3 -3l-74 -658h646l74 658l2 3h135l3 -3l-164 -1458l-3 -3h-135l-2 3l74 660h-646l-74 -660l-3 -3h-134z" />
<glyph unicode="I" horiz-adv-x="404" d="M87 1l164 1462l2 1h138v-1l-164 -1462l-1 -1h-138z" />
<glyph unicode="J" horiz-adv-x="918" d="M-28 411l9 78l1 1h134l1 -1l-8 -73q-2 -16 -2 -33q0 -79 45 -150q22 -32 45 -50q59 -47 123 -47h87q75 0 153 60q34 31 43 43q69 81 80 185l117 1039l1 1h134l1 -1l-117 -1046q-14 -120 -92 -230q-23 -32 -63 -70q-37 -34 -53 -43q-18 -14 -44 -28q-29 -14 -53 -23 q-64 -23 -116 -23h-99q-62 0 -132 32q-130 67 -178 215q-19 62 -19 123q0 20 2 41z" />
<glyph unicode="K" horiz-adv-x="1181" d="M87 3l164 1458l3 3h134l3 -3l-91 -811l796 810l5 4h182v-3l-688 -702v-1l532 -757l-2 -1h-183l-361 519l-92 132q-204 -205 -214 -218l-48 -430l-3 -3h-134z" />
<glyph unicode="L" horiz-adv-x="943" d="M93 1l164 1462l2 1h138v-1l-148 -1323h627l-16 -140h-766z" />
<glyph unicode="M" horiz-adv-x="1669" d="M93 3l164 1458l3 3h186q3 0 38 -124l338 -1133h1l657 1257h187l3 -3l-164 -1458l-3 -3h-142l-3 3l134 1193h-1l-624 -1195l-1 -1h-131q-4 0 -33 102q-3 3 -241 811q-74 244 -85 284h-1l-134 -1194l-3 -3h-142z" />
<glyph unicode="N" horiz-adv-x="1326" d="M93 3l164 1458l3 3h172q7 -8 437 -872l185 -371h2l139 1240l2 3h135l3 -3l-164 -1458l-3 -3h-165q-13 16 -62 120q-3 5 -436 875l-125 248l-140 -1240l-3 -3h-141z" />
<glyph unicode="O" horiz-adv-x="1531" d="M122 725l1 14q30 267 221 488q79 76 113 98q199 139 420 139h6q255 0 437 -195q67 -81 86 -128q76 -149 76 -318q0 -43 -5 -87l-1 -8q-33 -302 -269 -532q-215 -194 -489 -196q-256 0 -438 194q-79 98 -94 143q-69 144 -69 303q0 42 5 85zM262 727q-4 -37 -4 -72 q0 -199 129 -359q144 -156 348 -156q239 0 435 212q144 173 166 376l1 8q4 37 4 72q0 200 -130 360q-143 156 -347 156q-237 0 -428 -193q-149 -177 -173 -394z" />
<glyph unicode="P" horiz-adv-x="1138" d="M119 3l164 1458l3 3h460q210 0 346 -168q82 -119 81 -252q0 -25 -2 -50l-2 -15q-21 -183 -176 -329q-164 -141 -353 -141h-324l-57 -506l-3 -3h-135zM332 650h322q165 0 292 141q72 92 83 190l1 12q2 20 2 39q0 127 -103 221q-87 71 -200 71h-321z" />
<glyph unicode="Q" horiz-adv-x="1539" d="M122 725l1 13q30 268 221 489q79 76 113 98q199 139 421 139h5q255 0 437 -195q66 -82 86 -129q76 -149 76 -318q0 -42 -5 -86l-1 -8q-28 -258 -213 -472v-1q74 -81 160 -181l-111 -98l-157 179q-207 -155 -437 -155q-256 0 -438 193q-79 99 -94 143q-69 145 -69 304 q0 42 5 85zM262 727q-4 -37 -4 -72q0 -199 129 -359q144 -156 349 -156q170 0 328 114l1 1v1l-137 156l109 98h1l137 -153q139 171 161 371l1 8q4 37 4 72q0 200 -130 360q-142 156 -347 156q-237 0 -428 -193q-149 -178 -173 -394z" />
<glyph unicode="R" horiz-adv-x="1123" d="M87 3l164 1458l3 3h460q210 0 346 -168q82 -119 81 -252q0 -25 -2 -50l-2 -15q-22 -194 -195 -347q-92 -70 -174 -95l247 -534l-1 -2h-164q-6 7 -95 209l-136 299h-335l-57 -506l-3 -3h-135zM300 650h322q165 0 292 141q72 92 83 190l1 12q2 20 2 39q0 127 -103 221 q-87 71 -200 71h-321z" />
<glyph unicode="S" horiz-adv-x="957" d="M9 302q4 2 135 54q16 -49 40 -90q9 -17 39 -51q36 -39 64 -53q70 -42 153 -42h5q97 0 188 57q21 12 50 39q45 46 68 103q19 46 24 89v3q2 17 2 33q0 84 -53 145q-34 32 -55 41q-13 9 -40 18q-19 7 -100 27q-161 43 -243 90q-162 91 -162 259q0 20 2 42l1 8 q14 126 101 236q14 18 50 52q41 35 68 50q45 28 99 46q79 24 149 24h16q102 0 196 -53q29 -18 63 -47q15 -14 40 -41q33 -44 46 -71q11 -21 17 -40v-1l-133 -58q-10 30 -44 74q-81 97 -207 97h-2q-123 0 -214 -74q-33 -30 -46 -48q-50 -69 -59 -150q-2 -15 -1 -29 q0 -65 37 -104q34 -36 84 -59q85 -43 276 -89q49 -14 82 -33q41 -21 81 -60q31 -34 39 -49q16 -24 23 -44q30 -71 30 -146q0 -20 -2 -40v-3v-4l-1 -4l-1 -3q-11 -105 -78 -208q-85 -127 -235 -184q-87 -31 -166 -31h-17q-99 0 -197 49q-31 17 -66 45q-51 43 -89 101 q-27 45 -43 87q-14 38 -14 40z" />
<glyph unicode="T" horiz-adv-x="940" d="M168 1325l16 138l1 1h923l1 -1l-16 -138l-1 -1h-391l-149 -1323l-1 -1h-138l-1 1l149 1323h-392z" />
<glyph unicode="U" horiz-adv-x="1315" d="M179 522l105 939l4 3h134l2 -3l-105 -937q-4 -34 -4 -65q0 -185 133 -280q69 -39 142 -39h139q151 0 265 140q76 101 94 258l103 923l4 3h135l2 -3l-103 -923q-37 -324 -285 -475q-115 -63 -228 -63h-144q-169 0 -289 127q-109 130 -109 316q0 38 5 79z" />
<glyph unicode="V" horiz-adv-x="1366" d="M198 1463l1 1h155l44 -153l311 -1109h1l467 937l163 324l1 1h163l2 -1h1l-739 -1446l-11 -17h-141q-3 0 -64 223z" />
<glyph unicode="W" horiz-adv-x="1897" d="M224 1463l1 1h148q4 0 12 -65l163 -1121h2l412 961l99 225h102q3 -1 29 -130l223 -1056h2l422 1185l1 1h158l2 -1h1l-531 -1436q-10 -27 -12 -27h-129q-4 0 -20 84l-229 1083h-1l-504 -1167h-130q-3 0 -23 147z" />
<glyph unicode="X" horiz-adv-x="1168" d="M-44 3l586 755l-390 705l2 1h171q247 -450 327 -602h2l452 602h183v-1q-430 -557 -545 -704l418 -756l-3 -3h-176q-6 4 -66 118l-286 525h-1l-477 -623q-14 -20 -16 -20h-178z" />
<glyph unicode="Y" horiz-adv-x="1177" d="M196 1461v3h172q16 -23 326 -597l4 -5l452 602h190l3 -3l-583 -743l-85 -715l-4 -3h-140l-1 3l78 715z" />
<glyph unicode="Z" horiz-adv-x="1116" d="M-19 3l622 834l362 487h-726l-3 3l15 134l3 3h978l2 -3l-636 -855l-348 -466h794l2 -3l-15 -134l-2 -3h-1045z" />
<glyph unicode="[" horiz-adv-x="714" d="M63 -169l189 1683l1 1h367l1 -1l-15 -139l-1 -1h-227l-158 -1403h227l1 -1l-16 -139l-1 -1h-367z" />
<glyph unicode="\" horiz-adv-x="605" d="M-102 1373v1h138l2 -1l669 -1423h-140z" />
<glyph unicode="]" horiz-adv-x="751" d="M139 -169l16 139l1 1h227l158 1403h-227l-1 1l15 139l1 1h367l1 -1l-189 -1683l-1 -1h-367z" />
<glyph unicode="^" horiz-adv-x="1006" d="M129 853v1l292 403l105 143h120l35 -66l174 -345l68 -135v-2l-126 -72h-1q-111 218 -142 281q-2 2 -86 170l-259 -356l-69 -96z" />
<glyph unicode="_" horiz-adv-x="1105" d="M70 -160l15 140h950l-15 -140h-950z" />
<glyph unicode="`" horiz-adv-x="665" d="M300 1798l60 118l353 -203l-61 -119z" />
<glyph unicode="a" horiz-adv-x="1180" d="M127 469l2 12q20 188 172 336q157 143 353 143q198 0 296 -162l2 -6h2l17 156l3 3h135l2 -3l-104 -945l-3 -3h-135l-2 3l17 154h-1q-126 -166 -345 -166v1l-1 -1q-194 0 -323 156q-90 124 -90 269q0 26 3 53zM268 474q-2 -22 -2 -42q0 -139 105 -235q78 -65 180 -65 q217 0 323 213q30 62 36 124l3 22q2 15 2 30q0 73 -37 152q-78 145 -236 145q-212 0 -329 -200q-37 -71 -44 -139z" />
<glyph unicode="b" horiz-adv-x="1114" d="M79 2l164 1459l3 3h134l3 -3l-75 -669h1q16 29 94 92q110 76 241 76q244 0 369 -210q54 -104 54 -212q0 -26 -3 -52l-2 -22q-20 -182 -173 -333q-80 -68 -142 -95q-105 -45 -198 -45l-1 1l-5 -1q-216 0 -306 166h-1l-17 -155l-3 -2h-134zM280 475q-3 -24 -3 -46 q0 -143 105 -240q72 -57 185 -57q158 0 281 151q64 93 74 183l2 16q2 20 2 40q0 125 -94 223q-80 73 -207 73q-185 0 -299 -196q-38 -74 -45 -136z" />
<glyph unicode="c" horiz-adv-x="961" d="M103 469l1 11q22 197 185 349q155 128 315 128h26q147 0 270 -110q58 -63 75 -99l-124 -78q-52 96 -161 134q-40 13 -81 13h-16q-120 0 -232 -103q-103 -105 -118 -239v-5q-2 -20 -2 -40q0 -118 82 -212q87 -87 204 -87q146 0 265 129l17 21l110 -76q-102 -136 -267 -192 q-75 -22 -141 -22q-174 0 -299 128q-112 130 -112 294q0 28 3 56z" />
<glyph unicode="d" horiz-adv-x="1146" d="M106 464l3 22q15 135 111 264q172 210 416 210q131 0 224 -76q64 -63 73 -92h1l76 669l3 3h134l3 -3l-164 -1459l-4 -2h-134l-2 2l17 155h-1q-127 -166 -343 -166l-5 1l-1 -1q-93 0 -188 45q-56 27 -120 95q-102 129 -102 281q0 26 3 52zM247 466q-2 -17 -2 -34 q0 -73 35 -149q89 -151 247 -151q113 0 198 57q146 112 166 286l1 11q2 16 2 32q0 49 -16 104q-70 196 -255 196q-127 0 -223 -73q-135 -113 -151 -263z" />
<glyph unicode="e" horiz-adv-x="1027" d="M89 469l1 9q22 200 181 350q149 131 328 131q206 0 333 -182q68 -121 68 -236q0 -21 -2 -43l-1 -12q-5 -46 -12 -46h-758q-1 -7 -1 -15q0 -46 26 -120q48 -112 156 -156q53 -18 97 -18q137 0 250 119q41 48 54 77h3q77 -32 121 -54q-30 -63 -114 -147 q-153 -135 -328 -135q-209 0 -337 183q-68 115 -68 242q0 26 3 53zM256 578h598q-28 131 -120 193q-69 47 -155 47q-145 0 -263 -136q-38 -47 -60 -104z" />
<glyph unicode="f" horiz-adv-x="565" d="M15 811l16 138l1 1h170l2 19q25 222 140 359q13 16 44 43q38 32 64 46q29 16 59 26q59 21 113 21h29l1 -1l-15 -138l-1 -1h-22q-125 0 -204 -129q-53 -91 -70 -238v-7h254l1 -1l-16 -138l-1 -1h-254l-91 -809l-1 -1h-138l-1 1l91 809h-170z" />
<glyph unicode="g" horiz-adv-x="983" d="M28 -119l1 11q9 81 84 169q29 30 54 47l7 5q-38 40 -38 99q0 12 2 25v3q8 69 59 128q2 2 2 4q-19 24 -33 51q-33 67 -33 141q0 19 2 39q15 130 118 233q38 35 50 42q34 23 70 40q87 39 174 39q121 0 215 -69q25 24 38 32q38 24 70 30q27 7 51 7h31l1 -1l-16 -138l-1 -1 h-25q-31 0 -50 -18q-9 -10 -10 -18q14 -26 24 -68q8 -37 8 -73q0 -19 -2 -37q-15 -135 -125 -240q-45 -39 -67 -50q-31 -20 -71 -36q-74 -28 -147 -28h-6q-85 0 -162 38q-22 -23 -25 -49q-3 -24 12 -30q37 -28 181 -28l70 1q195 0 291 -91q25 -27 35 -42q34 -58 34 -122 q0 -15 -2 -29q-9 -80 -70 -157q-14 -19 -52 -52q-39 -32 -63 -45q-30 -18 -64 -32q-44 -17 -84 -27q-70 -15 -122 -15h-34q-88 0 -180 31q-45 18 -79 40q-24 16 -51 42q-24 27 -35 43q-38 64 -38 130q0 13 1 26zM168 -115q-1 -6 -1 -13q0 -56 58 -104q82 -59 218 -59 q124 0 219 58q17 10 43 34q48 48 54 95v3q1 6 1 11q0 40 -31 73q-27 27 -74 42q-60 16 -117 16h-95q-75 0 -132 9q-27 -15 -70 -50q-67 -62 -72 -113zM275 598q-1 -10 -1 -21q0 -52 33 -102q21 -27 33 -36q61 -50 145 -50q91 0 169 61q77 66 87 153q1 11 1 22q0 68 -47 124 q-30 31 -65 47q-47 21 -96 21h-5q-66 0 -131 -36q-19 -10 -50 -38q-33 -32 -47 -60q-21 -39 -25 -76z" />
<glyph unicode="h" horiz-adv-x="1019" d="M69 3l164 1458l3 3h134l3 -3l-70 -619q126 110 289 110q292 0 363 -211q14 -44 14 -94q0 -22 -3 -45l-67 -599l-2 -3h-135l-3 3l67 598q2 16 2 31q0 138 -162 173q-24 6 -74 6h-40q-168 0 -247 -117q-24 -47 -30 -102l-66 -589l-3 -3h-134z" />
<glyph unicode="i" horiz-adv-x="476" d="M109 1l107 948l1 1h138l1 -1l-107 -948l-1 -1h-138zM232 1360l1 8q4 38 40 70q34 26 67 26h8q37 0 66 -32q20 -26 20 -55q0 -5 -1 -10l-1 -5q-5 -43 -44 -75q-32 -23 -64 -23h-6q-44 0 -72 39q-17 28 -14 57z" />
<glyph unicode="j" horiz-adv-x="386" d="M-192 -431l16 138l1 1q102 0 175 88q25 34 48 81q35 84 46 182l100 890l1 1h139l1 -1l-97 -868q-17 -151 -63 -249q-24 -52 -49 -86q-18 -30 -59 -70q-31 -30 -43 -36q-98 -71 -216 -71zM211 1360l1 8q5 38 40 70q34 26 67 26h8q37 0 67 -32q19 -26 19 -55q0 -5 -1 -10 v-5q-5 -43 -45 -75q-31 -23 -63 -23h-6q-44 0 -72 39q-18 28 -15 57z" />
<glyph unicode="k" horiz-adv-x="1010" d="M78 3l164 1458l3 3h135l2 -3l-108 -966l526 456h199v-2l-470 -409l366 -539l-1 -1h-181q-9 10 -259 385l-40 56q-160 -140 -162 -140l-34 -298l-3 -3h-135z" />
<glyph unicode="l" horiz-adv-x="432" d="M89 1l164 1462l2 1h138v-1l-164 -1462l-1 -1h-138z" />
<glyph unicode="m" horiz-adv-x="1719" d="M79 3l105 930l3 3h134l3 -3l-11 -93q123 110 283 110h17q222 0 317 -137q126 137 345 137h28q269 0 347 -196q18 -51 19 -105q0 -19 -3 -39l-68 -607l-2 -3h-135l-3 3l68 605q2 13 2 26q0 101 -102 152q-56 24 -133 24h-34q-188 0 -258 -127q-19 -35 -26 -93l-66 -587 l-3 -3h-135l-2 3l67 598q2 15 2 30q0 123 -131 166q-33 13 -135 13q-125 0 -193 -52q-81 -49 -94 -165l-66 -590l-3 -3h-134z" />
<glyph unicode="n" horiz-adv-x="1028" d="M79 3l105 930l3 3h134l3 -3l-11 -93q123 110 282 110h17q282 0 354 -215q12 -44 13 -91q0 -21 -3 -43l-67 -598l-3 -3h-135l-2 3l67 598q2 15 2 28q0 124 -131 168q-34 13 -135 13q-125 0 -193 -52q-80 -49 -94 -165l-66 -590l-3 -3h-135z" />
<glyph unicode="o" horiz-adv-x="1096" d="M105 469l1 12q22 196 185 348q155 128 315 128h26q154 0 279 -119q120 -131 120 -304q0 -29 -3 -60q-23 -214 -205 -370q-149 -113 -310 -113q-173 0 -299 128q-112 131 -112 294q0 28 3 56zM245 470q-2 -21 -2 -40q0 -117 80 -210q88 -89 205 -89q152 0 273 138 q75 98 87 206q2 22 2 42q0 124 -87 219q-84 81 -193 81h-15q-119 0 -233 -103q-102 -105 -116 -239z" />
<glyph unicode="p" horiz-adv-x="1111" d="M22 -428l153 1363l4 2h134l2 -2l-16 -142q130 167 345 167l1 -2h2l1 2q173 0 299 -129q64 -76 86 -142q26 -79 26 -154q0 -24 -3 -48l-3 -22q-20 -184 -176 -337q-158 -137 -350 -137q-197 0 -296 162l-2 5h-1l-66 -586l-3 -3h-134zM270 465q-2 -18 -2 -36 q0 -102 64 -196q78 -101 209 -101q200 0 319 183q45 77 54 154l2 15q2 19 2 37q0 115 -81 209q-84 88 -204 88q-217 0 -322 -209q-32 -64 -39 -134z" />
<glyph unicode="q" horiz-adv-x="1130" d="M102 470l1 12q24 208 204 363q148 115 313 115l-1 -2l2 2h1q217 0 306 -167h2l15 142l3 3h135l3 -3l-154 -1363l-3 -3h-135l-2 3l66 586h-1q-15 -27 -86 -85q-111 -82 -249 -82q-243 0 -368 208q-55 104 -55 217q0 27 3 54zM242 471q-2 -20 -2 -40q0 -121 85 -215 q79 -84 217 -84q155 0 265 144q67 95 77 184l3 22q2 21 2 42q0 116 -76 211q-75 83 -213 83q-158 0 -280 -149q-66 -91 -77 -192z" />
<glyph unicode="r" horiz-adv-x="760" d="M79 3l105 932l3 3h135l2 -3l-9 -81h1q51 61 138 86q68 17 132 17q106 0 180 -47l-48 -149h-1q-83 52 -158 52q-166 0 -252 -154q-18 -37 -23 -76l-65 -580l-3 -3h-135z" />
<glyph unicode="s" horiz-adv-x="883" d="M64 197q1 2 62 33l67 35q38 -80 122 -115q53 -20 114 -20q88 0 162 41q15 7 39 28q38 39 42 82q1 6 1 12q0 58 -72 93q-19 9 -56 18q-157 28 -245 61q-161 62 -161 193q0 13 1 26v3q10 91 87 168q37 33 51 40q47 32 109 50q68 20 133 20h14q102 0 189 -49q28 -15 59 -43 q28 -27 44 -50q13 -20 12 -23q-96 -52 -127 -71h-1q-16 27 -49 52q-60 44 -150 44q-105 0 -177 -52q-49 -40 -54 -88q-4 -36 23 -55q10 -10 29 -19q41 -23 144 -48q49 -10 125 -25q47 -12 78 -28q29 -14 57 -37q9 -6 34 -35q44 -61 45 -130q0 -12 -2 -24l-1 -6 q-10 -89 -84 -168q-29 -28 -45 -39q-34 -23 -62 -36q-101 -45 -202 -45h-13q-111 0 -207 54q-92 56 -135 153z" />
<glyph unicode="t" horiz-adv-x="735" d="M118 810l16 139l1 1h157l58 514h139v-1l-57 -513h258l1 -1l-16 -139l-1 -1h-258l-62 -549q-1 -8 0 -15q0 -32 13 -61q17 -28 52 -39q16 -5 28 -5h6q37 0 107 26l12 6q39 -112 43 -128q-15 -8 -60 -23q-72 -21 -112 -21h-17q-53 0 -109 31q-74 43 -96 125q-8 34 -8 71 q0 20 2 42l61 540h-157z" />
<glyph unicode="u" horiz-adv-x="1044" d="M103 345l67 602l4 3h134l2 -3l-67 -598q-2 -15 -2 -28q0 -132 148 -172q32 -9 112 -9q102 0 156 27q81 37 114 103q18 46 23 90l66 587l3 3h135l2 -3l-104 -930l-4 -3h-135l-1 3l10 93q-122 -110 -289 -110q-179 0 -270 76q-107 89 -107 226q0 21 3 43z" />
<glyph unicode="v" horiz-adv-x="1095" d="M129 949l1 1h157q3 -1 242 -752q-2 -2 180 338l219 414h166l2 -3l-519 -947h-135q-4 1 -27 77z" />
<glyph unicode="w" horiz-adv-x="1548" d="M148 948l1 2h152q4 0 22 -89l148 -646h2l323 733l1 2h102q4 0 24 -102q27 -114 140 -633h2l320 735h161l3 -3l-433 -947h-151q-4 0 -38 162l-110 499h-1l-291 -661h-152q-5 11 -28 114z" />
<glyph unicode="x" horiz-adv-x="1013" d="M-42 3l437 490l1 2l-305 454v1h182l236 -356q15 19 272 312q32 38 40 44h181l-1 -3l-404 -454v-1q16 -21 329 -491l-1 -1h-181l-259 393l-345 -393h-180z" />
<glyph unicode="y" horiz-adv-x="1079" d="M77 949l1 1h156q4 0 35 -105l200 -648l147 267q259 485 262 486h161v-1l-668 -1240l-77 -140h-161v1l241 449z" />
<glyph unicode="z" horiz-adv-x="932" d="M10 0v3l638 807h-492l-2 2l15 135l3 3h755v-1l-638 -809h522l2 -2l-15 -135l-3 -3h-785z" />
<glyph unicode="{" horiz-adv-x="765" d="M102 584l11 94l1 2q52 18 83 38q50 36 54 72l53 473q9 75 54 142q103 128 283 128l48 -1l1 -3l-15 -136l-2 -1l-51 1q-46 0 -97 -20q-72 -31 -81 -114l-53 -471q-9 -84 -90 -157q64 -73 55 -157l-53 -471q-10 -83 55 -114q47 -20 93 -20l51 1l2 -1l-16 -136l-2 -3l-48 -1 q-180 0 -254 128q-30 67 -22 142l53 473q4 36 -37 72q-27 20 -75 38z" />
<glyph unicode="|" horiz-adv-x="257" d="M-20 1l157 1399h140l-157 -1399h-140z" />
<glyph unicode="}" horiz-adv-x="812" d="M128 -267l15 136l2 1l51 -1q46 0 98 20q71 31 80 114l53 471q10 84 90 157q-64 73 -54 157l53 471q9 83 -55 114q-47 20 -93 20l-51 -1l-2 1l15 136l2 3l49 1q180 0 253 -128q31 -67 22 -142l-53 -473q-4 -36 38 -72q27 -20 75 -38v-2l-10 -94l-1 -2q-53 -18 -84 -38 q-50 -36 -54 -72l-53 -473q-9 -75 -54 -142q-102 -128 -282 -128l-48 1z" />
<glyph unicode="~" horiz-adv-x="765" d="M107 412l17 154q35 35 67 51q49 26 92 26q52 0 140.5 -49.5t132.5 -49.5q41 0 89 28q32 19 74 63l-17 -154q-35 -34 -67 -51q-50 -25 -95 -25q-48 0 -136 48.5t-136 48.5q-40 0 -88 -28q-32 -19 -73 -62z" />
<glyph unicode="&#xa1;" horiz-adv-x="566" d="M31 1l148 1138h140l-108 -1138l-1 -1h-178zM174 1360l1 6q4 43 45 75q31 23 67 23q38 0 65 -28q27 -32 23 -68l-1 -8q-4 -38 -41 -70q-32 -26 -69 -26h-2q-43 0 -71 35q-21 30 -17 61z" />
<glyph unicode="&#xa2;" horiz-adv-x="961" d="M103 695l1 11q22 197 185 349q109 89 219 116l14 124l1 1h138l1 -1l-13 -112q136 -7 251 -110q58 -63 75 -99l-124 -78q-52 96 -161 134q-28 9 -56 12l-75 -683q127 12 233 127l17 21l110 -76q-102 -136 -267 -192q-57 -17 -109 -21l-12 -114h-140l14 126 q-108 28 -193 115q-131 152 -109 350zM243 696q-16 -143 80 -252q45 -45 98 -67l71 647q-67 -25 -131 -84q-103 -105 -118 -239v-5z" />
<glyph unicode="&#xa3;" horiz-adv-x="1017" d="M-9 144q64 50 112 91q93 79 124 112q167 164 180 278l1 6v15h-228l-1 1l16 138l1 1h179q-22 56 -33 96q-21 87 -13 160l1 13q11 96 72 177q13 18 48 51q141 113 292 113q120 0 220 -69q20 -14 45 -40l2 -3v-1l-109 -98q-36 36 -76 51q-49 20 -97 20q-97 0 -191 -75 q-57 -50 -66 -131l-1 -2q-9 -82 32 -183q18 -48 28 -79h328l1 -1l-16 -138l-1 -1h-293l1 -1l-2 -18q-18 -163 -205 -353h10q136 0 220 -93q72 -66 147 -66q105 0 243 131h1l91 -97q-183 -174 -353 -174q-128 0 -237 105q-32 32 -52 39q-32 15 -74 15q-100 0 -243 -81 l-29 -18z" />
<glyph unicode="&#xa4;" horiz-adv-x="1325" d="M-17 258l146 126q-31 60 -39 99q-34 122 -6 258q35 178 167 333l29 32l-101 133q120 97 121 97l98 -129q44 31 75 47q166 90 335 90q195 0 336 -118l20 -19l149 128l1 1h1l80 -97l-154 -133q30 -55 43 -104q35 -126 8 -261q-37 -182 -171 -338l-18 -19q25 -32 96 -126 l-119 -97l-93 120q-70 -50 -134 -80q-145 -64 -279 -64h-15q-136 0 -256 66q-31 19 -68 49l-31 29l-139 -120zM223 735q-26 -132 28 -253q13 -26 33 -57q34 -42 49 -53q37 -34 79 -54q83 -41 183 -41q164 0 318 107q52 40 74 63q27 27 46 49q92 115 116 239l2 10 q27 131 -26 250q-12 28 -40 67q-33 40 -51 53q-30 27 -72 48q-85 41 -183 41q-150 0 -295 -93q-23 -14 -64 -48q-45 -39 -69 -68q-23 -28 -39 -50q-66 -99 -86 -199z" />
<glyph unicode="&#xa5;" horiz-adv-x="985" d="M56 1261l116 91q7 -8 201 -272l162 -221l229 239l243 254l97 -91l-324 -338l-190 -198l-8 -66h338l-15 -139l-1 -1h-337l-8 -69h337l1 -1l-16 -138l-1 -1h-337l-35 -308h-140l35 308h-337l-1 1l16 138l1 1h337l8 69h-337l-1 1l15 139h338l8 65l-263 358z" />
<glyph unicode="&#xa6;" horiz-adv-x="325" d="M-20 -500l73 650h140l-73 -650h-140zM132 850l73 650h140l-73 -650h-140z" />
<glyph unicode="&#xa7;" horiz-adv-x="880" d="M69 178l134 60q6 -18 20 -38q49 -63 132 -63h5q62 0 117 30q65 40 72 105v1q6 50 -32 79q-14 12 -27 19q-37 23 -107 44q-31 9 -74 18q-40 12 -63 26q-28 13 -67 50q-26 29 -36 46q-48 81 -38 168l1 13q8 73 61 148q15 22 43 50q33 29 56 43q-112 77 -97 208 q11 104 95 184q45 39 79 53q81 40 174 40q142 0 230 -106q33 -44 42 -75q-131 -61 -133 -61q-6 19 -22 39q-49 63 -133 63q-63 0 -118 -30q-66 -41 -73 -106v-1q-6 -52 35 -82q23 -21 84 -44q53 -19 124 -35q95 -29 150 -101q23 -35 33 -59q25 -67 18 -128l-1 -14 q-9 -77 -65 -155q-42 -53 -95 -86q22 -15 46 -40q61 -70 51 -163l-1 -11q-8 -74 -62 -143q-12 -16 -43 -44q-56 -45 -119 -65q-63 -19 -114 -19h-16q-87 0 -163 49q-74 54 -103 133zM246 728q-8 -72 50 -126q50 -40 112 -40h5q74 0 138 53q56 50 63 113v2q7 66 -42 117 q-51 49 -125 49t-137 -51q-57 -51 -64 -115v-2z" />
<glyph unicode="&#xa8;" horiz-adv-x="807" d="M303 1751v8q5 39 41 71q33 25 70 25q43 0 71 -34q22 -30 18 -62v-7q-5 -39 -41 -71q-33 -26 -70 -26h-1q-51 0 -79 46q-12 27 -9 50zM643 1751v8q5 39 41 71q33 25 70 25q43 0 71 -34q22 -30 18 -62v-7q-5 -39 -41 -71q-33 -26 -70 -26h-1q-51 0 -79 46q-12 27 -9 50z " />
<glyph unicode="&#xa9;" horiz-adv-x="1918" d="M217 672l3 21q16 148 96 300q33 59 82 126q31 37 77 84q58 56 82 72q61 48 110 75q202 114 418 114q242 0 432 -140q35 -25 80 -72q47 -50 56 -65q33 -46 50 -79q103 -198 78 -426q-24 -223 -165 -417q-31 -43 -84 -98q-55 -53 -90 -80q-55 -41 -92 -64 q-212 -123 -437 -123q-227 0 -412 126q-39 28 -87 74q-50 53 -60 68q-46 65 -66 105q-24 47 -41 102q-46 149 -30 297zM356 679q-22 -196 75 -366q18 -31 50 -70q36 -41 51 -54q40 -36 79 -62q145 -88 316 -88h5q186 0 360 105q27 14 64 43q18 12 71 59l21 24q44 46 72 87 q104 153 123 324q23 203 -79 376q-19 31 -58 78q-48 52 -82 75q-156 115 -354 115q-200 0 -385 -118q-30 -19 -87 -69q-54 -48 -76 -77q-29 -36 -53 -72q-95 -145 -113 -306v-4zM577 677l1 12q22 196 185 348q156 128 316 128h26q147 0 269 -110q59 -62 76 -99l-125 -78 q-52 96 -161 134q-40 13 -81 13h-16q-120 0 -233 -103q-102 -105 -116 -239l-1 -5q-15 -143 80 -251q87 -88 204 -88q146 0 265 130l17 20l110 -75q-102 -136 -268 -193q-73 -22 -140 -22q-173 0 -299 128q-131 152 -109 350z" />
<glyph unicode="&#xaa;" horiz-adv-x="648" />
<glyph unicode="&#xab;" horiz-adv-x="1159" d="M127 387l12 107l298 182l119 73q64 -115 64 -117l-313 -192q260 -183 271 -192l-89 -116q-2 0 -41 28l-207 146zM577 387l12 107l298 182l119 73q64 -115 64 -117l-313 -192q260 -183 271 -192l-89 -116q-2 0 -41 28l-207 146z" />
<glyph unicode="&#xac;" horiz-adv-x="960" d="M178 670l16 140h700l-52 -460h-140l36 320h-560z" />
<glyph unicode="&#xad;" horiz-adv-x="871" d="M95 420l15 140h706l-15 -140h-706z" />
<glyph unicode="&#xae;" horiz-adv-x="1198" d="M209 1026l1 12q9 81 52 166q18 32 45 69q16 21 42 47q32 31 45 39q33 27 60 42q111 63 231 63q134 0 239 -77q20 -14 45 -40q27 -28 32 -36q18 -26 27 -44q58 -109 46 -235q-13 -124 -89 -231q-17 -24 -46 -54q-30 -30 -49 -45q-30 -22 -51 -35q-116 -68 -240 -68 q-126 0 -229 70q-22 15 -48 41q-28 29 -35 37q-25 36 -36 58q-14 26 -24 57q-26 82 -18 164zM263 1030q-12 -116 46 -216q11 -18 30 -41q22 -24 31 -32q24 -21 46 -36q86 -52 187 -52h3q109 0 211 62q16 8 38 25q10 7 41 35l13 14q25 27 41 51q61 90 71 191q12 119 -49 221 q-11 19 -35 46q-28 31 -48 44q-92 68 -209 68q-118 0 -226 -69q-18 -12 -51 -41q-31 -28 -45 -45q-16 -22 -30 -43q-56 -85 -65 -180v-2zM470 750l56 562h158q40 0 77 -20q14 -7 28 -20q13 -14 17 -20q11 -16 16 -28q6 -13 7 -27q5 -21 2 -52v-2q-4 -42 -21 -74 q-7 -13 -17 -27q-35 -44 -84 -64l70 -180l19 -49h-62q-1 1 -6 15q-3 9 -38 101l-37 101l-9 -1h-102l-21 -215h-53zM553 1019h98q27 0 47 9q42 17 66 58q13 25 16 51l1 14q4 37 -16 67q-10 13 -16 17q-29 23 -69 23h-103z" />
<glyph unicode="&#xaf;" horiz-adv-x="670" />
<glyph unicode="&#xb0;" horiz-adv-x="869" d="M103 1135l1 12q8 81 67 158q36 45 86 77q79 47 158 47h11q78 0 148 -46q20 -14 47 -43q70 -86 59 -200q-12 -120 -113 -211q-94 -76 -204 -76q-116 0 -196 85q-32 36 -40 58q-31 70 -24 139zM258 1140q-7 -66 47 -109q33 -24 74 -24q63 0 112 52q30 39 35 81 q6 66 -45 111q-34 24 -75 24h-2q-60 0 -110 -52q-32 -38 -36 -81v-2z" />
<glyph unicode="&#xb1;" horiz-adv-x="811" d="M3 -140l16 140h710l-16 -140h-710zM63 420l15 140h285l32 285h140l-32 -285h285l-15 -140h-285l-32 -285h-140l32 285h-285z" />
<glyph unicode="&#xb2;" horiz-adv-x="1014" />
<glyph unicode="&#xb3;" horiz-adv-x="1014" />
<glyph unicode="&#xb4;" horiz-adv-x="673" d="M300 1713l353 203l60 -118l-352 -204z" />
<glyph unicode="&#xb5;" horiz-adv-x="1092" d="M62 -399l152 1349h2l1 1h134l1 -1h2l-68 -601q-17 -156 146 -200q32 -9 112 -9q102 0 156 27q81 37 114 103q18 46 23 90l66 587l3 3h135l2 -3l-104 -930l-4 -3h-135l-1 3l10 93q-122 -110 -289 -110q-175 0 -265 72l-53 -471l-1 -1h-138z" />
<glyph unicode="&#xb6;" horiz-adv-x="1102" d="M208 1006q18 157 136 253t296 96h443l-15 -140h-69l-126 -1115h-140l126 1115h-166l-126 -1115h-140l63 563q-132 19 -208 98q-91 94 -74 245z" />
<glyph unicode="&#xb7;" horiz-adv-x="468" d="M304 796l1 8q4 38 41 70q31 26 68 26h2q43 0 72 -35q20 -30 17 -61l-1 -6q-5 -43 -45 -75q-31 -23 -67 -23q-38 0 -66 28q-26 32 -22 68z" />
<glyph unicode="&#xb8;" horiz-adv-x="548" d="M300 -264l89 60h1q18 -27 42 -27q21 0 38 17q10 12 11 24q2 13 -4 21.5t-20 12.5q-17 3 -43 -7l-71 -24v1l57 186h106l-19 -59q16 -2 29 -7q40 -15 58 -54q14 -35 10 -70q-6 -60 -59 -105q-49 -39 -104 -39q-70 0 -114 60q-7 8 -7 10z" />
<glyph unicode="&#xb9;" horiz-adv-x="1014" />
<glyph unicode="&#xba;" horiz-adv-x="718" />
<glyph unicode="&#xbb;" horiz-adv-x="1160" d="M110 248q13 9 313 192l-271 192q0 2 90 117l103 -73l258 -182l-12 -107l-132 -81l-239 -146q-45 -28 -47 -28zM560 248q13 9 313 192l-271 192q0 2 90 117l103 -73l258 -182l-12 -107l-132 -81l-239 -146q-45 -28 -47 -28z" />
<glyph unicode="&#xbc;" horiz-adv-x="1708" />
<glyph unicode="&#xbd;" horiz-adv-x="1964" />
<glyph unicode="&#xbe;" horiz-adv-x="1708" />
<glyph unicode="&#xbf;" horiz-adv-x="1047" d="M-6 413l1 13q10 87 65 184q22 37 56 76q15 19 51 52q43 36 94 69q40 27 80 59q47 39 52 84l13 126l14 119l1 1h139l-17 -158l-9 -85q-13 -108 -105 -187q-48 -39 -103 -75q-42 -28 -73 -54q-39 -36 -48 -51q-19 -25 -36 -55q-28 -58 -34 -110v-1q-12 -107 49 -192 q27 -33 38 -39q61 -49 139 -49h2q91 0 175 67q34 31 45 47q60 76 70 165l4 36l1 1h138l1 -1l-5 -42q-11 -101 -75 -202q-15 -23 -45 -58q-13 -16 -49 -47q-41 -34 -73 -51q-101 -55 -197 -55h-14q-99 0 -188 57q-24 15 -60 50q-38 44 -47 65q-21 34 -35 77q-24 85 -15 164z M413 1401v4q5 43 46 75q31 23 67 23q42 0 69 -32q23 -30 18 -68q-5 -49 -50 -81q-29 -19 -60 -19h-1q-52 0 -80 47q-12 26 -9 51z" />
<glyph unicode="&#xc0;" d="M1 1l732 1463h145q4 0 24 -76l378 -1354l10 -33l-2 -1h-150q-5 7 -64 227q-32 112 -36 117h-714q-6 -7 -136 -269q-33 -69 -39 -75h-145l-2 1h-1zM393 485h608l-218 779h-1zM633 1806l60 118l352 -203l-60 -119z" />
<glyph unicode="&#xc1;" d="M1 1l732 1463h145q4 0 24 -76l378 -1354l10 -33l-2 -1h-150q-5 7 -64 227q-32 112 -36 117h-714q-6 -7 -136 -269q-33 -69 -39 -75h-145l-2 1h-1zM393 485h608l-218 779h-1zM633 1720l352 204l60 -119l-352 -203z" />
<glyph unicode="&#xc2;" d="M1 1l732 1463h145q4 0 24 -76l378 -1354l10 -33l-2 -1h-150q-5 7 -64 227q-32 112 -36 117h-714q-6 -7 -136 -269q-33 -69 -39 -75h-145l-2 1h-1zM393 485h608l-218 779h-1zM581 1692v1l233 243h89q3 -2 90 -121l89 -123l-116 -90q-3 2 -43 58q-81 109 -82 112l-163 -170 h-1z" />
<glyph unicode="&#xc3;" d="M1 1l732 1463h145q4 0 24 -76l378 -1354l10 -33l-2 -1h-150q-5 7 -64 227q-32 112 -36 117h-714q-6 -7 -136 -269q-33 -69 -39 -75h-145l-2 1h-1zM393 485h608l-218 779h-1zM531 1629l17 154q35 35 67 51q49 26 92 26q52 0 140 -49.5t133 -49.5q41 0 89 28q32 19 74 63 l-17 -154q-35 -34 -67 -51q-50 -25 -95 -25q-49 0 -136.5 48.5t-135.5 48.5q-40 0 -88 -28q-32 -19 -73 -62z" />
<glyph unicode="&#xc4;" d="M1 1l732 1463h145q4 0 24 -76l378 -1354l10 -33l-2 -1h-150q-5 7 -64 227q-32 112 -36 117h-714q-6 -7 -136 -269q-33 -69 -39 -75h-145l-2 1h-1zM393 485h608l-218 779h-1zM566 1731l1 8q4 39 41 71q33 25 70 25q43 0 71 -34q22 -30 18 -62l-1 -7q-4 -39 -40 -71 q-33 -26 -70 -26h-1q-51 0 -79 46q-12 27 -10 50zM906 1731l1 8q4 39 41 71q33 25 70 25q43 0 71 -34q22 -30 18 -62l-1 -7q-4 -39 -40 -71q-33 -26 -70 -26h-1q-51 0 -79 46q-12 27 -10 50z" />
<glyph unicode="&#xc5;" d="M1 1l732 1463q-15 9 -29 20q-12 13 -19 21q-10 17 -15 29q-13 36 -10 69l1 9q5 47 41 91q7 9 25 25q53 41 111 41h2q57 0 101 -39q16 -18 20 -25q28 -45 23 -97q-7 -65 -61 -115l-10 -9q-16 -12 -34 -21q5 -7 23 -75l378 -1354l10 -33l-2 -1h-150q-5 7 -64 227 q-32 112 -36 117h-714q-6 -7 -136 -269q-33 -69 -39 -75h-145l-2 1h-1zM393 485h608l-218 779h-1zM762 1608q-3 -28 18 -48q16 -13 35 -13q29 0 52 24q14 18 16 37v2q3 23 -12 41q-18 18 -43 18q-24 0 -43 -17q-20 -19 -23 -43v-1z" />
<glyph unicode="&#xc6;" horiz-adv-x="1664" d="M1 0l275 399l255 369l301 436l175 253l5 7h705l-15 -140h-563l-58 -522h449l1 -1l-15 -139h-450l-58 -522h563l-15 -140h-709l48 432h-449q-3 -3 -30 -43l-255 -367l-15 -22h-145zM542 572h368l70 633l-209 -301z" />
<glyph unicode="&#xc7;" horiz-adv-x="1419" d="M150 727l1 10q33 301 258 529q223 198 482 198h12q255 0 437 -207q79 -108 94 -164q-127 -62 -131 -62q-20 50 -56 104q-146 189 -362 189h-7q-225 0 -415 -202q-149 -175 -172 -385l-1 -10q-26 -244 122 -430q139 -157 341 -157q221 0 411 195q47 56 77 102l124 -68 q-34 -62 -144 -177q-223 -199 -487 -192h-3l-20 -59q16 -2 29 -7q41 -15 58 -54q15 -35 11 -70q-7 -60 -60 -105q-49 -39 -104 -39q-70 0 -114 60q-7 8 -6 10l88 60h1q18 -27 42 -27q21 0 38 17q10 12 12 24q1 13 -5 21.5t-20 12.5q-16 1 -42 -7l-72 -24v1l59 195 q-204 38 -351 221q-155 223 -125 497z" />
<glyph unicode="&#xc8;" horiz-adv-x="933" d="M93 1l164 1462l2 1h727v-1l-15 -138l-1 -1h-588l-59 -522h470l1 -1l-16 -138l-1 -1h-470l-58 -522h588l1 -1l-16 -138l-1 -1h-727zM449 1798l60 118l352 -203l-60 -119z" />
<glyph unicode="&#xc9;" horiz-adv-x="933" d="M93 1l164 1462l2 1h727v-1l-15 -138l-1 -1h-588l-59 -522h470l1 -1l-16 -138l-1 -1h-470l-58 -522h588l1 -1l-16 -138l-1 -1h-727zM449 1713l352 203l60 -118l-352 -204z" />
<glyph unicode="&#xca;" horiz-adv-x="933" d="M93 1l164 1462l2 1h727v-1l-15 -138l-1 -1h-588l-59 -522h470l1 -1l-16 -138l-1 -1h-470l-58 -522h588l1 -1l-16 -138l-1 -1h-727zM395 1672v1l233 243h89q3 -2 90 -121l89 -123l-116 -90q-3 2 -43 58q-80 109 -82 112l-163 -170h-1z" />
<glyph unicode="&#xcb;" horiz-adv-x="933" d="M93 1l164 1462l2 1h727v-1l-15 -138l-1 -1h-588l-59 -522h470l1 -1l-16 -138l-1 -1h-470l-58 -522h588l1 -1l-16 -138l-1 -1h-727zM385 1751l1 8q4 39 41 71q33 25 70 25q43 0 71 -34q21 -30 18 -62l-1 -7q-4 -39 -41 -71q-33 -26 -70 -26h-1q-51 0 -79 46q-12 27 -9 50z M725 1751l1 8q4 39 41 71q33 25 70 25q43 0 71 -34q21 -30 18 -62l-1 -7q-4 -39 -41 -71q-33 -26 -70 -26h-1q-51 0 -79 46q-12 27 -9 50z" />
<glyph unicode="&#xcc;" horiz-adv-x="404" d="M87 1l164 1462l2 1h138v-1l-164 -1462l-1 -1h-138zM167 1798l60 118l317 -183l-60 -119z" />
<glyph unicode="&#xcd;" horiz-adv-x="404" d="M87 1l164 1462l2 1h138v-1l-164 -1462l-1 -1h-138zM167 1734l317 183l60 -118l-317 -184z" />
<glyph unicode="&#xce;" horiz-adv-x="404" d="M87 1l164 1462l2 1h138v-1l-164 -1462l-1 -1h-138zM94 1672v1l233 243h89q3 -2 90 -121l89 -123l-116 -90q-3 2 -43 58q-80 109 -82 112l-163 -170h-1z" />
<glyph unicode="&#xcf;" horiz-adv-x="404" d="M84 1751v8q5 39 41 71q33 25 70 25q43 0 71 -34q22 -30 18 -62v-7q-5 -39 -41 -71q-33 -26 -70 -26h-1q-51 0 -79 46q-12 27 -9 50zM87 1l164 1462l2 1h138v-1l-164 -1462l-1 -1h-138zM424 1751v8q5 39 41 71q33 25 70 25q43 0 71 -34q22 -30 18 -62v-7q-5 -39 -41 -71 q-33 -26 -70 -26h-1q-51 0 -79 46q-12 27 -9 50z" />
<glyph unicode="&#xd0;" horiz-adv-x="1344" d="M93 662l16 140h113l74 659l3 3h354q251 0 437 -173q83 -88 100 -127q115 -197 89 -432q-32 -286 -254 -509q-223 -219 -556 -223h-334l-3 3l73 645l2 14h-114zM287 140h198q312 0 522 266q112 156 131 326q29 257 -145 447q-55 51 -103 79q-120 66 -252 66h-217l-59 -519 v-3h188l-16 -140h-188z" />
<glyph unicode="&#xd1;" horiz-adv-x="1326" d="M93 3l164 1458l3 3h172q7 -8 437 -872l185 -371h2l139 1240l2 3h135l3 -3l-164 -1458l-3 -3h-165q-13 16 -62 120q-3 5 -436 875l-125 248l-140 -1240l-3 -3h-141zM521 1629l17 154q35 35 67 51q50 26 93 26q52 0 139.5 -49.5t132.5 -49.5q41 0 89 28q32 19 74 63 l-17 -154q-35 -34 -67 -51q-50 -25 -95 -25q-49 0 -136.5 48.5t-135.5 48.5q-40 0 -88 -28q-32 -19 -73 -62z" />
<glyph unicode="&#xd2;" horiz-adv-x="1531" d="M122 725l1 14q30 267 221 488q79 76 113 98q199 139 420 139h6q255 0 437 -195q67 -81 86 -128q95 -187 71 -405l-1 -8q-33 -302 -269 -532q-215 -194 -489 -196q-256 0 -438 194q-79 98 -94 143q-87 182 -64 388zM262 727q-27 -243 125 -431q144 -156 348 -156 q239 0 435 212q144 173 166 376l1 8q27 244 -126 432q-143 156 -347 156q-237 0 -428 -193q-149 -177 -173 -394zM707 1805l61 119l352 -204l-60 -118z" />
<glyph unicode="&#xd3;" horiz-adv-x="1531" d="M122 725l1 14q30 267 221 488q79 76 113 98q199 139 420 139h6q255 0 437 -195q67 -81 86 -128q95 -187 71 -405l-1 -8q-33 -302 -269 -532q-215 -194 -489 -196q-256 0 -438 194q-79 98 -94 143q-87 182 -64 388zM262 727q-27 -243 125 -431q144 -156 348 -156 q239 0 435 212q144 173 166 376l1 8q27 244 -126 432q-143 156 -347 156q-237 0 -428 -193q-149 -177 -173 -394zM707 1721l353 203l60 -118l-352 -204z" />
<glyph unicode="&#xd4;" horiz-adv-x="1531" d="M122 725l1 14q30 267 221 488q79 76 113 98q199 139 420 139h6q255 0 437 -195q67 -81 86 -128q95 -187 71 -405l-1 -8q-33 -302 -269 -532q-215 -194 -489 -196q-256 0 -438 194q-79 98 -94 143q-87 182 -64 388zM262 727q-27 -243 125 -431q144 -156 348 -156 q239 0 435 212q144 173 166 376l1 8q27 244 -126 432q-143 156 -347 156q-237 0 -428 -193q-149 -177 -173 -394zM655 1692v1l233 243h89q3 -2 90 -121l89 -123l-116 -90q-3 2 -42 58q-81 109 -83 112l-163 -170h-1z" />
<glyph unicode="&#xd5;" horiz-adv-x="1531" d="M122 725l1 14q30 267 221 488q79 76 113 98q199 139 420 139h6q255 0 437 -195q67 -81 86 -128q95 -187 71 -405l-1 -8q-33 -302 -269 -532q-215 -194 -489 -196q-256 0 -438 194q-79 98 -94 143q-87 182 -64 388zM262 727q-27 -243 125 -431q144 -156 348 -156 q239 0 435 212q144 173 166 376l1 8q27 244 -126 432q-143 156 -347 156q-237 0 -428 -193q-149 -177 -173 -394zM605 1629l17 154q35 35 67 51q50 26 93 26q52 0 139.5 -49.5t132.5 -49.5q41 0 89 28q32 19 74 63l-17 -154q-35 -34 -67 -51q-50 -25 -95 -25 q-49 0 -136.5 48.5t-135.5 48.5q-40 0 -88 -28q-32 -19 -73 -62z" />
<glyph unicode="&#xd6;" horiz-adv-x="1531" d="M122 725l1 14q30 267 221 488q79 76 113 98q199 139 420 139h6q255 0 437 -195q67 -81 86 -128q95 -187 71 -405l-1 -8q-33 -302 -269 -532q-215 -194 -489 -196q-256 0 -438 194q-79 98 -94 143q-87 182 -64 388zM262 727q-27 -243 125 -431q144 -156 348 -156 q239 0 435 212q144 173 166 376l1 8q27 244 -126 432q-143 156 -347 156q-237 0 -428 -193q-149 -177 -173 -394zM639 1731l1 8q4 39 41 71q33 25 70 25q43 0 71 -34q22 -30 18 -62l-1 -7q-4 -39 -40 -71q-33 -26 -70 -26h-1q-51 0 -79 46q-12 27 -10 50zM979 1731l1 8 q4 39 41 71q33 25 70 25q43 0 71 -34q22 -30 18 -62l-1 -7q-4 -39 -40 -71q-33 -26 -70 -26h-1q-51 0 -79 46q-12 27 -10 50z" />
<glyph unicode="&#xd7;" horiz-adv-x="704" d="M51 285l224 202l-180 202l110 99l180 -202l223 202l88 -99l-223 -202l179 -202l-110 -99l-179 202l-224 -202z" />
<glyph unicode="&#xd8;" horiz-adv-x="1531" d="M122 725l1 14q30 267 221 488q79 76 113 98q199 139 420 139h6q255 0 437 -195q67 -81 86 -128q95 -187 71 -405l-1 -8q-33 -302 -269 -532q-215 -194 -489 -196q-256 0 -438 194q-79 98 -94 143q-87 182 -64 388zM193 0v1l118 162q-15 14 -29 28l101 111l4 -6 q7 -6 12 -12l709 971q-18 12 -37 21l71 128q27 -13 53 -30l134 184l1 1l110 -69v-2l-143 -196l19 -19q-8 8 4 -4q1 -2 3 -3l-100 -112l-12 14q-1 2 -2 3l-708 -969q21 -13 44 -23l-95 -116q-18 9 -36 20l-111 -152h-1zM262 727q-27 -243 125 -431q144 -156 348 -156 q239 0 435 212q144 173 166 376l1 8q27 244 -126 432q-143 156 -347 156q-237 0 -428 -193q-149 -177 -173 -394z" />
<glyph unicode="&#xd9;" horiz-adv-x="1315" d="M179 522l105 939l4 3h134l2 -3l-105 -937q-26 -234 129 -345q69 -39 142 -39h139q151 0 265 140q76 101 94 258l103 923l4 3h135l2 -3l-103 -923q-37 -324 -285 -475q-115 -63 -228 -63h-144q-169 0 -289 127q-131 157 -104 395zM636 1805l60 119l352 -204l-59 -118z" />
<glyph unicode="&#xda;" horiz-adv-x="1315" d="M179 522l105 939l4 3h134l2 -3l-105 -937q-26 -234 129 -345q69 -39 142 -39h139q151 0 265 140q76 101 94 258l103 923l4 3h135l2 -3l-103 -923q-37 -324 -285 -475q-115 -63 -228 -63h-144q-169 0 -289 127q-131 157 -104 395zM636 1721l353 203l59 -118l-352 -204z " />
<glyph unicode="&#xdb;" horiz-adv-x="1315" d="M179 522l105 939l4 3h134l2 -3l-105 -937q-26 -234 129 -345q69 -39 142 -39h139q151 0 265 140q76 101 94 258l103 923l4 3h135l2 -3l-103 -923q-37 -324 -285 -475q-115 -63 -228 -63h-144q-169 0 -289 127q-131 157 -104 395zM583 1692l1 1l233 243h89q3 -2 89 -121 l89 -123l-116 -90q-2 2 -42 58q-81 109 -83 112l-163 -170h-1z" />
<glyph unicode="&#xdc;" horiz-adv-x="1315" d="M179 522l105 939l4 3h134l2 -3l-105 -937q-26 -234 129 -345q69 -39 142 -39h139q151 0 265 140q76 101 94 258l103 923l4 3h135l2 -3l-103 -923q-37 -324 -285 -475q-115 -63 -228 -63h-144q-169 0 -289 127q-131 157 -104 395zM569 1731l1 8q4 39 41 71q32 25 69 25 q43 0 72 -34q21 -30 18 -62l-1 -7q-4 -39 -41 -71q-33 -26 -70 -26h-1q-51 0 -79 46q-12 27 -9 50zM909 1731l1 8q4 39 41 71q32 25 69 25q43 0 72 -34q21 -30 18 -62l-1 -7q-4 -39 -41 -71q-33 -26 -70 -26h-1q-51 0 -79 46q-12 27 -9 50z" />
<glyph unicode="&#xdd;" horiz-adv-x="1177" d="M196 1461v3h172q16 -23 326 -597l4 -5l452 602h190l3 -3l-583 -743l-85 -715l-4 -3h-140l-1 3l78 715zM592 1721l352 203l60 -118l-351 -204z" />
<glyph unicode="&#xde;" horiz-adv-x="1347" d="M89 1l164 1462l2 1h138v-1l-30 -273h438q245 0 366 -130q31 -38 39 -56q19 -34 27 -64q19 -69 11 -138l-16 -140q-11 -100 -74 -192q-77 -106 -219 -159q-108 -37 -226 -37h-449l-31 -273l-1 -1h-138zM275 412h442q177 0 283 84q79 68 91 171l14 129q13 114 -65 183 q-20 17 -35 26q-24 14 -67 27q-64 20 -165 20h-426z" />
<glyph unicode="&#xdf;" horiz-adv-x="1304" d="M94 3l128 1136q7 63 78 163q136 161 357 161h12q199 0 312 -95q82 -82 69 -198q-14 -125 -142 -267q-72 -94 -77 -136l-1 -6q-7 -67 140 -141q72 -43 140 -115q85 -103 74 -203l-2 -20q-12 -102 -124 -205q-140 -114 -302 -114h-1q-223 0 -342 227l-1 4l126 71 q85 -162 234 -162q114 0 212 85q54 57 58 97l2 12q12 111 -223 239q-145 96 -131 222l1 9q12 108 162 278q51 70 58 126q14 127 -218 151l-43 1h-7q-184 0 -262 -141q-18 -35 -20 -51l-127 -1128l-3 -3h-135z" />
<glyph unicode="&#xe0;" horiz-adv-x="1180" d="M127 469l2 12q20 188 172 336q157 143 353 143q198 0 296 -162l2 -6h2l17 156l3 3h135l2 -3l-104 -945l-3 -3h-135l-2 3l17 154h-1q-126 -166 -345 -166v1l-1 -1q-194 0 -323 156q-106 146 -87 322zM268 474q-18 -167 103 -277q78 -65 180 -65q217 0 323 213 q30 62 36 124l3 22q9 87 -35 182q-78 145 -236 145q-212 0 -329 -200q-37 -71 -44 -139zM472 1292l60 118l352 -203l-61 -119z" />
<glyph unicode="&#xe1;" horiz-adv-x="1180" d="M127 469l2 12q20 188 172 336q157 143 353 143q198 0 296 -162l2 -6h2l17 156l3 3h135l2 -3l-104 -945l-3 -3h-135l-2 3l17 154h-1q-126 -166 -345 -166v1l-1 -1q-194 0 -323 156q-106 146 -87 322zM268 474q-18 -167 103 -277q78 -65 180 -65q217 0 323 213 q30 62 36 124l3 22q9 87 -35 182q-78 145 -236 145q-212 0 -329 -200q-37 -71 -44 -139zM472 1206l351 204l61 -119l-352 -203z" />
<glyph unicode="&#xe2;" horiz-adv-x="1180" d="M127 469l2 12q20 188 172 336q157 143 353 143q198 0 296 -162l2 -6h2l17 156l3 3h135l2 -3l-104 -945l-3 -3h-135l-2 3l17 154h-1q-126 -166 -345 -166v1l-1 -1q-194 0 -323 156q-106 146 -87 322zM268 474q-18 -167 103 -277q78 -65 180 -65q217 0 323 213 q30 62 36 124l3 22q9 87 -35 182q-78 145 -236 145q-212 0 -329 -200q-37 -71 -44 -139zM418 1177v1l233 243h89q3 -2 90 -121l89 -123l-116 -90q-2 2 -42 58q-81 109 -83 112l-163 -170h-1z" />
<glyph unicode="&#xe3;" horiz-adv-x="1180" d="M127 469l2 12q20 188 172 336q157 143 353 143q198 0 296 -162l2 -6h2l17 156l3 3h135l2 -3l-104 -945l-3 -3h-135l-2 3l17 154h-1q-126 -166 -345 -166v1l-1 -1q-194 0 -323 156q-106 146 -87 322zM268 474q-18 -167 103 -277q78 -65 180 -65q217 0 323 213 q30 62 36 124l3 22q9 87 -35 182q-78 145 -236 145q-212 0 -329 -200q-37 -71 -44 -139zM371 1115l17 154q35 35 67 51q49 26 92 26q52 0 140.5 -49.5t133.5 -49.5q41 0 89 28q32 19 74 63l-17 -154q-35 -34 -67 -51q-50 -25 -95 -25q-49 0 -137 48.5t-136 48.5 q-40 0 -88 -28q-32 -19 -73 -62z" />
<glyph unicode="&#xe4;" horiz-adv-x="1180" d="M127 469l2 12q20 188 172 336q157 143 353 143q198 0 296 -162l2 -6h2l17 156l3 3h135l2 -3l-104 -945l-3 -3h-135l-2 3l17 154h-1q-126 -166 -345 -166v1l-1 -1q-194 0 -323 156q-106 146 -87 322zM268 474q-18 -167 103 -277q78 -65 180 -65q217 0 323 213 q30 62 36 124l3 22q9 87 -35 182q-78 145 -236 145q-212 0 -329 -200q-37 -71 -44 -139zM405 1215l1 8q5 39 41 71q33 25 70 25q43 0 71 -34q22 -30 18 -62v-7q-5 -39 -41 -71q-33 -26 -70 -26h-1q-51 0 -79 46q-12 27 -10 50zM745 1215l1 8q5 39 41 71q33 25 70 25 q43 0 71 -34q22 -30 18 -62v-7q-5 -39 -41 -71q-33 -26 -70 -26h-1q-51 0 -79 46q-12 27 -10 50z" />
<glyph unicode="&#xe5;" horiz-adv-x="1180" d="M127 469l2 12q20 188 172 336q157 143 353 143q198 0 296 -162l2 -6h2l17 156l3 3h135l2 -3l-104 -945l-3 -3h-135l-2 3l17 154h-1q-126 -166 -345 -166v1l-1 -1q-194 0 -323 156q-106 146 -87 322zM268 474q-18 -167 103 -277q78 -65 180 -65q217 0 323 213 q30 62 36 124l3 22q9 87 -35 182q-78 145 -236 145q-212 0 -329 -200q-37 -71 -44 -139zM516 1234l1 9q5 47 41 91q7 9 25 25q53 41 111 41h2q57 0 101 -39q17 -18 21 -25q27 -45 22 -97q-7 -65 -62 -115l-9 -9q-51 -37 -109 -37q-57 0 -100 37q-13 13 -18 22q-11 16 -15 28 q-14 36 -11 69zM625 1239q-3 -25 16 -42q14 -12 32 -12q26 0 44 21q13 16 15 33v2q2 20 -11 36q-15 16 -36 16q-22 0 -40 -15q-18 -17 -20 -38v-1z" />
<glyph unicode="&#xe6;" horiz-adv-x="1891" d="M127 469l2 12q20 188 172 336q157 143 353 143q197 0 297 -162l2 -6h1l17 156l2 3h135l3 -3l-18 -163q20 22 42 43q148 131 327 131q206 0 333 -182q82 -143 67 -279l-2 -12q-5 -46 -11 -46h-759q-5 -48 25 -135q48 -112 156 -156q53 -18 97 -18q137 0 250 119 q41 48 55 77h2q77 -32 121 -54q-29 -63 -114 -147q-153 -135 -328 -135q-203 0 -329 172l-18 -160l-3 -3h-135l-2 3l17 154h-1q-126 -166 -344 -166v1l-2 -1q-194 0 -323 156q-106 146 -87 322zM268 474q-18 -167 103 -277q77 -65 180 -65q217 0 324 213q29 62 35 124l3 22 q9 87 -35 182q-78 145 -235 145q-212 0 -330 -200q-37 -71 -45 -139v-5zM1118 578h598q-27 131 -119 193q-69 47 -155 47q-146 0 -264 -136q-37 -47 -60 -104z" />
<glyph unicode="&#xe7;" horiz-adv-x="961" d="M103 469l1 11q22 197 185 349q155 128 315 128h26q147 0 270 -110q58 -63 75 -99l-124 -78q-52 96 -161 134q-40 13 -81 13h-16q-120 0 -232 -103q-103 -105 -118 -239v-5q-16 -143 80 -252q87 -87 204 -87q146 0 265 129l17 21l110 -76q-102 -136 -267 -192 q-75 -22 -141 -22h-20l-17 -50q15 -2 29 -7q40 -15 58 -54q14 -35 10 -70q-6 -60 -59 -105q-50 -39 -105 -39q-70 0 -113 60q-7 8 -7 10l89 60h1q18 -27 42 -27q21 0 38 17q10 12 11 24q2 13 -4 21.5t-20 12.5q-17 1 -43 -7l-71 -24v1l60 194q-99 30 -178 111 q-131 152 -109 350z" />
<glyph unicode="&#xe8;" horiz-adv-x="1027" d="M89 469l1 9q22 200 181 350q149 131 328 131q206 0 333 -182q81 -143 66 -279l-1 -12q-5 -46 -12 -46h-758q-5 -48 25 -135q48 -112 156 -156q53 -18 97 -18q137 0 250 119q41 48 54 77h3q77 -32 121 -54q-30 -63 -114 -147q-153 -135 -328 -135q-209 0 -337 183 q-82 139 -65 295zM255 578h598q-27 131 -120 193q-68 47 -154 47q-146 0 -264 -136q-37 -47 -60 -104zM422 1291l61 119l351 -204l-60 -118z" />
<glyph unicode="&#xe9;" horiz-adv-x="1027" d="M89 469l1 9q22 200 181 350q149 131 328 131q206 0 333 -182q81 -143 66 -279l-1 -12q-5 -46 -12 -46h-758q-5 -48 25 -135q48 -112 156 -156q53 -18 97 -18q137 0 250 119q41 48 54 77h3q77 -32 121 -54q-30 -63 -114 -147q-153 -135 -328 -135q-209 0 -337 183 q-82 139 -65 295zM255 578h598q-27 131 -120 193q-68 47 -154 47q-146 0 -264 -136q-37 -47 -60 -104zM422 1207l352 203l60 -118l-351 -204z" />
<glyph unicode="&#xea;" horiz-adv-x="1027" d="M89 469l1 9q22 200 181 350q149 131 328 131q206 0 333 -182q81 -143 66 -279l-1 -12q-5 -46 -12 -46h-758q-5 -48 25 -135q48 -112 156 -156q53 -18 97 -18q137 0 250 119q41 48 54 77h3q77 -32 121 -54q-30 -63 -114 -147q-153 -135 -328 -135q-209 0 -337 183 q-82 139 -65 295zM255 578h598q-27 131 -120 193q-68 47 -154 47q-146 0 -264 -136q-37 -47 -60 -104zM370 1178v1l232 243h89q3 -2 90 -121l90 -123l-116 -90q-3 2 -43 58q-81 109 -83 112l-162 -170h-1z" />
<glyph unicode="&#xeb;" horiz-adv-x="1027" d="M89 469l1 9q22 200 181 350q149 131 328 131q206 0 333 -182q81 -143 66 -279l-1 -12q-5 -46 -12 -46h-758q-5 -48 25 -135q48 -112 156 -156q53 -18 97 -18q137 0 250 119q41 48 54 77h3q77 -32 121 -54q-30 -63 -114 -147q-153 -135 -328 -135q-209 0 -337 183 q-82 139 -65 295zM255 578h598q-27 131 -120 193q-68 47 -154 47q-146 0 -264 -136q-37 -47 -60 -104zM354 1215l1 8q4 39 41 71q33 25 70 25q43 0 71 -34q22 -30 18 -62l-1 -7q-4 -39 -40 -71q-33 -26 -70 -26h-1q-51 0 -79 46q-12 27 -10 50zM694 1215l1 8q4 39 41 71 q33 25 70 25q43 0 71 -34q22 -30 18 -62l-1 -7q-4 -39 -40 -71q-33 -26 -70 -26h-1q-51 0 -79 46q-12 27 -10 50z" />
<glyph unicode="&#xec;" horiz-adv-x="476" d="M109 1l107 948l1 1h138l1 -1l-107 -948l-1 -1h-138zM113 1292l59 118l353 -203l-60 -119z" />
<glyph unicode="&#xed;" horiz-adv-x="476" d="M109 1l107 948l1 1h138l1 -1l-107 -948l-1 -1h-138zM113 1207l353 203l59 -118l-352 -204z" />
<glyph unicode="&#xee;" horiz-adv-x="476" d="M61 1178v1l233 243h89q3 -2 90 -121l89 -123l-116 -90q-3 2 -43 58q-80 109 -82 112l-163 -170h-1zM109 1l107 948l1 1h138l1 -1l-107 -948l-1 -1h-138z" />
<glyph unicode="&#xef;" horiz-adv-x="476" d="M70 1245v8q5 39 41 71q33 25 70 25q43 0 71 -34q22 -30 18 -62v-7q-5 -39 -41 -71q-33 -26 -70 -26h-1q-51 0 -79 46q-12 27 -9 50zM109 1l107 948l1 1h138l1 -1l-107 -948l-1 -1h-138zM370 1245v8q5 39 41 71q33 25 70 25q43 0 71 -34q22 -30 18 -62v-7q-5 -39 -41 -71 q-33 -26 -70 -26h-1q-51 0 -79 46q-12 27 -9 50z" />
<glyph unicode="&#xf0;" horiz-adv-x="1139" />
<glyph unicode="&#xf1;" horiz-adv-x="1028" d="M79 3l105 930l3 3h134l3 -3l-11 -93q123 110 282 110h17q282 0 354 -215q18 -64 10 -134l-67 -598l-3 -3h-135l-2 3l67 598q16 147 -129 196q-34 13 -135 13q-125 0 -193 -52q-80 -49 -94 -165l-66 -590l-3 -3h-135zM325 1115l17 154q35 35 67 51q50 26 93 26 q52 0 140 -49.5t133 -49.5q41 0 89 28q32 19 74 63l-17 -154q-35 -34 -67 -51q-50 -25 -95 -25q-49 0 -137 48.5t-136 48.5q-40 0 -88 -28q-32 -19 -73 -62z" />
<glyph unicode="&#xf2;" horiz-adv-x="1096" d="M105 469l1 12q22 196 185 348q155 128 315 128h26q154 0 279 -119q141 -153 117 -364q-23 -214 -205 -370q-149 -113 -310 -113q-173 0 -299 128q-131 153 -109 350zM245 470q-16 -141 78 -250q88 -89 205 -89q152 0 273 138q75 98 87 206q17 151 -85 261q-84 81 -193 81 h-15q-119 0 -233 -103q-102 -105 -116 -239zM424 1291l61 119l351 -204l-60 -118z" />
<glyph unicode="&#xf3;" horiz-adv-x="1096" d="M105 469l1 12q22 196 185 348q155 128 315 128h26q154 0 279 -119q141 -153 117 -364q-23 -214 -205 -370q-149 -113 -310 -113q-173 0 -299 128q-131 153 -109 350zM245 470q-16 -141 78 -250q88 -89 205 -89q152 0 273 138q75 98 87 206q17 151 -85 261q-84 81 -193 81 h-15q-119 0 -233 -103q-102 -105 -116 -239zM424 1207l352 203l60 -118l-351 -204z" />
<glyph unicode="&#xf4;" horiz-adv-x="1096" d="M105 469l1 12q22 196 185 348q155 128 315 128h26q154 0 279 -119q141 -153 117 -364q-23 -214 -205 -370q-149 -113 -310 -113q-173 0 -299 128q-131 153 -109 350zM245 470q-16 -141 78 -250q88 -89 205 -89q152 0 273 138q75 98 87 206q17 151 -85 261q-84 81 -193 81 h-15q-119 0 -233 -103q-102 -105 -116 -239zM394 1178v1l233 243h89q2 -2 89 -121l90 -123l-116 -90q-3 2 -43 58q-81 109 -82 112l-163 -170h-1z" />
<glyph unicode="&#xf5;" horiz-adv-x="1096" d="M105 469l1 12q22 196 185 348q155 128 315 128h26q154 0 279 -119q141 -153 117 -364q-23 -214 -205 -370q-149 -113 -310 -113q-173 0 -299 128q-131 153 -109 350zM245 470q-16 -141 78 -250q88 -89 205 -89q152 0 273 138q75 98 87 206q17 151 -85 261q-84 81 -193 81 h-15q-119 0 -233 -103q-102 -105 -116 -239zM343 1115l17 154q35 35 67 51q50 26 93 26q52 0 140 -49.5t133 -49.5q41 0 89 28q32 19 74 63l-17 -154q-35 -34 -67 -51q-49 -25 -94 -25q-49 0 -137.5 48.5t-136.5 48.5q-40 0 -88 -28q-32 -19 -73 -62z" />
<glyph unicode="&#xf6;" horiz-adv-x="1096" d="M105 469l1 12q22 196 185 348q155 128 315 128h26q154 0 279 -119q141 -153 117 -364q-23 -214 -205 -370q-149 -113 -310 -113q-173 0 -299 128q-131 153 -109 350zM245 470q-16 -141 78 -250q88 -89 205 -89q152 0 273 138q75 98 87 206q17 151 -85 261q-84 81 -193 81 h-15q-119 0 -233 -103q-102 -105 -116 -239zM378 1215l1 8q4 39 41 71q33 25 70 25q43 0 71 -34q22 -30 18 -62l-1 -7q-4 -39 -40 -71q-33 -26 -70 -26h-1q-51 0 -79 46q-12 27 -10 50zM718 1215l1 8q4 39 41 71q33 25 70 25q43 0 71 -34q22 -30 18 -62l-1 -7 q-4 -39 -40 -71q-33 -26 -70 -26h-1q-51 0 -79 46q-12 27 -10 50z" />
<glyph unicode="&#xf7;" horiz-adv-x="783" d="M60 420l15 140h673l-15 -140h-673zM272 191l1 8q4 38 40 70q32 26 69 26h2q43 0 71 -35q21 -30 18 -61l-1 -6q-5 -43 -45 -75q-31 -23 -67 -23q-38 0 -66 28q-26 32 -22 68zM337 781l1 8q4 38 40 70q32 26 69 26h2q43 0 71 -35q21 -30 18 -61l-1 -6q-5 -43 -45 -75 q-31 -23 -67 -23q-38 0 -66 28q-26 32 -22 68z" />
<glyph unicode="&#xf8;" horiz-adv-x="1095" d="M105 469l1 12q22 196 185 348q155 128 315 128h26q91 0 172 -42l92 134l2 1l112 -69v-2l-98 -142q139 -153 116 -363q-23 -214 -205 -370q-149 -113 -310 -113q-87 0 -161 32l-82 -119h-1l-113 69v1l83 121q-12 11 -25 24q-131 153 -109 350zM245 470q-16 -141 78 -250 q1 -1 2 -1l395 574q-51 24 -110 24h-15q-119 0 -233 -103q-102 -105 -117 -239v-5zM436 146q44 -15 92 -15q151 0 274 138q74 98 86 206q15 134 -63 235z" />
<glyph unicode="&#xf9;" horiz-adv-x="1047" d="M106 345l67 602l4 3h134l2 -3l-67 -598q-17 -156 146 -200q32 -9 112 -9q102 0 156 27q81 37 114 103q18 46 23 90l66 587l3 3h135l2 -3l-104 -930l-4 -3h-135l-1 3l10 93q-122 -110 -289 -110q-179 0 -270 76q-123 103 -104 269zM417 1291l60 119l352 -204l-60 -118z " />
<glyph unicode="&#xfa;" horiz-adv-x="1047" d="M106 345l67 602l4 3h134l2 -3l-67 -598q-17 -156 146 -200q32 -9 112 -9q102 0 156 27q81 37 114 103q18 46 23 90l66 587l3 3h135l2 -3l-104 -930l-4 -3h-135l-1 3l10 93q-122 -110 -289 -110q-179 0 -270 76q-123 103 -104 269zM417 1207l352 203l60 -118l-352 -204z " />
<glyph unicode="&#xfb;" horiz-adv-x="1047" d="M106 345l67 602l4 3h134l2 -3l-67 -598q-17 -156 146 -200q32 -9 112 -9q102 0 156 27q81 37 114 103q18 46 23 90l66 587l3 3h135l2 -3l-104 -930l-4 -3h-135l-1 3l10 93q-122 -110 -289 -110q-179 0 -270 76q-123 103 -104 269zM364 1178l1 1l233 243h89q3 -2 89 -121 l89 -123l-116 -90q-3 2 -42 58q-81 109 -83 112l-163 -170h-1z" />
<glyph unicode="&#xfc;" horiz-adv-x="1047" d="M106 345l67 602l4 3h134l2 -3l-67 -598q-17 -156 146 -200q32 -9 112 -9q102 0 156 27q81 37 114 103q18 46 23 90l66 587l3 3h135l2 -3l-104 -930l-4 -3h-135l-1 3l10 93q-122 -110 -289 -110q-179 0 -270 76q-123 103 -104 269zM349 1215v8q5 39 41 71q33 25 70 25 q43 0 71 -34q22 -30 18 -62v-7q-5 -39 -41 -71q-33 -26 -70 -26h-1q-51 0 -79 46q-12 27 -9 50zM689 1215v8q5 39 41 71q33 25 70 25q43 0 71 -34q22 -30 18 -62v-7q-5 -39 -41 -71q-33 -26 -70 -26h-1q-51 0 -79 46q-12 27 -9 50z" />
<glyph unicode="&#xfd;" horiz-adv-x="1079" d="M77 949l1 1h156q4 0 35 -105l200 -648l147 267q259 485 262 486h161v-1l-668 -1240l-77 -140h-161v1l241 449zM380 1207l352 203l60 -118l-351 -204z" />
<glyph unicode="&#xfe;" horiz-adv-x="1166" d="M69 -399l209 1862l2 1h138v-1l-75 -670q130 167 345 167l1 -2h2l1 2q173 0 298 -129q65 -76 86 -142q35 -105 24 -202l-3 -22q-20 -184 -177 -337q-157 -137 -349 -137q-197 0 -296 162l-2 5h-1l-63 -558h-139zM314 465q-14 -122 62 -232q78 -101 209 -101q200 0 318 183 q46 77 55 154l1 15q16 137 -78 246q-84 88 -204 88q-217 0 -323 -209q-31 -64 -39 -134z" />
<glyph unicode="&#xff;" horiz-adv-x="1079" d="M77 949l1 1h156q4 0 35 -105l200 -648l147 267q259 485 262 486h161v-1l-668 -1240l-77 -140h-161v1l241 449zM312 1215l1 8q4 39 41 71q33 25 70 25q43 0 71 -34q22 -30 18 -62l-1 -7q-4 -39 -40 -71q-33 -26 -70 -26h-1q-51 0 -79 46q-12 27 -10 50zM652 1215l1 8 q4 39 41 71q33 25 70 25q43 0 71 -34q22 -30 18 -62l-1 -7q-4 -39 -40 -71q-33 -26 -70 -26h-1q-51 0 -79 46q-12 27 -10 50z" />
<glyph unicode="&#x152;" horiz-adv-x="1872" d="M122 725l1 14q30 267 231 488q79 76 113 98q199 139 410 139h6q167 0 304 -85l9 84l1 1h727l1 -1l-15 -138l-1 -1h-588l-58 -522h470l1 -1l-15 -138l-1 -1h-470l-58 -522h588l1 -1l-15 -138l-1 -1h-727l-1 1l9 84q-155 -85 -326 -85q-256 0 -438 194q-79 98 -94 143 q-87 182 -64 388zM262 727q-27 -243 125 -431q144 -156 348 -156q176 0 328 115l105 955q-130 114 -304 114q-227 0 -418 -193q-159 -177 -183 -394z" />
<glyph unicode="&#x153;" horiz-adv-x="1860" d="M105 469l1 12q22 196 185 348q155 128 315 128h26q154 0 279 -119q58 -63 88 -137q42 68 105 127q149 131 328 131q206 0 333 -182q81 -143 66 -279l-1 -12q-6 -46 -12 -46h-759q-5 -48 26 -135q47 -112 155 -156q53 -18 97 -18q137 0 251 119q40 48 54 77h2 q78 -32 121 -54q-29 -63 -114 -147q-153 -135 -328 -135q-209 0 -337 183q-21 37 -36 75q-49 -78 -127 -145q-149 -113 -310 -113q-173 0 -299 128q-131 153 -109 350zM245 470q-16 -141 78 -250q87 -89 205 -89q151 0 274 138q74 98 86 206q17 151 -85 261q-84 81 -193 81 h-15q-119 0 -233 -103q-102 -105 -117 -239v-5zM1089 578h598q-28 131 -121 193q-68 47 -154 47q-146 0 -264 -136q-37 -47 -59 -104z" />
<glyph unicode="&#x2c6;" horiz-adv-x="699" d="M300 1672v1l233 243h89q2 -2 89 -121l90 -123l-116 -90q-3 2 -43 58q-81 109 -82 112l-163 -170h-1z" />
<glyph unicode="&#x2dc;" horiz-adv-x="810" d="M300 1653l17 154q35 35 67 51q49 26 92 26q52 0 140 -49.5t133 -49.5q41 0 89 28q32 19 74 63l-17 -154q-35 -34 -67 -51q-50 -25 -95 -25q-49 0 -136.5 48.5t-135.5 48.5q-40 0 -88 -28q-32 -19 -73 -62z" />
<glyph unicode="&#x2000;" horiz-adv-x="968" />
<glyph unicode="&#x2001;" horiz-adv-x="1936" />
<glyph unicode="&#x2002;" horiz-adv-x="968" />
<glyph unicode="&#x2003;" horiz-adv-x="1936" />
<glyph unicode="&#x2004;" horiz-adv-x="645" />
<glyph unicode="&#x2005;" horiz-adv-x="484" />
<glyph unicode="&#x2006;" horiz-adv-x="322" />
<glyph unicode="&#x2007;" horiz-adv-x="322" />
<glyph unicode="&#x2008;" horiz-adv-x="242" />
<glyph unicode="&#x2009;" horiz-adv-x="387" />
<glyph unicode="&#x200a;" horiz-adv-x="107" />
<glyph unicode="&#x2010;" horiz-adv-x="871" d="M95 420l15 140h706l-15 -140h-706z" />
<glyph unicode="&#x2011;" horiz-adv-x="871" d="M95 420l15 140h706l-15 -140h-706z" />
<glyph unicode="&#x2012;" horiz-adv-x="871" d="M95 420l15 140h706l-15 -140h-706z" />
<glyph unicode="&#x2013;" horiz-adv-x="1073" d="M95 449l13 120h850l-13 -120h-850z" />
<glyph unicode="&#x2014;" horiz-adv-x="1315" d="M95 399l15 140h1150l-15 -140h-1150z" />
<glyph unicode="&#x2018;" horiz-adv-x="536" d="M172 1361q13 122 174 253q44 35 56 42l35 -52q-111 -94 -119 -168q33 -15 46 -48q10 -20 7 -45q-5 -49 -54 -83q-27 -16 -59 -16q-49 0 -76 43q-15 29 -10 74z" />
<glyph unicode="&#x2019;" horiz-adv-x="536" d="M99 1296q111 94 119 167q-34 15 -47 49q-9 20 -6 45q5 49 54 82q27 17 59 17q48 0 75 -44q16 -28 11 -73q-14 -123 -174 -253q-44 -36 -56 -42z" />
<glyph unicode="&#x201a;" horiz-adv-x="471" d="M44 -167q111 94 119 167q-34 15 -47 49q-9 20 -6 45q5 49 54 82q27 17 59 17q48 0 75 -44q16 -28 11 -73q-14 -123 -174 -253q-44 -36 -56 -42z" />
<glyph unicode="&#x201c;" horiz-adv-x="906" d="M212 1361q13 122 174 253q44 35 56 42l35 -52q-111 -94 -119 -168q33 -15 46 -48q10 -20 7 -45q-5 -49 -54 -83q-27 -16 -59 -16q-49 0 -76 43q-15 29 -10 74zM502 1361q13 122 174 253q44 35 56 42l35 -52q-111 -94 -119 -168q33 -15 46 -48q10 -20 7 -45 q-5 -49 -54 -83q-27 -16 -59 -16q-49 0 -76 43q-15 29 -10 74z" />
<glyph unicode="&#x201d;" horiz-adv-x="906" d="M139 1296q111 94 119 167q-34 15 -47 49q-9 20 -6 45q5 49 54 82q27 17 59 17q48 0 75 -44q16 -28 11 -73q-14 -123 -174 -253q-44 -36 -56 -42zM429 1296q111 94 119 167q-34 15 -47 49q-9 20 -6 45q5 49 54 82q27 17 59 17q48 0 75 -44q16 -28 11 -73 q-14 -123 -174 -253q-44 -36 -56 -42z" />
<glyph unicode="&#x201e;" horiz-adv-x="761" d="M44 -167q111 94 119 167q-34 15 -47 49q-9 20 -6 45q5 49 54 82q27 17 59 17q48 0 75 -44q16 -28 11 -73q-14 -123 -174 -253q-44 -36 -56 -42zM334 -167q111 94 119 167q-34 15 -47 49q-9 20 -6 45q5 49 54 82q27 17 59 17q48 0 75 -44q16 -28 11 -73 q-14 -123 -174 -253q-44 -36 -56 -42z" />
<glyph unicode="&#x2022;" horiz-adv-x="911" d="M307 950q-7 -66 47 -109q33 -24 74 -24q63 0 112 52q30 39 35 81q6 66 -45 111q-34 24 -75 24h-2q-60 0 -110 -52q-32 -38 -36 -81v-2z" />
<glyph unicode="&#x2026;" horiz-adv-x="1238" d="M77 96l1 8q4 38 41 70q31 26 68 26h2q43 0 72 -35q20 -30 17 -61l-1 -6q-5 -43 -45 -75q-31 -23 -67 -23q-38 0 -66 28q-26 32 -22 68zM477 96l1 8q4 38 41 70q31 26 68 26h2q43 0 72 -35q20 -30 17 -61l-1 -6q-5 -43 -45 -75q-31 -23 -67 -23q-38 0 -66 28 q-26 32 -22 68zM877 96l1 8q4 38 41 70q31 26 68 26h2q43 0 72 -35q20 -30 17 -61l-1 -6q-5 -43 -45 -75q-31 -23 -67 -23q-38 0 -66 28q-26 32 -22 68z" />
<glyph unicode="&#x202f;" horiz-adv-x="387" />
<glyph unicode="&#x2039;" horiz-adv-x="709" d="M127 417l12 107l298 182l119 73q64 -115 64 -117l-313 -192q260 -183 271 -192l-89 -116q-2 0 -41 28l-207 146z" />
<glyph unicode="&#x203a;" horiz-adv-x="709" d="M127 279l313 192q-260 183 -271 192l89 116q2 0 41 -28l207 -146l114 -81l-12 -107l-298 -182l-119 -73q-64 115 -64 117z" />
<glyph unicode="&#x205f;" horiz-adv-x="484" />
<glyph unicode="&#x20ac;" horiz-adv-x="1241" d="M44 464l15 138l1 1h87q0 32 3 60l3 27l2 10h-84l-1 1l15 139l1 1h105q23 61 48 105q27 47 68 101q25 32 66 74q48 44 64 56q58 44 94 64q53 30 122 56q119 42 234 42h9q178 0 332 -96q35 -23 78 -62q13 -12 15 -15l-105 -104q-70 70 -163 105q-84 32 -177 32 q-179 0 -341 -114q-21 -16 -59 -50q-55 -54 -83 -95q-22 -32 -46 -78l-10 -21h863l1 -1l-15 -139l-1 -1h-890v-1l-4 -26v-3q-4 -35 -3 -67h886l1 -1l-15 -138l-1 -1h-848q61 -182 231 -269q103 -49 218 -49q158 0 304 89q28 18 65 47l1 1l83 -103v-1q-50 -40 -91 -65 q-181 -108 -375 -108h-4q-179 0 -330 94q-32 20 -67 50q-19 15 -59 60q-42 51 -58 81q-28 47 -48 103q-11 33 -19 70h-117z" />
<glyph unicode="&#x2122;" horiz-adv-x="2435" d="M168 1325l16 138l1 1h923l1 -1l-16 -138l-1 -1h-391l-115 -1024h-140l115 1024h-392zM1078 300l131 1164h175q0 -2 91 -206l169 -379l89 -202q5 5 58 86l263 392q1 0 178 267l30 42h173l1 -1l-131 -1163h-147l104 925l-253 -378l-235 -349q-2 -5 -3 -5h-116q-2 3 -27 60 l-178 400l-120 272h-1l-104 -925h-147z" />
<glyph unicode="&#x25fc;" horiz-adv-x="950" d="M0 0v950h950v-950h-950z" />
<glyph unicode="&#xfb01;" horiz-adv-x="945" d="M15 811l16 138l1 1h170l2 19q25 222 140 359q13 16 44 43q38 32 64 46q29 16 59 26q59 21 113 21h29l1 -1l-15 -138l-1 -1h-22q-125 0 -204 -129q-53 -91 -70 -238v-7h254l1 -1l-16 -138l-1 -1h-254l-91 -809l-1 -1h-138l-1 1l91 809h-170zM602 1l164 1462l2 1h138v-1 l-164 -1462l-1 -1h-138z" />
<glyph unicode="&#xfb02;" horiz-adv-x="968" d="M15 811l16 138l1 1h170l2 19q25 222 140 359q13 16 44 43q38 32 64 46q29 16 59 26q59 21 113 21h29l1 -1l-15 -138l-1 -1h-22q-125 0 -204 -129q-53 -91 -70 -238v-7h254l1 -1l-16 -138l-1 -1h-254l-91 -809l-1 -1h-138l-1 1l91 809h-170zM602 1l107 948l1 1h138l1 -1 l-107 -948l-1 -1h-138zM725 1360l1 8q4 38 40 70q33 26 66 26h8q37 0 67 -32q22 -31 19 -65l-1 -5q-5 -43 -44 -75q-32 -23 -64 -23h-6q-44 0 -72 39q-17 28 -14 57z" />
</font>
</defs>
</svg>
