<?xml version="1.0" standalone="no"?>
<!DOCTYPE svg PUBLIC "-//W3C//DTD SVG 1.1//EN" "http://www.w3.org/Graphics/SVG/1.1/DTD/svg11.dtd" >
<svg xmlns="http://www.w3.org/2000/svg" xmlns:xlink="http://www.w3.org/1999/xlink" version="1.1">
<metadata></metadata>
<defs>
<font id="louis_george_cafe_lightRg" horiz-adv-x="1116" >
<font-face units-per-em="2048" ascent="1638" descent="-410" />
<missing-glyph horiz-adv-x="508" />
<glyph horiz-adv-x="0" />
<glyph unicode="&#xd;" horiz-adv-x="508" />
<glyph unicode=" "  horiz-adv-x="508" />
<glyph unicode="&#x09;" horiz-adv-x="508" />
<glyph unicode="&#xa0;" horiz-adv-x="508" />
<glyph unicode="!" horiz-adv-x="576" d="M266 56v6q0 28 28 48q15 9 30 9h2q33 0 52 -32q7 -13 7 -28q0 -29 -25 -48q-16 -11 -33 -11h-4q-25 0 -44 22q-13 17 -13 34zM276 1405l1 1h97l1 -1l-10 -1173l-1 -1h-77l-1 1z" />
<glyph unicode="&#x22;" horiz-adv-x="643" d="M139 1100v400h79v-400h-79zM349 1100v400h79v-400h-79z" />
<glyph unicode="#" horiz-adv-x="953" d="M36 482v78h183v1l50 299h-180l-1 1v77l1 1h193l66 394h1l77 -13l-63 -381h290q64 384 65 385q76 -13 77 -14l-62 -371h182l1 -1v-77l-1 -1h-195l-50 -300h193v-79h-206l-74 -441l-78 13l72 428h-291l-73 -432l-77 14l70 418h-169zM299 560h291l50 300h-291z" />
<glyph unicode="$" horiz-adv-x="986" d="M97 320q63 29 72 32q13 -29 35 -63q14 -20 43 -51q32 -31 53 -44q88 -57 192 -57h5q100 0 188 53q19 12 45 36q24 27 37 49q35 63 35 126v8q0 77 -52 141q-25 26 -37 34q-27 19 -47 28q-36 16 -78 25q-180 39 -261 76q-41 16 -82 42q-73 49 -99 118q-17 44 -17 98 q0 117 81 211q30 32 47 44q33 24 63 38q26 12 64 23q26 7 59 11l4 1v112h79v-110q38 0 101 -17q75 -23 139 -78q36 -34 45 -46q25 -31 36 -52q5 -7 5 -9l-71 -34q-11 21 -43 58q-96 100 -235 100q-109 0 -190 -54q-15 -10 -42 -37q-34 -41 -44 -69q-19 -45 -19 -93 q0 -91 69 -140q34 -28 114 -58q83 -30 233 -62q53 -14 86 -32q27 -13 57 -35q35 -29 54 -55q60 -82 60 -183t-60 -192q-13 -20 -41 -48l-13 -12q-32 -26 -54 -39q-30 -17 -74 -33q-37 -12 -72 -17q-15 -3 -41 -5v-109l-1 -1h-77l-1 1v110q0 1 -17 2q-39 7 -68 16 q-33 10 -64 26q-33 17 -70 45q-17 13 -47 43q-35 39 -58 77q-17 29 -26 51z" />
<glyph unicode="%" horiz-adv-x="1312" d="M93 1161v10q0 79 54 150q27 31 43 42q68 49 147 49h2q98 0 174 -73q71 -75 71 -172q0 -105 -80 -183q-47 -41 -97 -54q-36 -10 -69 -10q-98 0 -172 72q-31 32 -41 53q-32 57 -32 116zM175 20v1l895 1399h99l-895 -1399l-2 -1h-97zM180 1166q0 -69 53 -119q47 -40 105 -40 q65 0 115 49q23 26 29 45q15 31 15 61v8q0 57 -45 108q-50 47 -114 47q-71 0 -123 -58q-35 -46 -35 -100v-1zM728 234v3q0 98 73 173q76 71 172 71q105 0 183 -80q64 -74 64 -165q0 -99 -72 -174q-35 -33 -62 -45q-53 -27 -109 -27h-7q-90 0 -165 66q-31 32 -41 52 q-36 60 -36 126zM815 236q0 -72 58 -123q45 -37 100 -37q76 0 128 64q32 44 32 96q0 69 -56 121q-48 37 -98 37h-10q-51 0 -99 -38q-55 -51 -55 -120z" />
<glyph unicode="&#x26;" horiz-adv-x="1163" d="M100 314v11q0 64 19 122q11 30 26 57q18 31 47 68q49 62 129 129q79 62 146 104q-78 123 -124 206q-32 59 -32 126v13q0 118 109 198q84 58 183 58q81 0 162 -43q23 -12 55 -41q73 -74 73 -187q0 -63 -26 -108q-7 -16 -25 -41q-15 -19 -49 -54q-51 -47 -81 -67 q-34 -25 -98 -66l-37 -21q110 -172 252 -381l59 -87q75 74 120 123l11 11l57 -54q-51 -55 -130 -134l-13 -12l116 -168l-64 -45q-66 94 -111 159q-54 -46 -100 -76t-96 -55q-126 -59 -244 -59h-14q-106 0 -183 52q-19 10 -51 41q-31 33 -45 60q-41 74 -41 161zM179 319 q0 -127 92 -195q22 -16 48 -27q42 -18 106 -18h3q199 0 401 177q-194 284 -320 481q-53 -32 -120 -84q-34 -26 -83 -72q-53 -56 -71 -83q-20 -28 -32 -54q-24 -50 -24 -124v-1zM390 1142q0 -55 24 -96q42 -76 121 -201q68 39 135 87q30 21 75 63q32 35 41 50q14 20 20 38 q8 21 8 52q0 138 -141 181q-37 11 -71 11q-78 0 -146 -51q-23 -19 -36 -36q-30 -39 -30 -92v-6z" />
<glyph unicode="'" horiz-adv-x="331" d="M109 1100v400h79v-400h-79z" />
<glyph unicode="(" horiz-adv-x="717" d="M133 622v70q0 384 153 652q112 172 246 172h30l3 -3v-73l-3 -2h-24q-148 0 -254 -283q-73 -212 -73 -468q0 -413 131 -659q67 -113 144 -144q24 -9 72 -9h4l3 -3v-73l-3 -3h-18q-239 0 -363 428q-48 195 -48 398z" />
<glyph unicode=")" horiz-adv-x="717" d="M152 -128l3 3h4q48 0 72 9q77 31 144 144q131 246 131 659q0 256 -73 468q-106 283 -254 283h-24l-3 2v73l3 3h30q134 0 246 -172q153 -268 153 -652v-70q0 -203 -48 -398q-124 -428 -363 -428h-18l-3 3v73z" />
<glyph unicode="*" horiz-adv-x="997" d="M158 1237v1l26 74h1l270 -97v288l1 1h78v-289h1l270 97l27 -74q0 -1 -41 -15l-230 -82l167 -228l-62 -47h-1l-170 231h-1q-2 -3 -170 -231l-63 47l167 228zM3362 11044l4 -4l12 4l-4 28h-4z" />
<glyph unicode="+" horiz-adv-x="830" d="M70 450v79h316v314l1 2h77l1 -2v-314h314l1 -1v-77l-1 -1h-314v-315h-79v315h-316z" />
<glyph unicode="," horiz-adv-x="358" d="M63 -100q60 56 60 100q-21 9 -31 29q-7 12 -7 27q0 29 27 49q15 10 34 10q29 0 48 -26q11 -17 11 -44q0 -73 -87 -151q-24 -21 -31 -25z" />
<glyph unicode="-" horiz-adv-x="863" d="M76 450v79h705l1 -1v-77l-1 -1h-705z" />
<glyph unicode="." horiz-adv-x="421" d="M151 56v6q0 28 28 48q15 9 30 9h2q33 0 52 -32q7 -13 7 -28q0 -29 -25 -48q-16 -11 -33 -11h-4q-25 0 -44 22q-13 17 -13 34z" />
<glyph unicode="/" horiz-adv-x="613" d="M1 -49l510 1417l1 1h77l1 -1l-510 -1417l-1 -1h-77z" />
<glyph unicode="0" horiz-adv-x="1298" d="M105 676v5q0 296 191 507q158 158 354 158q172 0 321 -128q79 -78 107 -127q115 -186 115 -413q0 -279 -174 -488q-164 -177 -371 -177q-210 0 -377 186q-166 207 -166 477zM184 678q0 -233 137 -415q78 -89 123 -110q97 -60 198 -60h16q151 0 284 131q85 91 124 195 q49 128 49 262q0 263 -171 453q-136 134 -294 134q-189 0 -333 -177q-133 -178 -133 -413z" />
<glyph unicode="1" horiz-adv-x="619" d="M150 1245v77l1 1h250l1 -1v-1331l-1 -1h-78l-1 1v1253h-171z" />
<glyph unicode="2" horiz-adv-x="935" d="M98 945v2q0 64 28 151q20 57 50 100q102 143 293 143q168 0 270 -122q46 -54 72 -124q25 -74 25 -148q0 -96 -42 -173l-320 -366l-279 -320h161h473v-78l-1 -1h-712l-1 1v107q252 289 275 314l235 271q103 116 104 119q28 56 28 127q0 89 -45 173q-83 141 -238 141h-10 q-131 0 -208 -89q-25 -31 -36 -54q-15 -29 -29 -79q-14 -58 -14 -95h-79z" />
<glyph unicode="3" horiz-adv-x="991" d="M91 339v5l1 1h77l1 -1v-1q0 -86 49 -164q12 -20 43 -53q19 -19 36 -31q86 -60 186 -60q93 0 175 53q17 11 49 42q35 37 49 64q39 71 39 145v12q0 81 -48 159q-13 22 -43 54q-27 25 -52 42q-81 48 -164 48h-104l-1 1v78h122q50 0 109 28q26 13 54 36q23 21 34 35 q60 77 60 171t-61 172q-25 28 -44 43q-74 54 -159 54h-5q-94 0 -172 -65q-93 -83 -93 -210v-3h-78v9q0 122 78 222q33 38 56 54q96 73 211 73q113 0 208 -70q14 -10 45 -40q51 -57 73 -120q20 -59 20 -116v-6q0 -118 -77 -217q-32 -38 -59 -58q-31 -23 -49 -31v-1 q39 -17 88 -58q34 -32 43 -45q88 -110 88 -246q0 -131 -85 -241q-32 -38 -60 -60q-111 -87 -248 -87q-142 0 -257 95q-33 30 -47 48q-59 73 -79 161q-9 42 -9 79z" />
<glyph unicode="4" horiz-adv-x="938" d="M24 254l227 401l142 251l230 407l8 13h99l1 -1v-992h120l1 -1v-78l-1 -1h-120v-261l-1 -1h-77l-1 1v261h-627zM159 332h493v872l-153 -272l-256 -452q-25 -43 -84 -148z" />
<glyph unicode="5" horiz-adv-x="1087" d="M81 235l72 32q14 -32 38 -67q15 -22 48 -55q43 -40 76 -58q92 -51 189 -51h10q109 0 210 64q24 16 58 47q40 42 58 72q59 96 59 207q0 140 -94 253q-30 34 -47 46q-73 60 -159 80q-47 11 -90 11q-113 0 -214 -64l-59 -34h-1v1l103 403l53 204h496l1 -1v-77l-1 -1h-435 l-97 -378h1q75 25 153 25q161 0 293 -102q52 -44 79 -81q27 -35 44 -69q53 -104 53 -211v-11q0 -115 -61 -225q-19 -35 -53 -76q-38 -42 -56 -55q-26 -21 -56 -40q-40 -24 -90 -42q-77 -25 -144 -25h-18q-91 0 -188 43q-35 16 -73 42q-26 18 -58 49q-37 37 -49 56 q-26 35 -44 72z" />
<glyph unicode="6" horiz-adv-x="1094" d="M96 408v13q0 127 75 247l215 370l180 311h1l67 -39v-1q0 -2 -38 -67l-233 -400l-7 -13q93 44 190 44h6q115 0 221 -60q32 -18 70 -49q38 -36 52 -53q36 -45 51 -75q56 -106 56 -214v-14q0 -106 -54 -210q-20 -39 -54 -80q-35 -40 -61 -60q-128 -101 -283 -101h-2 q-163 0 -294 110q-39 35 -52 53q-26 32 -39 55q-19 31 -36 71q-31 83 -31 162zM175 413q0 -132 87 -241q33 -38 57 -56q104 -80 230 -80q137 0 247 94q36 34 44 47q28 36 40 61q43 84 43 175v3q0 135 -90 245q-33 36 -48 48q-106 85 -236 85q-131 0 -238 -87 q-37 -33 -53 -54q-83 -108 -83 -237v-3z" />
<glyph unicode="7" horiz-adv-x="878" d="M53 1249v77h773v-93q0 -2 -128 -242l-200 -379l-240 -453l-93 -177h-1l-69 36v1l209 395l194 367l236 447l11 20h-691z" />
<glyph unicode="8" horiz-adv-x="1022" d="M99 352v11q0 90 46 180q17 31 44 65q35 40 60 59q39 30 63 42q14 8 31 14l-20 13q-21 13 -55 46q-24 25 -40 51q-54 85 -54 183q0 121 81 218q25 28 39 39q97 79 216 79q127 0 227 -88q35 -34 45 -50q65 -91 65 -199q0 -116 -76 -212q-28 -32 -48 -48q-24 -20 -45 -31v-1 q27 -11 59 -31q25 -15 59 -45q36 -37 51 -59q75 -106 75 -230v-2q0 -127 -79 -235q-14 -19 -42 -47q-34 -32 -62 -50q-106 -67 -229 -67q-146 0 -266 94q-41 37 -58 59q-30 39 -43 66q-44 87 -44 176zM178 356q0 -117 84 -212q31 -32 43 -39q93 -69 206 -69q121 0 219 80 q29 26 44 46q69 89 69 195q0 113 -76 205q-30 33 -43 42q-96 75 -214 75q-104 0 -193 -60q-20 -13 -52 -45q-40 -42 -61 -90q-26 -62 -26 -125v-3zM253 1015q0 -102 76 -182q79 -75 182 -75q92 0 167 63q27 24 36 37q54 72 54 154v8q0 74 -46 143q-10 14 -33 38 q-34 31 -62 44q-57 28 -112 28h-9q-80 0 -153 -54q-30 -25 -49 -49q-51 -72 -51 -155z" />
<glyph unicode="9" horiz-adv-x="1089" d="M92 889v13q0 124 71 241q85 132 236 186q73 24 139 24h13q104 0 206 -52q38 -20 81 -56q37 -34 50 -50q39 -47 61 -91q49 -101 49 -201v-14q0 -104 -52 -206q-12 -23 -227 -392l-192 -329q-2 1 -51 30q-16 8 -17 10l169 290l110 190q-92 -44 -193 -44q-160 0 -290 106 q-43 39 -60 61q-31 39 -49 74q-54 104 -54 210zM171 895q0 -116 66 -215q13 -21 47 -56q40 -37 66 -52q92 -55 195 -55q113 0 212 66q20 14 55 47q36 40 46 59q22 33 40 82q21 62 21 123v4q0 131 -87 241q-36 40 -53 53q-106 83 -232 83h-3q-123 0 -227 -78q-14 -11 -49 -46 q-20 -24 -35 -46q-62 -97 -62 -208v-2z" />
<glyph unicode=":" horiz-adv-x="457" d="M187 56v6q0 28 28 48q15 9 30 9h2q33 0 52 -32q7 -13 7 -28q0 -29 -25 -48q-16 -11 -33 -11h-4q-25 0 -44 22q-13 17 -13 34zM187 887v6q0 28 28 48q15 9 30 9h2q33 0 52 -32q7 -13 7 -28q0 -29 -25 -48q-16 -11 -33 -11h-4q-25 0 -44 22q-13 17 -13 34z" />
<glyph unicode=";" horiz-adv-x="412" d="M119 -97q60 56 60 100q-21 9 -31 29q-7 12 -7 27q0 29 27 49q15 10 34 10q29 0 48 -26q11 -17 11 -44q0 -73 -87 -151q-24 -21 -31 -25zM142 887v6q0 28 28 48q15 9 30 9h2q33 0 52 -32q7 -13 7 -28q0 -29 -25 -48q-16 -11 -33 -11h-4q-25 0 -44 22q-13 17 -13 34z" />
<glyph unicode="&#x3c;" horiz-adv-x="870" d="M116 478v92l328 268l183 150l50 -61q-3 -3 -288 -236l-194 -159v-16q11 -10 243 -200l239 -195q-47 -59 -50 -61l-268 219z" />
<glyph unicode="=" horiz-adv-x="839" d="M94 300v79h649l1 -1v-77l-1 -1h-649zM94 600v79h649l1 -1v-77l-1 -1h-649z" />
<glyph unicode="&#x3e;" horiz-adv-x="870" d="M193 121l239 195q232 190 244 200v16l-194 159q-285 233 -289 236l50 61l184 -150l327 -268v-92l-243 -199l-268 -219q-2 2 -50 61z" />
<glyph unicode="?" horiz-adv-x="965" d="M133 1019v39q0 95 47 187q17 33 56 79q37 38 52 47q98 72 214 72q123 0 226 -81q40 -36 55 -56q23 -30 36 -54q52 -95 52 -199q0 -95 -51 -193q-18 -34 -50 -73q-33 -37 -53 -53q-18 -14 -98 -73q-21 -16 -47 -42q-41 -43 -41 -95l1 -82v-164h-1l-12 -1h-65l-1 1v244 q0 107 99 186q31 25 97 74q19 13 48 41q33 37 49 66q45 83 45 161v5q0 107 -67 198q-11 14 -37 39q-53 45 -104 60q-41 12 -76 12h-11q-78 0 -153 -51q-18 -11 -46 -40q-41 -45 -63 -99q-22 -60 -22 -120v-35l-1 -1h-77zM428 66q0 31 28 52q17 12 37 12q31 0 52 -28 q12 -17 12 -36q0 -35 -32 -56q-16 -8 -29 -8h-7q-27 0 -49 26q-12 17 -12 38z" />
<glyph unicode="@" horiz-adv-x="1934" d="M160 612v17q0 151 61 305q95 229 300 375q47 32 93 57q52 28 127 54q134 44 263 44h16q157 0 315 -65q61 -25 126 -67q39 -25 89 -67q43 -39 73 -74q53 -64 76 -104q32 -53 61 -128q45 -128 45 -264q0 -142 -53 -287q-20 -52 -52 -102q-45 -66 -110 -107q-30 -19 -64 -31 q-47 -13 -90 -13h-11q-93 0 -166 63q-28 28 -35 43q-35 53 -43 121h-1q-14 -19 -46 -51q-35 -32 -55 -43q-81 -51 -168 -51q-112 0 -201 80q-34 33 -44 48q-77 109 -77 249q0 119 58 227q13 24 35 54q12 16 42 46q39 35 69 52q77 43 151 43h12q71 0 143 -40q23 -13 60 -46 q36 -39 50 -63q22 -36 36 -74l1 -2q17 52 42 114v1l73 -28v-1q-34 -86 -68 -204q-38 -141 -38 -235v-11q0 -120 62 -174q47 -40 112 -40h2q72 0 124 37q15 10 38 31q23 22 34 38q22 33 33 57q18 34 37 97q29 102 29 196v11q0 173 -85 329q-114 200 -336 297q-142 59 -293 59 h-2q-216 0 -409 -118q-42 -26 -89 -64q-22 -18 -67 -64q-46 -50 -73 -91q-33 -50 -51 -86q-82 -163 -82 -340v-3q0 -217 122 -408q24 -38 64 -86q45 -49 81 -79q46 -38 80 -60q51 -33 102 -56q153 -68 313 -68h6q186 0 358 91q36 -66 37 -69v-1q-59 -32 -138 -59 q-128 -41 -251 -41h-18q-155 0 -313 63q-70 30 -127 66q-217 138 -323 370q-72 164 -72 330zM667 613q0 -118 69 -209q8 -11 31 -32q45 -38 88 -48q27 -7 52 -7h7q75 0 150 57q36 32 49 51q24 32 36 55q44 87 44 176v10q0 92 -48 175q-14 22 -37 48q-70 69 -157 69h-3 q-91 0 -172 -76q-30 -32 -43 -52q-18 -27 -31 -56q-35 -79 -35 -161z" />
<glyph unicode="A" horiz-adv-x="1235" d="M35 0v1l491 1346q40 110 45 117h101q5 -6 73 -198l463 -1265v-1h-83q-6 7 -32 87l-105 285h-733q-2 -1 -63 -168l-74 -204h-83zM283 451h676l-338 923h-1z" />
<glyph unicode="B" horiz-adv-x="1091" d="M172 3v1457l3 3h419q182 0 294 -132q70 -89 70 -207v-33q0 -202 -181 -317q32 -10 77 -39q96 -65 133 -177q15 -52 15 -101v-86q0 -148 -106 -262q-114 -109 -268 -109h-453zM251 79h369q183 0 271 155q33 67 33 147v68q0 178 -177 253q-65 25 -151 25h-345v-648z M251 806h341q150 0 241 127q46 67 46 169v11q0 193 -184 257q-53 14 -108 14h-336v-578z" />
<glyph unicode="C" horiz-adv-x="1351" d="M97 727v10q0 299 198 527q191 200 436 200h5q253 0 450 -219q77 -98 97 -150v-2l-69 -32h-1q0 7 -54 91q-179 233 -428 233q-233 0 -410 -212q-145 -196 -145 -442q0 -271 175 -474q74 -77 122 -102q125 -75 245 -75h29q146 0 290 106q71 57 117 119q35 51 61 102h2 l68 -32v-2q-11 -33 -71 -119q-96 -120 -187 -170q-139 -84 -295 -84q-238 0 -427 190q-105 115 -154 245q-54 146 -54 292z" />
<glyph unicode="D" horiz-adv-x="1268" d="M172 3v1458l3 3h323q259 0 464 -199q213 -227 213 -534q0 -258 -160 -470q-72 -87 -133 -131q-69 -48 -122 -72q-112 -45 -143 -45q-48 -13 -158 -13h-284zM251 80h255q199 0 374 150q85 84 114 138q102 171 102 364q0 274 -191 478q-177 175 -417 175h-237v-1305z" />
<glyph unicode="E" horiz-adv-x="965" d="M172 1v1462l1 1h683l1 -1v-77l-1 -1h-605v-614h491v-78h-491v-614h605l1 -1v-77l-1 -1h-683z" />
<glyph unicode="F" horiz-adv-x="906" d="M172 1v1462l1 1h683l1 -1v-77l-1 -1h-605v-614h512v-78h-512v-692l-1 -1h-77z" />
<glyph unicode="G" horiz-adv-x="1493" d="M91 731v6q0 304 208 535q194 192 436 192h4q255 0 451 -208q74 -85 116 -174v-3q-64 -33 -72 -33q-29 77 -124 180q-167 159 -375 159q-235 0 -415 -209q-150 -197 -150 -445q0 -270 179 -476q98 -96 158 -119q30 -19 99 -39q65 -17 116 -17h30q145 0 290 101 q77 57 140 144q81 121 107 256q4 10 12 70h-437l-3 2v75l1 1h522l1 -1q0 -230 -130 -436q-126 -190 -342 -265q-88 -27 -176 -27q-246 0 -439 195q-207 227 -207 536z" />
<glyph unicode="H" horiz-adv-x="1220" d="M172 3v1458l3 3h73l3 -3v-690h718v690l3 3h73l3 -3v-1458l-3 -3h-73l-3 3v690h-718v-690l-3 -3h-73z" />
<glyph unicode="I" horiz-adv-x="423" d="M172 1v1463h79v-1463l-1 -1h-77z" />
<glyph unicode="J" horiz-adv-x="972" d="M7 410v83l1 1h77l1 -1v-78q0 -111 65 -210q58 -85 144 -115q35 -11 66 -11h89q65 0 132 46q16 10 46 40l17 21q24 32 36 55q14 26 26 64q17 52 17 123v1035l1 1h77l1 -1v-1042q0 -171 -109 -301q-33 -35 -46 -44q-63 -52 -138 -69q-33 -7 -56 -7h-97q-69 0 -144 41 q-119 69 -177 213q-29 81 -29 156z" />
<glyph unicode="K" horiz-adv-x="1146" d="M172 3v1458l3 3h73l3 -3v-851l746 854h101v-1l-592 -680q-18 -20 -18 -24l610 -755v-3h-101q-46 54 -536 667l-27 33l-183 -211v-487l-3 -3h-73z" />
<glyph unicode="L" horiz-adv-x="914" d="M172 1v1462l1 1h77l1 -1v-1384h644l1 -1v-77l-1 -1h-722z" />
<glyph unicode="M" horiz-adv-x="1665" d="M172 4v1457l3 3h131q3 0 43 -107l484 -1259h2l459 1197l66 168l1 1h130l2 -3v-1458l-2 -3h-76l-4 4v1370h-2l-517 -1343q-10 -31 -13 -31h-90q-5 6 -101 261l-424 1100l-7 18h-1v-1376l-3 -3h-73q-7 0 -8 4z" />
<glyph unicode="N" horiz-adv-x="1358" d="M172 4v1457l3 3h121q10 -12 87 -145l723 -1237h1v1379l3 3h73l3 -3v-1458l-3 -3h-118q-6 4 -58 96l-751 1286h-2v-1379l-2 -3h-72q-7 0 -8 4z" />
<glyph unicode="O" horiz-adv-x="1481" d="M99 731v6q0 304 208 535q194 192 436 192h7q248 0 446 -206q65 -77 96 -133q99 -187 99 -376v-30q0 -230 -134 -436q-28 -43 -100 -117l-58 -47q-164 -119 -354 -119q-246 0 -439 195q-207 227 -207 536zM178 731q0 -270 179 -476q98 -96 158 -119q30 -19 99 -39 q65 -17 116 -17h30q164 0 324 127q86 83 112 128q117 182 117 392v10q0 251 -161 452q-176 196 -409 196q-235 0 -415 -209q-150 -197 -150 -445z" />
<glyph unicode="P" horiz-adv-x="1112" d="M172 3v1458l3 3h428q193 0 336 -156q112 -139 112 -292v-29q0 -161 -122 -304q-139 -144 -334 -144h-344v-536l-3 -3h-73zM251 618h335q242 0 353 223q33 80 33 153v16q0 144 -106 261q-112 114 -272 114h-343v-767z" />
<glyph unicode="Q" horiz-adv-x="1509" d="M99 731v6q0 305 208 535q194 192 436 192h7q247 0 446 -206q64 -77 96 -133q99 -187 99 -376v-30q0 -245 -152 -459l-10 -13v-2l190 -201q-33 -34 -57 -54q-186 193 -186 196q-191 -186 -432 -186q-245 0 -438 196q-207 227 -207 535zM178 731q0 -270 179 -475 q98 -96 158 -119q30 -19 98 -40q66 -17 117 -17h30q167 0 327 131l33 33l-190 202l57 53l187 -195q138 192 138 423v10q0 251 -161 452q-175 196 -408 196q-235 0 -415 -209q-150 -196 -150 -445z" />
<glyph unicode="R" horiz-adv-x="1099" d="M172 3v1458l3 3h428q193 0 336 -156q112 -139 112 -292v-29q0 -143 -100 -277q-90 -112 -228 -153l316 -554l-1 -2h-91q-3 2 -70 123l-235 417l-48 -1h-343v-537l-3 -3h-73zM251 618h335q242 0 353 223q33 80 33 153v16q0 144 -106 262q-112 113 -272 113h-343v-767z" />
<glyph unicode="S" horiz-adv-x="1024" d="M71 297q70 30 73 30q19 -46 49 -91q17 -26 52 -63q34 -33 52 -44q101 -70 221 -70q118 0 218 67q19 12 50 43q48 55 68 118q17 54 17 109v2q0 114 -73 198q-32 32 -46 39q-23 17 -50 29q-24 11 -60 21q-221 51 -329 104q-40 19 -78 46q-127 92 -127 250v7q0 118 71 224 q14 19 35 43q35 35 50 44q23 17 51 32q40 21 81 33q66 17 126 17h12q125 0 234 -72q25 -16 61 -50q39 -41 49 -57q29 -39 41 -65l-72 -33q-16 34 -49 72q-26 31 -51 50q-95 77 -218 77h-2q-128 0 -222 -72q-34 -28 -55 -56q-63 -87 -63 -191q0 -102 62 -161q33 -31 60 -46 q58 -36 176 -73q73 -22 184 -48q48 -14 82 -32q37 -18 80 -54q35 -34 43 -46q22 -28 38 -60q38 -82 38 -165v-13q0 -99 -51 -198q-65 -118 -197 -175q-89 -37 -184 -37q-157 0 -285 98q-19 15 -53 48q-43 49 -62 81q-17 25 -37 65z" />
<glyph unicode="T" horiz-adv-x="938" d="M15 1386v77l1 1h906l1 -1v-77h-415v-1385l-1 -1h-77v1386h-415z" />
<glyph unicode="U" horiz-adv-x="1308" d="M170 512v949l3 3h73l3 -3v-932q0 -289 186 -407q35 -21 81 -34q39 -9 112 -9h50q119 0 170 30q114 50 176 200q35 95 35 198v954l3 3h74l3 -3v-899q0 -199 -50 -301q-20 -51 -55 -96q-121 -165 -328 -165h-104q-255 0 -378 249q-54 121 -54 263z" />
<glyph unicode="V" horiz-adv-x="1246" d="M34 1464h84q5 -4 51 -136q317 -862 325 -889l128 -349h2l502 1373l1 1h85q-6 -22 -407 -1110l-130 -353l-1 -1h-100q-4 0 -33 85l-459 1244q-45 122 -48 135z" />
<glyph unicode="W" horiz-adv-x="1781" d="M61 1463l1 1h82q3 0 22 -89l295 -1233h1l378 1260q17 60 20 62h59q5 -1 27 -81q139 -457 372 -1240h3l314 1320l1 1h80l3 -3l-350 -1451q-1 -10 -4 -10h-84q-6 10 -26 84q-123 404 -273 908l-91 303h-2l-385 -1286q-2 -9 -5 -9h-83q-4 0 -38 151z" />
<glyph unicode="X" horiz-adv-x="1115" d="M48 0v1l453 733l-449 726l-1 4h93q9 -11 232 -375q175 -283 181 -295h2l412 670h94v-3l-452 -728l453 -732l-1 -1h-92q-8 8 -84 134l-332 538l-415 -672h-94z" />
<glyph unicode="Y" horiz-adv-x="1070" d="M30 1461v3h93q8 -7 413 -670h3l411 670h94v-1l-467 -757v-703l-3 -3h-77l-3 3v710z" />
<glyph unicode="Z" d="M59 0v1l737 1167l136 217h-835l-3 3v73l3 3h976v-3l-848 -1342l-24 -40h832l2 -3v-73l-2 -3h-974z" />
<glyph unicode="[" horiz-adv-x="752" d="M190 -169v1682l1 1h341v-79h-263v-1526h263v-79h-341z" />
<glyph unicode="\" horiz-adv-x="613" d="M1 1368l1 1h77l1 -1l510 -1417l-1 -1h-77l-1 1z" />
<glyph unicode="]" horiz-adv-x="732" d="M220 -91h263v1526h-263v79h341l1 -1v-1682l-1 -1h-341v79z" />
<glyph unicode="^" horiz-adv-x="1042" d="M150 865l228 370q98 161 100 163h86q2 -2 178 -289q149 -242 150 -244q-63 -40 -67 -41l-232 376l-72 117l-223 -363l-81 -130q-64 38 -67 41z" />
<glyph unicode="_" horiz-adv-x="1090" d="M70 -81h949l1 -1v-77l-1 -1h-949v79z" />
<glyph unicode="`" horiz-adv-x="703" d="M242 1768v1l41 66l297 -183v-1l-42 -66z" />
<glyph unicode="a" d="M92 473v4q0 196 136 343q132 130 299 130h5q201 0 343 -183l13 -21h1v192l3 3h72l2 -3v-926l-2 -3h-72l-3 3v192h-1q-78 -127 -230 -183q-63 -21 -131 -21q-197 0 -339 176q-96 135 -96 297zM169 476q0 -196 152 -326q98 -73 208 -73q150 0 262 126q98 118 98 273 t-102 276q-111 121 -259 121q-168 0 -287 -158q-72 -113 -72 -239z" />
<glyph unicode="b" horiz-adv-x="1139" d="M153 2v1459l3 3h73l3 -3v-709h1q78 128 232 186q66 22 135 22q188 0 327 -157q117 -145 117 -320v-14q0 -199 -148 -355q-136 -122 -290 -122h-12q-196 0 -340 175l-21 33h-1v-198l-3 -2h-73zM232 474q0 -156 103 -280q113 -123 265 -123q165 0 283 149q82 115 82 257 q0 197 -154 330q-101 74 -213 74q-164 0 -282 -148q-84 -115 -84 -259z" />
<glyph unicode="c" horiz-adv-x="956" d="M90 473v4q0 196 136 343q132 130 299 130h5q186 0 325 -159l33 -48q-60 -40 -65 -40q-118 170 -297 170q-168 0 -287 -158q-72 -113 -72 -239q0 -196 152 -326q98 -73 208 -73q174 0 293 166l6 9q61 -37 64 -42q-81 -134 -237 -191q-64 -19 -128 -19q-177 0 -313 145 q-122 143 -122 328z" />
<glyph unicode="d" horiz-adv-x="1139" d="M96 470v8q0 222 169 378q127 104 278 104q204 0 349 -185l15 -23h1v709l3 3h73l3 -3v-1459l-3 -2h-73l-3 2v197q-88 -136 -240 -187q-62 -20 -119 -20h-16q-172 0 -313 147q-124 149 -124 331zM175 474q0 -156 103 -280q113 -123 265 -123q165 0 282 149q83 115 83 257 q0 197 -155 330q-100 74 -212 74q-164 0 -283 -148q-83 -116 -83 -259z" />
<glyph unicode="e" horiz-adv-x="1023" d="M67 473v3q0 197 136 343q131 130 298 130h5q178 0 314 -146q122 -146 122 -330l-2 -2h-796q0 -176 132 -304q104 -90 228 -90q165 0 281 150q32 47 50 91l1 7q73 -23 73 -27q-21 -57 -57 -112q-141 -186 -351 -186q-196 0 -338 176q-96 135 -96 297zM150 548h707 q-2 36 -40 122q-74 137 -204 183q-52 19 -111 19q-157 0 -272 -140q-58 -72 -80 -184z" />
<glyph unicode="f" horiz-adv-x="554" d="M27 872v77l1 1h190v47q0 223 102 352q27 32 50 50q51 42 126 58q31 7 59 7h27l1 -1v-77l-1 -1h-22q-114 0 -186 -96q-77 -105 -77 -299v-40h285l1 -1v-77l-1 -1h-285v-870l-1 -1h-77l-1 1v870h-190z" />
<glyph unicode="g" horiz-adv-x="1019" d="M96 -130q0 85 70 168q33 35 42 40q12 9 33 22q-75 43 -75 133v1q0 78 60 139q-13 13 -25 26q-79 97 -79 216q0 118 79 214q23 27 45 44q26 20 47 33q82 44 166 44h10q97 0 186 -56q21 -15 38 -29h1q23 50 85 74q32 11 62 11h26l1 -1v-77l-1 -1h-23q-52 0 -78 -37 q-11 -25 -11 -41q52 -83 52 -176v-5q0 -113 -76 -208q-21 -25 -49 -49q-32 -25 -56 -36q-78 -40 -155 -40h-13q-84 0 -167 46q-46 -39 -46 -92q0 -39 24 -56q43 -38 205 -38l71 1q195 0 293 -98l14 -17q39 -52 48 -105q3 -18 3 -35v-13q0 -58 -36 -123q-60 -102 -192 -151 q-82 -29 -169 -29h-13q-152 0 -267 72q-82 55 -116 144q-14 41 -14 76v9zM175 -134v-1q0 -65 53 -123q29 -27 44 -35q90 -59 227 -59q140 0 237 71q13 10 35 32q31 34 45 75q9 28 9 50v4q0 56 -42 104q-22 22 -34 29q-25 16 -57 27q-46 14 -57 14q-44 7 -78 7l-95 -1 q-68 0 -127 9q-160 -93 -160 -203zM201 610q0 -68 41 -134q11 -18 40 -47q43 -38 91 -55q44 -16 89 -16h4q90 0 166 58q33 29 45 46q51 69 51 153q0 79 -48 147q-28 38 -64 63q-70 46 -151 46h-2q-95 0 -173 -63q-31 -30 -38 -41q-18 -24 -28 -47q-23 -52 -23 -101v-9z" />
<glyph unicode="h" horiz-adv-x="1057" d="M153 3v1458l3 3h73l3 -3v-634q102 124 271 124h56q221 0 316 -168q34 -69 34 -153v-627l-3 -3h-73l-3 3v616q0 175 -144 231q-56 22 -138 22h-35q-196 0 -260 -135q-21 -48 -21 -116v-618l-3 -3h-73z" />
<glyph unicode="i" horiz-adv-x="393" d="M133 1397v6q0 28 26 49q18 12 34 12h7q24 0 45 -21q15 -20 15 -38v-10q0 -23 -22 -44q-18 -15 -41 -15q-35 0 -56 32q-8 15 -8 29zM157 1v949h79v-949l-1 -1h-77z" />
<glyph unicode="j" horiz-adv-x="458" d="M-43 -353q0 1 1 1q112 0 184 93q20 27 30 48q49 102 49 241v919l1 1h77l1 -1v-894q0 -152 -35 -247q-9 -29 -23 -56q-15 -31 -38 -60q-7 -11 -34 -39q-33 -30 -60 -45q-71 -39 -149 -39h-3l-1 1v77zM197 1397v6q0 28 26 49q18 12 34 12h7q24 0 45 -21q15 -20 15 -38v-10 q0 -23 -22 -44q-18 -15 -41 -15q-35 0 -56 32q-8 15 -8 29z" />
<glyph unicode="k" horiz-adv-x="893" d="M153 3v1458l3 3h73l3 -3v-986l502 476h114v-2l-423 -402v-1l429 -543v-3h-101q-7 5 -144 183q-220 278 -241 309h-2l-134 -128v-361l-3 -3h-73z" />
<glyph unicode="l" horiz-adv-x="384" d="M153 1v1462l1 1h77l1 -1v-1462l-1 -1h-77z" />
<glyph unicode="m" horiz-adv-x="1733" d="M153 3v931l3 3h73l3 -3v-107q102 123 265 123h67q193 0 294 -140l9 -17h3q45 90 170 136q64 21 134 21h66q186 0 287 -130q58 -78 58 -193v-624l-3 -3h-73l-3 3v612q0 174 -136 232q-62 24 -141 24h-44q-196 0 -259 -141q-18 -46 -18 -107v-620l-3 -3h-73l-2 3v616 q0 187 -167 238q-48 14 -111 14h-43q-193 0 -257 -136q-20 -45 -20 -115v-617l-3 -3h-73z" />
<glyph unicode="n" horiz-adv-x="1056" d="M153 3v931l3 3h73l3 -3v-107q102 123 265 123h67q192 0 293 -139q51 -77 51 -182v-626l-3 -3h-73l-2 3v616q0 187 -167 238q-48 14 -111 14h-43q-193 0 -257 -136q-20 -45 -20 -115v-617l-3 -3h-73z" />
<glyph unicode="o" horiz-adv-x="1054" d="M90 473v4q0 196 136 343q132 130 299 130h5q195 0 335 -172q99 -139 99 -296v-14q0 -191 -139 -341q-129 -127 -300 -127q-197 0 -339 176q-96 135 -96 297zM167 476q0 -196 152 -326q98 -73 208 -73q150 0 262 126q98 118 98 273t-102 276q-111 121 -259 121 q-168 0 -287 -158q-72 -113 -72 -239z" />
<glyph unicode="p" horiz-adv-x="1132" d="M153 -428v1353l3 3h72l3 -3v-182h1q79 130 230 185q62 22 130 22h6q197 0 339 -174q100 -140 100 -299v-15q0 -193 -140 -344q-131 -129 -305 -129q-199 0 -343 180l-17 27h-1v-624l-3 -3h-72zM231 470q0 -197 153 -329q100 -74 211 -74q152 0 265 128q99 119 99 275 q0 157 -103 280q-112 122 -262 122q-170 0 -290 -160q-73 -113 -73 -242z" />
<glyph unicode="q" horiz-adv-x="1132" d="M96 462v15q0 159 100 299q142 174 339 174h6q68 0 130 -22q151 -55 230 -185h1v182l3 3h72l3 -3v-1353l-3 -3h-72l-3 3v624h-1l-17 -27q-144 -180 -343 -180q-174 0 -305 129q-140 151 -140 344zM174 470q0 -156 99 -275q113 -128 265 -128q111 0 211 74q153 132 153 329 q0 129 -73 242q-120 160 -290 160q-150 0 -262 -122q-103 -123 -103 -280z" />
<glyph unicode="r" horiz-adv-x="713" d="M153 3v932l3 2h73l3 -2v-106h1q0 5 44 44q102 84 239 84q95 0 162 -44q-17 -91 -20 -91q-79 47 -150 47h-8q-91 0 -175 -57q-48 -43 -58 -70q-35 -66 -35 -133v-606l-3 -3h-73z" />
<glyph unicode="s" horiz-adv-x="835" d="M81 196q37 20 70 35q52 -101 155 -141q57 -21 115 -21q91 0 166 46q52 33 75 93q11 29 11 56v6q0 61 -49 110q-37 32 -86 48q-22 6 -99 21q-148 34 -208 68q-124 62 -124 186q0 91 66 165q27 28 42 37q89 63 213 63h2q141 0 243 -94q32 -32 42 -49q9 -12 11 -18l-70 -37 q-28 46 -82 81q-66 38 -145 38q-110 0 -181 -58q-28 -26 -33 -37q-29 -43 -29 -88v-7q0 -64 61 -101q31 -20 90 -40q76 -24 197 -47q47 -13 77 -28q25 -12 52 -33q25 -21 40 -40q49 -65 49 -143q0 -89 -61 -165q-25 -28 -38 -37q-34 -25 -58 -36q-82 -39 -174 -39 q-125 0 -226 70q-18 13 -49 43l-13 14q-29 36 -42 60q-6 10 -10 19z" />
<glyph unicode="t" horiz-adv-x="661" d="M33 872v77l1 1h185v514h77l1 -1v-513h281l1 -1v-77l-1 -1h-281v-620q0 -73 35 -121q16 -20 29 -27q37 -25 71 -25h4q43 0 115 32q9 5 11 5l34 -71q-24 -13 -78 -30q-48 -14 -78 -14h-12q-50 0 -105 33q-14 8 -40 33q-31 34 -46 76q-18 53 -18 104v625h-185z" />
<glyph unicode="u" horiz-adv-x="1055" d="M148 319v627l3 3h73l3 -3v-619q0 -179 161 -233q51 -15 106 -15h64q170 0 242 125q25 53 25 126v616l2 3h74l2 -3v-930l-2 -3h-74l-2 3v107q-104 -123 -259 -123h-80q-165 0 -269 114q-69 84 -69 205z" />
<glyph unicode="v" horiz-adv-x="950" d="M34 949v1h85q4 0 34 -80l321 -782h2l353 862h87v-1l-379 -920l-14 -29h-96q-5 4 -97 232q-262 630 -296 717z" />
<glyph unicode="w" horiz-adv-x="1394" d="M53 949l1 1h83q5 -4 35 -110l233 -751q4 4 57 177l215 684h40q5 0 25 -73l247 -788q4 4 56 178l212 682l2 1h81l2 -3l-298 -947h-108q-2 0 -30 90l-207 665q-4 -3 -34 -106l-203 -648l-1 -1h-108q-3 0 -51 159z" />
<glyph unicode="x" horiz-adv-x="946" d="M41 3l373 484l-353 462l1 1h100l310 -406h1l308 406h101v-1l-354 -462l374 -484v-3h-100l-330 432h-1l-329 -432h-98z" />
<glyph unicode="y" horiz-adv-x="943" d="M34 949v1h85q3 0 22 -51l329 -810h1l354 861h81l1 -1h1l-565 -1378l-1 -2h-84v1l170 415z" />
<glyph unicode="z" horiz-adv-x="931" d="M89 0v1l609 870h-580l-3 3v73l3 3h728l3 -3q-19 -24 -609 -868h585l3 -3v-73l-3 -3h-736z" />
<glyph unicode="{" horiz-adv-x="790" d="M156 606v52l45 21q52 30 75 87q6 18 6 29v490q0 141 115 210q70 39 165 39h44v-77l-1 -2h-50q-105 0 -162 -65q-33 -42 -33 -111v-487q0 -79 -80 -152l-10 -9q58 -38 85 -123q5 -19 5 -34v-488q0 -131 117 -167q42 -10 76 -10h51l2 -3v-73q0 -3 -4 -3l-44 -1 q-147 0 -230 100q-46 66 -46 150v487q0 66 -81 118q-45 20 -45 22z" />
<glyph unicode="|" horiz-adv-x="379" d="M150 -1v1399l1 2h77l1 -2v-1399h-79z" />
<glyph unicode="}" horiz-adv-x="790" d="M184 -194l2 3h51q34 0 76 10q117 36 117 167v488q0 15 5 34q27 85 85 123l-10 9q-80 73 -80 152v487q0 69 -33 111q-57 65 -162 65h-50l-1 2v77h44q95 0 165 -39q115 -69 115 -210v-490q0 -11 6 -29q23 -57 75 -87l45 -21v-52q0 -2 -45 -22q-81 -52 -81 -118v-487 q0 -84 -46 -150q-83 -100 -230 -100l-44 1q-4 0 -4 3v73z" />
<glyph unicode="~" horiz-adv-x="484" d="M61 437v88q19 23 38 33q29 17 56 17q32 0 90.5 -31.5t85.5 -31.5q26 0 54 18q18 12 42 39v-88q-19 -22 -39 -33q-29 -16 -57 -16q-30 0 -88 31t-88 31q-25 0 -53 -18q-18 -12 -41 -39z" />
<glyph unicode="&#xa1;" horiz-adv-x="576" d="M266 1347q0 29 25 48q15 11 33 11h4q24 0 44 -22q13 -17 13 -34v-7q0 -27 -28 -47q-16 -9 -31 -9h-1q-34 0 -52 32q-7 13 -7 28zM276 1l10 1173l1 1h77l1 -1l10 -1173l-1 -1h-97z" />
<glyph unicode="&#xa2;" horiz-adv-x="956" d="M90 694v4q0 196 136 343q102 100 225 123v128h79v-121q186 0 325 -159l33 -48q-60 -40 -65 -40q-117 168 -293 170v-796q172 1 290 166l6 9q61 -37 64 -42q-81 -134 -237 -191q-62 -18 -123 -19v-116l-1 -1h-77l-1 1v123q-132 24 -239 138q-122 143 -122 328zM167 697 q0 -196 152 -326q63 -47 132 -64v779q-120 -28 -212 -150q-72 -113 -72 -239z" />
<glyph unicode="&#xa3;" horiz-adv-x="1173" d="M53 91q60 50 143 129q79 79 100 106q131 154 131 268v6q0 20 -5 47h-255l-1 1v77l1 1h227q-9 20 -44 94q-47 105 -47 192v13q0 83 43 155q11 17 31 40q30 29 54 45q101 71 216 71q113 0 215 -68q20 -13 43 -36l-56 -56q-35 32 -61 44q-69 37 -141 37q-106 0 -199 -79 q-66 -61 -66 -157v-6q0 -87 57 -198q26 -54 41 -91h348l1 -1v-77l-1 -1h-326q4 -28 4 -50q0 -141 -137 -306q-24 -31 -79 -88h1q46 10 92 10q120 0 206 -83q88 -76 175 -76q119 0 252 141l57 -55q-155 -165 -310 -165q-126 0 -246 113q-57 47 -135 47q-113 0 -259 -91 l-21 -15h-1z" />
<glyph unicode="&#xa4;" horiz-adv-x="1295" d="M63 237l139 145q-29 36 -49 70q-77 135 -77 287v4q0 163 91 307q15 24 42 58l-146 152l57 55l144 -150q42 36 72 56q145 92 313 92q182 0 336 -108q24 -19 49 -40l145 150l56 -55l-146 -152v-1q31 -38 51 -71q82 -138 82 -295v-2q0 -173 -100 -323l-26 -34l139 -145 q-48 -48 -56 -55h-1l-136 141q-41 -38 -74 -59q-47 -31 -87 -48q-113 -49 -226 -49h-13q-138 0 -271 72q-39 21 -85 58l-30 26l-136 -141q-2 0 -57 55zM155 740q0 -170 110 -311q44 -51 78 -77q40 -30 68 -45q112 -61 236 -61h4q156 0 289 95q23 16 61 52q40 44 57 70 q85 128 85 278q0 157 -95 290q-15 21 -48 56q-40 40 -66 57q-131 90 -285 90q-151 0 -282 -88q-25 -16 -62 -51q-39 -40 -51 -58q-25 -34 -38 -58q-61 -112 -61 -239z" />
<glyph unicode="&#xa5;" horiz-adv-x="1124" d="M63 1281l60 51l288 -340q1 -1 153 -180l234 277l205 242l2 1q58 -50 59 -50q0 -2 -9 -13l-322 -380l-130 -153v-107h368l1 -1v-77l-1 -1h-368v-131h368l1 -1v-77l-1 -1h-368v-338h-79v338h-367l-1 1v77l1 1h367v131h-367l-1 1v77l1 1h367v107l-277 328q-19 21 -173 203 q-11 13 -11 14z" />
<glyph unicode="&#xa6;" horiz-adv-x="479" d="M200 149l1 1h77l1 -1v-649h-79v649zM200 850v649l1 1h77l1 -1v-649h-79z" />
<glyph unicode="&#xa7;" horiz-adv-x="815" d="M118 724v10q0 77 50 150q11 15 37 42l24 20q33 23 54 31q-24 11 -52 29q-100 69 -100 174v10q0 78 55 145q22 23 31 30q28 22 49 32q71 34 152 34q118 0 204 -82q36 -36 49 -61q8 -14 11 -21l-71 -34q-8 19 -34 50q-66 69 -160 69q-66 0 -122 -30q-20 -9 -45 -34 q-40 -45 -40 -103v-1q0 -75 74 -118q31 -20 93 -41q53 -17 119 -32q35 -11 63 -25q24 -13 51 -36q34 -33 37 -40q12 -13 26 -39q31 -60 31 -124q0 -107 -80 -191q-35 -31 -63 -46q-20 -11 -22 -11l33 -17q23 -14 51 -37q67 -63 67 -149v-11q0 -65 -41 -126q-8 -13 -35 -40 q-30 -26 -50 -35q-18 -11 -54 -23q-54 -16 -105 -16q-133 0 -224 100q-35 44 -42 64q62 30 72 34q7 -19 37 -54q65 -65 153 -65h6q77 0 138 41q24 18 42 43q24 39 24 82v3q0 71 -68 113q-25 17 -67 34q-50 20 -148 42q-88 26 -146 92q-45 55 -58 116q-6 29 -6 52zM197 728 q0 -70 51 -127q29 -28 44 -36q15 -10 37 -18q39 -15 79 -15h6q79 0 144 54q27 25 32 35q35 51 35 105v5q0 78 -64 139q-66 56 -150 56q-83 0 -148 -55q-66 -61 -66 -141v-2z" />
<glyph unicode="&#xa8;" horiz-adv-x="903" d="M242 1661v6q0 28 28 48q15 9 30 9h2q33 0 52 -32q7 -13 7 -28q0 -29 -25 -48q-16 -11 -33 -11h-4q-25 0 -44 22q-13 17 -13 34zM542 1661v6q0 28 28 48q15 9 30 9h2q33 0 52 -32q7 -13 7 -28q0 -29 -25 -48q-16 -11 -33 -11h-4q-25 0 -44 22q-13 17 -13 34z" />
<glyph unicode="&#xa9;" horiz-adv-x="1915" d="M175 673v18q0 177 87 350q28 55 76 119q23 30 56 66q53 51 79 71q50 39 106 70q179 98 379 98q247 0 456 -146q37 -27 89 -76q59 -60 79 -90q33 -42 60 -92q98 -179 98 -378q0 -227 -123 -423q-28 -43 -73 -96q-48 -53 -80 -79q-48 -39 -82 -61q-54 -35 -108 -58 q-154 -66 -306 -66h-21q-158 0 -318 71q-59 28 -127 74q-32 22 -90 76q-59 61 -79 90q-40 52 -60 92q-34 60 -59 132q-39 123 -39 238zM255 680q0 -212 121 -395q22 -32 59 -74q47 -48 64 -61q38 -34 65 -50q53 -37 109 -61q138 -59 280 -59h8q194 0 369 105 q202 130 288 354q43 120 43 244q0 207 -116 386q-24 38 -75 95q-52 51 -70 65q-43 34 -76 54q-172 103 -368 103q-220 0 -408 -133q-32 -21 -82 -67q-53 -53 -72 -83q-33 -44 -51 -78q-88 -162 -88 -341v-4zM558 681v4q0 196 136 343q132 130 299 130h5q186 0 325 -159 l33 -48q-60 -40 -65 -40q-118 170 -297 170q-168 0 -287 -158q-72 -113 -72 -239q0 -196 152 -326q98 -73 208 -73q174 0 293 166l6 9q61 -37 64 -42q-81 -134 -237 -191q-64 -19 -128 -19q-177 0 -313 145q-122 143 -122 328z" />
<glyph unicode="&#xaa;" horiz-adv-x="648" />
<glyph unicode="&#xab;" horiz-adv-x="1109" d="M117 412v74q35 24 291 191l83 56l44 -66q-9 -6 -309 -203l-22 -15l331 -217v-1q-42 -63 -44 -65zM517 412v74q35 24 291 191l83 56l44 -66q-9 -6 -309 -203l-22 -15l331 -217v-1q-42 -63 -44 -65z" />
<glyph unicode="&#xac;" horiz-adv-x="950" d="M150 701v79h649l1 -1v-379h-79v301h-571z" />
<glyph unicode="&#xad;" horiz-adv-x="863" d="M76 450v79h705l1 -1v-77l-1 -1h-705z" />
<glyph unicode="&#xae;" horiz-adv-x="1150" d="M175 1059v9q0 91 44 179q15 28 39 61q12 15 29 34q27 26 40 36q26 20 55 36q91 50 193 50q127 0 233 -75q19 -13 46 -38q30 -31 40 -46q17 -22 31 -48q50 -91 50 -193q0 -116 -63 -216q-14 -22 -37 -49q-25 -27 -41 -40q-25 -20 -42 -32q-28 -18 -55 -29 q-79 -34 -157 -34h-10q-81 0 -163 36q-30 15 -65 38q-16 11 -46 39q-30 31 -40 46q-21 27 -31 47q-17 31 -30 67q-20 63 -20 122zM205 1062q0 -111 64 -207q12 -17 31 -39q25 -25 34 -32q20 -18 34 -27q28 -19 57 -32q73 -31 147 -31h5q102 0 194 56q106 68 151 186 q23 63 23 128q0 109 -61 203q-13 20 -40 50q-27 27 -37 34q-22 18 -40 29q-90 54 -193 54q-116 0 -215 -70q-16 -11 -43 -35q-28 -28 -38 -44q-17 -23 -26 -41q-47 -85 -47 -179v-3zM455 768v564h144q41 0 79 -23q10 -6 22 -16q15 -15 19 -21q7 -10 11 -18q20 -36 20 -78 v-14q0 -52 -29 -98q-30 -44 -78 -61l85 -177l27 -58h-34q-1 0 -7 14l-48 103l-53 111q-8 -1 -20 -1h-108v-227h-30zM488 1025h116q15 0 35 7q46 19 69 65q15 31 15 67v10q0 54 -35 91q-12 12 -19 16q-31 21 -68 21h-113v-277z" />
<glyph unicode="&#xaf;" horiz-adv-x="670" />
<glyph unicode="&#xb0;" horiz-adv-x="739" d="M99 1206v9q0 73 50 136q24 27 39 37q61 42 125 42h10q70 0 133 -48q19 -16 32 -33q50 -61 50 -138q0 -90 -67 -158q-67 -62 -153 -62q-89 0 -157 66q-34 38 -44 69q-18 40 -18 80zM186 1210q0 -62 53 -105q37 -27 77 -27h5q58 0 102 52q28 39 28 78v5q0 54 -44 96 q-40 34 -87 34h-2q-66 0 -110 -58q-22 -35 -22 -74v-1z" />
<glyph unicode="&#xb1;" horiz-adv-x="862" d="M76 0h708l1 -1v-77l-1 -1h-708v79zM76 450v79h316v314l1 2h77l1 -2v-314h314l1 -1v-77l-1 -1h-314v-315h-79v315h-316z" />
<glyph unicode="&#xb2;" horiz-adv-x="1014" />
<glyph unicode="&#xb3;" horiz-adv-x="1014" />
<glyph unicode="&#xb4;" horiz-adv-x="703" d="M242 1651v1l297 183l41 -66v-1l-296 -183z" />
<glyph unicode="&#xb5;" horiz-adv-x="1077" d="M160 -399v1349h79v-623q0 -179 161 -233q51 -15 106 -15h64q170 0 242 125q25 53 25 126v616l2 3h74l2 -3v-930l-2 -3h-74l-2 3v107q-104 -123 -259 -123h-80q-157 0 -259 103v-502l-1 -1h-77z" />
<glyph unicode="&#xb6;" horiz-adv-x="1076" d="M107 1019q0 148 102 239t270 91h419v-78l-1 -1h-116v-1070h-80v1070h-158v-1070h-79v489q-165 8 -261 97.5t-96 232.5z" />
<glyph unicode="&#xb7;" horiz-adv-x="603" d="M242 729v6q0 28 28 48q15 9 30 9h2q33 0 52 -32q7 -13 7 -28q0 -29 -25 -48q-16 -11 -33 -11h-4q-25 0 -44 22q-13 17 -13 34z" />
<glyph unicode="&#xb8;" horiz-adv-x="738" d="M242 -227q2 1 29 21q27 19 28 19q27 -35 62 -35q31 0 54 27q11 16 11 33v4q0 20 -13 36q-12 10 -31 10h-6q-21 0 -57 -15l-33 -11v1l34 170v1h1q66 -13 68 -14l-13 -62q81 0 110 -67q10 -26 10 -52q0 -60 -51 -102q-38 -29 -85 -29q-69 0 -118 64v1z" />
<glyph unicode="&#xb9;" horiz-adv-x="1014" />
<glyph unicode="&#xba;" horiz-adv-x="718" />
<glyph unicode="&#xbb;" horiz-adv-x="1109" d="M174 231v1l331 217l-22 15q-300 197 -309 203l44 66l83 -56q256 -167 291 -191v-74l-374 -246q-2 2 -44 65zM574 231v1l331 217l-22 15q-300 197 -309 203l44 66l83 -56q256 -167 291 -191v-74l-374 -246q-2 2 -44 65z" />
<glyph unicode="&#xbc;" horiz-adv-x="1708" />
<glyph unicode="&#xbd;" horiz-adv-x="1964" />
<glyph unicode="&#xbe;" horiz-adv-x="1708" />
<glyph unicode="&#xbf;" horiz-adv-x="965" d="M94 392q0 95 51 193q18 34 50 73q33 37 53 53q18 14 98 73q21 16 47 42q41 43 41 95l-1 82v164h1l12 1h65l1 -1v-244q0 -107 -99 -186q-31 -25 -97 -74q-19 -13 -48 -41q-33 -37 -49 -66q-45 -83 -45 -161v-5q0 -107 67 -198q11 -14 37 -39q53 -45 104 -60q41 -12 76 -12 h11q78 0 153 51q18 11 46 40q41 45 63 99q22 60 22 120v35l1 1h77l1 -1v-39q0 -95 -47 -187q-17 -33 -56 -79q-37 -38 -52 -47q-98 -72 -214 -72q-123 0 -226 81q-40 36 -55 56q-23 30 -36 54q-52 95 -52 199zM408 1379q0 35 32 56q16 8 29 8h7q27 0 49 -26q12 -18 12 -39 q0 -31 -28 -52q-17 -11 -37 -11q-31 0 -52 27q-12 18 -12 37z" />
<glyph unicode="&#xc0;" horiz-adv-x="1235" d="M35 0v1l491 1346q40 110 45 117h101q5 -6 73 -198l463 -1265v-1h-83q-6 7 -32 87l-105 285h-733q-2 -1 -63 -168l-74 -204h-83zM283 451h676l-338 923h-1zM453 1768v1l41 66l297 -183v-1l-42 -66z" />
<glyph unicode="&#xc1;" horiz-adv-x="1235" d="M35 0v1l491 1346q40 110 45 117h101q5 -6 73 -198l463 -1265v-1h-83q-6 7 -32 87l-105 285h-733q-2 -1 -63 -168l-74 -204h-83zM283 451h676l-338 923h-1zM453 1651v1l296 183l42 -66v-1l-297 -183z" />
<glyph unicode="&#xc2;" horiz-adv-x="1235" d="M35 0v1l491 1346q40 110 45 117h101q5 -6 73 -198l463 -1265v-1h-83q-6 7 -32 87l-105 285h-733q-2 -1 -63 -168l-74 -204h-83zM283 451h676l-338 923h-1zM394 1636l197 233h61l197 -233l-60 -51h-1l-167 198q-160 -190 -167 -198q-42 35 -60 51z" />
<glyph unicode="&#xc3;" horiz-adv-x="1235" d="M35 0v1l491 1346q40 110 45 117h101q5 -6 73 -198l463 -1265v-1h-83q-6 7 -32 87l-105 285h-733q-2 -1 -63 -168l-74 -204h-83zM283 451h676l-338 923h-1zM439 1610v88q19 23 38 33q29 17 56 17q32 0 90.5 -31.5t85.5 -31.5q26 0 54 18q18 12 42 39v-88q-19 -22 -39 -33 q-29 -16 -57 -16q-30 0 -88 31t-88 31q-25 0 -53 -18q-18 -12 -41 -39z" />
<glyph unicode="&#xc4;" horiz-adv-x="1235" d="M35 0v1l491 1346q40 110 45 117h101q5 -6 73 -198l463 -1265v-1h-83q-6 7 -32 87l-105 285h-733q-2 -1 -63 -168l-74 -204h-83zM283 451h676l-338 923h-1zM412 1671v6q0 28 28 48q15 9 30 9h2q33 0 52 -32q7 -13 7 -28q0 -29 -25 -48q-16 -11 -33 -11h-4q-25 0 -44 22 q-13 17 -13 34zM712 1671v6q0 28 28 48q15 9 30 9h2q33 0 52 -32q7 -13 7 -28q0 -29 -25 -48q-16 -11 -33 -11h-4q-25 0 -44 22q-13 17 -13 34z" />
<glyph unicode="&#xc5;" horiz-adv-x="1235" d="M35 0v1l491 1346q39 107 45 117q-26 10 -46 30q-17 18 -23 30q-18 32 -18 66v4q0 46 31 84q14 18 24 24q37 28 83 28q56 0 98 -41q39 -42 39 -96q0 -58 -43 -103q-22 -18 -44 -26q5 -6 73 -198l463 -1265v-1h-83q-6 7 -32 87l-105 285h-733q-2 -1 -63 -168l-74 -204h-83z M283 451h676l-338 923h-1zM559 1592q0 -27 21 -47q19 -15 42 -15q25 0 45 18q8 10 11 18q6 12 6 25v2q0 23 -17 43q-20 19 -45 19q-28 0 -49 -24q-14 -18 -14 -39z" />
<glyph unicode="&#xc6;" horiz-adv-x="1740" d="M35 4l891 1458l3 2h699l4 -4v-70l-4 -4h-598l-4 -4v-611h488l4 -4v-70l-4 -4h-488v-613h602l4 -4v-72l-4 -4h-682l-5 4v459h-543q-274 -457 -283 -463h-76zM447 540h492v806h-2z" />
<glyph unicode="&#xc7;" horiz-adv-x="1351" d="M97 727v10q0 299 198 527q191 200 436 200h5q253 0 450 -219q77 -98 97 -150v-2l-69 -32h-1q0 7 -54 91q-179 233 -428 233q-233 0 -410 -212q-145 -196 -145 -442q0 -271 175 -474q74 -77 122 -102q125 -75 245 -75h29q146 0 290 106q71 57 117 119q35 51 61 102h2 l68 -32v-2q-11 -33 -71 -119q-96 -120 -187 -170q-139 -84 -295 -84q-12 0 -25 1l-9 -43q81 0 110 -67q10 -26 10 -52q0 -60 -51 -102q-38 -29 -85 -29q-69 0 -118 64v1q2 1 29 21q27 19 28 19q27 -35 62 -35q31 0 54 27q11 16 11 33v4q0 20 -13 36q-12 10 -31 10h-6 q-21 0 -57 -15l-33 -11v1l29 145q-182 31 -332 182q-105 115 -154 245q-54 146 -54 292z" />
<glyph unicode="&#xc8;" horiz-adv-x="965" d="M172 1v1462l1 1h683l1 -1v-77l-1 -1h-605v-614h491v-78h-491v-614h605l1 -1v-77l-1 -1h-683zM346 1768v1l41 66l297 -183v-1l-42 -66z" />
<glyph unicode="&#xc9;" horiz-adv-x="965" d="M172 1v1462l1 1h683l1 -1v-77l-1 -1h-605v-614h491v-78h-491v-614h605l1 -1v-77l-1 -1h-683zM346 1651v1l297 183l41 -66v-1l-296 -183z" />
<glyph unicode="&#xca;" horiz-adv-x="965" d="M172 1v1462l1 1h683l1 -1v-77l-1 -1h-605v-614h491v-78h-491v-614h605l1 -1v-77l-1 -1h-683zM287 1636l197 233h61l197 -233l-60 -51h-1l-167 198q-160 -190 -167 -198q-42 35 -60 51z" />
<glyph unicode="&#xcb;" horiz-adv-x="965" d="M172 1v1462l1 1h683l1 -1v-77l-1 -1h-605v-614h491v-78h-491v-614h605l1 -1v-77l-1 -1h-683zM305 1671v6q0 28 28 48q15 9 30 9h2q33 0 52 -32q7 -13 7 -28q0 -29 -25 -48q-16 -11 -33 -11h-4q-25 0 -44 22q-13 17 -13 34zM605 1671v6q0 28 28 48q15 9 30 9h2 q33 0 52 -32q7 -13 7 -28q0 -29 -25 -48q-16 -11 -33 -11h-4q-25 0 -44 22q-13 17 -13 34z" />
<glyph unicode="&#xcc;" horiz-adv-x="423" d="M42 1768v1l41 66l297 -183v-1l-42 -66zM172 1v1463h79v-1463l-1 -1h-77z" />
<glyph unicode="&#xcd;" horiz-adv-x="423" d="M42 1651v1l297 183l41 -66v-1l-296 -183zM172 1v1463h79v-1463l-1 -1h-77z" />
<glyph unicode="&#xce;" horiz-adv-x="423" d="M-16 1636l197 233h61l197 -233l-60 -51h-1l-167 198q-160 -190 -167 -198q-42 35 -60 51zM172 1v1463h79v-1463l-1 -1h-77z" />
<glyph unicode="&#xcf;" horiz-adv-x="423" d="M32 1671v6q0 28 28 48q15 9 30 9h2q33 0 52 -32q7 -13 7 -28q0 -29 -25 -48q-16 -11 -33 -11h-4q-25 0 -44 22q-13 17 -13 34zM172 1v1463h79v-1463l-1 -1h-77zM272 1671v6q0 28 28 48q15 9 30 9h2q33 0 52 -32q7 -13 7 -28q0 -29 -25 -48q-16 -11 -33 -11h-4 q-25 0 -44 22q-13 17 -13 34z" />
<glyph unicode="&#xd0;" horiz-adv-x="1334" d="M112 694v78h126v689l3 3h323q259 0 464 -199q213 -227 213 -534q0 -258 -160 -470q-72 -87 -133 -131q-69 -48 -122 -72q-112 -45 -143 -45q-48 -13 -158 -13h-284l-3 3v691h-126zM317 80h255q199 0 374 150q85 84 114 138q102 171 102 364q0 274 -191 478 q-177 175 -417 175h-237v-613h228v-78h-228v-614z" />
<glyph unicode="&#xd1;" horiz-adv-x="1358" d="M172 4v1457l3 3h121q10 -12 87 -145l723 -1237h1v1379l3 3h73l3 -3v-1458l-3 -3h-118q-6 4 -58 96l-751 1286h-2v-1379l-2 -3h-72q-7 0 -8 4zM496 1610v88q19 23 38 33q29 17 56 17q32 0 90.5 -31.5t85.5 -31.5q26 0 54 18q18 12 42 39v-88q-19 -22 -39 -33 q-29 -16 -57 -16q-30 0 -88 31t-88 31q-25 0 -53 -18q-18 -12 -41 -39z" />
<glyph unicode="&#xd2;" horiz-adv-x="1481" d="M99 731v6q0 304 208 535q194 192 436 192h7q248 0 446 -206q65 -77 96 -133q99 -187 99 -376v-30q0 -230 -134 -436q-28 -43 -100 -117l-58 -47q-164 -119 -354 -119q-246 0 -439 195q-207 227 -207 536zM178 731q0 -270 179 -476q98 -96 158 -119q30 -19 99 -39 q65 -17 116 -17h30q164 0 324 127q86 83 112 128q117 182 117 392v10q0 251 -161 452q-176 196 -409 196q-235 0 -415 -209q-150 -197 -150 -445zM576 1768v1l41 66l297 -183v-1l-42 -66z" />
<glyph unicode="&#xd3;" horiz-adv-x="1481" d="M99 731v6q0 304 208 535q194 192 436 192h7q248 0 446 -206q65 -77 96 -133q99 -187 99 -376v-30q0 -230 -134 -436q-28 -43 -100 -117l-58 -47q-164 -119 -354 -119q-246 0 -439 195q-207 227 -207 536zM178 731q0 -270 179 -476q98 -96 158 -119q30 -19 99 -39 q65 -17 116 -17h30q164 0 324 127q86 83 112 128q117 182 117 392v10q0 251 -161 452q-176 196 -409 196q-235 0 -415 -209q-150 -197 -150 -445zM576 1651v1l296 183l42 -66v-1l-297 -183z" />
<glyph unicode="&#xd4;" horiz-adv-x="1481" d="M99 731v6q0 304 208 535q194 192 436 192h7q248 0 446 -206q65 -77 96 -133q99 -187 99 -376v-30q0 -230 -134 -436q-28 -43 -100 -117l-58 -47q-164 -119 -354 -119q-246 0 -439 195q-207 227 -207 536zM178 731q0 -270 179 -476q98 -96 158 -119q30 -19 99 -39 q65 -17 116 -17h30q164 0 324 127q86 83 112 128q117 182 117 392v10q0 251 -161 452q-176 196 -409 196q-235 0 -415 -209q-150 -197 -150 -445zM518 1636l197 233h61l197 -233l-60 -51h-1l-167 198q-160 -190 -167 -198q-42 35 -60 51z" />
<glyph unicode="&#xd5;" horiz-adv-x="1481" d="M99 731v6q0 304 208 535q194 192 436 192h7q248 0 446 -206q65 -77 96 -133q99 -187 99 -376v-30q0 -230 -134 -436q-28 -43 -100 -117l-58 -47q-164 -119 -354 -119q-246 0 -439 195q-207 227 -207 536zM178 731q0 -270 179 -476q98 -96 158 -119q30 -19 99 -39 q65 -17 116 -17h30q164 0 324 127q86 83 112 128q117 182 117 392v10q0 251 -161 452q-176 196 -409 196q-235 0 -415 -209q-150 -197 -150 -445zM562 1610v88q19 23 38 33q29 17 56 17q32 0 90.5 -31.5t85.5 -31.5q26 0 54 18q18 12 42 39v-88q-19 -22 -39 -33 q-29 -16 -57 -16q-30 0 -88 31t-88 31q-25 0 -53 -18q-18 -12 -41 -39z" />
<glyph unicode="&#xd6;" horiz-adv-x="1481" d="M99 731v6q0 304 208 535q194 192 436 192h7q248 0 446 -206q65 -77 96 -133q99 -187 99 -376v-30q0 -230 -134 -436q-28 -43 -100 -117l-58 -47q-164 -119 -354 -119q-246 0 -439 195q-207 227 -207 536zM178 731q0 -270 179 -476q98 -96 158 -119q30 -19 99 -39 q65 -17 116 -17h30q164 0 324 127q86 83 112 128q117 182 117 392v10q0 251 -161 452q-176 196 -409 196q-235 0 -415 -209q-150 -197 -150 -445zM536 1671v6q0 28 28 48q15 9 30 9h2q33 0 52 -32q7 -13 7 -28q0 -29 -25 -48q-16 -11 -33 -11h-4q-25 0 -44 22q-13 17 -13 34 zM836 1671v6q0 28 28 48q15 9 30 9h2q33 0 52 -32q7 -13 7 -28q0 -29 -25 -48q-16 -11 -33 -11h-4q-25 0 -44 22q-13 17 -13 34z" />
<glyph unicode="&#xd7;" horiz-adv-x="750" d="M96 248l223 223l-222 222v2l54 55l2 -1l222 -222l222 222h2l54 -55v-1l-222 -222l223 -223l-56 -56l-223 223l-223 -223z" />
<glyph unicode="&#xd8;" horiz-adv-x="1481" d="M99 731v6q0 304 208 535q194 192 436 192h7q188 0 346 -118l91 145l67 -42l-96 -154q19 -17 38 -37q65 -77 96 -133q99 -187 99 -376v-30q0 -230 -134 -436q-28 -43 -100 -117l-58 -47q-164 -119 -354 -119q-180 0 -332 104l-91 -146l-1 -1l-66 41v2l96 153 q-23 20 -45 42q-207 227 -207 536zM178 731q0 -270 179 -476q19 -18 36 -34l662 1058q-141 106 -312 106q-235 0 -415 -209q-150 -197 -150 -445zM455 170q34 -24 60 -34q30 -19 99 -39q65 -17 116 -17h30q164 0 324 127q86 83 112 128q117 182 117 392v10q0 251 -161 452 q-18 20 -37 38z" />
<glyph unicode="&#xd9;" horiz-adv-x="1308" d="M170 512v949l3 3h73l3 -3v-932q0 -289 186 -407q35 -21 81 -34q39 -9 112 -9h50q119 0 170 30q114 50 176 200q35 95 35 198v954l3 3h74l3 -3v-899q0 -199 -50 -301q-20 -51 -55 -96q-121 -165 -328 -165h-104q-255 0 -378 249q-54 121 -54 263zM486 1768v1l41 66 l297 -183v-1l-42 -66z" />
<glyph unicode="&#xda;" horiz-adv-x="1308" d="M170 512v949l3 3h73l3 -3v-932q0 -289 186 -407q35 -21 81 -34q39 -9 112 -9h50q119 0 170 30q114 50 176 200q35 95 35 198v954l3 3h74l3 -3v-899q0 -199 -50 -301q-20 -51 -55 -96q-121 -165 -328 -165h-104q-255 0 -378 249q-54 121 -54 263zM486 1651v1l296 183 l42 -66v-1l-297 -183z" />
<glyph unicode="&#xdb;" horiz-adv-x="1308" d="M170 512v949l3 3h73l3 -3v-932q0 -289 186 -407q35 -21 81 -34q39 -9 112 -9h50q119 0 170 30q114 50 176 200q35 95 35 198v954l3 3h74l3 -3v-899q0 -199 -50 -301q-20 -51 -55 -96q-121 -165 -328 -165h-104q-255 0 -378 249q-54 121 -54 263zM427 1636l197 233h61 l197 -233l-60 -51h-1l-167 198q-160 -190 -167 -198q-42 35 -60 51z" />
<glyph unicode="&#xdc;" horiz-adv-x="1308" d="M170 512v949l3 3h73l3 -3v-932q0 -289 186 -407q35 -21 81 -34q39 -9 112 -9h50q119 0 170 30q114 50 176 200q35 95 35 198v954l3 3h74l3 -3v-899q0 -199 -50 -301q-20 -51 -55 -96q-121 -165 -328 -165h-104q-255 0 -378 249q-54 121 -54 263zM445 1671v6q0 28 28 48 q15 9 30 9h2q33 0 52 -32q7 -13 7 -28q0 -29 -25 -48q-16 -11 -33 -11h-4q-25 0 -44 22q-13 17 -13 34zM745 1671v6q0 28 28 48q15 9 30 9h2q33 0 52 -32q7 -13 7 -28q0 -29 -25 -48q-16 -11 -33 -11h-4q-25 0 -44 22q-13 17 -13 34z" />
<glyph unicode="&#xdd;" horiz-adv-x="1070" d="M30 1461v3h93q8 -7 413 -670h3l411 670h94v-1l-467 -757v-703l-3 -3h-77l-3 3v710zM368 1651v1l296 183l42 -66v-1l-297 -183z" />
<glyph unicode="&#xde;" horiz-adv-x="1246" d="M153 1v1462l1 1h77l1 -1v-312h453q211 0 341 -93q131 -102 131 -266v-120q0 -154 -117 -254q-73 -60 -176 -84q-84 -21 -173 -21h-459v-312l-1 -1h-77zM232 391h452q195 0 304 85q30 26 42 43q16 22 25 40q24 49 24 119v108q0 87 -38 144q-29 44 -79 77q-105 67 -284 67 h-446v-683z" />
<glyph unicode="&#xdf;" horiz-adv-x="1246" d="M153 2v1159q0 58 54 150q106 153 318 153h7q197 0 312 -96q75 -71 75 -171v-2q0 -111 -95 -236q-80 -114 -80 -181q0 -89 165 -169q243 -144 243 -312q0 -115 -115 -216q-115 -88 -247 -88q-195 0 -332 198l-13 22q64 40 69 40q72 -125 196 -170q43 -10 72 -10h19 q109 0 207 88q65 70 65 137q0 140 -271 280q-136 88 -136 199v7q0 94 115 251q59 85 59 163q0 138 -206 178q-60 9 -109 9q-210 0 -280 -173q-13 -38 -13 -59v-1151l-3 -2h-73z" />
<glyph unicode="&#xe0;" d="M92 473v4q0 196 136 343q132 130 299 130h5q201 0 343 -183l13 -21h1v192l3 3h72l2 -3v-926l-2 -3h-72l-3 3v192h-1q-78 -127 -230 -183q-63 -21 -131 -21q-197 0 -339 176q-96 135 -96 297zM169 476q0 -196 152 -326q98 -73 208 -73q150 0 262 126q98 118 98 273 t-102 276q-111 121 -259 121q-168 0 -287 -158q-72 -113 -72 -239zM360 1254v1l41 66l297 -183v-1l-42 -66z" />
<glyph unicode="&#xe1;" d="M92 473v4q0 196 136 343q132 130 299 130h5q201 0 343 -183l13 -21h1v192l3 3h72l2 -3v-926l-2 -3h-72l-3 3v192h-1q-78 -127 -230 -183q-63 -21 -131 -21q-197 0 -339 176q-96 135 -96 297zM169 476q0 -196 152 -326q98 -73 208 -73q150 0 262 126q98 118 98 273 t-102 276q-111 121 -259 121q-168 0 -287 -158q-72 -113 -72 -239zM360 1137v1l296 183l42 -66v-1l-297 -183z" />
<glyph unicode="&#xe2;" d="M92 473v4q0 196 136 343q132 130 299 130h5q201 0 343 -183l13 -21h1v192l3 3h72l2 -3v-926l-2 -3h-72l-3 3v192h-1q-78 -127 -230 -183q-63 -21 -131 -21q-197 0 -339 176q-96 135 -96 297zM169 476q0 -196 152 -326q98 -73 208 -73q150 0 262 126q98 118 98 273 t-102 276q-111 121 -259 121q-168 0 -287 -158q-72 -113 -72 -239zM301 1122l197 233h61l197 -233l-60 -51h-1l-167 198q-160 -190 -167 -198q-42 35 -60 51z" />
<glyph unicode="&#xe3;" d="M92 473v4q0 196 136 343q132 130 299 130h5q201 0 343 -183l13 -21h1v192l3 3h72l2 -3v-926l-2 -3h-72l-3 3v192h-1q-78 -127 -230 -183q-63 -21 -131 -21q-197 0 -339 176q-96 135 -96 297zM169 476q0 -196 152 -326q98 -73 208 -73q150 0 262 126q98 118 98 273 t-102 276q-111 121 -259 121q-168 0 -287 -158q-72 -113 -72 -239zM346 1096v88q19 23 38 33q29 17 56 17q32 0 90.5 -31.5t85.5 -31.5q26 0 54 18q18 12 42 39v-88q-19 -22 -39 -33q-29 -16 -57 -16q-30 0 -88 31t-88 31q-25 0 -53 -18q-18 -12 -41 -39z" />
<glyph unicode="&#xe4;" d="M92 473v4q0 196 136 343q132 130 299 130h5q201 0 343 -183l13 -21h1v192l3 3h72l2 -3v-926l-2 -3h-72l-3 3v192h-1q-78 -127 -230 -183q-63 -21 -131 -21q-197 0 -339 176q-96 135 -96 297zM169 476q0 -196 152 -326q98 -73 208 -73q150 0 262 126q98 118 98 273 t-102 276q-111 121 -259 121q-168 0 -287 -158q-72 -113 -72 -239zM319 1157v6q0 28 28 48q15 9 30 9h2q33 0 52 -32q7 -13 7 -28q0 -29 -25 -48q-16 -11 -33 -11h-4q-25 0 -44 22q-13 17 -13 34zM619 1157v6q0 28 28 48q15 9 30 9h2q33 0 52 -32q7 -13 7 -28q0 -29 -25 -48 q-16 -11 -33 -11h-4q-25 0 -44 22q-13 17 -13 34z" />
<glyph unicode="&#xe5;" d="M92 473v4q0 196 136 343q132 130 299 130h5q201 0 343 -183l13 -21h1v192l3 3h72l2 -3v-926l-2 -3h-72l-3 3v192h-1q-78 -127 -230 -183q-63 -21 -131 -21q-197 0 -339 176q-96 135 -96 297zM169 476q0 -196 152 -326q98 -73 208 -73q150 0 262 126q98 118 98 273 t-102 276q-111 121 -259 121q-168 0 -287 -158q-72 -113 -72 -239zM416 1182v4q0 41 31 76q34 34 81 34q52 0 89 -42q24 -32 24 -71q0 -51 -43 -88q-32 -24 -70 -24q-55 0 -91 47q-21 31 -21 64zM481 1183q0 -28 28 -43q11 -4 19 -4q27 0 42 26q6 11 6 22q0 26 -26 42 q-11 5 -22 5q-28 0 -43 -28q-4 -9 -4 -20z" />
<glyph unicode="&#xe6;" horiz-adv-x="1863" d="M92 473v4q0 196 136 343q132 130 299 130h5q201 0 343 -183l13 -21h1v192l3 3h72l2 -3v-225q31 56 77 106q131 130 298 130h5q178 0 314 -146q122 -146 122 -330l-2 -2h-796q0 -176 132 -304q104 -90 228 -90q165 0 281 150q32 47 50 91l1 7q73 -23 73 -27 q-21 -57 -57 -112q-141 -186 -351 -186q-196 0 -338 176q-21 29 -37 60v-224l-2 -3h-72l-3 3v192h-1q-78 -127 -230 -183q-63 -21 -131 -21q-197 0 -339 176q-96 135 -96 297zM169 476q0 -196 152 -326q98 -73 208 -73q150 0 262 126q98 118 98 273t-102 276 q-111 121 -259 121q-168 0 -287 -158q-72 -113 -72 -239zM991 548h707q-2 36 -40 122q-74 137 -204 183q-52 19 -111 19q-157 0 -272 -140q-58 -72 -80 -184z" />
<glyph unicode="&#xe7;" horiz-adv-x="956" d="M90 473v4q0 196 136 343q132 130 299 130h5q186 0 325 -159l33 -48q-60 -40 -65 -40q-118 170 -297 170q-168 0 -287 -158q-72 -113 -72 -239q0 -196 152 -326q98 -73 208 -73q174 0 293 166l6 9q61 -37 64 -42q-81 -134 -237 -191q-64 -19 -128 -19h-18l-10 -42 q81 0 110 -67q10 -26 10 -52q0 -60 -51 -102q-38 -29 -85 -29q-69 0 -118 64v1q2 1 29 21q27 19 28 19q27 -35 62 -35q31 0 54 27q11 16 11 33v4q0 20 -13 36q-12 10 -31 10h-6q-21 0 -57 -15l-33 -11v1l28 147q-123 28 -223 135q-122 143 -122 328z" />
<glyph unicode="&#xe8;" horiz-adv-x="1023" d="M67 473v3q0 197 136 343q131 130 298 130h5q178 0 314 -146q122 -146 122 -330l-2 -2h-796q0 -176 132 -304q104 -90 228 -90q165 0 281 150q32 47 50 91l1 7q73 -23 73 -27q-21 -57 -57 -112q-141 -186 -351 -186q-196 0 -338 176q-96 135 -96 297zM151 548h707 q-2 36 -40 122q-74 137 -204 183q-52 19 -111 19q-157 0 -272 -140q-58 -72 -80 -184zM336 1254v1l41 66l297 -183v-1l-42 -66z" />
<glyph unicode="&#xe9;" horiz-adv-x="1023" d="M67 473v3q0 197 136 343q131 130 298 130h5q178 0 314 -146q122 -146 122 -330l-2 -2h-796q0 -176 132 -304q104 -90 228 -90q165 0 281 150q32 47 50 91l1 7q73 -23 73 -27q-21 -57 -57 -112q-141 -186 -351 -186q-196 0 -338 176q-96 135 -96 297zM151 548h707 q-2 36 -40 122q-74 137 -204 183q-52 19 -111 19q-157 0 -272 -140q-58 -72 -80 -184zM336 1137v1l297 183l41 -66v-1l-296 -183z" />
<glyph unicode="&#xea;" horiz-adv-x="1023" d="M67 473v3q0 197 136 343q131 130 298 130h5q178 0 314 -146q122 -146 122 -330l-2 -2h-796q0 -176 132 -304q104 -90 228 -90q165 0 281 150q32 47 50 91l1 7q73 -23 73 -27q-21 -57 -57 -112q-141 -186 -351 -186q-196 0 -338 176q-96 135 -96 297zM151 548h707 q-2 36 -40 122q-74 137 -204 183q-52 19 -111 19q-157 0 -272 -140q-58 -72 -80 -184zM277 1122l197 233h61l197 -233l-60 -51h-1l-167 198q-160 -190 -167 -198q-42 35 -60 51z" />
<glyph unicode="&#xeb;" horiz-adv-x="1023" d="M67 473v3q0 197 136 343q131 130 298 130h5q178 0 314 -146q122 -146 122 -330l-2 -2h-796q0 -176 132 -304q104 -90 228 -90q165 0 281 150q32 47 50 91l1 7q73 -23 73 -27q-21 -57 -57 -112q-141 -186 -351 -186q-196 0 -338 176q-96 135 -96 297zM151 548h707 q-2 36 -40 122q-74 137 -204 183q-52 19 -111 19q-157 0 -272 -140q-58 -72 -80 -184zM295 1157v6q0 28 28 48q15 9 30 9h2q33 0 52 -32q7 -13 7 -28q0 -29 -25 -48q-16 -11 -33 -11h-4q-25 0 -44 22q-13 17 -13 34zM595 1157v6q0 28 28 48q15 9 30 9h2q33 0 52 -32 q7 -13 7 -28q0 -29 -25 -48q-16 -11 -33 -11h-4q-25 0 -44 22q-13 17 -13 34z" />
<glyph unicode="&#xec;" horiz-adv-x="393" d="M27 1254v1l41 66l297 -183v-1l-42 -66zM157 1v949h79v-949l-1 -1h-77z" />
<glyph unicode="&#xed;" horiz-adv-x="393" d="M27 1137v1l297 183l41 -66v-1l-296 -183zM157 1v949h79v-949l-1 -1h-77z" />
<glyph unicode="&#xee;" horiz-adv-x="393" d="M-31 1122l197 233h61l197 -233l-60 -51h-1l-167 198q-160 -190 -167 -198q-42 35 -60 51zM157 1v949h79v-949l-1 -1h-77z" />
<glyph unicode="&#xef;" horiz-adv-x="393" d="M37 1157v6q0 28 28 48q15 9 30 9h2q33 0 52 -32q7 -13 7 -28q0 -29 -25 -48q-16 -11 -33 -11h-4q-25 0 -44 22q-13 17 -13 34zM157 1v949h79v-949l-1 -1h-77zM237 1157v6q0 28 28 48q15 9 30 9h2q33 0 52 -32q7 -13 7 -28q0 -29 -25 -48q-16 -11 -33 -11h-4q-25 0 -44 22 q-13 17 -13 34z" />
<glyph unicode="&#xf0;" horiz-adv-x="1139" />
<glyph unicode="&#xf1;" horiz-adv-x="1056" d="M153 3v931l3 3h73l3 -3v-107q102 123 265 123h67q192 0 293 -139q51 -77 51 -182v-626l-3 -3h-73l-2 3v616q0 187 -167 238q-48 14 -111 14h-43q-193 0 -257 -136q-20 -45 -20 -115v-617l-3 -3h-73zM348 1096v88q19 23 38 33q29 17 56 17q32 0 90.5 -31.5t85.5 -31.5 q26 0 54 18q18 12 42 39v-88q-19 -22 -39 -33q-29 -16 -57 -16q-30 0 -88 31t-88 31q-25 0 -53 -18q-18 -12 -41 -39z" />
<glyph unicode="&#xf2;" horiz-adv-x="1054" d="M90 473v4q0 196 136 343q132 130 299 130h5q195 0 335 -172q99 -139 99 -296v-14q0 -191 -139 -341q-129 -127 -300 -127q-197 0 -339 176q-96 135 -96 297zM167 476q0 -196 152 -326q98 -73 208 -73q150 0 262 126q98 118 98 273t-102 276q-111 121 -259 121 q-168 0 -287 -158q-72 -113 -72 -239zM358 1254v1l41 66l297 -183v-1l-42 -66z" />
<glyph unicode="&#xf3;" horiz-adv-x="1054" d="M90 473v4q0 196 136 343q132 130 299 130h5q195 0 335 -172q99 -139 99 -296v-14q0 -191 -139 -341q-129 -127 -300 -127q-197 0 -339 176q-96 135 -96 297zM167 476q0 -196 152 -326q98 -73 208 -73q150 0 262 126q98 118 98 273t-102 276q-111 121 -259 121 q-168 0 -287 -158q-72 -113 -72 -239zM358 1137v1l296 183l42 -66v-1l-297 -183z" />
<glyph unicode="&#xf4;" horiz-adv-x="1054" d="M90 473v4q0 196 136 343q132 130 299 130h5q195 0 335 -172q99 -139 99 -296v-14q0 -191 -139 -341q-129 -127 -300 -127q-197 0 -339 176q-96 135 -96 297zM167 476q0 -196 152 -326q98 -73 208 -73q150 0 262 126q98 118 98 273t-102 276q-111 121 -259 121 q-168 0 -287 -158q-72 -113 -72 -239zM300 1122l197 233h61l197 -233l-60 -51h-1l-167 198q-160 -190 -167 -198q-42 35 -60 51z" />
<glyph unicode="&#xf5;" horiz-adv-x="1054" d="M90 473v4q0 196 136 343q132 130 299 130h5q195 0 335 -172q99 -139 99 -296v-14q0 -191 -139 -341q-129 -127 -300 -127q-197 0 -339 176q-96 135 -96 297zM167 476q0 -196 152 -326q98 -73 208 -73q150 0 262 126q98 118 98 273t-102 276q-111 121 -259 121 q-168 0 -287 -158q-72 -113 -72 -239zM344 1096v88q19 23 38 33q29 17 56 17q32 0 90.5 -31.5t85.5 -31.5q26 0 54 18q18 12 42 39v-88q-19 -22 -39 -33q-29 -16 -57 -16q-30 0 -88 31t-88 31q-25 0 -53 -18q-18 -12 -41 -39z" />
<glyph unicode="&#xf6;" horiz-adv-x="1054" d="M90 473v4q0 196 136 343q132 130 299 130h5q195 0 335 -172q99 -139 99 -296v-14q0 -191 -139 -341q-129 -127 -300 -127q-197 0 -339 176q-96 135 -96 297zM167 476q0 -196 152 -326q98 -73 208 -73q150 0 262 126q98 118 98 273t-102 276q-111 121 -259 121 q-168 0 -287 -158q-72 -113 -72 -239zM318 1157v6q0 28 28 48q15 9 30 9h2q33 0 52 -32q7 -13 7 -28q0 -29 -25 -48q-16 -11 -33 -11h-4q-25 0 -44 22q-13 17 -13 34zM618 1157v6q0 28 28 48q15 9 30 9h2q33 0 52 -32q7 -13 7 -28q0 -29 -25 -48q-16 -11 -33 -11h-4 q-25 0 -44 22q-13 17 -13 34z" />
<glyph unicode="&#xf7;" horiz-adv-x="865" d="M96 450v79h672l1 -1v-77l-1 -1h-672zM363 205v7q0 33 33 57q18 10 35 10h3q39 0 61 -37q8 -16 8 -33q0 -35 -29 -57q-19 -13 -39 -13h-5q-29 0 -52 26q-15 20 -15 40zM363 767v7q0 33 33 56q18 11 35 11h3q39 0 61 -38q8 -15 8 -33q0 -34 -29 -56q-19 -13 -39 -13h-5 q-29 0 -52 26q-15 20 -15 40z" />
<glyph unicode="&#xf8;" horiz-adv-x="1054" d="M90 473v4q0 196 136 343q132 130 299 130h5q125 0 228 -71l85 125l64 -42l-90 -132q25 -23 48 -52q99 -139 99 -296v-14q0 -191 -139 -341q-129 -127 -300 -127q-124 0 -227 70l-76 -111l-1 -1l-63 41v2l80 118q-27 26 -52 57q-96 135 -96 297zM167 476q0 -171 116 -292 l431 631q-85 58 -188 58q-168 0 -287 -158q-72 -113 -72 -239zM342 134q88 -57 185 -57q150 0 262 126q98 118 98 273t-102 276q-6 7 -12 13z" />
<glyph unicode="&#xf9;" horiz-adv-x="1055" d="M148 319v627l3 3h73l3 -3v-619q0 -179 161 -233q51 -15 106 -15h64q170 0 242 125q25 53 25 126v616l2 3h74l2 -3v-930l-2 -3h-74l-2 3v107q-104 -123 -259 -123h-80q-165 0 -269 114q-69 84 -69 205zM357 1254v1l41 66l297 -183v-1l-42 -66z" />
<glyph unicode="&#xfa;" horiz-adv-x="1055" d="M148 319v627l3 3h73l3 -3v-619q0 -179 161 -233q51 -15 106 -15h64q170 0 242 125q25 53 25 126v616l2 3h74l2 -3v-930l-2 -3h-74l-2 3v107q-104 -123 -259 -123h-80q-165 0 -269 114q-69 84 -69 205zM357 1137v1l297 183l41 -66v-1l-296 -183z" />
<glyph unicode="&#xfb;" horiz-adv-x="1055" d="M148 319v627l3 3h73l3 -3v-619q0 -179 161 -233q51 -15 106 -15h64q170 0 242 125q25 53 25 126v616l2 3h74l2 -3v-930l-2 -3h-74l-2 3v107q-104 -123 -259 -123h-80q-165 0 -269 114q-69 84 -69 205zM298 1122l197 233h61l197 -233l-60 -51h-1l-167 198 q-160 -190 -167 -198q-42 35 -60 51z" />
<glyph unicode="&#xfc;" horiz-adv-x="1055" d="M148 319v627l3 3h73l3 -3v-619q0 -179 161 -233q51 -15 106 -15h64q170 0 242 125q25 53 25 126v616l2 3h74l2 -3v-930l-2 -3h-74l-2 3v107q-104 -123 -259 -123h-80q-165 0 -269 114q-69 84 -69 205zM316 1157v6q0 28 28 48q15 9 30 9h2q33 0 52 -32q7 -13 7 -28 q0 -29 -25 -48q-16 -11 -33 -11h-4q-25 0 -44 22q-13 17 -13 34zM616 1157v6q0 28 28 48q15 9 30 9h2q33 0 52 -32q7 -13 7 -28q0 -29 -25 -48q-16 -11 -33 -11h-4q-25 0 -44 22q-13 17 -13 34z" />
<glyph unicode="&#xfd;" horiz-adv-x="943" d="M34 949v1h85q3 0 22 -51l329 -810h1l354 861h81l1 -1h1l-565 -1378l-1 -2h-84v1l170 415zM302 1137v1l296 183l42 -66v-1l-297 -183z" />
<glyph unicode="&#xfe;" horiz-adv-x="1020" d="M153 -399v1862l1 1h77l1 -1v-720q79 130 230 185q62 22 130 22h6q197 0 339 -174q100 -140 100 -299v-15q0 -193 -140 -344q-131 -129 -305 -129q-199 0 -343 180l-17 27v-595l-1 -1h-77zM231 470q0 -197 153 -329q100 -74 211 -74q152 0 265 128q99 119 99 275 q0 157 -103 280q-112 122 -262 122q-170 0 -290 -160q-73 -113 -73 -242z" />
<glyph unicode="&#xff;" horiz-adv-x="943" d="M34 949v1h85q3 0 22 -51l329 -810h1l354 861h81l1 -1h1l-565 -1378l-1 -2h-84v1l170 415zM262 1157v6q0 28 28 48q15 9 30 9h2q33 0 52 -32q7 -13 7 -28q0 -29 -25 -48q-16 -11 -33 -11h-4q-25 0 -44 22q-13 17 -13 34zM562 1157v6q0 28 28 48q15 9 30 9h2q33 0 52 -32 q7 -13 7 -28q0 -29 -25 -48q-16 -11 -33 -11h-4q-25 0 -44 22q-13 17 -13 34z" />
<glyph unicode="&#x152;" horiz-adv-x="1892" d="M99 731v6q0 304 208 535q194 192 436 192h7q189 0 349 -119v118l1 1h683l1 -1v-77l-1 -1h-605v-614h491v-78h-491v-614h605l1 -1v-77l-1 -1h-683l-1 1v118q-164 -119 -354 -119q-246 0 -439 195q-207 227 -207 536zM178 731q0 -270 179 -476q98 -96 158 -119 q30 -19 99 -39q65 -17 116 -17h30q164 0 324 127l15 15v1021q-157 142 -356 142q-235 0 -415 -209q-150 -197 -150 -445z" />
<glyph unicode="&#x153;" horiz-adv-x="993" d="M90 473v4q0 196 136 343q132 130 299 130h5q195 0 335 -172q99 -139 99 -296v-14q0 -191 -139 -341q-129 -127 -300 -127q-197 0 -339 176q-96 135 -96 297zM167 476q0 -196 152 -326q98 -73 208 -73q150 0 262 126q98 118 98 273t-102 276q-111 121 -259 121 q-168 0 -287 -158q-72 -113 -72 -239zM887 473v3q0 197 136 343q131 130 298 130h5q178 0 314 -146q122 -146 122 -330l-2 -2h-796q0 -176 132 -304q104 -90 228 -90q165 0 281 150q32 47 50 91l1 7q73 -23 73 -27q-21 -57 -57 -112q-141 -186 -351 -186q-196 0 -338 176 q-96 135 -96 297zM970 548h707q-2 36 -40 122q-74 137 -204 183q-52 19 -111 19q-157 0 -272 -140q-58 -72 -80 -184z" />
<glyph unicode="&#x2c6;" horiz-adv-x="939" d="M242 1636l197 233h61l197 -233l-60 -51h-1l-167 198q-160 -190 -167 -198q-42 35 -60 51z" />
<glyph unicode="&#x2dc;" horiz-adv-x="850" d="M242 1609v88q19 23 38 33q29 17 56 17q32 0 90.5 -31.5t85.5 -31.5q26 0 54 18q18 12 42 39v-88q-19 -22 -39 -33q-29 -16 -57 -16q-30 0 -88 31t-88 31q-25 0 -53 -18q-18 -12 -41 -39z" />
<glyph unicode="&#x2000;" horiz-adv-x="5536" />
<glyph unicode="&#x2001;" horiz-adv-x="11072" />
<glyph unicode="&#x2002;" horiz-adv-x="5536" />
<glyph unicode="&#x2003;" horiz-adv-x="11072" />
<glyph unicode="&#x2004;" horiz-adv-x="3690" />
<glyph unicode="&#x2005;" horiz-adv-x="2768" />
<glyph unicode="&#x2006;" horiz-adv-x="1845" />
<glyph unicode="&#x2007;" horiz-adv-x="1845" />
<glyph unicode="&#x2008;" horiz-adv-x="1384" />
<glyph unicode="&#x2009;" horiz-adv-x="2214" />
<glyph unicode="&#x200a;" horiz-adv-x="615" />
<glyph unicode="&#x2010;" horiz-adv-x="863" d="M76 450v79h705l1 -1v-77l-1 -1h-705z" />
<glyph unicode="&#x2011;" horiz-adv-x="863" d="M76 450v79h705l1 -1v-77l-1 -1h-705z" />
<glyph unicode="&#x2012;" horiz-adv-x="863" d="M76 450v79h705l1 -1v-77l-1 -1h-705z" />
<glyph unicode="&#x2013;" horiz-adv-x="990" d="M70 451v79h849l1 -1v-77l-1 -1h-849z" />
<glyph unicode="&#x2014;" horiz-adv-x="1350" d="M100 460v79h1149l1 -1v-77l-1 -1h-1149z" />
<glyph unicode="&#x2018;" horiz-adv-x="394" d="M109 1404q0 73 87 151q25 21 31 25l24 -31q-59 -56 -59 -100q21 -9 30 -29q7 -12 7 -27q0 -29 -27 -48q-15 -11 -33 -11q-29 0 -49 26q-11 17 -11 44z" />
<glyph unicode="&#x2019;" horiz-adv-x="394" d="M143 1365q60 56 60 100q-21 9 -31 29q-7 12 -7 27q0 29 27 49q15 10 34 10q29 0 48 -26q11 -17 11 -44q0 -73 -87 -151q-24 -21 -31 -25z" />
<glyph unicode="&#x201a;" horiz-adv-x="358" d="M63 -100q60 56 60 100q-21 9 -31 29q-7 12 -7 27q0 29 27 49q15 10 34 10q29 0 48 -26q11 -17 11 -44q0 -73 -87 -151q-24 -21 -31 -25z" />
<glyph unicode="&#x201c;" horiz-adv-x="696" d="M139 1404q0 73 87 151q25 21 31 25l24 -31q-59 -56 -59 -100q21 -9 30 -29q7 -12 7 -27q0 -29 -27 -48q-15 -11 -33 -11q-29 0 -49 26q-11 17 -11 44zM339 1404q0 73 87 151q25 21 31 25l24 -31q-59 -56 -59 -100q21 -9 30 -29q7 -12 7 -27q0 -29 -27 -48 q-15 -11 -33 -11q-29 0 -49 26q-11 17 -11 44z" />
<glyph unicode="&#x201d;" horiz-adv-x="696" d="M215 1365q60 56 60 100q-21 9 -31 29q-7 12 -7 27q0 29 27 49q15 10 34 10q29 0 48 -26q11 -17 11 -44q0 -73 -87 -151q-24 -21 -31 -25zM415 1365q60 56 60 100q-21 9 -31 29q-7 12 -7 27q0 29 27 49q15 10 34 10q29 0 48 -26q11 -17 11 -44q0 -73 -87 -151 q-24 -21 -31 -25z" />
<glyph unicode="&#x201e;" horiz-adv-x="558" d="M63 -100q60 56 60 100q-21 9 -31 29q-7 12 -7 27q0 29 27 49q15 10 34 10q29 0 48 -26q11 -17 11 -44q0 -73 -87 -151q-24 -21 -31 -25zM263 -100q60 56 60 100q-21 9 -31 29q-7 12 -7 27q0 29 27 49q15 10 34 10q29 0 48 -26q11 -17 11 -44q0 -73 -87 -151 q-24 -21 -31 -25z" />
<glyph unicode="&#x2022;" horiz-adv-x="868" d="M300 946q0 -56 48 -95q33 -24 69 -24h4q52 0 92 47q25 35 25 70v4q0 49 -40 86q-35 31 -78 31h-1q-60 0 -99 -52q-20 -32 -20 -67z" />
<glyph unicode="&#x2026;" horiz-adv-x="919" d="M100 56v6q0 28 28 48q15 9 30 9h2q33 0 52 -32q7 -13 7 -28q0 -29 -25 -48q-16 -11 -33 -11h-4q-25 0 -44 22q-13 17 -13 34zM400 56v6q0 28 28 48q15 9 30 9h2q33 0 52 -32q7 -13 7 -28q0 -29 -25 -48q-16 -11 -33 -11h-4q-25 0 -44 22q-13 17 -13 34zM700 56v6 q0 28 28 48q15 9 30 9h2q33 0 52 -32q7 -13 7 -28q0 -29 -25 -48q-16 -11 -33 -11h-4q-25 0 -44 22q-13 17 -13 34z" />
<glyph unicode="&#x202f;" horiz-adv-x="2214" />
<glyph unicode="&#x2039;" horiz-adv-x="588" d="M69 392v74q35 24 291 191l83 56l44 -66q-9 -6 -309 -203l-22 -15l331 -217v-1q-42 -63 -44 -65z" />
<glyph unicode="&#x203a;" horiz-adv-x="588" d="M101 211v1l331 217l-22 15q-300 197 -309 203l44 66l83 -56q256 -167 291 -191v-74l-374 -246q-2 2 -44 65z" />
<glyph unicode="&#x205f;" horiz-adv-x="2768" />
<glyph unicode="&#x20ac;" horiz-adv-x="1333" d="M53 475v77l1 1h121q-7 49 -7 90v19q0 23 2 49h-116l-1 1v78l1 1h128q1 0 5 19q15 55 34 99q25 56 67 116q20 28 58 70q48 47 66 59q51 40 102 66q140 70 286 70h8q146 0 283 -68q32 -16 72 -42q30 -20 70 -56l-53 -58q-42 36 -71 55q-142 90 -304 90q-180 0 -332 -109 q-26 -20 -59 -51q-45 -46 -57 -66q-30 -40 -49 -77q-19 -35 -39 -99l-5 -18h905v-80h-919q-3 -29 -3 -55v-7q0 -47 8 -96h914v-79h-893q29 -84 78 -150q18 -26 55 -65q42 -40 68 -58q150 -107 329 -107q184 0 339 116q19 15 35 29q53 -57 53 -58q-90 -80 -191 -120 q-115 -46 -236 -46h-3q-190 0 -355 109q-34 22 -85 69q-50 51 -65 73q-33 44 -57 89q-25 48 -46 111q-1 8 -2 8h-139z" />
<glyph unicode="&#x2122;" horiz-adv-x="2448" d="M15 1386v77l1 1h906l1 -1v-77h-415v-1086h-78v1086h-415zM1023 300v1163l1 1h121l152 -288l245 -463l51 -97q2 3 72 135q8 16 177 338l198 373l1 2h121l1 -1v-1163h-82v1070l-161 -304l-211 -399l-74 -143h-82q-1 0 -23 42l-215 408l-187 353q-19 37 -23 43v-1070h-82z " />
<glyph unicode="&#x25fc;" horiz-adv-x="950" d="M0 0v950h950v-950h-950z" />
<glyph unicode="&#xfb01;" horiz-adv-x="931" d="M27 872v77l1 1h190v47q0 223 102 352q27 32 50 50q51 42 126 58q31 7 59 7h27l1 -1v-77l-1 -1h-22q-114 0 -186 -96q-77 -105 -77 -299v-40h285l1 -1v-77l-1 -1h-285v-870l-1 -1h-77l-1 1v870h-190zM671 1397v6q0 28 26 49q18 12 34 12h7q24 0 45 -21q15 -20 15 -38v-10 q0 -23 -22 -44q-18 -15 -41 -15q-35 0 -56 32q-8 15 -8 29zM695 1v949h79v-949l-1 -1h-77z" />
<glyph unicode="&#xfb02;" horiz-adv-x="926" d="M27 872v77l1 1h190v47q0 223 102 352q27 32 50 50q51 42 126 58q31 7 59 7h27l1 -1v-77l-1 -1h-22q-114 0 -186 -96q-77 -105 -77 -299v-40h285l1 -1v-77l-1 -1h-285v-870l-1 -1h-77l-1 1v870h-190zM695 2v1462h79v-1462l-1 -2h-77z" />
</font>
</defs>
</svg>
