<?xml version="1.0" standalone="no"?>
<!DOCTYPE svg PUBLIC "-//W3C//DTD SVG 1.1//EN" "http://www.w3.org/Graphics/SVG/1.1/DTD/svg11.dtd" >
<svg xmlns="http://www.w3.org/2000/svg" xmlns:xlink="http://www.w3.org/1999/xlink" version="1.1">
<metadata></metadata>
<defs>
<font id="louis_george_cafe_lightitalic" horiz-adv-x="1266" >
<font-face units-per-em="2048" ascent="1638" descent="-410" />
<missing-glyph horiz-adv-x="508" />
<glyph horiz-adv-x="0" />
<glyph unicode="&#xd;" horiz-adv-x="508" />
<glyph unicode=" "  horiz-adv-x="508" />
<glyph unicode="&#x09;" horiz-adv-x="508" />
<glyph unicode="&#xa0;" horiz-adv-x="508" />
<glyph unicode="!" horiz-adv-x="481" d="M189 56l1 6q3 28 33 48q16 9 31 9h2q33 0 48 -32q6 -13 4 -28q-3 -29 -30 -48q-17 -11 -34 -11h-4q-25 0 -42 22q-11 17 -9 34zM229 232l122 1173l1 1h97l1 -1l-142 -1173l-1 -1h-77z" />
<glyph unicode="&#x22;" horiz-adv-x="640" d="M187 1100l45 400h79l-45 -400h-79zM397 1100l45 400h79l-45 -400h-79z" />
<glyph unicode="#" horiz-adv-x="905" d="M111 482l9 78h183v1l83 299h-180l-1 1l8 77l1 1h193l110 394h1l75 -13l-105 -381h290q107 384 108 385q74 -13 75 -14l-103 -371h182l1 -1l-8 -77l-1 -1h-195l-83 -300h193l-9 -79h-206l-123 -441l-76 13l119 428h-291l-121 -432l-75 14l116 418h-169zM383 560h291 l83 300h-291z" />
<glyph unicode="$" horiz-adv-x="963" d="M223 301l76 30q12 -38 33 -77q12 -22 38 -53q81 -84 196 -84h3q98 0 186 61q33 25 47 43q61 74 71 164q12 103 -51 172q-39 38 -86 52q-19 6 -94 25q-140 40 -203 80q-132 80 -114 232v7q11 99 79 187q16 19 43 45q33 28 59 43q33 19 68 32q22 8 57 15l21 3l11 96h78 l-11 -93q49 -4 79 -14q32 -11 59 -26q26 -15 54 -41q33 -32 45 -52q28 -43 36 -71l-74 -32q-9 27 -41 69q-74 89 -190 89q-99 0 -178 -55q-36 -28 -50 -46q-57 -68 -66 -153q-9 -82 36 -129q26 -26 45 -36q45 -30 147 -62q56 -16 124 -33q42 -14 70 -31q22 -12 51 -38 q24 -25 33 -41q54 -86 42 -190l-1 -8q-10 -88 -63 -171q-17 -26 -43 -54q-33 -30 -46 -39q-37 -26 -62 -37q-24 -13 -72 -28q-53 -13 -74 -13l-11 -93h-78l11 94q0 1 -7 1q-35 6 -61 14q-38 14 -67 32q-26 16 -55 43q-31 32 -40 47q-33 49 -45 82q-8 20 -15 42z" />
<glyph unicode="%" horiz-adv-x="1309" d="M99 20v1l1035 1399h99l-1035 -1399l-2 -1h-97zM130 1161l1 10q8 79 69 150q30 31 47 42q73 49 152 49h2q98 0 167 -73q63 -75 54 -172q-11 -105 -99 -183q-51 -41 -102 -54q-37 -10 -70 -10q-98 0 -165 72q-28 32 -35 53q-27 57 -21 116zM218 1166q-7 -69 41 -119 q43 -40 101 -40q65 0 120 49q25 26 33 45q18 31 21 61l1 8q6 57 -34 108q-45 47 -109 47q-71 0 -129 -58q-40 -46 -45 -100v-1zM673 234l1 3q10 98 90 173q83 71 179 71q105 0 175 -80q57 -74 48 -165q-10 -99 -90 -174q-38 -33 -66 -45q-56 -27 -112 -27h-7q-90 0 -158 66 q-28 32 -36 52q-30 60 -24 126zM761 236q-8 -72 45 -123q42 -37 97 -37q76 0 134 64q36 44 42 96q7 69 -44 121q-45 37 -95 37h-10q-51 0 -102 -38q-60 -51 -67 -120z" />
<glyph unicode="&#x26;" horiz-adv-x="1228" d="M199 314l1 11q7 64 32 122q15 30 32 57q22 31 55 68q56 62 143 129q86 62 158 104q-65 123 -102 206q-25 59 -18 126l2 13q13 118 130 198q91 58 190 58q81 0 157 -43q22 -12 50 -41q65 -74 53 -187q-7 -63 -38 -108q-9 -16 -30 -41q-17 -19 -54 -54q-57 -47 -89 -67 q-37 -25 -105 -66l-39 -21q91 -172 210 -381l49 -87q83 74 134 123l12 11l51 -54q-57 -55 -145 -134l-14 -12l97 -168l-69 -45q-55 94 -93 159q-59 -46 -108 -76q-50 -30 -102 -55q-133 -59 -251 -59h-14q-106 0 -177 52q-18 10 -47 41q-27 33 -38 60q-33 74 -23 161z M278 319q-14 -127 71 -195q20 -16 45 -27q40 -18 104 -18h3q199 0 420 177q-163 284 -267 481q-56 -32 -129 -84q-37 -26 -91 -72q-59 -56 -80 -83q-23 -28 -38 -54q-30 -50 -38 -124v-1zM580 1142q-6 -55 13 -96q34 -76 99 -201q72 39 145 87q32 21 81 63q36 35 47 50 q16 20 24 38q10 21 14 52q15 138 -121 181q-36 11 -70 11q-78 0 -152 -51q-25 -19 -40 -36q-34 -39 -40 -92v-6z" />
<glyph unicode="'" horiz-adv-x="350" d="M147 1100l45 400h79l-45 -400h-79z" />
<glyph unicode="(" horiz-adv-x="757" d="M130 622l8 70q42 384 225 652q131 172 265 172h30l2 -3l-8 -73l-3 -2h-24q-148 0 -285 -283q-96 -212 -125 -468q-45 -413 59 -659q55 -113 128 -144q23 -9 71 -9h4l3 -3l-8 -73l-4 -3h-18q-239 0 -315 428q-27 195 -5 398z" />
<glyph unicode=")" horiz-adv-x="937" d="M157 -201l8 73l3 3h4q48 0 73 9q81 31 160 144q158 246 204 659q28 256 -22 468q-75 283 -223 283h-24l-2 2l8 73l3 3h30q134 0 227 -172q123 -268 81 -652l-7 -70q-23 -203 -92 -398q-171 -428 -410 -428h-18z" />
<glyph unicode="*" horiz-adv-x="884" d="M158 1237v1l34 74h1l260 -97l31 288l1 1h78l-31 -289h1l280 97l19 -74q0 -1 -43 -15l-239 -82l142 -228l-67 -47h-1l-144 231h-1q-3 -3 -196 -231l-58 47l192 228z" />
<glyph unicode="+" horiz-adv-x="861" d="M89 450l18 79h316l70 314l2 2h77v-2l-70 -314h314l1 -1l-18 -77l-1 -1h-314l-71 -315h-79l71 315h-316z" />
<glyph unicode="," horiz-adv-x="322" d="M24 -100q66 56 71 100q-20 9 -28 29q-5 12 -4 27q4 29 33 49q16 10 34 10q29 0 46 -26q9 -17 6 -44q-8 -73 -104 -151q-26 -21 -34 -25z" />
<glyph unicode="-" horiz-adv-x="935" d="M105 450l9 79h705l1 -1l-9 -77l-1 -1h-705z" />
<glyph unicode="." horiz-adv-x="416" d="M76 56l1 6q3 28 33 48q16 9 31 9h2q33 0 48 -32q6 -13 4 -28q-3 -29 -30 -48q-17 -11 -34 -11h-4q-25 0 -42 22q-11 17 -9 34z" />
<glyph unicode="/" horiz-adv-x="737" d="M102 -49l666 1417l1 1h77l1 -1l-666 -1417l-1 -1h-77z" />
<glyph unicode="0" horiz-adv-x="1305" d="M117 676v5q33 296 247 507q175 158 371 158q172 0 307 -128q71 -78 93 -127q95 -186 70 -413q-31 -279 -228 -488q-183 -177 -390 -177q-210 0 -357 186q-143 207 -113 477zM196 678q-26 -233 91 -415q68 -89 111 -110q91 -60 192 -60h16q151 0 298 131q95 91 145 195 q64 128 78 262q29 263 -121 453q-121 134 -279 134q-189 0 -353 -177q-152 -178 -178 -413z" />
<glyph unicode="1" horiz-adv-x="539" d="M171 1245l9 77l1 1h250l1 -1l-150 -1331l-1 -1h-78l-1 1l141 1253h-171z" />
<glyph unicode="2" horiz-adv-x="972" d="M72 10l12 107q284 289 309 314l265 271q116 116 117 119q34 56 42 127q10 89 -26 173q-67 141 -222 141h-10q-131 0 -218 -89q-28 -31 -42 -54q-18 -29 -38 -79q-20 -58 -24 -95h-79v2q7 64 45 151q26 57 61 100q117 143 308 143q168 0 257 -122q40 -54 58 -124 q17 -74 9 -148q-10 -96 -61 -173l-360 -366l-314 -320h161h493l-9 -78l-1 -1h-732z" />
<glyph unicode="3" horiz-adv-x="985" d="M79 260q-4 42 0 79l1 5l1 1h77l1 -1v-1q-10 -86 30 -164q10 -20 38 -53q17 -19 32 -31q80 -60 180 -60q93 0 180 53q19 11 54 42q39 37 56 64q47 71 55 145l1 12q9 81 -30 159q-11 22 -37 54q-24 25 -48 42q-75 48 -158 48h-104l-1 1l8 78h122q50 0 112 28q28 13 58 36 q26 21 38 35q69 77 79 171t-42 172q-22 28 -39 43q-68 54 -153 54h-5q-94 0 -179 -65q-103 -83 -117 -210v-3h-78l1 9q14 122 103 222q37 38 61 54q105 73 220 73q113 0 200 -70q13 -10 40 -40q45 -57 60 -120q14 -59 7 -116v-6q-13 -118 -101 -217q-36 -38 -65 -58 q-34 -23 -53 -31v-1q37 -17 82 -58q30 -32 38 -45q76 -110 61 -246q-15 -131 -112 -241q-36 -38 -66 -60q-121 -87 -258 -87q-142 0 -247 95q-29 30 -41 48q-51 73 -62 161z" />
<glyph unicode="4" horiz-adv-x="996" d="M64 254l272 401l170 251l276 407l10 13h99v-1l-111 -992h120l1 -1l-9 -78l-1 -1h-120l-29 -261l-2 -1h-77v1l29 261h-627zM208 332h493l98 872l-184 -272l-307 -452q-29 -43 -100 -148z" />
<glyph unicode="5" horiz-adv-x="1045" d="M49 235l76 32q10 -32 30 -67q13 -22 42 -55q38 -40 69 -58q87 -51 184 -51h10q109 0 217 64q26 16 63 47q45 42 66 72q70 96 82 207q16 140 -65 253q-26 34 -42 46q-66 60 -150 80q-46 11 -89 11q-113 0 -221 -64l-63 -34h-1v1l149 403l76 204h496l1 -1l-9 -77l-1 -1 h-435l-140 -378h1q78 25 156 25q161 0 282 -102q47 -44 70 -81q23 -35 36 -69q41 -104 29 -211l-1 -11q-13 -115 -86 -225q-23 -35 -62 -76q-43 -42 -62 -55q-29 -21 -61 -40q-42 -24 -94 -42q-80 -25 -147 -25h-18q-91 0 -183 43q-34 16 -69 42q-24 18 -52 49 q-33 37 -43 56q-22 35 -36 72z" />
<glyph unicode="6" horiz-adv-x="1069" d="M105 408l1 13q14 127 102 247l256 370l214 311h1l63 -39v-1q0 -2 -46 -67l-277 -400l-8 -13q98 44 195 44h6q115 0 214 -60q30 -18 65 -49q34 -36 46 -53q31 -45 43 -75q44 -106 32 -214l-1 -14q-12 -106 -77 -210q-25 -39 -63 -80q-40 -40 -68 -60q-139 -101 -294 -101 h-2q-163 0 -282 110q-35 35 -46 53q-22 32 -33 55q-16 31 -28 71q-22 83 -13 162zM184 413q-14 -132 61 -241q29 -38 51 -56q95 -80 221 -80q137 0 257 94q40 34 49 47q32 36 47 61q52 84 62 175l1 3q14 135 -63 245q-30 36 -43 48q-97 85 -227 85q-131 0 -247 -87 q-41 -33 -59 -54q-95 -108 -109 -237z" />
<glyph unicode="7" horiz-adv-x="932" d="M66 18v1l253 395l234 367l285 447l13 20h-691l-1 1l9 77h773l-10 -93q-1 -2 -155 -242l-242 -379l-289 -453l-113 -177h-1z" />
<glyph unicode="8" horiz-adv-x="1032" d="M98 352l1 11q10 90 66 180q20 31 51 65q39 40 66 59q43 30 68 42q15 8 33 14l-19 13q-20 13 -50 46q-21 25 -34 51q-45 85 -34 183q13 121 105 218q28 28 43 39q106 79 225 79q127 0 217 -88q31 -34 40 -50q55 -91 43 -199q-13 -116 -100 -212q-31 -32 -53 -48 q-26 -20 -48 -31v-1q25 -11 55 -31q24 -15 54 -45q32 -37 45 -59q63 -106 49 -230v-2q-14 -127 -105 -235q-16 -19 -47 -47q-37 -32 -67 -50q-114 -67 -237 -67q-146 0 -255 94q-37 37 -52 59q-26 39 -36 66q-34 87 -24 176zM177 356q-13 -117 61 -212q27 -32 39 -39 q85 -69 198 -69q121 0 228 80q32 26 49 46q79 89 90 195q13 113 -53 205q-26 33 -38 42q-88 75 -206 75q-104 0 -200 -60q-21 -13 -57 -45q-44 -42 -71 -90q-33 -62 -39 -125zM325 1015q-11 -102 56 -182q70 -75 173 -75q92 0 174 63q30 24 40 37q62 72 71 154l1 8 q8 74 -30 143q-8 14 -29 38q-30 31 -57 44q-54 28 -109 28h-9q-80 0 -159 -54q-33 -25 -54 -49q-59 -72 -68 -155z" />
<glyph unicode="9" horiz-adv-x="1053" d="M83 889l1 13q14 124 98 241q99 132 256 186q76 24 142 24h13q104 0 200 -52q36 -20 75 -56q33 -34 44 -50q34 -47 51 -91q38 -101 27 -201l-1 -14q-12 -104 -75 -206q-15 -23 -270 -392l-228 -329q-2 1 -48 30q-15 8 -16 10l201 290l131 190q-97 -44 -198 -44 q-160 0 -278 106q-39 39 -54 61q-26 39 -40 74q-43 104 -31 210zM162 895q-12 -116 43 -215q10 -21 41 -56q35 -37 60 -52q86 -55 189 -55q113 0 219 66q22 14 60 47q41 40 53 59q25 33 49 82q28 62 34 123l1 4q14 131 -61 241q-31 40 -47 53q-97 83 -223 83h-3 q-123 0 -235 -78q-16 -11 -55 -46q-22 -24 -40 -46q-72 -97 -84 -208z" />
<glyph unicode=":" horiz-adv-x="383" d="M111 56l1 6q3 28 33 48q16 9 31 9h2q33 0 48 -32q6 -13 4 -28q-3 -29 -30 -48q-17 -11 -34 -11h-4q-25 0 -42 22q-11 17 -9 34zM185 887v6q3 28 34 48q16 9 31 9h2q33 0 48 -32q6 -13 4 -28q-3 -29 -30 -48q-18 -11 -35 -11h-4q-25 0 -41 22q-11 17 -9 34z" />
<glyph unicode=";" horiz-adv-x="352" d="M40 -97q66 56 71 100q-20 9 -28 29q-5 12 -4 27q4 29 33 49q16 10 34 10q29 0 46 -26q9 -17 6 -44q-8 -73 -104 -151q-26 -21 -34 -25zM154 887v6q4 28 34 48q16 9 31 9h2q33 0 48 -32q6 -13 4 -28q-3 -29 -30 -48q-17 -11 -34 -11h-4q-25 0 -42 22q-11 17 -9 34z" />
<glyph unicode="&#x3c;" horiz-adv-x="727" d="M87 578l10 92l358 268l199 150l43 -61q-3 -3 -314 -236l-211 -159l-2 -16q10 -10 221 -200l218 -195q-54 -59 -57 -61l-244 219z" />
<glyph unicode="=" horiz-adv-x="796" d="M115 300l9 79h649l1 -1l-9 -77l-1 -1h-649zM148 600l9 79h649l1 -1l-9 -77l-1 -1h-649z" />
<glyph unicode="&#x3e;" horiz-adv-x="726" d="M74 221l260 195q253 190 266 200l2 16l-176 159q-260 233 -263 236l56 61l168 -150l297 -268l-10 -92l-265 -199l-292 -219q-1 2 -43 61z" />
<glyph unicode="?" horiz-adv-x="989" d="M250 1019l4 39q11 95 68 187q21 33 65 79q42 38 58 47q106 72 222 72q123 0 217 -81q36 -36 48 -56q20 -30 30 -54q42 -95 30 -199q-11 -95 -73 -193q-22 -34 -58 -73q-37 -37 -59 -53q-20 -14 -106 -73q-23 -16 -52 -42q-46 -43 -52 -95l-8 -82l-18 -164h-1l-12 -1h-65 l-1 1l27 244q12 107 120 186q34 25 105 74q21 13 53 41q37 37 56 66q55 83 63 161l1 5q12 107 -45 198q-9 14 -32 39q-48 45 -98 60q-39 12 -74 12h-11q-78 0 -159 -51q-19 -11 -50 -40q-46 -45 -75 -99q-28 -60 -35 -120l-4 -35l-1 -1h-77zM438 66q3 31 34 52q18 12 38 12 q31 0 49 -28q10 -17 8 -36q-4 -35 -39 -56q-16 -8 -29 -8h-7q-27 0 -46 26q-11 17 -8 38z" />
<glyph unicode="@" horiz-adv-x="1975" d="M177 612l1 17q15 151 92 305q118 229 337 375q51 32 99 57q55 28 132 54q139 44 268 44h16q157 0 308 -65q59 -25 120 -67q36 -25 82 -67q39 -39 66 -74q46 -64 65 -104q27 -53 48 -128q33 -128 19 -264q-14 -142 -82 -287q-25 -52 -62 -102q-52 -66 -121 -107 q-32 -19 -67 -31q-48 -13 -91 -13h-11q-93 0 -160 63q-25 28 -30 43q-30 53 -31 121h-1q-16 -19 -51 -51q-39 -32 -60 -43q-86 -51 -173 -51q-112 0 -193 80q-31 33 -39 48q-66 109 -52 249q12 119 81 227q15 24 40 54q14 16 47 46q42 35 74 52q81 43 155 43h12 q71 0 139 -40q22 -13 55 -46q33 -39 44 -63q19 -36 29 -74l1 -2q22 52 53 114v1l70 -28v-1q-42 -86 -88 -204q-52 -141 -62 -235l-1 -11q-12 -120 45 -174q43 -40 108 -40h2q72 0 127 37q16 10 42 31q25 22 37 38q26 33 39 57q21 34 47 97q39 102 48 196l1 11 q18 173 -52 329q-94 200 -306 297q-136 59 -287 59h-2q-216 0 -421 -118q-44 -26 -95 -64q-24 -18 -74 -64q-51 -50 -82 -91q-38 -50 -59 -86q-99 -163 -116 -340l-1 -3q-21 -217 82 -408q20 -38 55 -86q40 -49 73 -79q42 -38 74 -60q48 -33 96 -56q147 -68 307 -68h6 q186 0 367 91q29 -66 30 -69v-1q-62 -32 -144 -59q-132 -41 -255 -41h-18q-155 0 -307 63q-67 30 -120 66q-204 138 -286 370q-56 164 -39 330zM684 613q-12 -118 48 -209q7 -11 28 -32q41 -38 83 -48q26 -7 51 -7h7q75 0 156 57q39 32 54 51q27 32 41 55q53 87 62 176l1 10 q9 92 -30 175q-12 22 -33 48q-63 69 -150 69h-3q-91 0 -179 -76q-34 -32 -49 -52q-20 -27 -36 -56q-43 -79 -51 -161z" />
<glyph unicode="A" d="M1 0v1l640 1346q52 110 57 117h101q5 -6 52 -198l323 -1265v-1h-83q-5 7 -23 87l-73 285h-733q-2 -1 -81 -168l-97 -204h-83zM298 451h677l-237 923h-1z" />
<glyph unicode="B" horiz-adv-x="1032" d="M89 3l164 1457l3 3h419q183 0 280 -132q48 -73 48 -165q0 -20 -2 -42l-4 -33q-22 -202 -216 -317q30 -10 73 -39q88 -65 112 -177q7 -35 7 -68q0 -17 -2 -33l-10 -86q-17 -148 -136 -262q-119 -109 -280 -109h-454zM176 79h369q184 0 289 155q40 67 49 147l8 68 q2 19 2 37q0 149 -150 216q-63 25 -148 25h-346zM258 806h342q150 0 255 127q53 67 65 169l1 11q2 21 2 41q0 159 -158 216q-51 14 -105 14h-337z" />
<glyph unicode="C" horiz-adv-x="1348" d="M136 727l1 10q33 299 251 527q213 200 463 200h5q253 0 426 -219q66 -98 81 -150l-1 -2l-72 -32h-1q1 7 -44 91q-154 233 -403 233q-233 0 -433 -212q-166 -196 -193 -442q-5 -45 -5 -87q0 -217 127 -387q66 -77 111 -102q117 -75 237 -75h29q146 0 302 106 q77 57 130 119q40 51 72 102h2l64 -32v-2q-15 -33 -84 -119q-109 -120 -206 -170q-148 -84 -304 -84q-238 0 -406 190q-92 115 -127 245q-27 103 -27 205q0 44 5 87z" />
<glyph unicode="D" horiz-adv-x="1251" d="M93 3l164 1458l3 3h323q259 0 442 -199q158 -192 158 -441q0 -45 -5 -93q-29 -258 -212 -471q-82 -87 -148 -131q-73 -46 -130 -72q-118 -44 -148 -45q-50 -12 -160 -12h-284zM181 80h255q199 0 391 150q94 84 129 138q121 171 143 364q5 43 5 84q0 222 -142 394 q-158 175 -398 175h-237z" />
<glyph unicode="E" horiz-adv-x="889" d="M93 1l164 1462l2 1h683v-1l-8 -77l-1 -1h-605l-69 -614h491l-9 -78h-491l-69 -614h605l1 -1l-9 -77l-1 -1h-683z" />
<glyph unicode="F" horiz-adv-x="831" d="M87 1l164 1462l2 1h683v-1l-8 -77l-1 -1h-605l-69 -614h512l-9 -78h-512l-78 -692l-1 -1h-77z" />
<glyph unicode="G" horiz-adv-x="1476" d="M149 731l1 6q31 306 266 539q215 188 453 188h5h4q255 0 428 -208q64 -85 97 -174l-1 -3q-67 -33 -75 -33q-21 77 -105 180q-149 159 -357 159q-235 0 -440 -207q-172 -197 -197 -447q-5 -43 -5 -85q0 -218 132 -391q87 -96 145 -119q27 -19 94 -39q63 -17 114 -17h30 q155 0 301 101q84 57 156 144q95 121 135 256q6 10 20 70h-437l-3 2l9 75l1 1h522l1 -1q-23 -230 -173 -440q-147 -190 -379 -268q-78 -20 -176 -20q-246 0 -418 195q-153 191 -153 441q0 46 5 95z" />
<glyph unicode="H" horiz-adv-x="1112" d="M87 3l164 1458l3 3h73l3 -3l-78 -690h718l78 690l3 3h73l3 -3l-164 -1458l-3 -3h-74l-2 3l78 690h-719l-77 -690l-3 -3h-74z" />
<glyph unicode="I" horiz-adv-x="344" d="M87 1l165 1463h79l-165 -1463l-1 -1h-77z" />
<glyph unicode="J" horiz-adv-x="868" d="M-29 410l10 83l1 1h77l1 -1l-9 -78q-2 -20 -2 -41q0 -88 43 -169q49 -85 131 -115q34 -11 65 -11h89q65 0 137 46q18 10 51 40l19 21q28 32 42 55q17 26 34 64q22 52 30 123l117 1035l1 1h77l1 -1l-117 -1042q-20 -171 -143 -301q-37 -35 -51 -44q-69 -52 -146 -69 q-34 -7 -57 -7h-97q-69 0 -139 41q-111 69 -153 213q-14 58 -14 113q0 22 2 43z" />
<glyph unicode="K" horiz-adv-x="1075" d="M87 3l164 1458l3 3h73l3 -3l-96 -851l842 854h101v-1l-668 -680q-20 -20 -21 -24l525 -755v-3h-101q-40 54 -461 667l-23 33l-207 -211l-55 -487l-3 -3h-73z" />
<glyph unicode="L" horiz-adv-x="893" d="M93 1l164 1462l2 1h77v-1l-155 -1384h644l1 -1l-9 -77l-1 -1h-722z" />
<glyph unicode="M" horiz-adv-x="1577" d="M93 4l164 1457l3 3h131q4 0 31 -107l343 -1259h1l594 1197l85 168l1 1h130l2 -3l-164 -1458l-3 -3h-76l-3 4l154 1370h-1l-669 -1343q-13 -31 -16 -31h-91q-4 6 -71 261l-301 1100l-4 18h-2l-154 -1376l-3 -3h-74q-6 0 -7 4z" />
<glyph unicode="N" horiz-adv-x="1262" d="M93 4l164 1457l3 3h121q9 -12 71 -145l584 -1237h1l155 1379l3 3h73l3 -3l-164 -1458l-3 -3h-118q-6 4 -48 96l-606 1286h-2l-155 -1379l-2 -3h-72q-7 0 -8 4z" />
<glyph unicode="O" horiz-adv-x="1478" d="M133 731l1 6q33 304 264 535q214 192 460 192h6q248 0 424 -206q56 -77 81 -133q62 -148 62 -297q0 -40 -4 -79l-3 -30q-25 -230 -183 -436q-32 -43 -112 -117l-63 -47q-178 -119 -368 -119q-245 0 -417 195q-153 191 -153 441q0 46 5 95zM212 731q-5 -43 -4 -85 q0 -218 131 -391q87 -96 145 -119q28 -19 94 -39q63 -17 115 -17h30q163 0 337 127q96 83 127 128q136 182 159 392l2 10q4 41 4 80q0 203 -116 372q-154 196 -387 196q-235 0 -438 -209q-172 -197 -199 -445z" />
<glyph unicode="P" horiz-adv-x="1078" d="M119 3l164 1458l3 3h428q194 0 319 -156q82 -118 82 -246q0 -23 -3 -46l-4 -29q-18 -161 -156 -304q-155 -144 -350 -144h-344l-60 -536l-3 -3h-74zM267 618h335q242 0 379 223q41 80 50 153l1 16q3 22 3 44q0 118 -79 217q-99 114 -260 114h-343z" />
<glyph unicode="Q" horiz-adv-x="1486" d="M133 731l1 6q33 305 266 535q216 192 458 192h7q247 0 423 -206q55 -77 81 -133q62 -148 62 -297q0 -39 -4 -79l-3 -30q-27 -245 -203 -459l-11 -13l-1 -2l168 -201q-36 -34 -63 -54q-164 193 -164 196q-212 -186 -453 -186q-245 0 -416 196q-153 191 -153 440q0 47 5 95 zM212 731q-5 -43 -5 -85q0 -218 132 -390q87 -96 145 -119q27 -19 93 -40q64 -17 115 -17h30q167 0 342 131l36 33l-167 202l62 53l166 -195q159 192 184 423l2 10q4 41 4 80q0 204 -116 372q-153 196 -386 196q-235 0 -438 -209q-172 -196 -199 -445z" />
<glyph unicode="R" horiz-adv-x="1063" d="M87 3l164 1458l3 3h428q194 0 319 -156q82 -118 82 -246q0 -23 -3 -46l-4 -29q-16 -143 -130 -277q-103 -112 -245 -153l253 -554l-2 -2h-90q-3 2 -57 123l-187 417l-49 -1h-343l-60 -537l-3 -3h-74zM235 618h335q242 0 379 223q41 80 50 153l1 16q3 22 3 44 q0 118 -79 218q-99 113 -260 113h-343z" />
<glyph unicode="S" horiz-adv-x="946" d="M9 297q73 30 76 30q14 -46 39 -91q14 -26 45 -63q31 -33 48 -44q93 -70 213 -70q118 0 225 67q21 12 55 43q54 55 81 118q23 54 29 109v2q2 19 2 38q0 91 -53 160q-29 32 -42 39q-21 17 -47 29q-22 11 -57 21q-216 51 -318 104q-38 19 -73 46q-101 80 -101 209q0 20 2 41 v7q13 118 96 224q16 19 40 43q39 35 55 44q25 17 54 32q42 21 85 33q68 17 128 17h12q125 0 226 -72q23 -16 55 -50q35 -41 43 -57q25 -39 34 -65l-76 -33q-12 34 -41 72q-22 31 -45 50q-87 77 -210 77h-2q-128 0 -230 -72q-37 -28 -61 -56q-73 -87 -84 -191q-2 -17 -1 -33 q0 -79 45 -128q30 -31 55 -46q54 -36 168 -73q71 -22 179 -48q46 -14 78 -32q35 -18 74 -54q32 -34 38 -46q19 -28 32 -60q22 -63 22 -126q0 -20 -2 -39l-2 -13q-11 -99 -73 -198q-78 -118 -216 -175q-93 -37 -188 -37q-157 0 -274 98q-17 15 -48 48q-37 49 -53 81 q-14 25 -30 65z" />
<glyph unicode="T" horiz-adv-x="916" d="M168 1386l9 77l1 1h906l1 -1l-9 -77h-415l-156 -1385l-1 -1h-77l156 1386h-415z" />
<glyph unicode="U" horiz-adv-x="1224" d="M168 512l104 949l3 3h73l3 -3l-103 -932q-5 -44 -4 -84q0 -223 146 -323q32 -21 77 -34q38 -9 111 -9h50q119 0 173 30q120 50 198 200q46 95 57 198l105 954l3 3h74l3 -3l-99 -899q-22 -199 -83 -301q-26 -51 -66 -96q-139 -165 -346 -165h-104q-255 0 -350 249 q-29 87 -29 185q0 38 4 78z" />
<glyph unicode="V" horiz-adv-x="1236" d="M198 1464h84q5 -4 36 -136q223 -862 227 -889l90 -349h2l653 1373l1 1h86q-9 -22 -530 -1110l-169 -353l-1 -1h-100q-4 0 -23 85l-322 1244q-33 122 -34 135z" />
<glyph unicode="W" horiz-adv-x="1778" d="M224 1463l1 1h82q3 0 12 -89l159 -1233h2l516 1260q24 60 28 62h59q4 -1 17 -81q89 -457 236 -1240h2l460 1320l2 1h79l3 -3l-510 -1451q-2 -10 -5 -10h-84q-5 10 -17 84q-78 404 -172 908l-59 303h-1l-527 -1286q-3 -9 -6 -9h-83q-4 0 -21 151z" />
<glyph unicode="X" horiz-adv-x="1013" d="M-44 0v1l534 733l-369 726l-1 4h93q8 -11 190 -375q145 -283 149 -295h3l485 670h94v-3l-533 -728l374 -732l-2 -1h-92q-7 8 -69 134l-274 538l-488 -672h-94z" />
<glyph unicode="Y" horiz-adv-x="1055" d="M196 1461v3h93q7 -7 340 -670h2l485 670h105v-1l-558 -757l-77 -703l-3 -3h-81l-2 3l78 710z" />
<glyph unicode="Z" horiz-adv-x="1042" d="M-19 0v1l868 1167l161 217h-835l-2 3l8 73l3 3h976v-3l-999 -1342l-30 -40h833l2 -3l-8 -73l-3 -3h-974z" />
<glyph unicode="[" horiz-adv-x="687" d="M63 -169l189 1682l1 1h341l-9 -79h-263l-171 -1526h263l-9 -79h-341z" />
<glyph unicode="\" horiz-adv-x="541" d="M-102 1368l1 1h77l1 -1l666 -1417l-1 -1h-77l-1 1z" />
<glyph unicode="]" horiz-adv-x="724" d="M139 -170l9 79h263l172 1526h-263l8 79h341l1 -1l-189 -1682l-1 -1h-341z" />
<glyph unicode="^" horiz-adv-x="954" d="M129 865l269 370q115 161 118 163h86q1 -2 146 -289q122 -242 123 -244q-67 -40 -72 -41l-190 376l-59 117l-263 -363l-96 -130q-59 38 -62 41z" />
<glyph unicode="_" horiz-adv-x="1099" d="M70 -160l9 79h949l1 -1l-9 -77l-1 -1h-949z" />
<glyph unicode="`" horiz-adv-x="602" d="M300 1768v1l33 66l317 -183v-1l-34 -66z" />
<glyph unicode="a" horiz-adv-x="1120" d="M126 473v4q22 196 174 343q146 130 313 130h5q201 0 323 -183l10 -21h2l21 192l3 3h72l2 -3l-102 -926l-3 -3h-72l-2 3l21 192h-1q-92 -127 -250 -183q-66 -21 -134 -21q-196 0 -318 176q-67 111 -67 240q0 28 3 57zM203 476q-3 -26 -3 -51q0 -162 119 -275 q90 -73 200 -73q150 0 276 126q111 118 128 273q3 25 3 49q0 125 -74 227q-98 121 -246 121q-169 0 -305 -158q-84 -113 -98 -239z" />
<glyph unicode="b" horiz-adv-x="1078" d="M79 2l164 1459l3 3h73l3 -3l-80 -709h1q93 128 253 186q69 22 138 22q188 0 309 -157q84 -121 84 -263q0 -28 -3 -57l-1 -14q-23 -199 -188 -355q-150 -122 -304 -122h-12q-196 0 -320 175l-18 33h-1l-22 -198l-3 -2h-73zM211 474q-3 -25 -3 -49q0 -127 75 -231 q99 -123 251 -123q165 0 300 149q94 115 110 257q3 28 3 55q0 161 -119 275q-93 74 -205 74q-164 0 -299 -148q-97 -115 -113 -259z" />
<glyph unicode="c" horiz-adv-x="915" d="M101 473l1 4q21 196 174 343q146 130 313 130h5q186 0 307 -159l28 -48q-64 -40 -69 -40q-100 170 -279 170q-168 0 -304 -158q-84 -113 -98 -239q-3 -27 -3 -53q0 -161 119 -273q90 -73 200 -73q174 0 311 166q5 6 7 9q57 -37 59 -42q-95 -134 -258 -191 q-66 -19 -130 -19q-177 0 -297 145q-89 120 -89 270q0 29 3 58z" />
<glyph unicode="d" horiz-adv-x="1107" d="M108 469l2 14q20 175 153 320q157 157 345 157q69 0 132 -22q148 -58 211 -186h1l80 709l3 3h73l3 -3l-164 -1459l-3 -2h-73l-3 2l22 198h-1l-25 -33q-163 -175 -359 -175h-12q-154 0 -277 122q-111 133 -111 298q0 28 3 57zM188 477q-3 -27 -3 -53q0 -111 56 -204 q102 -149 267 -149q152 0 278 123q117 124 135 280q3 26 3 52q0 113 -58 207q-101 148 -265 148q-112 0 -222 -74q-169 -133 -191 -330z" />
<glyph unicode="e" horiz-adv-x="999" d="M90 473v3q22 197 174 343q145 130 312 130h5q178 0 298 -146q89 -123 89 -273q0 -28 -3 -57l-2 -2h-796q-3 -26 -3 -50q0 -145 101 -254q94 -90 218 -90q165 0 298 150q37 47 60 91l2 7q70 -23 70 -27q-28 -57 -70 -112q-161 -186 -371 -186q-196 0 -319 176 q-66 110 -66 239q0 29 3 58zM182 548h707q2 36 -27 122q-58 137 -183 183q-50 19 -109 19q-157 0 -288 -140q-66 -72 -100 -184z" />
<glyph unicode="f" horiz-adv-x="542" d="M15 872l9 77l1 1h180l5 47q25 223 142 352q30 32 55 50q56 42 133 58q32 7 60 7h27v-1l-8 -77l-1 -1h-22q-114 0 -197 -96q-89 -105 -111 -299l-4 -40h285l1 -1l-9 -77l-1 -1h-285l-98 -870l-1 -1h-77l-1 1l98 870h-180z" />
<glyph unicode="g" horiz-adv-x="947" d="M23 -139l1 9q10 85 89 168q37 35 46 40q13 9 36 22q-61 38 -61 111q0 11 1 22v1q9 78 76 139q-12 13 -23 26q-56 80 -56 176q0 20 2 40q13 118 103 214q26 27 50 44q28 20 51 33q86 44 170 44h10q97 0 180 -56q19 -15 35 -29h1q29 50 93 74q33 11 63 11h26l1 -1l-8 -77 l-1 -1h-23q-52 0 -83 -37q-13 -25 -15 -41q34 -67 34 -141q0 -17 -2 -35l-1 -5q-12 -113 -99 -208q-24 -25 -54 -49q-35 -25 -61 -36q-82 -40 -159 -40h-13q-84 0 -162 46q-50 -39 -56 -92q-5 -39 17 -56q39 -38 201 -38l71 1q195 0 282 -98l12 -17q34 -52 37 -105 q1 -18 -1 -35l-2 -13q-6 -58 -50 -123q-71 -102 -209 -151q-85 -29 -172 -29h-13q-152 0 -259 72q-76 55 -100 144q-6 28 -6 54q0 11 1 22zM102 -135q-1 -8 -1 -17q0 -56 41 -106q26 -27 40 -35q83 -59 220 -59q140 0 245 71q14 10 39 32q34 34 53 75q12 28 15 50v4 q1 8 1 16q0 47 -31 88q-20 22 -31 29q-23 16 -54 27q-44 14 -55 14q-44 7 -78 7l-95 -1q-68 0 -126 9q-170 -93 -182 -203zM212 610q-1 -12 -1 -24q0 -56 27 -110q9 -18 35 -47q39 -38 85 -55q42 -16 87 -16h4q90 0 172 58q37 29 51 46q58 69 68 153q2 14 2 28q0 63 -34 119 q-23 38 -57 63q-64 46 -145 46h-2q-95 0 -181 -63q-34 -30 -42 -41q-21 -24 -33 -47q-29 -52 -35 -101z" />
<glyph unicode="h" horiz-adv-x="949" d="M69 3l164 1458l3 3h73l3 -3l-71 -634q116 124 285 124h56q221 0 297 -168q19 -51 20 -111q0 -21 -3 -42l-71 -627l-3 -3h-73l-3 3l69 616q3 22 3 42q0 140 -121 189q-53 22 -135 22h-35q-196 0 -275 -135q-27 -48 -34 -116l-70 -618l-3 -3h-73z" />
<glyph unicode="i" horiz-adv-x="411" d="M109 1l107 949h79l-107 -949l-1 -1h-77zM242 1397l1 6q3 28 31 49q20 12 36 12h7q24 0 42 -21q13 -20 11 -38l-1 -10q-3 -23 -27 -44q-20 -15 -43 -15q-35 0 -52 32q-7 15 -5 29z" />
<glyph unicode="j" horiz-adv-x="353" d="M-192 -430l9 77q0 1 1 1q112 0 194 93q23 27 36 48q60 102 76 241l103 919l1 1h77l1 -1l-100 -894q-18 -152 -63 -247q-12 -29 -30 -56q-18 -31 -44 -60q-9 -11 -39 -39q-36 -30 -65 -45q-75 -39 -153 -39h-3zM254 1397v6q3 28 32 49q19 12 35 12h7q24 0 43 -21 q12 -20 10 -38l-1 -10q-2 -23 -27 -44q-19 -15 -42 -15q-35 0 -53 32q-6 15 -4 29z" />
<glyph unicode="k" horiz-adv-x="891" d="M78 3l164 1458l3 3h73l3 -3l-111 -986l556 476h114l-1 -2l-468 -402v-1l368 -543v-3h-101q-7 5 -124 183q-188 278 -206 309h-2l-148 -128l-41 -361l-3 -3h-73z" />
<glyph unicode="l" horiz-adv-x="371" d="M89 1l164 1462l2 1h77v-1l-164 -1462l-1 -1h-77z" />
<glyph unicode="m" horiz-adv-x="1638" d="M79 3l105 931l3 3h73l3 -3l-12 -107q116 123 279 123h67q193 0 278 -140l7 -17h3q55 90 185 136q67 21 137 21h66q186 0 272 -130q39 -62 38 -146q0 -22 -2 -47l-70 -624l-3 -3h-73l-3 3l69 612q2 22 2 43q0 139 -112 189q-59 24 -138 24h-44q-196 0 -275 -141 q-23 -46 -30 -107l-70 -620l-3 -3h-73l-2 3l69 616q2 22 2 41q0 152 -142 197q-46 14 -109 14h-43q-193 0 -273 -136q-25 -45 -33 -115l-69 -617l-3 -3h-73z" />
<glyph unicode="n" horiz-adv-x="960" d="M79 3l105 931l3 3h73l3 -3l-12 -107q116 123 279 123h67q192 0 277 -139q33 -60 32 -137q0 -22 -2 -45l-70 -626l-3 -3h-73l-2 3l69 616q2 22 2 41q0 152 -142 197q-46 14 -109 14h-43q-193 0 -273 -136q-25 -45 -33 -115l-69 -617l-3 -3h-73z" />
<glyph unicode="o" horiz-adv-x="1037" d="M101 473v4q22 196 174 343q146 130 313 130h5q195 0 316 -172q70 -116 70 -244q0 -26 -3 -52l-2 -14q-21 -191 -176 -341q-144 -127 -315 -127q-196 0 -318 176q-67 111 -67 240q0 28 3 57zM178 476q-3 -26 -3 -51q0 -162 119 -275q90 -73 200 -73q150 0 276 126 q111 118 128 273q3 25 3 49q0 125 -74 227q-98 121 -246 121q-169 0 -305 -158q-84 -113 -98 -239z" />
<glyph unicode="p" horiz-adv-x="1070" d="M22 -428l152 1353l3 3h73l2 -3l-20 -182h1q94 130 251 185q65 22 132 22h6q197 0 319 -174q70 -116 70 -244q0 -27 -3 -55l-2 -15q-22 -193 -179 -344q-145 -129 -319 -129q-199 0 -323 180l-13 27h-2l-70 -624l-3 -3h-73zM201 470q-3 -27 -3 -53q0 -162 119 -276 q92 -74 203 -74q151 0 279 128q113 119 130 275q3 26 3 52q0 126 -74 228q-99 122 -249 122q-170 0 -308 -160q-86 -113 -100 -242z" />
<glyph unicode="q" horiz-adv-x="1088" d="M108 462l1 15q18 159 134 299q162 174 359 174h5q68 0 128 -22q145 -55 209 -185h1l21 182l3 3h73l2 -3l-152 -1353l-3 -3h-73l-2 3l70 624h-2l-19 -27q-165 -180 -364 -180q-173 0 -290 129q-104 128 -104 286q0 29 3 58zM187 470q-3 -27 -3 -53q0 -124 70 -222 q100 -128 251 -128q111 0 219 74q168 132 191 329q3 24 3 48q0 102 -49 194q-102 160 -272 160q-150 0 -276 -122q-117 -123 -134 -280z" />
<glyph unicode="r" horiz-adv-x="700" d="M79 3l105 932l3 2h73l2 -2l-12 -106h2q0 5 49 44q111 84 248 84q96 0 157 -44q-27 -91 -29 -91q-74 47 -146 47h-8q-91 0 -181 -57q-53 -43 -66 -70q-43 -66 -50 -133l-68 -606l-3 -3h-74z" />
<glyph unicode="s" horiz-adv-x="820" d="M64 196q39 20 74 35q41 -101 139 -141q55 -21 113 -21q91 0 171 46q56 33 85 93q15 29 17 56l1 6q1 8 1 17q0 51 -38 93q-33 32 -80 48q-22 6 -97 21q-144 34 -201 68q-104 55 -104 160q0 13 1 26q10 91 84 165q30 28 46 37q96 63 220 63h2q141 0 233 -94q28 -32 36 -49 q8 -12 9 -18l-74 -37q-23 46 -73 81q-62 38 -141 38q-110 0 -187 -58q-31 -26 -37 -37q-34 -43 -39 -88l-1 -7q-1 -7 0 -14q0 -54 50 -87q29 -20 86 -40q73 -24 192 -47q45 -13 74 -28q23 -12 48 -33q23 -21 36 -40q34 -54 34 -118q0 -12 -1 -25q-10 -89 -79 -165 q-28 -28 -42 -37q-37 -25 -62 -36q-87 -39 -179 -39q-125 0 -218 70q-17 13 -44 43l-12 14q-25 36 -35 60q-5 10 -8 19z" />
<glyph unicode="t" horiz-adv-x="717" d="M118 872l9 77l1 1h185l58 514h77v-1l-57 -513h281l1 -1l-9 -77l-1 -1h-281l-70 -620q-2 -15 -2 -30q0 -53 24 -91q13 -20 25 -27q35 -25 69 -25h4q43 0 118 32q10 5 12 5l26 -71q-26 -13 -82 -30q-49 -14 -79 -14h-12q-50 0 -101 33q-13 8 -37 33q-27 34 -37 76 q-8 35 -8 70q0 17 2 34l70 625h-185z" />
<glyph unicode="u" horiz-adv-x="970" d="M101 319l70 627l3 3h73l3 -3l-70 -619q-2 -20 -3 -39q0 -146 138 -194q49 -15 104 -15h64q171 0 257 125q30 53 39 126l69 616l3 3h73l2 -3l-104 -930l-3 -3h-73l-3 3l12 107q-117 -123 -273 -123h-80q-165 0 -255 114q-49 68 -49 161q0 21 3 44z" />
<glyph unicode="v" horiz-adv-x="1010" d="M129 949v1h85q4 0 26 -80l235 -782h1l439 862h96v-1l-480 -920l-18 -29h-95q-5 4 -72 232q-192 630 -217 717z" />
<glyph unicode="w" horiz-adv-x="1436" d="M148 949l1 1h83q5 -4 23 -110l151 -751q4 4 76 177l290 684h40q5 0 17 -73l160 -788q4 4 76 178l287 682l2 1h81l2 -3l-403 -947h-107q-3 0 -20 90l-134 665q-4 -3 -46 -106l-274 -648l-2 -1h-107q-4 0 -34 159z" />
<glyph unicode="x" horiz-adv-x="914" d="M-42 3l427 484l-303 462l1 1h100l266 -406h1l353 406h100v-1l-404 -462l320 -484v-3h-100l-283 432h-1l-376 -432h-99z" />
<glyph unicode="y" horiz-adv-x="991" d="M77 949v1h85q3 0 17 -51l239 -810h1l439 861h91l1 -1h1l-717 -1378l-1 -2h-84v1l216 415z" />
<glyph unicode="z" horiz-adv-x="882" d="M10 0v1l707 870h-580l-2 3l8 73l3 3h728l3 -3q-22 -24 -707 -868h585l3 -3l-9 -73l-3 -3h-736z" />
<glyph unicode="{" horiz-adv-x="732" d="M102 606l6 52l47 21q56 30 85 87q8 18 9 29l56 490q15 141 138 210q75 39 170 39h44l-9 -77l-1 -2h-50q-105 0 -170 -65q-37 -42 -45 -111l-55 -487q-9 -79 -97 -152l-11 -9q54 -38 71 -123q3 -19 1 -34l-55 -488q-14 -131 99 -167q41 -10 75 -10h51l1 -3l-8 -73 q0 -3 -4 -3l-44 -1q-147 0 -219 100q-39 66 -29 150l54 487q8 66 -67 118q-43 20 -43 22z" />
<glyph unicode="|" horiz-adv-x="196" d="M-20 -1l157 1399l2 2h77v-2l-157 -1399h-79z" />
<glyph unicode="}" horiz-adv-x="778" d="M128 -267l9 73l2 3h51q34 0 77 10q121 36 136 167l55 488q1 15 9 34q36 85 98 123l-9 9q-71 73 -63 152l55 487q8 69 -20 111q-50 65 -155 65h-50l-1 2l9 77h44q95 0 161 -39q107 -69 91 -210l-55 -490q-1 -11 3 -29q16 -57 65 -87l42 -21l-5 -52q-1 -2 -48 -22 q-87 -52 -94 -118l-55 -487q-9 -84 -63 -150q-94 -100 -241 -100l-44 1q-4 0 -4 3z" />
<glyph unicode="~" horiz-adv-x="534" d="M107 437l10 88q21 23 41 33q31 17 58 17q32 0 87 -31.5t82 -31.5q26 0 56 18q20 12 47 39l-10 -88q-22 -22 -43 -33q-31 -16 -59 -16q-30 0 -84.5 31t-84.5 31q-25 0 -55 -18q-19 -12 -45 -39z" />
<glyph unicode="&#xa1;" horiz-adv-x="481" d="M31 1l142 1173l1 1h77l1 -1l-122 -1173l-1 -1h-97zM172 1347q4 29 31 48q16 11 34 11h4q24 0 42 -22q11 -17 9 -34l-1 -7q-3 -27 -33 -47q-17 -9 -32 -9h-1q-34 0 -49 32q-5 13 -4 28z" />
<glyph unicode="&#xa2;" horiz-adv-x="915" d="M101 694l1 4q21 196 174 343q113 100 238 123l14 128h79l-13 -121q186 0 307 -159l28 -48q-64 -40 -69 -40q-99 168 -275 170l-87 -796q172 1 308 166q5 6 7 9q57 -37 59 -42q-95 -134 -258 -191q-63 -18 -125 -19l-12 -116l-2 -1h-77v1l13 123q-129 24 -224 138 q-106 143 -86 328zM179 697q-22 -196 116 -326q58 -47 125 -64l85 779q-123 -28 -228 -150q-84 -113 -98 -239z" />
<glyph unicode="&#xa3;" horiz-adv-x="979" d="M-9 91q66 50 157 129q88 79 112 106q148 154 160 268l1 6q2 20 0 47h-255l-1 1l9 77l1 1h227q-7 20 -34 94q-35 105 -26 192l2 13q9 83 60 155q13 17 35 40q33 29 59 45q109 71 224 71q113 0 207 -68q19 -13 40 -36l-63 -56q-31 32 -56 44q-65 37 -137 37 q-106 0 -207 -79q-73 -61 -84 -157v-6q-10 -87 35 -198q20 -54 31 -91h348l1 -1l-9 -77l-1 -1h-326q1 -28 -1 -50q-16 -141 -171 -306q-27 -31 -89 -88h1q47 10 93 10q120 0 197 -83q80 -76 167 -76q119 0 267 141l51 -55q-173 -165 -328 -165q-126 0 -233 113 q-52 47 -130 47q-113 0 -269 -91l-23 -15h-1z" />
<glyph unicode="&#xa4;" horiz-adv-x="1187" d="M-17 237l154 145q-26 36 -42 70q-64 135 -49 287l1 4q16 163 121 307q18 24 48 58l-131 152l63 55l129 -150q45 36 77 56q155 92 323 92q182 0 325 -108q22 -19 45 -40l160 150l50 -55l-161 -152v-1q27 -38 44 -71q68 -138 52 -295v-2q-17 -173 -132 -323l-29 -34 l124 -145q-53 -48 -61 -55h-1l-122 141q-45 -38 -80 -59q-50 -31 -92 -48q-118 -49 -231 -49h-13q-138 0 -264 72q-37 21 -79 58l-27 26l-150 -141q-2 0 -52 55zM125 740q-17 -170 79 -311q39 -51 71 -77q37 -30 63 -45q106 -61 230 -61h4q156 0 298 95q25 16 67 52 q44 44 64 70q97 128 112 278q16 157 -66 290q-12 21 -42 56q-36 40 -60 57q-122 90 -276 90q-151 0 -291 -88q-27 -16 -67 -51q-43 -40 -57 -58q-28 -34 -44 -58q-72 -112 -85 -239z" />
<glyph unicode="&#xa5;" horiz-adv-x="951" d="M56 341l9 77l1 1h367l15 131h-367l-1 1l8 77l1 1h367l12 107l-240 328q-16 21 -150 203q-9 13 -9 14l65 51l250 -340q1 -1 133 -180l265 277l232 242l2 1q53 -50 54 -50q0 -2 -11 -13l-364 -380l-148 -153l-12 -107h368l1 -1l-8 -77l-1 -1h-368l-15 -131h368l1 -1l-9 -77 l-1 -1h-368l-38 -338h-79l38 338h-367z" />
<glyph unicode="&#xa6;" horiz-adv-x="264" d="M-20 -500l73 649l1 1h77l1 -1l-73 -649h-79zM132 850l73 649l1 1h77l1 -1l-73 -649h-79z" />
<glyph unicode="&#xa7;" horiz-adv-x="821" d="M69 191q65 30 76 34q5 -19 31 -54q58 -65 146 -65h6q77 0 142 41q26 18 47 43q28 39 33 82v3q8 71 -55 113q-23 17 -64 34q-47 20 -143 42q-85 26 -136 92q-39 55 -45 116q-3 29 0 52l1 10q8 77 66 150q13 15 42 42l26 20q36 23 57 31q-22 11 -48 29q-93 69 -81 174l1 10 q8 78 71 145q24 23 34 30q31 22 53 32q74 34 155 34q118 0 195 -82q32 -36 43 -61q6 -14 8 -21l-74 -34q-6 19 -29 50q-58 69 -152 69q-66 0 -126 -30q-21 -9 -48 -34q-45 -45 -52 -103v-1q-8 -75 61 -118q29 -20 89 -41q51 -17 115 -32q34 -11 60 -25q23 -13 48 -36 q30 -33 32 -40q11 -13 22 -39q24 -60 17 -124q-12 -107 -101 -191q-38 -31 -68 -46q-21 -11 -23 -11l31 -17q21 -14 47 -37q60 -63 51 -149l-2 -11q-7 -65 -54 -126q-10 -13 -40 -40q-33 -26 -54 -35q-19 -11 -56 -23q-56 -16 -107 -16q-133 0 -213 100q-30 44 -35 64z M186 728q-8 -70 37 -127q26 -28 40 -36q14 -10 35 -18q38 -15 78 -15h6q79 0 149 54q30 25 36 35q41 51 47 105v5q9 78 -48 139q-60 56 -144 56q-83 0 -154 -55q-73 -61 -82 -141v-2z" />
<glyph unicode="&#xa8;" horiz-adv-x="683" d="M302 1661l1 6q3 28 33 48q16 9 31 9h2q33 0 48 -32q6 -13 4 -28q-3 -29 -30 -48q-17 -11 -34 -11h-4q-25 0 -42 22q-11 17 -9 34zM602 1661l1 6q3 28 33 48q16 9 31 9h2q33 0 48 -32q6 -13 4 -28q-3 -29 -30 -48q-17 -11 -34 -11h-4q-25 0 -42 22q-11 17 -9 34z" />
<glyph unicode="&#xa9;" horiz-adv-x="1914" d="M214 673l2 18q19 177 125 350q34 55 89 119q27 30 63 66q59 51 87 71q55 39 114 70q190 98 390 98q247 0 440 -146q34 -27 80 -76q53 -60 69 -90q29 -42 50 -92q79 -179 57 -378q-25 -227 -170 -423q-33 -43 -83 -96q-54 -53 -89 -79q-52 -39 -89 -61q-58 -35 -114 -58 q-161 -66 -313 -66h-21q-158 0 -311 71q-55 28 -118 74q-30 22 -82 76q-52 61 -69 90q-34 52 -50 92q-27 60 -45 132q-25 123 -12 238zM294 680q-23 -212 77 -395q19 -32 51 -74q42 -48 58 -61q34 -34 59 -50q49 -37 102 -61q132 -59 274 -59h8q194 0 380 105 q217 130 327 354q57 120 70 244q23 207 -73 386q-20 38 -65 95q-46 51 -63 65q-39 34 -70 54q-160 103 -356 103q-220 0 -423 -133q-34 -21 -89 -67q-59 -53 -82 -83q-37 -44 -59 -78q-106 -162 -126 -341v-4zM597 681v4q22 196 174 343q146 130 313 130h5q186 0 308 -159 l28 -48q-65 -40 -70 -40q-99 170 -278 170q-168 0 -304 -158q-85 -113 -99 -239q-21 -196 116 -326q90 -73 200 -73q174 0 312 166q4 6 7 9q57 -37 59 -42q-96 -134 -258 -191q-66 -19 -130 -19q-177 0 -297 145q-106 143 -86 328z" />
<glyph unicode="&#xaa;" horiz-adv-x="648" />
<glyph unicode="&#xab;" horiz-adv-x="1062" d="M127 412l8 74q38 24 312 191l89 56l37 -66q-10 -6 -331 -203l-24 -15l307 -217v-1q-49 -63 -51 -65zM527 412l8 74q38 24 312 191l89 56l37 -66q-10 -6 -331 -203l-24 -15l307 -217v-1q-49 -63 -51 -65z" />
<glyph unicode="&#xac;" horiz-adv-x="803" d="M78 701l9 79h649l1 -1l-43 -379h-79l34 301h-571z" />
<glyph unicode="&#xad;" horiz-adv-x="935" d="M105 450l9 79h705l1 -1l-9 -77l-1 -1h-705z" />
<glyph unicode="&#xae;" horiz-adv-x="1130" d="M207 1059l1 9q9 91 62 179q18 28 45 61q13 15 32 34q30 26 44 36q28 20 58 36q96 50 198 50q127 0 226 -75q18 -13 42 -38q27 -31 36 -46q14 -22 26 -48q41 -91 30 -193q-11 -116 -84 -216q-16 -22 -42 -49q-28 -27 -45 -40q-27 -20 -45 -32q-30 -18 -58 -29 q-83 -34 -161 -34h-10q-81 0 -159 36q-28 15 -61 38q-15 11 -42 39q-27 31 -36 46q-18 27 -26 47q-14 31 -23 67q-14 63 -8 122zM237 1062q-11 -111 44 -207q10 -17 27 -39q22 -25 30 -32q19 -18 32 -27q26 -19 54 -32q69 -31 143 -31h5q102 0 200 56q113 68 170 186 q29 63 35 128q11 109 -40 203q-11 20 -35 50q-25 27 -34 34q-20 18 -37 29q-85 54 -188 54q-116 0 -222 -70q-17 -11 -46 -35q-31 -28 -42 -44q-20 -23 -31 -41q-55 -85 -64 -179zM458 768l56 564h144q41 0 77 -23q9 -6 20 -16q14 -15 17 -21q6 -10 9 -18q17 -36 13 -78 l-2 -14q-5 -52 -39 -98q-34 -44 -84 -61l68 -177l21 -58h-34q-1 0 -6 14l-37 103l-42 111q-8 -1 -20 -1h-108l-23 -227h-30zM517 1025h116q15 0 35 7q48 19 76 65q18 31 21 67l1 10q6 54 -25 91q-11 12 -18 16q-29 21 -66 21h-113z" />
<glyph unicode="&#xaf;" horiz-adv-x="670" />
<glyph unicode="&#xb0;" horiz-adv-x="725" d="M100 1206l1 9q7 73 64 136q26 27 42 37q66 42 130 42h9q70 0 129 -48q17 -16 28 -33q44 -61 36 -138q-9 -90 -83 -158q-73 -62 -158 -62q-89 0 -151 66q-30 38 -37 69q-14 40 -10 80zM187 1210q-6 -62 42 -105q36 -27 76 -27h4q59 0 108 52q31 39 35 78v5q6 54 -34 96 q-37 34 -84 34h-1q-66 0 -116 -58q-25 -35 -29 -74z" />
<glyph unicode="&#xb1;" horiz-adv-x="801" d="M3 -79l9 79h708l1 -1l-9 -77l-1 -1h-708zM59 450l9 79h316l35 314l2 2h77v-2l-35 -314h314l1 -1l-9 -77l-1 -1h-314l-35 -315h-79l35 315h-316z" />
<glyph unicode="&#xb2;" horiz-adv-x="1014" />
<glyph unicode="&#xb3;" horiz-adv-x="1014" />
<glyph unicode="&#xb4;" horiz-adv-x="610" d="M300 1651v1l317 183l33 -66v-1l-316 -183z" />
<glyph unicode="&#xb5;" horiz-adv-x="1017" d="M62 -399l152 1349h79l-70 -623q-20 -179 134 -233q50 -15 105 -15h64q170 0 256 125q31 53 39 126l69 616l3 3h74l1 -3l-104 -930l-3 -3h-74l-1 3l12 107q-118 -123 -273 -123h-80q-157 0 -247 103l-57 -502l-1 -1h-77z" />
<glyph unicode="&#xb6;" horiz-adv-x="1054" d="M207 1019q17 148 129 239t280 91h419l-9 -78l-1 -1h-116l-120 -1070h-80l120 1070h-158l-120 -1070h-79l55 489q-164 8 -250 97.5t-70 232.5z" />
<glyph unicode="&#xb7;" horiz-adv-x="383" d="M302 729l1 6q3 28 33 48q16 9 31 9h2q33 0 48 -32q6 -13 4 -28q-3 -29 -30 -48q-17 -11 -34 -11h-4q-25 0 -42 22q-11 17 -9 34z" />
<glyph unicode="&#xb8;" horiz-adv-x="524" d="M300 -227q2 1 31 21q30 19 31 19q23 -35 58 -35q31 0 57 27q12 16 14 33l1 4q2 20 -9 36q-11 10 -30 10h-6q-21 0 -59 -15l-34 -11v1l53 170v1h1q64 -13 66 -14l-20 -62q81 0 103 -67q7 -26 4 -52q-6 -60 -62 -102q-41 -29 -88 -29q-69 0 -111 64v1z" />
<glyph unicode="&#xb9;" horiz-adv-x="1014" />
<glyph unicode="&#xba;" horiz-adv-x="718" />
<glyph unicode="&#xbb;" horiz-adv-x="1063" d="M110 231v1l355 217l-20 15q-279 197 -287 203l51 66l77 -56q238 -167 270 -191l-8 -74l-401 -246q-2 2 -37 65zM510 231v1l355 217l-20 15q-279 197 -287 203l51 66l77 -56q238 -167 270 -191l-8 -74l-401 -246q-2 2 -37 65z" />
<glyph unicode="&#xbc;" horiz-adv-x="1708" />
<glyph unicode="&#xbd;" horiz-adv-x="1964" />
<glyph unicode="&#xbe;" horiz-adv-x="1708" />
<glyph unicode="&#xbf;" horiz-adv-x="989" d="M-3 392q10 95 72 193q22 34 59 73q37 37 59 53q19 14 106 73q23 16 52 42q45 43 51 95l8 82l19 164h1l12 1h65l1 -1l-28 -244q-12 -107 -119 -186q-34 -25 -106 -74q-20 -13 -52 -41q-38 -37 -57 -66q-54 -83 -63 -161l-1 -5q-12 -107 45 -198q10 -14 33 -39 q48 -45 97 -60q40 -12 75 -12h11q78 0 158 51q20 11 51 40q46 45 74 99q29 60 36 120l4 35l1 1h77l1 -1l-5 -39q-11 -95 -68 -187q-21 -33 -65 -79q-41 -38 -57 -47q-106 -72 -222 -72q-123 0 -217 81q-36 36 -49 56q-19 30 -30 54q-41 95 -29 199zM422 1379q4 35 38 56 q17 8 30 8h7q27 0 46 -26q10 -18 8 -39q-4 -31 -34 -52q-18 -11 -38 -11q-31 0 -49 27q-10 18 -8 37z" />
<glyph unicode="&#xc0;" d="M1 0v1l640 1346q52 110 57 117h101q5 -6 52 -198l323 -1265v-1h-83q-5 7 -23 87l-73 285h-733q-2 -1 -81 -168l-97 -204h-83zM298 451h677l-237 923h-1zM600 1768v1l34 66l317 -183v-1l-35 -66z" />
<glyph unicode="&#xc1;" d="M1 0v1l640 1346q52 110 57 117h101q5 -6 52 -198l323 -1265v-1h-83q-5 7 -23 87l-73 285h-733q-2 -1 -81 -168l-97 -204h-83zM298 451h677l-237 923h-1zM600 1651v1l316 183l35 -66v-1l-317 -183z" />
<glyph unicode="&#xc2;" d="M1 0v1l640 1346q52 110 57 117h101q5 -6 52 -198l323 -1265v-1h-83q-5 7 -23 87l-73 285h-733q-2 -1 -81 -168l-97 -204h-83zM298 451h677l-237 923h-1zM540 1636l223 233h61l171 -233l-66 -51h-1l-145 198q-181 -190 -189 -198q-38 35 -54 51z" />
<glyph unicode="&#xc3;" d="M1 0v1l640 1346q52 110 57 117h101q5 -6 52 -198l323 -1265v-1h-83q-5 7 -23 87l-73 285h-733q-2 -1 -81 -168l-97 -204h-83zM298 451h677l-237 923h-1zM582 1610l9 88q22 23 42 33q31 17 58 17q32 0 87 -31.5t82 -31.5q26 0 56 18q19 12 46 39l-9 -88q-22 -22 -43 -33 q-31 -16 -59 -16q-30 0 -84.5 31t-84.5 31q-25 0 -55 -18q-19 -12 -45 -39z" />
<glyph unicode="&#xc4;" d="M1 0v1l640 1346q52 110 57 117h101q5 -6 52 -198l323 -1265v-1h-83q-5 7 -23 87l-73 285h-733q-2 -1 -81 -168l-97 -204h-83zM298 451h677l-237 923h-1zM562 1671l1 6q3 28 33 48q16 9 31 9h2q33 0 48 -32q6 -13 4 -28q-3 -29 -30 -48q-17 -11 -34 -11h-4q-25 0 -42 22 q-11 17 -9 34zM862 1671l1 6q3 28 33 48q16 9 31 9h2q33 0 48 -32q6 -13 4 -28q-3 -29 -30 -48q-17 -11 -34 -11h-4q-25 0 -42 22q-11 17 -9 34z" />
<glyph unicode="&#xc5;" d="M1 0v1l639 1346q51 107 58 117q-25 10 -43 30q-15 18 -19 30q-15 32 -11 66v4q5 46 41 84q16 18 26 24q40 28 86 28q56 0 94 -41q34 -42 28 -96q-6 -58 -54 -103q-24 -18 -47 -26q4 -6 51 -198l324 -1265v-1h-83q-5 7 -22 87l-74 285h-733q-2 -1 -82 -168l-96 -204h-83z M298 451h677l-237 923h-1zM700 1592q-3 -27 16 -47q17 -15 40 -15q25 0 47 18q9 10 13 18q7 12 9 25v2q2 23 -12 43q-18 19 -43 19q-28 0 -52 -24q-16 -18 -18 -39z" />
<glyph unicode="&#xc6;" horiz-adv-x="1705" d="M1 4l1051 1458l4 2h699l3 -4l-8 -70l-4 -4h-598l-4 -4l-68 -611h488l4 -4l-8 -70l-4 -4h-488l-68 -613h602l4 -4l-8 -72l-4 -4h-682l-5 4l50 459h-543q-324 -457 -333 -463h-76zM472 540h492l89 806h-2z" />
<glyph unicode="&#xc7;" horiz-adv-x="1348" d="M136 727l1 10q33 299 251 526q213 200 463 201h5q253 0 426 -219q66 -98 81 -150l-1 -2l-72 -32h-1q1 7 -44 91q-154 233 -403 233q-233 0 -433 -212q-166 -196 -193 -442q-30 -271 122 -474q66 -77 111 -102q117 -75 237 -75h29q146 0 302 106q77 57 130 119 q40 51 72 102h2l64 -32v-2q-15 -33 -84 -119q-109 -120 -206 -170q-148 -84 -304 -84q-12 0 -25 1l-14 -43q81 0 103 -67q7 -26 4 -52q-6 -60 -62 -102q-41 -29 -88 -29q-69 0 -111 64v1q2 1 31 21q30 19 31 19q23 -35 58 -35q31 0 57 27q12 16 14 33l1 4q2 20 -9 36 q-11 10 -30 10h-6q-21 0 -59 -15l-34 -11v1l45 145q-178 31 -312 182q-92 115 -127 245q-38 146 -22 292z" />
<glyph unicode="&#xc8;" horiz-adv-x="889" d="M93 1l164 1462l2 1h683v-1l-8 -77l-1 -1h-605l-69 -614h491l-9 -78h-491l-69 -614h605l1 -1l-9 -77l-1 -1h-683zM453 1768v1l34 66l317 -183v-1l-34 -66z" />
<glyph unicode="&#xc9;" horiz-adv-x="889" d="M93 1l164 1462l2 1h683v-1l-8 -77l-1 -1h-605l-69 -614h491l-9 -78h-491l-69 -614h605l1 -1l-9 -77l-1 -1h-683zM453 1651v1l317 183l34 -66v-1l-317 -183z" />
<glyph unicode="&#xca;" horiz-adv-x="889" d="M93 1l164 1462l2 1h683v-1l-8 -77l-1 -1h-605l-69 -614h491l-9 -78h-491l-69 -614h605l1 -1l-9 -77l-1 -1h-683zM392 1636l223 233h61l171 -233l-66 -51h-1l-145 198q-181 -190 -189 -198q-38 35 -54 51z" />
<glyph unicode="&#xcb;" horiz-adv-x="889" d="M93 1l164 1462l2 1h683v-1l-8 -77l-1 -1h-605l-69 -614h491l-9 -78h-491l-69 -614h605l1 -1l-9 -77l-1 -1h-683zM414 1671l1 6q3 28 33 48q16 9 31 9h2q33 0 48 -32q6 -13 4 -28q-3 -29 -30 -48q-17 -11 -34 -11h-4q-25 0 -42 22q-11 17 -9 34zM714 1671l1 6q3 28 33 48 q16 9 31 9h2q33 0 48 -32q6 -13 4 -28q-3 -29 -30 -48q-17 -11 -34 -11h-4q-25 0 -42 22q-11 17 -9 34z" />
<glyph unicode="&#xcc;" horiz-adv-x="344" d="M87 1l165 1463h79l-165 -1463l-1 -1h-77zM143 1768v1l34 66l317 -183v-1l-34 -66z" />
<glyph unicode="&#xcd;" horiz-adv-x="344" d="M87 1l165 1463h79l-165 -1463l-1 -1h-77zM143 1651v1l317 183l34 -66v-1l-317 -183z" />
<glyph unicode="&#xce;" horiz-adv-x="344" d="M83 1636l223 233h61l171 -233l-66 -51h-1l-144 198q-182 -190 -190 -198q-38 35 -54 51zM87 1l165 1463h79l-165 -1463l-1 -1h-77z" />
<glyph unicode="&#xcf;" horiz-adv-x="344" d="M87 1l165 1463h79l-165 -1463l-1 -1h-77zM135 1671l1 6q3 28 33 48q16 9 31 9h2q33 0 48 -32q6 -13 4 -28q-3 -29 -30 -48q-17 -11 -34 -11h-4q-25 0 -42 22q-11 17 -9 34zM375 1671l1 6q3 28 33 48q16 9 31 9h2q33 0 48 -32q6 -13 4 -28q-3 -29 -30 -48q-17 -11 -34 -11 h-4q-25 0 -42 22q-11 17 -9 34z" />
<glyph unicode="&#xd0;" horiz-adv-x="1299" d="M93 694l9 78h125l78 689l3 3h323q259 0 442 -199q187 -227 153 -534q-29 -258 -212 -471q-82 -87 -148 -131q-73 -46 -130 -72q-118 -44 -148 -45q-50 -12 -160 -12h-284l-3 3l78 691h-126zM229 80h255q199 0 391 150q94 84 129 138q121 171 143 364q31 274 -137 478 q-158 175 -398 175h-237l-62 -554h1l-7 -59h228l-9 -78h-228l-9 -78z" />
<glyph unicode="&#xd1;" horiz-adv-x="1262" d="M93 4l164 1457l3 3h121q9 -12 71 -145l584 -1237h1l155 1379l3 3h73l3 -3l-164 -1458l-3 -3h-118q-6 4 -48 96l-606 1286h-2l-155 -1379l-2 -3h-72q-7 0 -8 4zM598 1610l10 88q21 23 41 33q31 17 58 17q32 0 87 -31.5t82 -31.5q26 0 56 18q19 12 47 39l-10 -88 q-22 -22 -43 -33q-31 -16 -59 -16q-30 0 -84.5 31t-84.5 31q-25 0 -55 -18q-19 -12 -45 -39z" />
<glyph unicode="&#xd2;" horiz-adv-x="1478" d="M133 731l1 6q33 304 264 535q214 192 460 192h6q248 0 424 -206q56 -77 81 -133q79 -187 58 -376l-3 -30q-25 -230 -183 -436q-32 -43 -112 -117l-63 -47q-178 -119 -368 -119q-245 0 -417 195q-182 227 -148 536zM212 731q-30 -270 127 -476q87 -96 145 -119 q28 -19 94 -39q63 -17 115 -17h30q163 0 337 127q96 83 127 128q136 182 159 392l2 10q27 251 -112 452q-154 196 -387 196q-235 0 -438 -209q-172 -197 -199 -445zM711 1769l34 66l317 -183v-1l-34 -66l-316 183z" />
<glyph unicode="&#xd3;" horiz-adv-x="1478" d="M133 731l1 6q33 304 264 535q214 192 460 192h6q248 0 424 -206q56 -77 81 -133q79 -187 58 -376l-3 -30q-25 -230 -183 -436q-32 -43 -112 -117l-63 -47q-178 -119 -368 -119q-245 0 -417 195q-182 227 -148 536zM212 731q-30 -270 127 -476q87 -96 145 -119 q28 -19 94 -39q63 -17 115 -17h30q163 0 337 127q96 83 127 128q136 182 159 392l2 10q27 251 -112 452q-154 196 -387 196q-235 0 -438 -209q-172 -197 -199 -445zM711 1651l1 1l316 183l34 -66v-1l-317 -183z" />
<glyph unicode="&#xd4;" horiz-adv-x="1478" d="M133 731l1 6q33 304 264 535q214 192 460 192h6q248 0 424 -206q56 -77 81 -133q79 -187 58 -376l-3 -30q-25 -230 -183 -436q-32 -43 -112 -117l-63 -47q-178 -119 -368 -119q-245 0 -417 195q-182 227 -148 536zM212 731q-30 -270 127 -476q87 -96 145 -119 q28 -19 94 -39q63 -17 115 -17h30q163 0 337 127q96 83 127 128q136 182 159 392l2 10q27 251 -112 452q-154 196 -387 196q-235 0 -438 -209q-172 -197 -199 -445zM651 1636l223 233h61l171 -233l-65 -51h-1l-146 198q-180 -190 -188 -198q-39 35 -55 51z" />
<glyph unicode="&#xd5;" horiz-adv-x="1478" d="M133 731l1 6q33 304 264 535q214 192 460 192h6q248 0 424 -206q56 -77 81 -133q79 -187 58 -376l-3 -30q-25 -230 -183 -436q-32 -43 -112 -117l-63 -47q-178 -119 -368 -119q-245 0 -417 195q-182 227 -148 536zM212 731q-30 -270 127 -476q87 -96 145 -119 q28 -19 94 -39q63 -17 115 -17h30q163 0 337 127q96 83 127 128q136 182 159 392l2 10q27 251 -112 452q-154 196 -387 196q-235 0 -438 -209q-172 -197 -199 -445zM693 1610l10 88q21 23 41 33q31 17 58 17q32 0 87 -31.5t82 -31.5q26 0 56 18q19 12 46 39l-9 -88 q-22 -22 -43 -33q-31 -16 -59 -16q-30 0 -84.5 31t-84.5 31q-25 0 -55 -18q-19 -12 -45 -39z" />
<glyph unicode="&#xd6;" horiz-adv-x="1478" d="M133 731l1 6q33 304 264 535q214 192 460 192h6q248 0 424 -206q56 -77 81 -133q79 -187 58 -376l-3 -30q-25 -230 -183 -436q-32 -43 -112 -117l-63 -47q-178 -119 -368 -119q-245 0 -417 195q-182 227 -148 536zM212 731q-30 -270 127 -476q87 -96 145 -119 q28 -19 94 -39q63 -17 115 -17h30q163 0 337 127q96 83 127 128q136 182 159 392l2 10q27 251 -112 452q-154 196 -387 196q-235 0 -438 -209q-172 -197 -199 -445zM673 1671l1 6q3 28 33 48q16 9 31 9h2q33 0 49 -32q5 -13 3 -28q-3 -29 -30 -48q-17 -11 -34 -11h-4 q-25 0 -42 22q-11 17 -9 34zM973 1671l1 6q3 28 33 48q16 9 31 9h2q33 0 49 -32q5 -13 3 -28q-3 -29 -30 -48q-17 -11 -34 -11h-4q-25 0 -42 22q-11 17 -9 34z" />
<glyph unicode="&#xd7;" horiz-adv-x="665" d="M51 248l248 223l-198 222v2l60 55l2 -1l198 -222l246 222h2l48 -55v-1l-246 -222l198 -223l-62 -56l-199 223l-247 -223z" />
<glyph unicode="&#xd8;" horiz-adv-x="1478" d="M133 731l1 6q31 306 265 537q215 192 459 190h7q187 0 333 -118l107 145l62 -42l-113 -154q17 -17 34 -37q56 -77 81 -133q79 -187 58 -376l-3 -30q-26 -230 -182 -436q-33 -43 -113 -117l-63 -47q-177 -119 -367 -119q-180 0 -320 104l-108 -146l-1 -1l-62 41l1 2 l112 153q-20 20 -40 42q-182 227 -148 536zM212 731q-30 -270 127 -476q16 -18 32 -34l778 1058q-129 106 -300 106q-235 0 -438 -209q-172 -197 -199 -445zM427 170q31 -24 57 -34q27 -19 94 -39q63 -17 114 -17h30q164 0 338 127q95 83 126 128q137 182 161 392l1 10 q27 251 -112 452q-15 20 -32 38z" />
<glyph unicode="&#xd9;" horiz-adv-x="1224" d="M168 512l104 949l3 3h73l3 -3l-103 -932q-31 -289 142 -407q32 -21 77 -34q38 -9 111 -9h50q119 0 173 30q120 50 198 200q46 95 57 198l105 954l3 3h74l3 -3l-99 -899q-22 -199 -83 -301q-26 -51 -66 -96q-139 -165 -346 -165h-104q-255 0 -350 249q-41 121 -25 263z M608 1769l34 66l317 -183v-1l-34 -66l-316 183z" />
<glyph unicode="&#xda;" horiz-adv-x="1224" d="M168 512l104 949l3 3h73l3 -3l-103 -932q-31 -289 142 -407q32 -21 77 -34q38 -9 111 -9h50q119 0 173 30q120 50 198 200q46 95 57 198l105 954l3 3h74l3 -3l-99 -899q-22 -199 -83 -301q-26 -51 -66 -96q-139 -165 -346 -165h-104q-255 0 -350 249q-41 121 -25 263z M608 1651l1 1l316 183l34 -66v-1l-317 -183z" />
<glyph unicode="&#xdb;" horiz-adv-x="1227" d="M168 512l107 949l3 3h73l3 -3l-105 -932q-33 -289 140 -407q33 -21 77 -34q38 -9 111 -9h50q119 0 174 30q119 50 198 200q46 95 57 198l108 954l3 3h74l3 -3l-101 -899q-23 -199 -84 -301q-26 -51 -66 -96q-140 -165 -347 -165h-104q-255 0 -350 249q-40 121 -24 263z M551 1636l224 233h61l170 -233l-65 -51h-1l-145 198q-181 -190 -189 -198q-38 35 -55 51z" />
<glyph unicode="&#xdc;" horiz-adv-x="1227" d="M168 512l107 949l3 3h73l3 -3l-105 -932q-33 -289 140 -407q33 -21 77 -34q38 -9 111 -9h50q119 0 174 30q119 50 198 200q46 95 57 198l108 954l3 3h74l3 -3l-101 -899q-23 -199 -84 -301q-26 -51 -66 -96q-140 -165 -347 -165h-104q-255 0 -350 249q-40 121 -24 263z M573 1671l1 6q3 28 33 48q16 9 31 9h2q33 0 49 -32q5 -13 4 -28q-4 -29 -31 -48q-17 -11 -34 -11h-4q-25 0 -41 22q-12 17 -10 34zM873 1671l1 6q3 28 33 48q16 9 31 9h2q33 0 49 -32q5 -13 4 -28q-4 -29 -31 -48q-17 -11 -34 -11h-4q-25 0 -41 22q-12 17 -10 34z" />
<glyph unicode="&#xdd;" horiz-adv-x="1055" d="M196 1461v3h93q7 -7 340 -670h2l485 670h105v-1l-558 -757l-77 -703l-3 -3h-81l-2 3l78 710zM555 1651v1l316 183l35 -66v-1l-317 -183z" />
<glyph unicode="&#xde;" horiz-adv-x="1295" d="M89 1l164 1462l2 1h77v-1l-35 -312h453q211 0 331 -93q119 -102 101 -266l-14 -120q-17 -154 -145 -254q-80 -60 -186 -84q-86 -21 -175 -21h-459l-35 -312l-1 -1h-77zM212 391h452q195 0 313 85q33 26 47 43q19 22 30 40q29 49 37 119l12 108q10 87 -21 144 q-25 44 -71 77q-97 67 -276 67h-446z" />
<glyph unicode="&#xdf;" horiz-adv-x="1254" d="M94 2l130 1159q7 58 71 150q123 153 336 153h6q197 0 302 -96q66 -71 55 -171v-2q-13 -111 -121 -236q-93 -114 -100 -181q-11 -89 146 -169q226 -144 207 -312q-13 -115 -140 -216q-124 -88 -256 -88q-195 0 -309 198l-11 22q68 40 73 40q58 -125 177 -170 q42 -10 71 -10h19q109 0 217 88q73 70 81 137q15 140 -240 280q-127 88 -114 199l1 7q10 94 143 251q69 85 78 163q15 138 -186 178q-59 9 -108 9q-210 0 -300 -173q-17 -38 -20 -59l-129 -1151l-3 -2h-74z" />
<glyph unicode="&#xe0;" horiz-adv-x="1120" d="M126 473v4q22 196 174 343q146 130 313 130h5q201 0 323 -183l10 -21h2l21 192l3 3h72l2 -3l-102 -926l-3 -3h-72l-2 3l21 192h-1q-92 -127 -250 -183q-66 -21 -134 -21q-196 0 -318 176q-82 135 -64 297zM203 476q-21 -196 116 -326q90 -73 200 -73q150 0 276 126 q111 118 128 273t-71 276q-98 121 -246 121q-169 0 -305 -158q-84 -113 -98 -239zM467 1254v1l34 66l317 -183v-1l-35 -66z" />
<glyph unicode="&#xe1;" horiz-adv-x="1120" d="M126 473v4q22 196 174 343q146 130 313 130h5q201 0 323 -183l10 -21h2l21 192l3 3h72l2 -3l-102 -926l-3 -3h-72l-2 3l21 192h-1q-92 -127 -250 -183q-66 -21 -134 -21q-196 0 -318 176q-82 135 -64 297zM203 476q-21 -196 116 -326q90 -73 200 -73q150 0 276 126 q111 118 128 273t-71 276q-98 121 -246 121q-169 0 -305 -158q-84 -113 -98 -239zM467 1137v1l316 183l35 -66v-1l-317 -183z" />
<glyph unicode="&#xe2;" horiz-adv-x="1120" d="M126 473v4q22 196 174 343q146 130 313 130h5q201 0 323 -183l10 -21h2l21 192l3 3h72l2 -3l-102 -926l-3 -3h-72l-2 3l21 192h-1q-92 -127 -250 -183q-66 -21 -134 -21q-196 0 -318 176q-82 135 -64 297zM203 476q-21 -196 116 -326q90 -73 200 -73q150 0 276 126 q111 118 128 273t-71 276q-98 121 -246 121q-169 0 -305 -158q-84 -113 -98 -239zM406 1122l223 233h61l171 -233l-65 -51h-1l-146 198q-181 -190 -188 -198q-39 35 -55 51z" />
<glyph unicode="&#xe3;" horiz-adv-x="1120" d="M126 473v4q22 196 174 343q146 130 313 130h5q201 0 323 -183l10 -21h2l21 192l3 3h72l2 -3l-102 -926l-3 -3h-72l-2 3l21 192h-1q-92 -127 -250 -183q-66 -21 -134 -21q-196 0 -318 176q-82 135 -64 297zM203 476q-21 -196 116 -326q90 -73 200 -73q150 0 276 126 q111 118 128 273t-71 276q-98 121 -246 121q-169 0 -305 -158q-84 -113 -98 -239zM448 1096l10 88q21 23 41 33q31 17 58 17q32 0 87 -31.5t82 -31.5q26 0 56 18q19 12 46 39l-9 -88q-22 -22 -43 -33q-31 -16 -59 -16q-30 0 -84.5 31t-84.5 31q-25 0 -55 -18 q-19 -12 -45 -39z" />
<glyph unicode="&#xe4;" horiz-adv-x="1120" d="M126 473v4q22 196 174 343q146 130 313 130h5q201 0 323 -183l10 -21h2l21 192l3 3h72l2 -3l-102 -926l-3 -3h-72l-2 3l21 192h-1q-92 -127 -250 -183q-66 -21 -134 -21q-196 0 -318 176q-82 135 -64 297zM203 476q-21 -196 116 -326q90 -73 200 -73q150 0 276 126 q111 118 128 273t-71 276q-98 121 -246 121q-169 0 -305 -158q-84 -113 -98 -239zM428 1157l1 6q3 28 33 48q16 9 31 9h2q33 0 48 -32q6 -13 4 -28q-3 -29 -30 -48q-17 -11 -34 -11h-4q-25 0 -42 22q-11 17 -9 34zM728 1157l1 6q3 28 33 48q16 9 31 9h2q33 0 48 -32 q6 -13 4 -28q-3 -29 -30 -48q-17 -11 -34 -11h-4q-25 0 -42 22q-11 17 -9 34z" />
<glyph unicode="&#xe5;" horiz-adv-x="1120" d="M126 473v4q22 196 174 343q146 130 313 130h5q201 0 323 -183l10 -21h2l21 192l3 3h72l2 -3l-102 -926l-3 -3h-72l-2 3l21 192h-1q-92 -127 -250 -183q-66 -21 -134 -21q-196 0 -318 176q-82 135 -64 297zM203 476q-21 -196 116 -326q90 -73 200 -73q150 0 276 126 q111 118 128 273t-71 276q-98 121 -246 121q-169 0 -305 -158q-84 -113 -98 -239zM528 1182v4q5 41 40 76q37 34 84 34q52 0 85 -42q20 -32 16 -71q-6 -51 -53 -88q-34 -24 -72 -24q-55 0 -86 47q-18 31 -14 64zM593 1183q-3 -28 23 -43q11 -4 19 -4q27 0 45 26q7 11 8 22 q3 26 -21 42q-11 5 -22 5q-28 0 -46 -28q-5 -9 -6 -20z" />
<glyph unicode="&#xe6;" horiz-adv-x="1850" d="M126 473v4q22 196 174 343q146 130 313 130h5q201 0 323 -183l11 -21h1l21 192l3 3h72l2 -3l-25 -225q37 56 89 106q145 130 312 130h5q178 0 298 -146q106 -146 86 -330l-2 -2h-796q-20 -176 98 -304q94 -90 218 -90q165 0 298 150q37 47 60 91l2 7q70 -23 70 -27 q-28 -57 -70 -112q-161 -186 -371 -186q-196 0 -319 176q-17 29 -30 60l-25 -224l-2 -3h-72l-3 3l21 192h-1q-92 -127 -250 -183q-65 -21 -133 -21q-197 0 -320 176q-81 135 -63 297zM203 476q-21 -196 116 -326q90 -73 200 -73q150 0 276 126q111 118 128 273t-71 276 q-98 121 -246 121q-168 0 -305 -158q-84 -113 -98 -239zM1033 548h707q2 36 -27 122q-58 137 -183 183q-50 19 -109 19q-157 0 -288 -140q-66 -72 -100 -184z" />
<glyph unicode="&#xe7;" horiz-adv-x="915" d="M101 473l1 4q21 196 174 343q146 130 313 130h5q186 0 307 -159l28 -48q-64 -40 -69 -40q-100 170 -279 170q-168 0 -304 -158q-84 -113 -98 -239q-22 -196 116 -326q90 -73 200 -73q174 0 311 166q5 6 7 9q57 -37 59 -42q-95 -134 -258 -191q-66 -19 -130 -19h-17 l-15 -42q81 0 102 -67q7 -26 5 -52q-7 -60 -63 -102q-41 -29 -88 -29q-69 0 -111 64v1q2 1 32 21q29 19 30 19q23 -35 58 -35q31 0 57 27q13 16 15 33v4q2 20 -9 36q-11 10 -30 10h-6q-21 0 -59 -15l-34 -11v1l45 147q-120 28 -209 135q-106 143 -86 328z" />
<glyph unicode="&#xe8;" horiz-adv-x="999" d="M90 473v3q22 197 174 343q145 130 312 130h5q178 0 298 -146q106 -146 86 -330l-2 -2h-796q-20 -176 98 -304q94 -90 218 -90q165 0 298 150q37 47 60 91l2 7q70 -23 70 -27q-28 -57 -70 -112q-161 -186 -371 -186q-196 0 -319 176q-81 135 -63 297zM182 548h707 q2 36 -27 122q-58 137 -183 183q-50 19 -109 19q-157 0 -288 -140q-66 -72 -100 -184zM431 1254v1l34 66l317 -183v-1l-34 -66z" />
<glyph unicode="&#xe9;" horiz-adv-x="999" d="M90 473v3q22 197 174 343q145 130 312 130h5q178 0 298 -146q106 -146 86 -330l-2 -2h-796q-20 -176 98 -304q94 -90 218 -90q165 0 298 150q37 47 60 91l2 7q70 -23 70 -27q-28 -57 -70 -112q-161 -186 -371 -186q-196 0 -319 176q-81 135 -63 297zM182 548h707 q2 36 -27 122q-58 137 -183 183q-50 19 -109 19q-157 0 -288 -140q-66 -72 -100 -184zM431 1137v1l318 183l33 -66v-1l-316 -183z" />
<glyph unicode="&#xea;" horiz-adv-x="999" d="M90 473v3q22 197 174 343q145 130 312 130h5q178 0 298 -146q106 -146 86 -330l-2 -2h-796q-20 -176 98 -304q94 -90 218 -90q165 0 298 150q37 47 60 91l2 7q70 -23 70 -27q-28 -57 -70 -112q-161 -186 -371 -186q-196 0 -319 176q-81 135 -63 297zM182 548h707 q2 36 -27 122q-58 137 -183 183q-50 19 -109 19q-157 0 -288 -140q-66 -72 -100 -184zM371 1122l223 233h61l171 -233l-65 -51h-1l-146 198q-181 -190 -188 -198q-39 35 -55 51z" />
<glyph unicode="&#xeb;" horiz-adv-x="999" d="M90 473v3q22 197 174 343q145 130 312 130h5q178 0 298 -146q106 -146 86 -330l-2 -2h-796q-20 -176 98 -304q94 -90 218 -90q165 0 298 150q37 47 60 91l2 7q70 -23 70 -27q-28 -57 -70 -112q-161 -186 -371 -186q-196 0 -319 176q-81 135 -63 297zM182 548h707 q2 36 -27 122q-58 137 -183 183q-50 19 -109 19q-157 0 -288 -140q-66 -72 -100 -184zM393 1157l1 6q3 28 33 48q16 9 31 9h2q33 0 48 -32q6 -13 4 -28q-3 -29 -30 -48q-17 -11 -34 -11h-4q-25 0 -42 22q-11 17 -9 34zM693 1157l1 6q3 28 33 48q16 9 31 9h2q33 0 48 -32 q6 -13 4 -28q-3 -29 -30 -48q-17 -11 -34 -11h-4q-25 0 -42 22q-11 17 -9 34z" />
<glyph unicode="&#xec;" horiz-adv-x="411" d="M109 1l107 949h79l-107 -949l-1 -1h-77zM109 1254v1l33 66l318 -183v-1l-35 -66z" />
<glyph unicode="&#xed;" horiz-adv-x="411" d="M107 1137v1l318 183l33 -66v-1l-316 -183zM109 1l107 949h79l-107 -949l-1 -1h-77z" />
<glyph unicode="&#xee;" horiz-adv-x="411" d="M47 1122l223 233h61l171 -233l-66 -51h-1l-144 198q-182 -190 -190 -198q-38 35 -54 51zM109 1l107 949h79l-107 -949l-1 -1h-77z" />
<glyph unicode="&#xef;" horiz-adv-x="411" d="M109 1l107 949h79l-107 -949l-1 -1h-77zM119 1157l1 6q3 28 33 48q16 9 31 9h2q33 0 49 -32q5 -13 3 -28q-3 -29 -30 -48q-17 -11 -34 -11h-4q-25 0 -42 22q-11 17 -9 34zM319 1157l1 6q3 28 33 48q16 9 31 9h2q33 0 49 -32q5 -13 3 -28q-3 -29 -30 -48q-17 -11 -34 -11 h-4q-25 0 -42 22q-11 17 -9 34z" />
<glyph unicode="&#xf0;" horiz-adv-x="1139" />
<glyph unicode="&#xf1;" horiz-adv-x="960" d="M79 3l105 931l3 3h73l3 -3l-12 -107q116 123 279 123h67q192 0 277 -139q42 -77 30 -182l-70 -626l-3 -3h-73l-2 3l69 616q21 187 -140 238q-46 14 -109 14h-43q-193 0 -273 -136q-25 -45 -33 -115l-69 -617l-3 -3h-73zM396 1096l10 88q22 23 42 33q31 17 58 17 q32 0 87 -31.5t82 -31.5q26 0 56 18q19 12 46 39l-10 -88q-21 -22 -42 -33q-31 -16 -59 -16q-30 0 -84.5 31t-84.5 31q-25 0 -55 -18q-19 -12 -46 -39z" />
<glyph unicode="&#xf2;" horiz-adv-x="1037" d="M101 473v4q22 196 174 343q146 130 313 130h5q195 0 316 -172q84 -139 67 -296l-2 -14q-21 -191 -176 -341q-144 -127 -315 -127q-196 0 -318 176q-82 135 -64 297zM178 476q-21 -196 116 -326q90 -73 200 -73q150 0 276 126q111 118 128 273t-71 276q-98 121 -246 121 q-169 0 -305 -158q-84 -113 -98 -239zM442 1254v1l35 66l316 -183v-1l-34 -66z" />
<glyph unicode="&#xf3;" horiz-adv-x="1037" d="M101 473v4q22 196 174 343q146 130 313 130h5q195 0 316 -172q84 -139 67 -296l-2 -14q-21 -191 -176 -341q-144 -127 -315 -127q-196 0 -318 176q-82 135 -64 297zM178 476q-21 -196 116 -326q90 -73 200 -73q150 0 276 126q111 118 128 273t-71 276q-98 121 -246 121 q-169 0 -305 -158q-84 -113 -98 -239zM442 1137v1l316 183l35 -66v-1l-317 -183z" />
<glyph unicode="&#xf4;" horiz-adv-x="1037" d="M101 473v4q22 196 174 343q146 130 313 130h5q195 0 316 -172q84 -139 67 -296l-2 -14q-21 -191 -176 -341q-144 -127 -315 -127q-196 0 -318 176q-82 135 -64 297zM178 476q-21 -196 116 -326q90 -73 200 -73q150 0 276 126q111 118 128 273t-71 276q-98 121 -246 121 q-169 0 -305 -158q-84 -113 -98 -239zM382 1122l222 233h61l172 -233l-66 -51h-1l-145 198q-181 -190 -189 -198q-38 35 -54 51z" />
<glyph unicode="&#xf5;" horiz-adv-x="1037" d="M101 473v4q22 196 174 343q146 130 313 130h5q195 0 316 -172q84 -139 67 -296l-2 -14q-21 -191 -176 -341q-144 -127 -315 -127q-196 0 -318 176q-82 135 -64 297zM178 476q-21 -196 116 -326q90 -73 200 -73q150 0 276 126q111 118 128 273t-71 276q-98 121 -246 121 q-169 0 -305 -158q-84 -113 -98 -239zM423 1096l10 88q22 23 42 33q31 17 58 17q32 0 87 -31.5t82 -31.5q26 0 56 18q19 12 46 39l-10 -88q-21 -22 -42 -33q-31 -16 -59 -16q-30 0 -84.5 31t-84.5 31q-25 0 -55 -18q-20 -12 -46 -39z" />
<glyph unicode="&#xf6;" horiz-adv-x="1037" d="M101 473v4q22 196 174 343q146 130 313 130h5q195 0 316 -172q84 -139 67 -296l-2 -14q-21 -191 -176 -341q-144 -127 -315 -127q-196 0 -318 176q-82 135 -64 297zM178 476q-21 -196 116 -326q90 -73 200 -73q150 0 276 126q111 118 128 273t-71 276q-98 121 -246 121 q-169 0 -305 -158q-84 -113 -98 -239zM404 1157v6q3 28 34 48q16 9 31 9h2q33 0 48 -32q6 -13 4 -28q-3 -29 -30 -48q-18 -11 -35 -11h-4q-25 0 -41 22q-11 17 -9 34zM704 1157v6q3 28 34 48q16 9 31 9h2q33 0 48 -32q6 -13 4 -28q-3 -29 -30 -48q-18 -11 -35 -11h-4 q-25 0 -41 22q-11 17 -9 34z" />
<glyph unicode="&#xf7;" horiz-adv-x="777" d="M60 450l9 79h672l1 -1l-9 -77l-1 -1h-672zM300 205l1 7q3 33 39 57q19 10 36 10h3q39 0 57 -37q6 -16 4 -33q-3 -35 -35 -57q-20 -13 -40 -13h-5q-29 0 -49 26q-13 20 -11 40zM362 767l1 7q3 33 39 56q19 11 36 11h3q39 0 57 -38q6 -15 4 -33q-4 -34 -35 -56 q-20 -13 -40 -13h-5q-29 0 -50 26q-12 20 -10 40z" />
<glyph unicode="&#xf8;" horiz-adv-x="1037" d="M101 473v4q22 196 174 343q146 130 313 130h5q125 0 220 -71l99 125l60 -42l-105 -132q22 -23 42 -52q84 -139 67 -296l-2 -14q-21 -191 -176 -341q-143 -127 -314 -127q-125 0 -219 70l-89 -111l-1 -1l-58 41v2l93 118q-24 26 -46 57q-81 135 -63 297zM178 476 q-19 -171 84 -292l500 631q-78 58 -181 58q-168 0 -305 -158q-84 -113 -98 -239zM315 134q82 -57 179 -57q150 0 276 126q111 118 128 273t-71 276q-6 7 -12 13z" />
<glyph unicode="&#xf9;" horiz-adv-x="970" d="M101 319l70 627l3 3h73l3 -3l-70 -619q-20 -179 135 -233q49 -15 104 -15h64q171 0 257 125q30 53 39 126l69 616l3 3h73l2 -3l-104 -930l-3 -3h-73l-3 3l12 107q-117 -123 -273 -123h-80q-165 0 -255 114q-60 84 -46 205zM401 1254v1l34 66l317 -183l1 -1l-35 -66z" />
<glyph unicode="&#xfa;" horiz-adv-x="970" d="M101 319l70 627l3 3h73l3 -3l-70 -619q-20 -179 135 -233q49 -15 104 -15h64q171 0 257 125q30 53 39 126l69 616l3 3h73l2 -3l-104 -930l-3 -3h-73l-3 3l12 107q-117 -123 -273 -123h-80q-165 0 -255 114q-60 84 -46 205zM401 1137v1l318 183l34 -66l-1 -1l-316 -183z " />
<glyph unicode="&#xfb;" horiz-adv-x="970" d="M101 319l70 627l3 3h73l3 -3l-70 -619q-20 -179 135 -233q49 -15 104 -15h64q171 0 257 125q30 53 39 126l69 616l3 3h73l2 -3l-104 -930l-3 -3h-73l-3 3l12 107q-117 -123 -273 -123h-80q-165 0 -255 114q-60 84 -46 205zM341 1122l223 233h61l171 -233l-66 -51h-1 l-144 198q-182 -190 -190 -198q-38 35 -54 51z" />
<glyph unicode="&#xfc;" horiz-adv-x="970" d="M101 319l70 627l3 3h73l3 -3l-70 -619q-20 -179 135 -233q49 -15 104 -15h64q171 0 257 125q30 53 39 126l69 616l3 3h73l2 -3l-104 -930l-3 -3h-73l-3 3l12 107q-117 -123 -273 -123h-80q-165 0 -255 114q-60 84 -46 205zM363 1157l1 6q3 28 33 48q16 9 31 9h2 q33 0 49 -32q5 -13 3 -28q-3 -29 -30 -48q-17 -11 -34 -11h-4q-25 0 -42 22q-11 17 -9 34zM663 1157l1 6q3 28 33 48q16 9 31 9h2q33 0 49 -32q5 -13 3 -28q-3 -29 -30 -48q-17 -11 -34 -11h-4q-25 0 -42 22q-11 17 -9 34z" />
<glyph unicode="&#xfd;" horiz-adv-x="991" d="M77 949v1h85q3 0 17 -51l239 -810h1l439 861h91l1 -1h1l-717 -1378l-1 -2h-84v1l216 415zM366 1137v1l316 183l35 -66v-1l-318 -183z" />
<glyph unicode="&#xfe;" horiz-adv-x="1124" d="M69 -399l209 1862l2 1h77v-1l-81 -720q94 130 251 185q65 22 133 22h6q197 0 319 -174q84 -140 67 -299l-2 -15q-22 -193 -179 -344q-145 -129 -319 -129q-199 0 -323 180l-14 27l-67 -595l-1 -1h-77zM245 470q-22 -197 116 -329q91 -74 202 -74q152 0 280 128 q112 119 130 275q17 157 -71 280q-99 122 -249 122q-170 0 -308 -160q-86 -113 -100 -242z" />
<glyph unicode="&#xff;" horiz-adv-x="991" d="M77 949v1h85q3 0 17 -51l239 -810h1l439 861h91l1 -1h1l-717 -1378l-1 -2h-84v1l216 415zM327 1157l1 6q3 28 33 48q16 9 31 9h2q33 0 49 -32q5 -13 4 -28q-3 -29 -31 -48q-17 -11 -34 -11h-4q-25 0 -41 22q-11 17 -10 34zM627 1157l1 6q3 28 33 48q16 9 31 9h2 q33 0 49 -32q5 -13 4 -28q-3 -29 -31 -48q-17 -11 -34 -11h-4q-25 0 -41 22q-11 17 -10 34z" />
<glyph unicode="&#x152;" horiz-adv-x="1846" d="M133 731l1 6q33 304 267 535q215 192 457 192h7q188 0 336 -119l13 118l1 1h683l1 -1l-9 -77l-1 -1h-605l-68 -614h491l-8 -78h-491l-68 -614h605l1 -1l-8 -77l-1 -1h-683l-1 1l13 118q-177 -119 -367 -119q-246 0 -418 195q-182 227 -148 536zM212 731 q-30 -270 127 -476q87 -96 145 -119q27 -19 94 -39q63 -17 114 -17h30q164 0 338 127l17 15l112 1021q-141 142 -340 142q-235 0 -438 -209q-172 -197 -199 -445z" />
<glyph unicode="&#x153;" horiz-adv-x="1817" d="M101 473v4q22 196 174 343q146 130 313 130h5q195 0 316 -172q35 -58 53 -119q43 86 120 160q145 130 312 130h5q178 0 298 -146q106 -146 86 -330l-2 -2h-796q-20 -176 98 -304q94 -90 218 -90q165 0 298 150q37 47 60 91l2 7q70 -23 70 -27q-28 -57 -70 -112 q-161 -186 -371 -186q-196 0 -319 176q-33 55 -50 115q-44 -87 -123 -164q-143 -127 -314 -127q-197 0 -320 176q-81 135 -63 297zM178 476q-21 -196 116 -326q90 -73 200 -73q150 0 276 126q111 118 128 273t-71 276q-98 121 -246 121q-168 0 -305 -158q-84 -113 -98 -239z M999 548h707q2 36 -27 122q-58 137 -183 183q-50 19 -109 19q-157 0 -288 -140q-66 -72 -100 -184z" />
<glyph unicode="&#x2c6;" horiz-adv-x="653" d="M300 1636l223 233h61l171 -233l-66 -51h-1l-145 198q-181 -190 -189 -198q-38 35 -54 51z" />
<glyph unicode="&#x2dc;" horiz-adv-x="579" d="M300 1609l10 88q21 23 41 33q31 17 58 17q32 0 87 -31.5t82 -31.5q26 0 56 18q20 12 47 39l-10 -88q-22 -22 -43 -33q-31 -16 -59 -16q-30 0 -84.5 31t-84.5 31q-25 0 -55 -18q-19 -12 -45 -39z" />
<glyph unicode="&#x2000;" horiz-adv-x="934" />
<glyph unicode="&#x2001;" horiz-adv-x="1869" />
<glyph unicode="&#x2002;" horiz-adv-x="934" />
<glyph unicode="&#x2003;" horiz-adv-x="1869" />
<glyph unicode="&#x2004;" horiz-adv-x="623" />
<glyph unicode="&#x2005;" horiz-adv-x="467" />
<glyph unicode="&#x2006;" horiz-adv-x="311" />
<glyph unicode="&#x2007;" horiz-adv-x="311" />
<glyph unicode="&#x2008;" horiz-adv-x="233" />
<glyph unicode="&#x2009;" horiz-adv-x="373" />
<glyph unicode="&#x200a;" horiz-adv-x="103" />
<glyph unicode="&#x2010;" horiz-adv-x="935" d="M105 450l9 79h705l1 -1l-9 -77l-1 -1h-705z" />
<glyph unicode="&#x2011;" horiz-adv-x="935" d="M105 450l9 79h705l1 -1l-9 -77l-1 -1h-705z" />
<glyph unicode="&#x2012;" horiz-adv-x="935" d="M105 450l9 79h705l1 -1l-9 -77l-1 -1h-705z" />
<glyph unicode="&#x2013;" horiz-adv-x="1069" d="M95 451l9 79h849l1 -1l-9 -77l-1 -1h-849z" />
<glyph unicode="&#x2014;" horiz-adv-x="1369" d="M95 460l9 79h1149l1 -1l-9 -77l-1 -1h-1149z" />
<glyph unicode="&#x2018;" horiz-adv-x="387" d="M150 1404q8 73 104 151q27 21 34 25l20 -31q-66 -56 -70 -100q19 -9 27 -29q5 -12 4 -27q-4 -29 -32 -48q-17 -11 -35 -11q-29 0 -46 26q-9 17 -6 44z" />
<glyph unicode="&#x2019;" horiz-adv-x="387" d="M79 1365q66 56 71 100q-20 9 -28 29q-5 12 -4 27q4 29 33 49q16 10 34 10q29 0 46 -26q9 -17 6 -44q-8 -73 -104 -151q-26 -21 -34 -25z" />
<glyph unicode="&#x201a;" horiz-adv-x="322" d="M24 -100q66 56 71 100q-20 9 -28 29q-5 12 -4 27q4 29 33 49q16 10 34 10q29 0 46 -26q9 -17 6 -44q-8 -73 -104 -151q-26 -21 -34 -25z" />
<glyph unicode="&#x201c;" horiz-adv-x="667" d="M190 1404q8 73 104 151q27 21 34 25l20 -31q-66 -56 -70 -100q19 -9 27 -29q5 -12 4 -27q-4 -29 -32 -48q-17 -11 -35 -11q-29 0 -46 26q-9 17 -6 44zM390 1404q8 73 104 151q27 21 34 25l20 -31q-66 -56 -70 -100q19 -9 27 -29q5 -12 4 -27q-4 -29 -32 -48 q-17 -11 -35 -11q-29 0 -46 26q-9 17 -6 44z" />
<glyph unicode="&#x201d;" horiz-adv-x="667" d="M119 1365q66 56 71 100q-20 9 -28 29q-5 12 -4 27q4 29 33 49q16 10 34 10q29 0 46 -26q9 -17 6 -44q-8 -73 -104 -151q-26 -21 -34 -25zM319 1365q66 56 71 100q-20 9 -28 29q-5 12 -4 27q4 29 33 49q16 10 34 10q29 0 46 -26q9 -17 6 -44q-8 -73 -104 -151 q-26 -21 -34 -25z" />
<glyph unicode="&#x201e;" horiz-adv-x="522" d="M24 -100q66 56 71 100q-20 9 -28 29q-5 12 -4 27q4 29 33 49q16 10 34 10q29 0 46 -26q9 -17 6 -44q-8 -73 -104 -151q-26 -21 -34 -25zM224 -100q66 56 71 100q-20 9 -28 29q-5 12 -4 27q4 29 33 49q16 10 34 10q29 0 46 -26q9 -17 6 -44q-8 -73 -104 -151 q-26 -21 -34 -25z" />
<glyph unicode="&#x2022;" horiz-adv-x="880" d="M306 946q-6 -56 37 -95q31 -24 67 -24h4q52 0 97 47q29 35 33 70v4q6 49 -30 86q-32 31 -74 31h-2q-59 0 -105 -52q-23 -32 -27 -67z" />
<glyph unicode="&#x2026;" horiz-adv-x="953" d="M75 56l1 6q3 28 33 48q16 9 31 9h2q33 0 48 -32q6 -13 4 -28q-3 -29 -30 -48q-17 -11 -34 -11h-4q-25 0 -42 22q-11 17 -9 34zM375 56l1 6q3 28 33 48q16 9 31 9h2q33 0 48 -32q6 -13 4 -28q-3 -29 -30 -48q-17 -11 -34 -11h-4q-25 0 -42 22q-11 17 -9 34zM675 56l1 6 q3 28 33 48q16 9 31 9h2q33 0 48 -32q6 -13 4 -28q-3 -29 -30 -48q-17 -11 -34 -11h-4q-25 0 -42 22q-11 17 -9 34z" />
<glyph unicode="&#x202f;" horiz-adv-x="373" />
<glyph unicode="&#x2039;" horiz-adv-x="662" d="M127 392l8 74q38 24 312 191l89 56l37 -66q-10 -6 -331 -203l-24 -15l307 -217v-1q-49 -63 -51 -65z" />
<glyph unicode="&#x203a;" horiz-adv-x="662" d="M127 211v1l355 217l-20 15q-279 197 -287 203l51 66l77 -56q238 -167 270 -191l-8 -74l-401 -246q-2 2 -37 65z" />
<glyph unicode="&#x205f;" horiz-adv-x="467" />
<glyph unicode="&#x20ac;" horiz-adv-x="1215" d="M44 475l8 77l2 1h121q-2 49 2 90l3 19q2 23 7 49h-116l-1 1l9 78l1 1h128q1 0 7 19q21 55 45 99q31 56 80 116q23 28 65 70q53 47 73 59q55 40 109 66q148 70 294 70h8q146 0 275 -68q30 -16 68 -42q27 -20 63 -56l-59 -58q-38 36 -65 55q-132 90 -294 90 q-180 0 -344 -109q-28 -20 -65 -51q-50 -46 -64 -66q-34 -40 -57 -77q-23 -35 -50 -99l-7 -18h905l-9 -80h-919q-6 -29 -9 -55l-1 -7q-5 -47 -2 -96h914l-9 -79h-893q20 -84 61 -150q16 -26 48 -65q38 -40 62 -58q138 -107 317 -107q184 0 352 116q21 15 38 29 q47 -57 47 -58q-99 -80 -205 -120q-120 -46 -241 -46h-3q-190 0 -343 109q-31 22 -77 69q-44 51 -57 73q-28 44 -47 89q-20 48 -34 111q0 8 -1 8h-139z" />
<glyph unicode="&#x2122;" horiz-adv-x="2324" d="M168 1386l9 77l1 1h906l1 -1l-9 -77h-415l-122 -1086h-78l122 1086h-415zM1054 300l131 1163l1 1h121l119 -288l193 -463l40 -97q3 3 88 135q9 16 215 338l240 373l1 2h121l1 -1l-131 -1163h-82l120 1070l-195 -304l-256 -399l-90 -143h-82q-1 0 -18 42l-169 408 l-148 353q-14 37 -18 43l-120 -1070h-82z" />
<glyph unicode="&#x25fc;" horiz-adv-x="950" d="M0 0v950h950v-950h-950z" />
<glyph unicode="&#xfb01;" horiz-adv-x="887" d="M15 872l9 77l1 1h190l5 47q25 223 142 352q30 32 55 50q56 42 133 58q32 7 60 7h27v-1l-8 -77l-1 -1h-22q-114 0 -197 -96q-89 -105 -111 -299l-4 -40h285l1 -1l-9 -77l-1 -1h-285l-98 -870l-1 -1h-77l-1 1l98 870h-190zM585 1l107 949h79l-107 -949l-1 -1h-77zM718 1397 l1 6q3 28 31 49q20 12 36 12h7q24 0 42 -21q13 -20 11 -38l-1 -10q-3 -23 -27 -44q-20 -15 -43 -15q-35 0 -52 32q-7 15 -5 29z" />
<glyph unicode="&#xfb02;" horiz-adv-x="870" d="M15 872l9 77l1 1h190l5 47q25 223 142 352q30 32 55 50q56 42 133 58q32 7 60 7h27v-1l-8 -77l-1 -1h-22q-114 0 -197 -96q-89 -105 -111 -299l-4 -40h285l1 -1l-9 -77l-1 -1h-285l-98 -870l-1 -1h-77l-1 1l98 870h-190zM588 1l164 1462l2 1h77v-1l-164 -1462l-1 -1h-77z " />
</font>
</defs>
</svg>
